  0
SECTION
  2
HEADER
  9
$ACADVER
  1
AC1024
  9
$ACADMAINTVER
 70
    37
  9
$DWGCODEPAGE
  3
ANSI_1252
  9
$LASTSAVEDBY
  1
ryanc
  9
$CUSTOMPROPERTYTAG
  1
AmdtFileType
  9
$CUSTOMPROPERTY
  1
84
  9
$INSBASE
 10
0.0
 20
0.0
 30
0.0
  9
$EXTMIN
 10
1363.43447881637
 20
1154.080769331
 30
0.0
  9
$EXTMAX
 10
2212.647406003129
 20
1997.511987989259
 30
0.0
  9
$LIMMIN
 10
0.0
 20
0.0
  9
$LIMMAX
 10
420.0
 20
297.0
  9
$ORTHOMODE
 70
     1
  9
$REGENMODE
 70
     1
  9
$FILLMODE
 70
     1
  9
$QTEXTMODE
 70
     0
  9
$MIRRTEXT
 70
     0
  9
$LTSCALE
 40
1.0
  9
$ATTMODE
 70
     1
  9
$TEXTSIZE
 40
2.5
  9
$TRACEWID
 40
1.0
  9
$TEXTSTYLE
  7
STANDARD
  9
$CLAYER
  8
0
  9
$CELTYPE
  6
ByLayer
  9
$CECOLOR
 62
   256
  9
$CELTSCALE
 40
1.0
  9
$DISPSILH
 70
     0
  9
$DIMSCALE
 40
1.0
  9
$DIMASZ
 40
3.5
  9
$DIMEXO
 40
1.0
  9
$DIMDLI
 40
10.0
  9
$DIMRND
 40
0.0
  9
$DIMDLE
 40
0.0
  9
$DIMEXE
 40
1.0
  9
$DIMTP
 40
0.1
  9
$DIMTM
 40
0.1
  9
$DIMTXT
 40
3.5
  9
$DIMCEN
 40
0.0
  9
$DIMTSZ
 40
0.0
  9
$DIMTOL
 70
     0
  9
$DIMLIM
 70
     0
  9
$DIMTIH
 70
     0
  9
$DIMTOH
 70
     0
  9
$DIMSE1
 70
     0
  9
$DIMSE2
 70
     0
  9
$DIMTAD
 70
     1
  9
$DIMZIN
 70
     8
  9
$DIMBLK
  1

  9
$DIMASO
 70
     1
  9
$DIMSHO
 70
     1
  9
$DIMPOST
  1

  9
$DIMAPOST
  1
"
  9
$DIMALT
 70
     0
  9
$DIMALTD
 70
     2
  9
$DIMALTF
 40
0.0393701
  9
$DIMLFAC
 40
1.0
  9
$DIMTOFL
 70
     1
  9
$DIMTVP
 40
0.0
  9
$DIMTIX
 70
     0
  9
$DIMSOXD
 70
     0
  9
$DIMSAH
 70
     0
  9
$DIMBLK1
  1

  9
$DIMBLK2
  1

  9
$DIMSTYLE
  2
AM_ISO
  9
$DIMCLRD
 70
   256
  9
$DIMCLRE
 70
   256
  9
$DIMCLRT
 70
     2
  9
$DIMTFAC
 40
0.71
  9
$DIMGAP
 40
1.5
  9
$DIMJUST
 70
     0
  9
$DIMSD1
 70
     0
  9
$DIMSD2
 70
     0
  9
$DIMTOLJ
 70
     0
  9
$DIMTZIN
 70
     8
  9
$DIMALTZ
 70
     0
  9
$DIMALTTZ
 70
     0
  9
$DIMUPT
 70
     0
  9
$DIMDEC
 70
     2
  9
$DIMTDEC
 70
     3
  9
$DIMALTU
 70
     2
  9
$DIMALTTD
 70
     4
  9
$DIMTXSTY
  7
STANDARD
  9
$DIMAUNIT
 70
     0
  9
$DIMADEC
 70
     0
  9
$DIMALTRND
 40
0.0
  9
$DIMAZIN
 70
     2
  9
$DIMDSEP
 70
    46
  9
$DIMATFIT
 70
     3
  9
$DIMFRAC
 70
     0
  9
$DIMLDRBLK
  1

  9
$DIMLUNIT
 70
     2
  9
$DIMLWD
 70
    -1
  9
$DIMLWE
 70
    -1
  9
$DIMTMOVE
 70
     0
  9
$DIMFXL
 40
1.0
  9
$DIMFXLON
 70
     0
  9
$DIMJOGANG
 40
0.7853981633974483
  9
$DIMTFILL
 70
     0
  9
$DIMTFILLCLR
 70
     0
  9
$DIMARCSYM
 70
     1
  9
$DIMLTYPE
  6
ByBlock
  9
$DIMLTEX1
  6
ByBlock
  9
$DIMLTEX2
  6
ByBlock
  9
$DIMTXTDIRECTION
 70
     0
  9
$LUNITS
 70
     2
  9
$LUPREC
 70
     2
  9
$SKETCHINC
 40
1.0
  9
$FILLETRAD
 40
2.5
  9
$AUNITS
 70
     0
  9
$AUPREC
 70
     0
  9
$MENU
  1
.
  9
$ELEVATION
 40
0.0
  9
$PELEVATION
 40
0.0
  9
$THICKNESS
 40
0.0
  9
$LIMCHECK
 70
     0
  9
$CHAMFERA
 40
2.5
  9
$CHAMFERB
 40
2.5
  9
$CHAMFERC
 40
20.0
  9
$CHAMFERD
 40
0.0
  9
$SKPOLY
 70
     0
  9
$TDCREATE
 40
2456906.470053391
  9
$TDUCREATE
 40
2456906.386720058
  9
$TDUPDATE
 40
2456910.633006586
  9
$TDUUPDATE
 40
2456910.549673252
  9
$TDINDWG
 40
0.0655095602
  9
$TDUSRTIMER
 40
0.0653053819
  9
$USRTIMER
 70
     1
  9
$ANGBASE
 50
0.0
  9
$ANGDIR
 70
     0
  9
$PDMODE
 70
     0
  9
$PDSIZE
 40
0.0
  9
$PLINEWID
 40
0.0
  9
$SPLFRAME
 70
     0
  9
$SPLINETYPE
 70
     6
  9
$SPLINESEGS
 70
     8
  9
$HANDSEED
  5
E73
  9
$SURFTAB1
 70
     6
  9
$SURFTAB2
 70
     6
  9
$SURFTYPE
 70
     6
  9
$SURFU
 70
     6
  9
$SURFV
 70
     6
  9
$UCSBASE
  2

  9
$UCSNAME
  2

  9
$UCSORG
 10
0.0
 20
0.0
 30
0.0
  9
$UCSXDIR
 10
1.0
 20
0.0
 30
0.0
  9
$UCSYDIR
 10
0.0
 20
1.0
 30
0.0
  9
$UCSORTHOREF
  2

  9
$UCSORTHOVIEW
 70
     0
  9
$UCSORGTOP
 10
0.0
 20
0.0
 30
0.0
  9
$UCSORGBOTTOM
 10
0.0
 20
0.0
 30
0.0
  9
$UCSORGLEFT
 10
0.0
 20
0.0
 30
0.0
  9
$UCSORGRIGHT
 10
0.0
 20
0.0
 30
0.0
  9
$UCSORGFRONT
 10
0.0
 20
0.0
 30
0.0
  9
$UCSORGBACK
 10
0.0
 20
0.0
 30
0.0
  9
$PUCSBASE
  2

  9
$PUCSNAME
  2

  9
$PUCSORG
 10
0.0
 20
0.0
 30
0.0
  9
$PUCSXDIR
 10
1.0
 20
0.0
 30
0.0
  9
$PUCSYDIR
 10
0.0
 20
1.0
 30
0.0
  9
$PUCSORTHOREF
  2

  9
$PUCSORTHOVIEW
 70
     0
  9
$PUCSORGTOP
 10
0.0
 20
0.0
 30
0.0
  9
$PUCSORGBOTTOM
 10
0.0
 20
0.0
 30
0.0
  9
$PUCSORGLEFT
 10
0.0
 20
0.0
 30
0.0
  9
$PUCSORGRIGHT
 10
0.0
 20
0.0
 30
0.0
  9
$PUCSORGFRONT
 10
0.0
 20
0.0
 30
0.0
  9
$PUCSORGBACK
 10
0.0
 20
0.0
 30
0.0
  9
$USERI1
 70
     0
  9
$USERI2
 70
     0
  9
$USERI3
 70
     0
  9
$USERI4
 70
     0
  9
$USERI5
 70
     0
  9
$USERR1
 40
0.0
  9
$USERR2
 40
0.0
  9
$USERR3
 40
0.0
  9
$USERR4
 40
0.0
  9
$USERR5
 40
0.0
  9
$WORLDVIEW
 70
     1
  9
$SHADEDGE
 70
     3
  9
$SHADEDIF
 70
    70
  9
$TILEMODE
 70
     1
  9
$MAXACTVP
 70
    64
  9
$PINSBASE
 10
0.0
 20
0.0
 30
0.0
  9
$PLIMCHECK
 70
     0
  9
$PEXTMIN
 10
1.000000000000000E+20
 20
1.000000000000000E+20
 30
1.000000000000000E+20
  9
$PEXTMAX
 10
-1.000000000000000E+20
 20
-1.000000000000000E+20
 30
-1.000000000000000E+20
  9
$PLIMMIN
 10
0.0
 20
0.0
  9
$PLIMMAX
 10
420.0
 20
297.0
  9
$UNITMODE
 70
     0
  9
$VISRETAIN
 70
     1
  9
$PLINEGEN
 70
     0
  9
$PSLTSCALE
 70
     1
  9
$TREEDEPTH
 70
  3020
  9
$CMLSTYLE
  2
Standard
  9
$CMLJUST
 70
     0
  9
$CMLSCALE
 40
20.0
  9
$PROXYGRAPHICS
 70
     1
  9
$MEASUREMENT
 70
     1
  9
$CELWEIGHT
370
    -1
  9
$ENDCAPS
280
     0
  9
$JOINSTYLE
280
     0
  9
$LWDISPLAY
290
     0
  9
$INSUNITS
 70
     4
  9
$HYPERLINKBASE
  1

  9
$STYLESHEET
  1

  9
$XEDIT
290
     1
  9
$CEPSNTYPE
380
     0
  9
$PSTYLEMODE
290
     1
  9
$FINGERPRINTGUID
  2
{5C28CA0A-3092-445C-8C4F-049945C15742}
  9
$VERSIONGUID
  2
{51F5F06A-1527-4753-9349-EEFFADFD00C8}
  9
$EXTNAMES
290
     1
  9
$PSVPSCALE
 40
0.0
  9
$OLESTARTUP
290
     0
  9
$SORTENTS
280
   127
  9
$INDEXCTL
280
     0
  9
$HIDETEXT
280
     0
  9
$XCLIPFRAME
280
     0
  9
$HALOGAP
280
     0
  9
$OBSCOLOR
 70
   257
  9
$OBSLTYPE
280
     0
  9
$INTERSECTIONDISPLAY
280
     0
  9
$INTERSECTIONCOLOR
 70
   257
  9
$DIMASSOC
280
     2
  9
$PROJECTNAME
  1

  9
$CAMERADISPLAY
290
     0
  9
$LENSLENGTH
 40
50.0
  9
$CAMERAHEIGHT
 40
0.0
  9
$STEPSPERSEC
 40
2.0
  9
$STEPSIZE
 40
6.0
  9
$3DDWFPREC
 40
2.0
  9
$PSOLWIDTH
 40
0.25
  9
$PSOLHEIGHT
 40
4.0
  9
$LOFTANG1
 40
1.570796326794896
  9
$LOFTANG2
 40
1.570796326794896
  9
$LOFTMAG1
 40
0.0
  9
$LOFTMAG2
 40
0.0
  9
$LOFTPARAM
 70
     7
  9
$LOFTNORMALS
280
     1
  9
$LATITUDE
 40
37.795
  9
$LONGITUDE
 40
-122.394
  9
$NORTHDIRECTION
 40
0.0
  9
$TIMEZONE
 70
 -8000
  9
$LIGHTGLYPHDISPLAY
280
     1
  9
$TILEMODELIGHTSYNCH
280
     1
  9
$CMATERIAL
347
26B
  9
$SOLIDHIST
280
     1
  9
$SHOWHIST
280
     1
  9
$DWFFRAME
280
     2
  9
$DGNFRAME
280
     0
  9
$REALWORLDSCALE
290
     1
  9
$INTERFERECOLOR
 62
     1
  9
$INTERFEREOBJVS
345
278
  9
$INTERFEREVPVS
346
387
  9
$CSHADOW
280
     0
  9
$SHADOWPLANELOCATION
 40
0.0
  0
ENDSEC
  0
SECTION
  2
CLASSES
  0
CLASS
  1
ACDBDICTIONARYWDFLT
  2
AcDbDictionaryWithDefault
  3
ObjectDBX Classes
 90
        0
 91
        1
280
     0
281
     0
  0
CLASS
  1
ACME_DOCUMENT
  2
AcMeDbDoc
  3
AcMeServices
 90
     1024
 91
        2
280
     0
281
     0
  0
CLASS
  1
AMGSETTINGSOBJ
  2
AmgSettingsObj
  3
"AcadM|Product Description: AutoCAD Mechanical|Company: Autodesk, Inc."
 90
     1024
 91
        4
280
     0
281
     0
  0
CLASS
  1
ACMESCOPE
  2
AcMeScope
  3
AcMeServices
 90
     1024
 91
        1
280
     0
281
     0
  0
CLASS
  1
ACMECOMMANDHISTORY
  2
AcMeCommandHistory
  3
AcMeServices
 90
     1024
 91
        1
280
     0
281
     0
  0
CLASS
  1
ACIMSYSVARMAN
  2
AcImSysVarManager
  3
AcMeServices
 90
     1024
 91
        5
280
     0
281
     0
  0
CLASS
  1
ACIMREALSYSVAR
  2
AcImRealSysVar
  3
AcMeServices
 90
     1024
 91
        4
280
     0
281
     0
  0
CLASS
  1
ACIMINTSYSVAR
  2
AcImIntSysVar
  3
AcMeServices
 90
     1024
 91
       53
280
     0
281
     0
  0
CLASS
  1
ACMEDRAWINGMAN
  2
AcMeDrawingMan
  3
AcMeServices
 90
     1024
 91
        0
280
     0
281
     0
  0
CLASS
  1
ACMEVIEW
  2
AcMeView
  3
AcMeServices
 90
     1024
 91
        0
280
     0
281
     0
  0
CLASS
  1
ACDBENTITYCACHE
  2
AcMeEntityCache
  3
AcMeServices
 90
     1024
 91
        1
280
     0
281
     0
  0
CLASS
  1
GSMANAGER
  2
AcMeGSManager
  3
AcMeServices
 90
     1024
 91
        0
280
     0
281
     0
  0
CLASS
  1
AMDTINTERNALREACTOR
  2
AmdtInternalReactor
  3
AcMeServices
 90
     1024
 91
        1
280
     0
281
     0
  0
CLASS
  1
ACMESTATEMGR
  2
AcMeStateMgr
  3
AcMeServices
 90
     1024
 91
        1
280
     0
281
     0
  0
CLASS
  1
ACGREFMASTER
  2
AcGrefMaster
  3
AcAttribServices
 90
     1024
 91
        1
280
     0
281
     0
  0
CLASS
  1
ACME_DATABASE
  2
AcMeDbDatabase
  3
AcMeServices
 90
     1024
 91
        1
280
     0
281
     0
  0
CLASS
  1
ACRFINSADJUSTERMGR
  2
AcRfInsAdjusterMgr
  3
AcMeServices
 90
     1024
 91
        1
280
     0
281
     0
  0
CLASS
  1
ACGREFACADMASTER
  2
AcGrefacadMaster
  3
AcGrefServices
 90
     1024
 91
        1
280
     0
281
     0
  0
CLASS
  1
AMIMASTER
  2
AmiMaster
  3
AmiServices
 90
     1024
 91
        1
280
     0
281
     0
  0
CLASS
  1
ACMDATADICTIONARY
  2
AcmDataDictionary
  3
"AcmSymBB|Product Description: AutoCAD Mechanical|Company: Autodesk, Inc."
 90
     1024
 91
        1
280
     0
281
     0
  0
CLASS
  1
ACMDATAENTRYBLOCK
  2
AcmDataEntryBlock
  3
AcmSymBB|Product Description: AutoCAD Mechanical|Company: Autodesk, Inc.
 90
     1024
 91
        1
280
     0
281
     0
  0
CLASS
  1
ACIMSTRSYSVAR
  2
AcImStrSysVar
  3
AcMeServices
 90
     1024
 91
        5
280
     0
281
     0
  0
CLASS
  1
ACMSTANDARDISO
  2
AcmStandardISO
  3
"Amdt_StdImp|Product Description: AutoCAD Mechanical|Company: Autodesk, Inc."
 90
     1024
 91
        1
280
     0
281
     0
  0
CLASS
  1
AMGOBJPROPCFG
  2
AmgObjPropCfg
  3
"AmgLay|Product Description: AutoCAD Mechanical|Company: Autodesk, Inc."
 90
     1025
 91
        1
280
     0
281
     0
  0
CLASS
  1
AMDTEDGESTANDARDISO
  2
AmdtEdgeStdISO
  3
"Amdt_StdImp|Product Description: AutoCAD Mechanical|Company: Autodesk, Inc."
 90
     1024
 91
        0
280
     0
281
     0
  0
CLASS
  1
ACMSURFSTANDARDISO
  2
AcmSurfTextStdISO
  3
"Amdt_StdImp|Product Description: AutoCAD Mechanical|Company: Autodesk, Inc."
 90
     1024
 91
        0
280
     0
281
     0
  0
CLASS
  1
ACMFCFSTANDARDISO
  2
AcmFCFStdISO
  3
"Amdt_StdImp|Product Description: AutoCAD Mechanical|Company: Autodesk, Inc."
 90
     1024
 91
        1
280
     0
281
     0
  0
CLASS
  1
ACMWELDSTANDARDISO
  2
AcmWeldingStdISO
  3
"Amdt_StdImp|Product Description: AutoCAD Mechanical|Company: Autodesk, Inc."
 90
     1024
 91
        1
280
     0
281
     0
  0
CLASS
  1
ACMIDSTANDARDISO
  2
AcmIdStdISO
  3
"Amdt_StdImp|Product Description: AutoCAD Mechanical|Company: Autodesk, Inc."
 90
     1024
 91
        1
280
     0
281
     0
  0
CLASS
  1
ACMDATUMSTANDARDISO
  2
AcmDatumStdISO
  3
"Amdt_StdImp|Product Description: AutoCAD Mechanical|Company: Autodesk, Inc."
 90
     1024
 91
        1
280
     0
281
     0
  0
CLASS
  1
ACMBOMSTANDARDISO
  2
AcmBOMStdISO
  3
"Amdt_StdImp|Product Description: AutoCAD Mechanical|Company: Autodesk, Inc."
 90
     1024
 91
        1
280
     0
281
     0
  0
CLASS
  1
ACMDETAILSTANDARDISO
  2
AmdtDetailSymStdISO
  3
"Amdt_StdImp|Product Description: AutoCAD Mechanical|Company: Autodesk, Inc."
 90
     1024
 91
        1
280
     0
281
     0
  0
CLASS
  1
ACMSECTIONSTANDARDISO
  2
AmdtSectionSymStdISO
  3
"Amdt_StdImp|Product Description: AutoCAD Mechanical|Company: Autodesk, Inc."
 90
     1024
 91
        0
280
     0
281
     0
  0
CLASS
  1
ACMCENTERLINESTANDARDISO
  2
AmdtCenterLineStdISO
  3
"Amdt_StdImp|Product Description: AutoCAD Mechanical|Company: Autodesk, Inc."
 90
     1024
 91
        1
280
     0
281
     0
  0
CLASS
  1
ACMNOTESTANDARDISO
  2
AmdtNoteStdISO
  3
"Amdt_StdImp|Product Description: AutoCAD Mechanical|Company: Autodesk, Inc."
 90
     1024
 91
        1
280
     0
281
     0
  0
CLASS
  1
ACAMGLAYSTD
  2
AcAmgLayStd
  3
"AmgLay|Product Description: AutoCAD Mechanical|Company: Autodesk, Inc."
 90
     1024
 91
        1
280
     0
281
     0
  0
CLASS
  1
ACAMGDIMSTD
  2
AcAmgDimStd
  3
"AmgDim|Product Description: AutoCAD Mechanical|Company: Autodesk, Inc."
 90
     1024
 91
        1
280
     0
281
     0
  0
CLASS
  1
ACAMGHOLECHARTSTDISO
  2
AcAmgHoleChartStdISO
  3
AmgDim|Product Description: AutoCAD Mechanical|Company: Autodesk, Inc.
 90
     1024
 91
        1
280
     0
281
     0
  0
CLASS
  1
ACAMGTITLESTD
  2
AcAmgTitleStd
  3
"AmgTitle|Product Description: AutoCAD Mechanical|Company: Autodesk, Inc."
 90
     4095
 91
        1
280
     0
281
     0
  0
CLASS
  1
LAYER_INDEX
  2
AcDbLayerIndex
  3
ObjectDBX Classes
 90
        0
 91
        0
280
     0
281
     0
  0
CLASS
  1
IDBUFFER
  2
AcDbIdBuffer
  3
ObjectDBX Classes
 90
        0
 91
        0
280
     0
281
     0
  0
CLASS
  1
DICTIONARYVAR
  2
AcDbDictionaryVar
  3
ObjectDBX Classes
 90
        0
 91
        9
280
     0
281
     0
  0
CLASS
  1
AM_DRAWING_MGR
  2
AcDmDwgMgr
  3
AcMechDwgViewMgmt
 90
     1024
 91
        1
280
     0
281
     0
  0
CLASS
  1
AM_DWG_DOCUMENT
  2
AcDmDwgDocument
  3
AcMechDwgViewMgmt
 90
     1024
 91
        1
280
     0
281
     0
  0
CLASS
  1
AM_DWG_SHEET
  2
AcDmSheet
  3
AcMechDwgViewMgmt
 90
     1024
 91
        2
280
     0
281
     0
  0
CLASS
  1
AM_VIEWDIMPARMAP
  2
AcDmViewDimParMap
  3
AcMechDwgViewMgmt
 90
     1024
 91
        2
280
     0
281
     0
  0
CLASS
  1
AM_DWGMGR_NAME
  2
AcDmDwgMgrName
  3
AcMechDwgViewMgmt
 90
     1024
 91
        1
280
     0
281
     0
  0
CLASS
  1
AMDTMENUSTATEMGR
  2
AmdtMenuStateMgr
  3
McadcomServices
 90
     1024
 91
        1
280
     0
281
     0
  0
CLASS
  1
AMDTMCOMMENUSTATE
  2
AmdtMcomMenuState
  3
McadcomServices
 90
     1024
 91
        1
280
     0
281
     0
  0
CLASS
  1
MAPIAMMOUDLE
  2
MApiAmModule
  3
MApiAmServices
 90
     1024
 91
        1
280
     0
281
     0
  0
CLASS
  1
AMDTADMENUSTATE
  2
AmdtAdMenuState
  3
DesignerServices
 90
     1024
 91
        0
280
     0
281
     0
  0
CLASS
  1
ADAPPL
  2
AcAdAppl
  3
DesignerAssemblies
 90
     1024
 91
        0
280
     0
281
     0
  0
CLASS
  1
DEPMGR
  2
AcAdDepMgr
  3
DesignerAssemblies
 90
     1024
 91
        0
280
     0
281
     0
  0
CLASS
  1
PARAMMGR
  2
AcAdParamMgr
  3
DesignerAssemblies
 90
     1024
 91
        0
280
     0
281
     0
  0
CLASS
  1
PARAMSCOPE
  2
AcAdParamScope
  3
DesignerAssemblies
 90
     1024
 91
        0
280
     0
281
     0
  0
CLASS
  1
NAMEDAPPL
  2
AcAdNamedAppl
  3
DesignerAssemblies
 90
     1024
 91
        0
280
     0
281
     0
  0
CLASS
  1
AMDTDMMENUSTATE
  2
AmdtDmMenuState
  3
AcMechDwgViewMgmt
 90
     1024
 91
        1
280
     0
281
     0
  0
CLASS
  1
AMDTAMMENUSTATE
  2
AmdtAmMenuState
  3
DesignerAssemblies
 90
     1024
 91
        1
280
     0
281
     0
  0
CLASS
  1
ACAMPROJECT
  2
AcAmProject
  3
DesignerAssemblies
 90
     1024
 91
        1
280
     0
281
     0
  0
CLASS
  1
ACAMGRCOMPDEF
  2
AcAmGrCompDef
  3
DesignerAssemblies
 90
     1024
 91
        1
280
     0
281
     0
  0
CLASS
  1
ACCMCONTEXT
  2
AcCmContext
  3
DesignerAssemblies
 90
     1024
 91
        1
280
     0
281
     0
  0
CLASS
  1
ACAMCOMPDEF
  2
AcAmCompDef
  3
DesignerAssemblies
 90
     1024
 91
        1
280
     0
281
     0
  0
CLASS
  1
ACAMCOMPDEFMGR
  2
AcAmCompDefMgr
  3
DesignerAssemblies
 90
     1024
 91
        1
280
     0
281
     0
  0
CLASS
  1
AMCONTEXTMGR
  2
AcAmContextMgr
  3
DesignerAssemblies
 90
     1024
 91
        1
280
     0
281
     0
  0
CLASS
  1
ACAMCONTEXTMODELER
  2
AcAmContextModeler
  3
DesignerAssemblies
 90
     1024
 91
        1
280
     0
281
     0
  0
CLASS
  1
ACMTHREADLINESTANDARDISO
  2
AmdtThreadLineStdISO
  3
"Amdt_StdImp|Product Description: AutoCAD Mechanical|Company: Autodesk, Inc."
 90
     1024
 91
        1
280
     0
281
     0
  0
CLASS
  1
CATALOGSTATE
  2
AcAmCatalogState
  3
DesignerAssemblies
 90
     1024
 91
        0
280
     0
281
     0
  0
CLASS
  1
ACAMGRCOMPDEFSET
  2
AcAmGrCompDefSet
  3
DesignerAssemblies
 90
     1024
 91
        1
280
     0
281
     0
  0
CLASS
  1
AMDTBROWSERDBTAB
  2
AmdtBrowserDbTab
  3
McadcomServices
 90
     1024
 91
        1
280
     0
281
     0
  0
CLASS
  1
CBROWSERAPPOBJECT
  2
CBrowserAppObject
  3
McadcomServices
 90
     1024
 91
        2
280
     0
281
     0
  0
CLASS
  1
DM_PLACEHOLDER
  2
AcDmSelsetPlaceholder
  3
AcMechDwgViewMgmt
 90
     1024
 91
        1
280
     0
281
     0
  0
CLASS
  1
TABLESTYLE
  2
AcDbTableStyle
  3
ObjectDBX Classes
 90
     4095
 91
        1
280
     0
281
     0
  0
CLASS
  1
VAACXREFPANELOBJECT
  2
VaAcXREFPanelObject
  3
VAAC_ADDIN
 90
        0
 91
        0
280
     0
281
     0
  0
CLASS
  1
VAACIMAGEINVENTORY
  2
VaAcImageInventory
  3
VAAC_ADDIN
 90
        0
 91
        0
280
     0
281
     0
  0
CLASS
  1
AMDTNOTETEMPLATEDB
  2
AmdtNoteTemplateDB
  3
AcmSymBB|Product Description: AutoCAD Mechanical|Company: Autodesk, Inc.
 90
     1024
 91
        6
280
     0
281
     0
  0
CLASS
  1
MATERIAL
  2
AcDbMaterial
  3
ObjectDBX Classes
 90
     1153
 91
        3
280
     0
281
     0
  0
CLASS
  1
VISUALSTYLE
  2
AcDbVisualStyle
  3
ObjectDBX Classes
 90
     4095
 91
       26
280
     0
281
     0
  0
CLASS
  1
ACRFATTGENMGR
  2
AcRfAttGeneralMgr
  3
AcAttribServices
 90
     1024
 91
        1
280
     0
281
     0
  0
CLASS
  1
ACRFOBJATTMGR
  2
AcRfObjAttGroupMgr
  3
AcAttribServices
 90
     1024
 91
        1
280
     0
281
     0
  0
CLASS
  1
ACRFMCADAPIATTHOLDER
  2
AcRfMCADAPIAttHolder
  3
AcAttribServices
 90
     1024
 91
        1
280
     0
281
     0
  0
CLASS
  1
AMDTSYSATTR
  2
AmdtSystemAttribute
  3
AcAttribServices
 90
     1024
 91
        1
280
     0
281
     0
  0
CLASS
  1
ACMTAPERSTANDARDISO
  2
AcmTaperStdISO
  3
"Amdt_StdImp|Product Description: AutoCAD Mechanical|Company: Autodesk, Inc."
 90
     1024
 91
        1
280
     0
281
     0
  0
CLASS
  1
CAMSSTRUCTBTNSTATE
  2
StructBtnState
  3
DesignerAssemblies
 90
     1024
 91
        1
280
     0
281
     0
  0
CLASS
  1
SCALE
  2
AcDbScale
  3
ObjectDBX Classes
 90
     1153
 91
       33
280
     0
281
     0
  0
CLASS
  1
MLEADERSTYLE
  2
AcDbMLeaderStyle
  3
ACDB_MLEADERSTYLE_CLASS
 90
     4095
 91
        1
280
     0
281
     0
  0
CLASS
  1
ACMANOOTATIONVIEWSTANDARDISO
  2
AmdtAnViewStdISO
  3
"Amdt_StdImp|Product Description: AutoCAD Mechanical|Company: Autodesk, Inc."
 90
     1024
 91
        1
280
     0
281
     0
  0
CLASS
  1
ACMSURFSTANDARDISO2002
  2
AcmSurfTextStdISO2002
  3
"Amdt_StdImp|Product Description: AutoCAD Mechanical|Company: Autodesk, Inc."
 90
     1024
 91
        1
280
     0
281
     0
  0
CLASS
  1
CELLSTYLEMAP
  2
AcDbCellStyleMap
  3
ObjectDBX Classes
 90
     1152
 91
        1
280
     0
281
     0
  0
CLASS
  1
ACMSECTIONSTANDARDISO2001
  2
AmdtSectionSymStdISO2001
  3
"Amdt_StdImp|Product Description: AutoCAD Mechanical|Company: Autodesk, Inc."
 90
     1024
 91
        1
280
     0
281
     0
  0
CLASS
  1
EXACXREFPANELOBJECT
  2
ExAcXREFPanelObject
  3
EXAC_ESW
 90
     1025
 91
        0
280
     0
281
     0
  0
CLASS
  1
NPOCOLLECTION
  2
AcDbImpNonPersistentObjectsCollection
  3
ObjectDBX Classes
 90
     1153
 91
        0
280
     0
281
     0
  0
CLASS
  1
AMDTEDGESTANDARDISO13715
  2
AmdtEdgeStdISO13715
  3
"Amdt_StdImp|Product Description: AutoCAD Mechanical|Company: Autodesk, Inc."
 90
     1024
 91
        1
280
     0
281
     0
  0
CLASS
  1
ACAMGFILTERDAT
  2
AcAmgFilterDat
  3
"AcadM|Product Description: AutoCAD Mechanical|Company: Autodesk, Inc."
 90
     1024
 91
        6
280
     0
281
     0
  0
CLASS
  1
DIMASSOC
  2
AcDbDimAssoc
  3
"AcDbDimAssoc|Product Desc:     AcDim ARX App For Dimension|Company:          Autodesk, Inc.|WEB Address:      www.autodesk.com"
 90
        0
 91
       52
280
     0
281
     0
  0
ENDSEC
  0
SECTION
  2
TABLES
  0
TABLE
  2
VPORT
  5
8
330
0
100
AcDbSymbolTable
 70
     1
  0
VPORT
  5
269
330
8
100
AcDbSymbolTableRecord
100
AcDbViewportTableRecord
  2
*Active
 70
     0
 10
0.0
 20
0.0
 11
1.0
 21
1.0
 12
2097.754419881129
 22
1744.115856285855
 13
0.0
 23
0.0
 14
2.5
 24
2.5
 15
10.0
 25
10.0
 16
0.0
 26
0.0
 36
1.0
 17
0.0
 27
0.0
 37
0.0
 40
1326.039325253131
 41
1.27461139896373
 42
50.0
 43
0.0
 44
0.0
 50
0.0
 51
0.0
 71
     0
 72
   100
 73
     1
 74
     3
 75
     0
 76
     0
 77
     0
 78
     0
281
     0
 65
     1
110
0.0
120
0.0
130
0.0
111
1.0
121
0.0
131
0.0
112
0.0
122
1.0
132
0.0
 79
     0
146
0.0
348
274
 60
     3
 61
     5
292
     1
282
     0
141
0.0
142
0.0
 63
   250
421
  3355443
  0
ENDTAB
  0
TABLE
  2
LTYPE
  5
5
330
0
100
AcDbSymbolTable
 70
    15
  0
LTYPE
  5
14
330
5
100
AcDbSymbolTableRecord
100
AcDbLinetypeTableRecord
  2
ByBlock
 70
     0
  3

 72
    65
 73
     0
 40
0.0
  0
LTYPE
  5
15
330
5
100
AcDbSymbolTableRecord
100
AcDbLinetypeTableRecord
  2
ByLayer
 70
     0
  3

 72
    65
 73
     0
 40
0.0
  0
LTYPE
  5
16
330
5
100
AcDbSymbolTableRecord
100
AcDbLinetypeTableRecord
  2
Continuous
 70
     0
  3
Solid line
 72
    65
 73
     0
 40
0.0
  0
LTYPE
  5
64
330
5
100
AcDbSymbolTableRecord
100
AcDbLinetypeTableRecord
  2
AM_ISO02W050
 70
     0
  3
__ __ __ __ __ __ __ __ __ __ __ __ __ __ __
 72
    65
 73
     2
 40
7.5
 49
6.0
 74
     0
 49
-1.5
 74
     0
  0
LTYPE
  5
65
330
5
100
AcDbSymbolTableRecord
100
AcDbLinetypeTableRecord
  2
AM_ISO08W050
 70
     0
  3
____ . ____ . ____ . ____ . ____ . ____ . ____
 72
    65
 73
     4
 40
18.0
 49
12.0
 74
     0
 49
-1.5
 74
     0
 49
3.0
 74
     0
 49
-1.5
 74
     0
  0
LTYPE
  5
66
330
5
100
AcDbSymbolTableRecord
100
AcDbLinetypeTableRecord
  2
AM_ISO09W050
 70
     0
  3
_____ . . _____ . . _____ . . ____ .. ____
 72
    65
 73
     6
 40
22.5
 49
12.0
 74
     0
 49
-1.5
 74
     0
 49
3.0
 74
     0
 49
-1.5
 74
     0
 49
3.0
 74
     0
 49
-1.5
 74
     0
  0
LTYPE
  5
67
330
5
100
AcDbSymbolTableRecord
100
AcDbLinetypeTableRecord
  2
Amconstr
 70
     0
  3
_______________________
 72
    65
 73
     2
 40
9999.0
 49
9999.0
 74
     0
 49
0.0
 74
     0
  0
LTYPE
  5
68
330
5
100
AcDbSymbolTableRecord
100
AcDbLinetypeTableRecord
  2
AM_ISO08W050x2
 70
     0
  3
__ . __ . __ . __ . __ . __
 72
    65
 73
     4
 40
9.0
 49
6.0
 74
     0
 49
-0.75
 74
     0
 49
1.5
 74
     0
 49
-0.75
 74
     0
  0
LTYPE
  5
69
330
5
100
AcDbSymbolTableRecord
100
AcDbLinetypeTableRecord
  2
AM_ISO02W050x2
 70
     0
  3
 _ _ _ _ _ _ _ _ _ _ _ _
 72
    65
 73
     2
 40
3.75
 49
3.0
 74
     0
 49
-0.75
 74
     0
  0
LTYPE
  5
6C
330
5
100
AcDbSymbolTableRecord
100
AcDbLinetypeTableRecord
  2
Amzigzag
 70
     0
  3
/\/-/\/-/\/-/\/-/\/-/\/
 72
    65
 73
     2
 40
11.0001
 49
0.0001
 74
     4
 75
   136
340
22C
 46
0.04
 50
0.0
 44
0.0
 45
0.0
 49
-11.0
 74
     0
  0
LTYPE
  5
7A
330
5
100
AcDbSymbolTableRecord
100
AcDbLinetypeTableRecord
  2
ACISOWELD
 70
     0
  3
_ _ _ _ _
 72
    65
 73
     2
 40
2.0
 49
2.0
 74
     0
 49
-1.0
 74
     0
  0
LTYPE
  5
7B
330
5
100
AcDbSymbolTableRecord
100
AcDbLinetypeTableRecord
  2
ACISOTGB
 70
     0
  3
__ . . __ . .
 72
    65
 73
     6
 40
9.0
 49
4.0
 74
     0
 49
-1.0
 74
     0
 49
1.0
 74
     0
 49
-1.0
 74
     0
 49
1.0
 74
     0
 49
-1.0
 74
     0
  0
LTYPE
  5
7C
330
5
100
AcDbSymbolTableRecord
100
AcDbLinetypeTableRecord
  2
ACISOTGL
 70
     0
  3
_ _ _ _ _
 72
    65
 73
     2
 40
3.0
 49
2.0
 74
     0
 49
-1.0
 74
     0
  0
LTYPE
  5
7E
330
5
100
AcDbSymbolTableRecord
100
AcDbLinetypeTableRecord
  2
CENTER
 70
     0
  3
__ . __
 72
    65
 73
     4
 40
7.0
 49
4.0
 74
     0
 49
-1.0
 74
     0
 49
1.0
 74
     0
 49
-1.0
 74
     0
  0
LTYPE
  5
D8
330
5
100
AcDbSymbolTableRecord
100
AcDbLinetypeTableRecord
  2
HIDDEN
 70
     0
  3
Hidden __ __ __ __ __ __ __ __ __ __ __ __ __ _
 72
    65
 73
     2
 40
9.524999999999998
 49
6.349999999999999
 74
     0
 49
-3.174999999999999
 74
     0
  0
LTYPE
  5
D9
330
5
100
AcDbSymbolTableRecord
100
AcDbLinetypeTableRecord
  2
PHANTOM2
 70
     0
  3
Phantom (.5x) ___ _ _ ___ _ _ ___ _ _ ___ _ _
 72
    65
 73
     6
 40
31.75
 49
15.875
 74
     0
 49
-3.174999999999999
 74
     0
 49
3.174999999999999
 74
     0
 49
-3.174999999999999
 74
     0
 49
3.174999999999999
 74
     0
 49
-3.174999999999999
 74
     0
  0
ENDTAB
  0
TABLE
  2
LAYER
  5
2
102
{ACAD_XDICTIONARY
360
3E3
102
}
330
0
100
AcDbSymbolTable
 70
     3
  0
LAYER
  5
10
102
{ACAD_XDICTIONARY
360
3D7
102
}
330
2
100
AcDbSymbolTableRecord
100
AcDbLayerTableRecord
  2
0
 70
     0
 62
     7
  6
Continuous
370
    -3
390
F
347
26D
  0
LAYER
  5
466
330
2
100
AcDbSymbolTableRecord
100
AcDbLayerTableRecord
  2
AM_5
 70
     0
 62
     3
  6
Continuous
370
    25
390
F
347
26D
1001
AcAecLayerStandard
1000

1000

  0
LAYER
  5
46D
330
2
100
AcDbSymbolTableRecord
100
AcDbLayerTableRecord
  2
Defpoints
 70
     0
 62
     7
  6
Continuous
290
     0
370
    -3
390
F
347
26D
  0
ENDTAB
  0
TABLE
  2
STYLE
  5
3
330
0
100
AcDbSymbolTable
 70
     8
  0
STYLE
  5
11
330
3
100
AcDbSymbolTableRecord
100
AcDbTextStyleTableRecord
  2
STANDARD
 70
     0
 40
0.0
 41
1.0
 50
0.0
 71
     0
 42
2.5
  3
ISOCP.SHX
  4

  0
STYLE
  5
6B
330
3
100
AcDbSymbolTableRecord
100
AcDbTextStyleTableRecord
  2

 70
     1
 40
0.0
 41
1.0
 50
0.0
 71
     0
 42
2.5
  3
ltypeshp.shx
  4

  0
STYLE
  5
6D
330
3
100
AcDbSymbolTableRecord
100
AcDbTextStyleTableRecord
  2
ACISOTS
 70
     0
 40
1.0
 41
1.0
 50
0.0
 71
     0
 42
2.5
  3
isocp.shx
  4

  0
STYLE
  5
79
330
3
100
AcDbSymbolTableRecord
100
AcDbTextStyleTableRecord
  2
ACISOGDT
 70
     0
 40
0.0
 41
1.0
 50
0.0
 71
     0
 42
2.5
  3
amgdt.shx
  4

  0
STYLE
  5
1ED
330
3
100
AcDbSymbolTableRecord
100
AcDbTextStyleTableRecord
  2
USER1
 70
     0
 40
0.0
 41
1.0
 50
0.0
 71
     0
 42
2.5
  3
TXT.SHX
  4

  0
STYLE
  5
1EE
330
3
100
AcDbSymbolTableRecord
100
AcDbTextStyleTableRecord
  2
USER2
 70
     0
 40
0.0
 41
1.0
 50
0.0
 71
     0
 42
2.5
  3
SIMPLEX.SHX
  4

  0
STYLE
  5
1EF
330
3
100
AcDbSymbolTableRecord
100
AcDbTextStyleTableRecord
  2
USER3
 70
     0
 40
0.0
 41
1.0
 50
0.0
 71
     0
 42
2.5
  3
ITALIC.SHX
  4

  0
STYLE
  5
22C
330
3
100
AcDbSymbolTableRecord
100
AcDbTextStyleTableRecord
  2

 70
     1
 40
0.0
 41
1.0
 50
0.0
 71
     0
 42
2.5
  3
genltshp.shx
  4

  0
ENDTAB
  0
TABLE
  2
VIEW
  5
6
330
0
100
AcDbSymbolTable
 70
     0
  0
ENDTAB
  0
TABLE
  2
UCS
  5
7
330
0
100
AcDbSymbolTable
 70
     0
  0
ENDTAB
  0
TABLE
  2
APPID
  5
9
330
0
100
AcDbSymbolTable
 70
    19
  0
APPID
  5
12
330
9
100
AcDbSymbolTableRecord
100
AcDbRegAppTableRecord
  2
ACAD
 70
     0
  0
APPID
  5
46
330
9
100
AcDbSymbolTableRecord
100
AcDbRegAppTableRecord
  2
MCAD_NO_VIS
 70
     0
  0
APPID
  5
47
330
9
100
AcDbSymbolTableRecord
100
AcDbRegAppTableRecord
  2
ACAD_TEMP_GRAPHIC
 70
     0
  0
APPID
  5
58
330
9
100
AcDbSymbolTableRecord
100
AcDbRegAppTableRecord
  2
ACATTRIBSERVICES
 70
     0
  0
APPID
  5
EE
330
9
100
AcDbSymbolTableRecord
100
AcDbRegAppTableRecord
  2
AD_DRAW
 70
     0
  0
APPID
  5
10C
330
9
100
AcDbSymbolTableRecord
100
AcDbRegAppTableRecord
  2
DESIGNERASSEMBLIES
 70
     0
  0
APPID
  5
111
330
9
100
AcDbSymbolTableRecord
100
AcDbRegAppTableRecord
  2
ACADM_DIM_EDIT
 70
     0
  0
APPID
  5
112
330
9
100
AcDbSymbolTableRecord
100
AcDbRegAppTableRecord
  2
AMDT_DM_ADJ
 70
     0
  0
APPID
  5
1A3
330
9
100
AcDbSymbolTableRecord
100
AcDbRegAppTableRecord
  2
ACAD_DSTYLE_DIMARC_LENGTH_SYMBOL
 70
     0
  0
APPID
  5
1A4
330
9
100
AcDbSymbolTableRecord
100
AcDbRegAppTableRecord
  2
ACAD_DSTYLE_DIMJOGGED_JOGANGLE_SYMBOL
 70
     0
  0
APPID
  5
2C6
330
9
100
AcDbSymbolTableRecord
100
AcDbRegAppTableRecord
  2
ACAD_MLEADERVER
 70
     0
  0
APPID
  5
368
330
9
100
AcDbSymbolTableRecord
100
AcDbRegAppTableRecord
  2
ACAD_DSTYLE_DIMJAG
 70
     0
  0
APPID
  5
369
330
9
100
AcDbSymbolTableRecord
100
AcDbRegAppTableRecord
  2
ACAD_DSTYLE_DIMBREAK
 70
     0
  0
APPID
  5
385
330
9
100
AcDbSymbolTableRecord
100
AcDbRegAppTableRecord
  2
ACAD_PSEXT
 70
     0
  0
APPID
  5
3C4
330
9
100
AcDbSymbolTableRecord
100
AcDbRegAppTableRecord
  2
ACAD_EXEMPT_FROM_CAD_STANDARDS
 70
     0
  0
APPID
  5
467
330
9
100
AcDbSymbolTableRecord
100
AcDbRegAppTableRecord
  2
AcAecLayerStandard
 70
     0
  0
APPID
  5
485
330
9
100
AcDbSymbolTableRecord
100
AcDbRegAppTableRecord
  2
ACAD_DSTYLE_DIMINSPECT
 70
     0
  0
APPID
  5
498
330
9
100
AcDbSymbolTableRecord
100
AcDbRegAppTableRecord
  2
GENIUS_GENDTOL_13
 70
     0
  0
APPID
  5
BB9
330
9
100
AcDbSymbolTableRecord
100
AcDbRegAppTableRecord
  2
ACAD_DSTYLE_DIMRADIAL_EXTENSION
 70
     0
  0
ENDTAB
  0
TABLE
  2
DIMSTYLE
  5
A
330
0
100
AcDbSymbolTable
 70
    10
100
AcDbDimStyleTable
 71
     1
340
81
  0
DIMSTYLE
105
27
330
A
100
AcDbSymbolTableRecord
100
AcDbDimStyleTableRecord
  2
ISO-25
 70
     0
 41
2.5
 42
0.625
 43
3.75
 44
1.25
 73
     0
 74
     0
 77
     1
 78
     8
140
2.5
141
2.5
143
0.03937007874016
147
0.625
171
     3
172
     1
271
     2
272
     2
274
     3
278
    44
283
     0
284
     8
340
11
  0
DIMSTYLE
105
81
102
{ACAD_REACTORS
330
62
102
}
330
A
100
AcDbSymbolTableRecord
100
AcDbDimStyleTableRecord
  2
AM_ISO
 70
     0
  4
"
 41
3.5
 42
1.0
 43
10.0
 44
1.0
 47
0.1
 48
0.1
 73
     0
 74
     0
 77
     1
 78
     8
 79
     2
 90
     1
140
3.5
141
0.0
143
0.0393701
146
0.71
147
1.5
172
     1
176
   256
177
   256
178
     2
271
     2
272
     3
274
     4
283
     0
284
     8
340
11
345
14
346
14
347
14
371
    -1
372
    -1
1001
ACAD_DSTYLE_DIMJOGGED_JOGANGLE_SYMBOL
1070
   384
1040
0.7853981633974483
1001
ACAD_DSTYLE_DIMJAG
1070
   388
1040
1.5
1001
ACAD_DSTYLE_DIMBREAK
1070
   391
1040
3.75
  0
DIMSTYLE
105
82
102
{ACAD_REACTORS
330
D21
330
D24
330
D27
330
D2A
102
}
330
A
100
AcDbSymbolTableRecord
100
AcDbDimStyleTableRecord
  2
AM_ISO$3
 70
     0
  4
"
 41
3.5
 42
1.0
 43
10.0
 44
1.0
 47
0.1
 48
0.1
 73
     0
 77
     1
 78
     8
 79
     2
 90
     1
140
3.5
141
0.0
143
0.0393701
146
0.71
147
1.5
176
   256
177
   256
178
     2
271
     2
272
     3
274
     4
283
     0
284
     8
288
     1
289
     0
340
11
345
14
346
14
347
14
371
    -1
372
    -1
1001
ACAD_DSTYLE_DIMJOGGED_JOGANGLE_SYMBOL
1070
   384
1040
0.7853981633974483
1001
ACAD_DSTYLE_DIMBREAK
1070
   391
1040
3.75
1001
ACAD_DSTYLE_DIMJAG
1070
   388
1040
1.5
  0
DIMSTYLE
105
83
330
A
100
AcDbSymbolTableRecord
100
AcDbDimStyleTableRecord
  2
AM_ISO$4
 70
     0
  4
"
 41
3.5
 42
1.0
 43
10.0
 44
1.0
 47
0.1
 48
0.1
 73
     0
 74
     0
 77
     1
 78
     8
 79
     2
 90
     1
140
3.5
141
0.0
143
0.0393701
146
0.71
147
1.5
172
     1
176
   256
177
   256
178
     2
271
     2
272
     3
274
     4
283
     0
284
     8
340
11
345
14
346
14
347
14
371
    -1
372
    -1
1001
ACAD_DSTYLE_DIMJOGGED_JOGANGLE_SYMBOL
1070
   384
1040
0.7853981633974483
1001
ACAD_DSTYLE_DIMBREAK
1070
   391
1040
3.75
1001
ACAD_DSTYLE_DIMJAG
1070
   388
1040
1.5
  0
DIMSTYLE
105
84
330
A
100
AcDbSymbolTableRecord
100
AcDbDimStyleTableRecord
  2
AM_ISO$6
 70
     0
  4
"
 41
3.5
 42
1.0
 43
10.0
 44
1.0
 47
0.1
 48
0.1
 73
     0
 74
     0
 78
     8
 79
     2
 90
     1
140
3.5
141
0.0
143
0.0393701
146
0.71
147
1.5
172
     1
176
   256
177
   256
178
     2
271
     2
272
     3
274
     4
283
     0
284
     8
340
11
345
14
346
14
347
14
371
    -1
372
    -1
1001
ACAD_DSTYLE_DIMJOGGED_JOGANGLE_SYMBOL
1070
   384
1040
0.7853981633974483
1001
ACAD_DSTYLE_DIMBREAK
1070
   391
1040
3.75
1001
ACAD_DSTYLE_DIMJAG
1070
   388
1040
1.5
  0
DIMSTYLE
105
85
330
A
100
AcDbSymbolTableRecord
100
AcDbDimStyleTableRecord
  2
AM_ISO$7
 70
     0
  4
"
 41
3.5
 42
1.0
 43
10.0
 44
1.0
 47
0.1
 48
0.1
 73
     0
 74
     0
 77
     1
 78
     8
 79
     2
 90
     1
140
3.5
141
0.0
143
0.0393701
146
0.71
147
1.5
172
     1
176
   256
177
   256
178
     2
271
     2
272
     3
274
     4
283
     0
284
     8
340
11
345
14
346
14
347
14
371
    -1
372
    -1
1001
ACAD_DSTYLE_DIMJOGGED_JOGANGLE_SYMBOL
1070
   384
1040
0.7853981633974483
1001
ACAD_DSTYLE_DIMBREAK
1070
   391
1040
3.75
1001
ACAD_DSTYLE_DIMJAG
1070
   388
1040
1.5
  0
DIMSTYLE
105
86
330
A
100
AcDbSymbolTableRecord
100
AcDbDimStyleTableRecord
  2
AM_ISO$SF
 70
     0
  4
"
 41
3.5
 42
1.0
 43
10.0
 44
1.0
 47
0.1
 48
0.1
 73
     0
 74
     0
 75
     1
 76
     1
 77
     1
 78
     8
 79
     2
 90
     1
140
3.5
141
0.0
143
0.0393701
146
0.71
147
1.5
172
     1
176
   256
177
   256
178
     2
271
     2
272
     3
274
     4
283
     0
284
     8
340
11
345
14
346
14
347
14
371
    -1
372
    -1
1001
ACAD_DSTYLE_DIMJOGGED_JOGANGLE_SYMBOL
1070
   384
1040
0.7853981633974483
1001
ACAD_DSTYLE_DIMBREAK
1070
   391
1040
3.75
1001
ACAD_DSTYLE_DIMJAG
1070
   388
1040
1.5
  0
DIMSTYLE
105
8B
330
A
100
AcDbSymbolTableRecord
100
AcDbDimStyleTableRecord
  2
AM_ISO$SH
 70
     0
  4
"
 41
3.5
 42
1.0
 43
10.0
 44
1.0
 47
0.1
 48
0.1
 73
     0
 74
     0
 75
     1
 76
     1
 77
     1
 78
     8
 79
     2
 90
     1
140
3.5
141
0.0
143
0.0393701
144
2.0
146
0.71
147
1.5
172
     1
173
     1
176
   256
177
   256
178
     2
271
     2
272
     3
274
     4
283
     0
284
     8
340
11
343
87
345
14
346
14
347
14
371
    -1
372
    -1
1001
ACAD_DSTYLE_DIMJOGGED_JOGANGLE_SYMBOL
1070
   384
1040
0.7853981633974483
1001
ACAD_DSTYLE_DIMBREAK
1070
   391
1040
3.75
1001
ACAD_DSTYLE_DIMJAG
1070
   388
1040
1.5
  0
DIMSTYLE
105
46A
102
{ACAD_REACTORS
330
CDF
330
CE2
330
CE5
330
CE8
330
CEB
330
CEE
330
CF1
330
CF4
330
CF7
330
CFA
330
CFD
330
D00
330
D03
330
D06
330
D09
330
D0C
330
D0F
330
D12
330
D15
330
D18
330
D1B
330
D1E
102
}
330
A
100
AcDbSymbolTableRecord
100
AcDbDimStyleTableRecord
  2
AM_ISO$0
 70
     0
  4
"
 41
3.5
 42
1.0
 43
10.0
 44
1.0
 47
0.1
 48
0.1
 73
     0
 74
     0
 77
     1
 78
     8
 79
     2
 90
     1
140
3.5
141
0.0
143
0.0393701
146
0.71
147
1.5
172
     1
176
   256
177
   256
178
     2
271
     2
272
     3
274
     4
283
     0
284
     8
340
11
345
14
346
14
347
14
371
    -1
372
    -1
1001
ACAD_DSTYLE_DIMBREAK
1070
   391
1040
3.75
1001
ACAD_DSTYLE_DIMJAG
1070
   388
1040
1.5
  0
ENDTAB
  0
TABLE
  2
BLOCK_RECORD
  5
1
330
0
100
AcDbSymbolTable
 70
    59
  0
BLOCK_RECORD
  5
1F
102
{ACAD_XDICTIONARY
360
8F
102
}
330
1
100
AcDbSymbolTableRecord
100
AcDbBlockTableRecord
  2
*Model_Space
340
22
 70
     0
280
     1
281
     0
  0
BLOCK_RECORD
  5
1B
330
1
100
AcDbSymbolTableRecord
100
AcDbBlockTableRecord
  2
*Paper_Space
340
1E
 70
     0
280
     1
281
     0
  0
BLOCK_RECORD
  5
23
330
1
100
AcDbSymbolTableRecord
100
AcDbBlockTableRecord
  2
*Paper_Space0
340
26
 70
     0
280
     1
281
     0
  0
BLOCK_RECORD
  5
87
330
1
100
AcDbSymbolTableRecord
100
AcDbBlockTableRecord
  2
GENAXEH
340
0
 70
     0
280
     1
281
     0
  0
BLOCK_RECORD
  5
540
330
1
100
AcDbSymbolTableRecord
100
AcDbBlockTableRecord
  2
*D6
340
0
 70
     0
280
     1
281
     0
  0
BLOCK_RECORD
  5
585
330
1
100
AcDbSymbolTableRecord
100
AcDbBlockTableRecord
  2
*D7
340
0
 70
     0
280
     1
281
     0
  0
BLOCK_RECORD
  5
5CA
330
1
100
AcDbSymbolTableRecord
100
AcDbBlockTableRecord
  2
*D8
340
0
 70
     0
280
     1
281
     0
  0
BLOCK_RECORD
  5
60F
330
1
100
AcDbSymbolTableRecord
100
AcDbBlockTableRecord
  2
*D9
340
0
 70
     0
280
     1
281
     0
  0
BLOCK_RECORD
  5
654
330
1
100
AcDbSymbolTableRecord
100
AcDbBlockTableRecord
  2
*D10
340
0
 70
     0
280
     1
281
     0
  0
BLOCK_RECORD
  5
699
330
1
100
AcDbSymbolTableRecord
100
AcDbBlockTableRecord
  2
*D11
340
0
 70
     0
280
     1
281
     0
  0
BLOCK_RECORD
  5
726
330
1
100
AcDbSymbolTableRecord
100
AcDbBlockTableRecord
  2
*D12
340
0
 70
     0
280
     1
281
     0
  0
BLOCK_RECORD
  5
76B
330
1
100
AcDbSymbolTableRecord
100
AcDbBlockTableRecord
  2
*D13
340
0
 70
     0
280
     1
281
     0
  0
BLOCK_RECORD
  5
7B0
330
1
100
AcDbSymbolTableRecord
100
AcDbBlockTableRecord
  2
*D14
340
0
 70
     0
280
     1
281
     0
  0
BLOCK_RECORD
  5
7FE
330
1
100
AcDbSymbolTableRecord
100
AcDbBlockTableRecord
  2
*D15
340
0
 70
     0
280
     1
281
     0
  0
BLOCK_RECORD
  5
843
330
1
100
AcDbSymbolTableRecord
100
AcDbBlockTableRecord
  2
*D16
340
0
 70
     0
280
     1
281
     0
  0
BLOCK_RECORD
  5
888
330
1
100
AcDbSymbolTableRecord
100
AcDbBlockTableRecord
  2
*D17
340
0
 70
     0
280
     1
281
     0
  0
BLOCK_RECORD
  5
903
330
1
100
AcDbSymbolTableRecord
100
AcDbBlockTableRecord
  2
*D18
340
0
 70
     0
280
     1
281
     0
  0
BLOCK_RECORD
  5
948
330
1
100
AcDbSymbolTableRecord
100
AcDbBlockTableRecord
  2
*D19
340
0
 70
     0
280
     1
281
     0
  0
BLOCK_RECORD
  5
98D
330
1
100
AcDbSymbolTableRecord
100
AcDbBlockTableRecord
  2
*D20
340
0
 70
     0
280
     1
281
     0
  0
BLOCK_RECORD
  5
9D2
330
1
100
AcDbSymbolTableRecord
100
AcDbBlockTableRecord
  2
*D21
340
0
 70
     0
280
     1
281
     0
  0
BLOCK_RECORD
  5
A17
330
1
100
AcDbSymbolTableRecord
100
AcDbBlockTableRecord
  2
*D22
340
0
 70
     0
280
     1
281
     0
  0
BLOCK_RECORD
  5
A5C
330
1
100
AcDbSymbolTableRecord
100
AcDbBlockTableRecord
  2
*D23
340
0
 70
     0
280
     1
281
     0
  0
BLOCK_RECORD
  5
AA1
330
1
100
AcDbSymbolTableRecord
100
AcDbBlockTableRecord
  2
*D24
340
0
 70
     0
280
     1
281
     0
  0
BLOCK_RECORD
  5
AF8
330
1
100
AcDbSymbolTableRecord
100
AcDbBlockTableRecord
  2
*D25
340
0
 70
     0
280
     1
281
     0
  0
BLOCK_RECORD
  5
B3D
330
1
100
AcDbSymbolTableRecord
100
AcDbBlockTableRecord
  2
*D26
340
0
 70
     0
280
     1
281
     0
  0
BLOCK_RECORD
  5
B82
330
1
100
AcDbSymbolTableRecord
100
AcDbBlockTableRecord
  2
*D27
340
0
 70
     0
280
     1
281
     0
  0
BLOCK_RECORD
  5
BA3
330
1
100
AcDbSymbolTableRecord
100
AcDbBlockTableRecord
  2
*D28
340
0
 70
     0
280
     1
281
     0
  0
BLOCK_RECORD
  5
C02
330
1
100
AcDbSymbolTableRecord
100
AcDbBlockTableRecord
  2
*D29
340
0
 70
     0
280
     1
281
     0
  0
BLOCK_RECORD
  5
C37
330
1
100
AcDbSymbolTableRecord
100
AcDbBlockTableRecord
  2
*D30
340
0
 70
     0
280
     1
281
     0
  0
BLOCK_RECORD
  5
C54
330
1
100
AcDbSymbolTableRecord
100
AcDbBlockTableRecord
  2
*D31
340
0
 70
     0
280
     1
281
     0
  0
BLOCK_RECORD
  5
D2D
330
1
100
AcDbSymbolTableRecord
100
AcDbBlockTableRecord
  2
*D33
340
0
 70
     0
280
     1
281
     0
  0
BLOCK_RECORD
  5
D39
330
1
100
AcDbSymbolTableRecord
100
AcDbBlockTableRecord
  2
*D34
340
0
 70
     0
280
     1
281
     0
  0
BLOCK_RECORD
  5
D45
330
1
100
AcDbSymbolTableRecord
100
AcDbBlockTableRecord
  2
*D35
340
0
 70
     0
280
     1
281
     0
  0
BLOCK_RECORD
  5
D51
330
1
100
AcDbSymbolTableRecord
100
AcDbBlockTableRecord
  2
*D36
340
0
 70
     0
280
     1
281
     0
  0
BLOCK_RECORD
  5
D5D
330
1
100
AcDbSymbolTableRecord
100
AcDbBlockTableRecord
  2
*D37
340
0
 70
     0
280
     1
281
     0
  0
BLOCK_RECORD
  5
D69
330
1
100
AcDbSymbolTableRecord
100
AcDbBlockTableRecord
  2
*D38
340
0
 70
     0
280
     1
281
     0
  0
BLOCK_RECORD
  5
D75
330
1
100
AcDbSymbolTableRecord
100
AcDbBlockTableRecord
  2
*D39
340
0
 70
     0
280
     1
281
     0
  0
BLOCK_RECORD
  5
D81
330
1
100
AcDbSymbolTableRecord
100
AcDbBlockTableRecord
  2
*D40
340
0
 70
     0
280
     1
281
     0
  0
BLOCK_RECORD
  5
D8D
330
1
100
AcDbSymbolTableRecord
100
AcDbBlockTableRecord
  2
*D41
340
0
 70
     0
280
     1
281
     0
  0
BLOCK_RECORD
  5
D99
330
1
100
AcDbSymbolTableRecord
100
AcDbBlockTableRecord
  2
*D42
340
0
 70
     0
280
     1
281
     0
  0
BLOCK_RECORD
  5
DA5
330
1
100
AcDbSymbolTableRecord
100
AcDbBlockTableRecord
  2
*D43
340
0
 70
     0
280
     1
281
     0
  0
BLOCK_RECORD
  5
DB1
330
1
100
AcDbSymbolTableRecord
100
AcDbBlockTableRecord
  2
*D44
340
0
 70
     0
280
     1
281
     0
  0
BLOCK_RECORD
  5
DBD
330
1
100
AcDbSymbolTableRecord
100
AcDbBlockTableRecord
  2
*D45
340
0
 70
     0
280
     1
281
     0
  0
BLOCK_RECORD
  5
DC9
330
1
100
AcDbSymbolTableRecord
100
AcDbBlockTableRecord
  2
*D46
340
0
 70
     0
280
     1
281
     0
  0
BLOCK_RECORD
  5
DD5
330
1
100
AcDbSymbolTableRecord
100
AcDbBlockTableRecord
  2
*D47
340
0
 70
     0
280
     1
281
     0
  0
BLOCK_RECORD
  5
DE1
330
1
100
AcDbSymbolTableRecord
100
AcDbBlockTableRecord
  2
*D48
340
0
 70
     0
280
     1
281
     0
  0
BLOCK_RECORD
  5
DED
330
1
100
AcDbSymbolTableRecord
100
AcDbBlockTableRecord
  2
*D49
340
0
 70
     0
280
     1
281
     0
  0
BLOCK_RECORD
  5
DF9
330
1
100
AcDbSymbolTableRecord
100
AcDbBlockTableRecord
  2
*D50
340
0
 70
     0
280
     1
281
     0
  0
BLOCK_RECORD
  5
E05
330
1
100
AcDbSymbolTableRecord
100
AcDbBlockTableRecord
  2
*D51
340
0
 70
     0
280
     1
281
     0
  0
BLOCK_RECORD
  5
E11
330
1
100
AcDbSymbolTableRecord
100
AcDbBlockTableRecord
  2
*D52
340
0
 70
     0
280
     1
281
     0
  0
BLOCK_RECORD
  5
E1D
330
1
100
AcDbSymbolTableRecord
100
AcDbBlockTableRecord
  2
*D53
340
0
 70
     0
280
     1
281
     0
  0
BLOCK_RECORD
  5
E29
330
1
100
AcDbSymbolTableRecord
100
AcDbBlockTableRecord
  2
*D54
340
0
 70
     0
280
     1
281
     0
  0
BLOCK_RECORD
  5
E35
330
1
100
AcDbSymbolTableRecord
100
AcDbBlockTableRecord
  2
*D55
340
0
 70
     0
280
     1
281
     0
  0
BLOCK_RECORD
  5
E3E
330
1
100
AcDbSymbolTableRecord
100
AcDbBlockTableRecord
  2
*D56
340
0
 70
     0
280
     1
281
     0
  0
BLOCK_RECORD
  5
E47
330
1
100
AcDbSymbolTableRecord
100
AcDbBlockTableRecord
  2
*D57
340
0
 70
     0
280
     1
281
     0
  0
BLOCK_RECORD
  5
E50
330
1
100
AcDbSymbolTableRecord
100
AcDbBlockTableRecord
  2
*D58
340
0
 70
     0
280
     1
281
     0
  0
ENDTAB
  0
ENDSEC
  0
SECTION
  2
BLOCKS
  0
BLOCK
  5
20
330
1F
100
AcDbEntity
  8
0
100
AcDbBlockBegin
  2
*Model_Space
 70
     0
 10
0.0
 20
0.0
 30
0.0
  3
*Model_Space
  1

  0
ENDBLK
  5
21
330
1F
100
AcDbEntity
  8
0
100
AcDbBlockEnd
  0
BLOCK
  5
1C
330
1B
100
AcDbEntity
 67
     1
  8
0
100
AcDbBlockBegin
  2
*Paper_Space
 70
     0
 10
0.0
 20
0.0
 30
0.0
  3
*Paper_Space
  1

  0
ENDBLK
  5
1D
330
1B
100
AcDbEntity
 67
     1
  8
0
100
AcDbBlockEnd
  0
BLOCK
  5
24
330
23
100
AcDbEntity
 67
     1
  8
0
100
AcDbBlockBegin
  2
*Paper_Space0
 70
     0
 10
0.0
 20
0.0
 30
0.0
  3
*Paper_Space0
  1

  0
ENDBLK
  5
25
330
23
100
AcDbEntity
 67
     1
  8
0
100
AcDbBlockEnd
  0
BLOCK
  5
89
330
87
100
AcDbEntity
  8
0
100
AcDbBlockBegin
  2
GENAXEH
 70
     0
 10
0.0
 20
0.0
 30
0.0
  3
GENAXEH
  1

  0
LINE
  5
88
330
87
100
AcDbEntity
  8
0
100
AcDbLine
 10
-1.0
 20
0.0
 30
0.0
 11
1.0
 21
0.0
 31
0.0
  0
ENDBLK
  5
8A
330
87
100
AcDbEntity
  8
0
100
AcDbBlockEnd
  0
BLOCK
  5
541
330
540
100
AcDbEntity
  8
0
100
AcDbBlockBegin
  2
*D6
 70
     1
 10
0.0
 20
0.0
 30
0.0
  3
*D6
  1

  0
LINE
  5
57B
330
540
100
AcDbEntity
  8
AM_5
  6
ByBlock
440
 16777216
100
AcDbLine
 10
1711.285952214991
 20
1932.439071676714
 30
0.0
 11
1723.28595221499
 21
1932.439071676714
 31
0.0
  0
LINE
  5
57C
330
540
100
AcDbEntity
  8
AM_5
  6
ByBlock
440
 16777216
100
AcDbLine
 10
1689.48595221499
 20
1921.239071676714
 30
0.0
 11
1723.28595221499
 21
1921.239071676714
 31
0.0
  0
LINE
  5
57D
330
540
100
AcDbEntity
  8
AM_5
  6
ByBlock
440
 16777216
100
AcDbLine
 10
1722.28595221499
 20
1928.939071676714
 30
0.0
 11
1722.28595221499
 21
1924.739071676714
 31
0.0
  0
SOLID
  5
57E
330
540
100
AcDbEntity
  8
AM_5
440
 16777216
100
AcDbTrace
 10
1721.702618881657
 20
1928.939071676714
 30
0.0
 11
1722.869285548324
 21
1928.939071676714
 31
0.0
 12
1722.28595221499
 22
1932.439071676714
 32
0.0
 13
1722.28595221499
 23
1932.439071676714
 33
0.0
  0
SOLID
  5
57F
330
540
100
AcDbEntity
  8
AM_5
440
 16777216
100
AcDbTrace
 10
1721.702618881657
 20
1924.739071676714
 30
0.0
 11
1722.869285548324
 21
1924.739071676714
 31
0.0
 12
1722.28595221499
 22
1921.239071676714
 32
0.0
 13
1722.28595221499
 23
1921.239071676714
 33
0.0
  0
MTEXT
  5
580
330
540
100
AcDbEntity
  8
AM_5
 62
     2
440
 16777216
100
AcDbMText
 10
1719.035607726801
 20
1926.839071676715
 30
0.0
 40
3.5
 41
0.0
 46
0.0
 71
     5
 72
     1
  1
11.2
 11
0.0000000000000001
 21
1.0
 31
0.0
 73
     1
 44
1.0
  0
POINT
  5
581
330
540
100
AcDbEntity
  8
Defpoints
 62
     0
440
 16777216
100
AcDbPoint
 10
1710.28595221499
 20
1932.439071676714
 30
0.0
  0
POINT
  5
582
330
540
100
AcDbEntity
  8
Defpoints
 62
     0
440
 16777216
100
AcDbPoint
 10
1688.48595221499
 20
1921.239071676714
 30
0.0
  0
POINT
  5
583
330
540
100
AcDbEntity
  8
Defpoints
 62
     0
440
 16777216
100
AcDbPoint
 10
1722.28595221499
 20
1921.239071676714
 30
0.0
  0
ENDBLK
  5
542
330
540
100
AcDbEntity
  8
0
100
AcDbBlockEnd
  0
BLOCK
  5
586
330
585
100
AcDbEntity
  8
0
100
AcDbBlockBegin
  2
*D7
 70
     1
 10
0.0
 20
0.0
 30
0.0
  3
*D7
  1

  0
LINE
  5
5C0
330
585
100
AcDbEntity
  8
AM_5
  6
ByBlock
440
 16777216
100
AcDbLine
 10
1711.285952214991
 20
1932.439071676714
 30
0.0
 11
1733.483926182503
 21
1932.439071676714
 31
0.0
  0
LINE
  5
5C1
330
585
100
AcDbEntity
  8
AM_5
  6
ByBlock
440
 16777216
100
AcDbLine
 10
1696.985952214991
 20
1908.239071676715
 30
0.0
 11
1733.483926182503
 21
1908.239071676715
 31
0.0
  0
LINE
  5
5C2
330
585
100
AcDbEntity
  8
AM_5
  6
ByBlock
440
 16777216
100
AcDbLine
 10
1732.483926182504
 20
1928.939071676714
 30
0.0
 11
1732.483926182504
 21
1911.739071676714
 31
0.0
  0
SOLID
  5
5C3
330
585
100
AcDbEntity
  8
AM_5
440
 16777216
100
AcDbTrace
 10
1731.90059284917
 20
1928.939071676714
 30
0.0
 11
1733.067259515837
 21
1928.939071676714
 31
0.0
 12
1732.483926182504
 22
1932.439071676714
 32
0.0
 13
1732.483926182504
 23
1932.439071676714
 33
0.0
  0
SOLID
  5
5C4
330
585
100
AcDbEntity
  8
AM_5
440
 16777216
100
AcDbTrace
 10
1731.90059284917
 20
1911.739071676714
 30
0.0
 11
1733.067259515837
 21
1911.739071676714
 31
0.0
 12
1732.483926182504
 22
1908.239071676715
 32
0.0
 13
1732.483926182504
 23
1908.239071676715
 33
0.0
  0
MTEXT
  5
5C5
330
585
100
AcDbEntity
  8
AM_5
 62
     2
440
 16777216
100
AcDbMText
 10
1729.233581694314
 20
1920.339071676715
 30
0.0
 40
3.5
 41
0.0
 46
0.0
 71
     5
 72
     1
  1
24.2
 11
0.0000000000000001
 21
1.0
 31
0.0
 73
     1
 44
1.0
  0
POINT
  5
5C6
330
585
100
AcDbEntity
  8
Defpoints
 62
     0
440
 16777216
100
AcDbPoint
 10
1710.28595221499
 20
1932.439071676714
 30
0.0
  0
POINT
  5
5C7
330
585
100
AcDbEntity
  8
Defpoints
 62
     0
440
 16777216
100
AcDbPoint
 10
1695.98595221499
 20
1908.239071676715
 30
0.0
  0
POINT
  5
5C8
330
585
100
AcDbEntity
  8
Defpoints
 62
     0
440
 16777216
100
AcDbPoint
 10
1732.483926182504
 20
1908.239071676715
 30
0.0
  0
ENDBLK
  5
587
330
585
100
AcDbEntity
  8
0
100
AcDbBlockEnd
  0
BLOCK
  5
5CB
330
5CA
100
AcDbEntity
  8
0
100
AcDbBlockBegin
  2
*D8
 70
     1
 10
0.0
 20
0.0
 30
0.0
  3
*D8
  1

  0
LINE
  5
AE5
330
5CA
100
AcDbEntity
  8
AM_5
  6
ByBlock
440
 16777216
100
AcDbLine
 10
1687.48595221499
 20
1921.239071676714
 30
0.0
 11
1652.906231778306
 21
1921.239071676714
 31
0.0
  0
LINE
  5
AE6
330
5CA
100
AcDbEntity
  8
AM_5
  6
ByBlock
440
 16777216
100
AcDbLine
 10
1687.48595221499
 20
1692.239071676715
 30
0.0
 11
1652.906231778306
 21
1692.239071676715
 31
0.0
  0
LINE
  5
AE7
330
5CA
100
AcDbEntity
  8
AM_5
  6
ByBlock
440
 16777216
100
AcDbLine
 10
1653.906231778306
 20
1917.739071676714
 30
0.0
 11
1653.906231778306
 21
1695.739071676714
 31
0.0
  0
SOLID
  5
AE8
330
5CA
100
AcDbEntity
  8
AM_5
440
 16777216
100
AcDbTrace
 10
1653.322898444973
 20
1917.739071676714
 30
0.0
 11
1654.48956511164
 21
1917.739071676714
 31
0.0
 12
1653.906231778306
 22
1921.239071676714
 32
0.0
 13
1653.906231778306
 23
1921.239071676714
 33
0.0
  0
SOLID
  5
AE9
330
5CA
100
AcDbEntity
  8
AM_5
440
 16777216
100
AcDbTrace
 10
1653.322898444973
 20
1695.739071676714
 30
0.0
 11
1654.48956511164
 21
1695.739071676714
 31
0.0
 12
1653.906231778306
 22
1692.239071676715
 32
0.0
 13
1653.906231778306
 23
1692.239071676715
 33
0.0
  0
MTEXT
  5
AEA
330
5CA
100
AcDbEntity
  8
AM_5
 62
     2
440
 16777216
100
AcDbMText
 10
1650.655887290117
 20
1806.739071676715
 30
0.0
 40
3.5
 41
0.0
 46
0.0
 71
     5
 72
     1
  1
229
 11
0.0000000000000001
 21
1.0
 31
0.0
 73
     1
 44
1.0
  0
POINT
  5
AEB
330
5CA
100
AcDbEntity
  8
Defpoints
 62
     0
440
 16777216
100
AcDbPoint
 10
1688.48595221499
 20
1921.239071676714
 30
0.0
  0
POINT
  5
AEC
330
5CA
100
AcDbEntity
  8
Defpoints
 62
     0
440
 16777216
100
AcDbPoint
 10
1688.48595221499
 20
1692.239071676715
 30
0.0
  0
POINT
  5
AED
330
5CA
100
AcDbEntity
  8
Defpoints
 62
     0
440
 16777216
100
AcDbPoint
 10
1653.906231778306
 20
1692.239071676715
 30
0.0
  0
ENDBLK
  5
5CC
330
5CA
100
AcDbEntity
  8
0
100
AcDbBlockEnd
  0
BLOCK
  5
610
330
60F
100
AcDbEntity
  8
0
100
AcDbBlockBegin
  2
*D9
 70
     1
 10
0.0
 20
0.0
 30
0.0
  3
*D9
  1

  0
LINE
  5
70A
330
60F
100
AcDbEntity
  8
AM_5
  6
ByBlock
440
 16777216
100
AcDbLine
 10
1687.48595221499
 20
1692.239071676715
 30
0.0
 11
1652.906231778307
 21
1692.239071676715
 31
0.0
  0
LINE
  5
70B
330
60F
100
AcDbEntity
  8
AM_5
  6
ByBlock
440
 16777216
100
AcDbLine
 10
1678.28595221499
 20
1676.999071676714
 30
0.0
 11
1652.906231778307
 21
1676.999071676714
 31
0.0
  0
LINE
  5
70C
330
60F
100
AcDbEntity
  8
AM_5
  6
ByBlock
440
 16777216
100
AcDbLine
 10
1653.906231778307
 20
1688.739071676715
 30
0.0
 11
1653.906231778307
 21
1680.499071676714
 31
0.0
  0
SOLID
  5
70D
330
60F
100
AcDbEntity
  8
AM_5
440
 16777216
100
AcDbTrace
 10
1653.322898444973
 20
1688.739071676715
 30
0.0
 11
1654.48956511164
 21
1688.739071676715
 31
0.0
 12
1653.906231778307
 22
1692.239071676715
 32
0.0
 13
1653.906231778307
 23
1692.239071676715
 33
0.0
  0
SOLID
  5
70E
330
60F
100
AcDbEntity
  8
AM_5
440
 16777216
100
AcDbTrace
 10
1653.322898444973
 20
1680.499071676714
 30
0.0
 11
1654.48956511164
 21
1680.499071676714
 31
0.0
 12
1653.906231778307
 22
1676.999071676714
 32
0.0
 13
1653.906231778307
 23
1676.999071676714
 33
0.0
  0
MTEXT
  5
70F
330
60F
100
AcDbEntity
  8
AM_5
 62
     2
440
 16777216
100
AcDbMText
 10
1650.655887290117
 20
1684.619071676715
 30
0.0
 40
3.5
 41
0.0
 46
0.0
 71
     5
 72
     1
  1
15.24
 11
0.0000000000000001
 21
1.0
 31
0.0
 73
     1
 44
1.0
  0
POINT
  5
710
330
60F
100
AcDbEntity
  8
Defpoints
 62
     0
440
 16777216
100
AcDbPoint
 10
1688.48595221499
 20
1692.239071676715
 30
0.0
  0
POINT
  5
711
330
60F
100
AcDbEntity
  8
Defpoints
 62
     0
440
 16777216
100
AcDbPoint
 10
1679.28595221499
 20
1676.999071676714
 30
0.0
  0
POINT
  5
712
330
60F
100
AcDbEntity
  8
Defpoints
 62
     0
440
 16777216
100
AcDbPoint
 10
1653.906231778307
 20
1676.999071676714
 30
0.0
  0
ENDBLK
  5
611
330
60F
100
AcDbEntity
  8
0
100
AcDbBlockEnd
  0
BLOCK
  5
655
330
654
100
AcDbEntity
  8
0
100
AcDbBlockBegin
  2
*D10
 70
     1
 10
0.0
 20
0.0
 30
0.0
  3
*D10
  1

  0
LINE
  5
71C
330
654
100
AcDbEntity
  8
AM_5
  6
ByBlock
440
 16777216
100
AcDbLine
 10
1678.28595221499
 20
1676.999071676714
 30
0.0
 11
1652.906231778307
 21
1676.999071676714
 31
0.0
  0
LINE
  5
71D
330
654
100
AcDbEntity
  8
AM_5
  6
ByBlock
440
 16777216
100
AcDbLine
 10
1678.28595221499
 20
1474.039071676714
 30
0.0
 11
1652.906231778306
 21
1474.039071676714
 31
0.0
  0
LINE
  5
71E
330
654
100
AcDbEntity
  8
AM_5
  6
ByBlock
440
 16777216
100
AcDbLine
 10
1653.906231778307
 20
1673.499071676715
 30
0.0
 11
1653.906231778307
 21
1477.539071676714
 31
0.0
  0
SOLID
  5
71F
330
654
100
AcDbEntity
  8
AM_5
440
 16777216
100
AcDbTrace
 10
1653.322898444973
 20
1673.499071676715
 30
0.0
 11
1654.48956511164
 21
1673.499071676715
 31
0.0
 12
1653.906231778307
 22
1676.999071676714
 32
0.0
 13
1653.906231778307
 23
1676.999071676714
 33
0.0
  0
SOLID
  5
720
330
654
100
AcDbEntity
  8
AM_5
440
 16777216
100
AcDbTrace
 10
1653.322898444973
 20
1477.539071676714
 30
0.0
 11
1654.48956511164
 21
1477.539071676714
 31
0.0
 12
1653.906231778307
 22
1474.039071676714
 32
0.0
 13
1653.906231778307
 23
1474.039071676714
 33
0.0
  0
MTEXT
  5
721
330
654
100
AcDbEntity
  8
AM_5
 62
     2
440
 16777216
100
AcDbMText
 10
1650.655887290117
 20
1575.519071676715
 30
0.0
 40
3.5
 41
0.0
 46
0.0
 71
     5
 72
     1
  1
202.96
 11
0.0000000000000001
 21
1.0
 31
0.0
 73
     1
 44
1.0
  0
POINT
  5
722
330
654
100
AcDbEntity
  8
Defpoints
 62
     0
440
 16777216
100
AcDbPoint
 10
1679.28595221499
 20
1676.999071676714
 30
0.0
  0
POINT
  5
723
330
654
100
AcDbEntity
  8
Defpoints
 62
     0
440
 16777216
100
AcDbPoint
 10
1679.28595221499
 20
1474.039071676714
 30
0.0
  0
POINT
  5
724
330
654
100
AcDbEntity
  8
Defpoints
 62
     0
440
 16777216
100
AcDbPoint
 10
1653.906231778307
 20
1474.039071676714
 30
0.0
  0
ENDBLK
  5
656
330
654
100
AcDbEntity
  8
0
100
AcDbBlockEnd
  0
BLOCK
  5
69A
330
699
100
AcDbEntity
  8
0
100
AcDbBlockBegin
  2
*D11
 70
     1
 10
0.0
 20
0.0
 30
0.0
  3
*D11
  1

  0
LINE
  5
713
330
699
100
AcDbEntity
  8
AM_5
  6
ByBlock
440
 16777216
100
AcDbLine
 10
1678.28595221499
 20
1474.039071676714
 30
0.0
 11
1652.906231778306
 21
1474.039071676714
 31
0.0
  0
LINE
  5
714
330
699
100
AcDbEntity
  8
AM_5
  6
ByBlock
440
 16777216
100
AcDbLine
 10
1709.28595221499
 20
1281.039071676715
 30
0.0
 11
1652.906231778306
 21
1281.039071676715
 31
0.0
  0
LINE
  5
715
330
699
100
AcDbEntity
  8
AM_5
  6
ByBlock
440
 16777216
100
AcDbLine
 10
1653.906231778307
 20
1470.539071676715
 30
0.0
 11
1653.906231778307
 21
1284.539071676715
 31
0.0
  0
SOLID
  5
716
330
699
100
AcDbEntity
  8
AM_5
440
 16777216
100
AcDbTrace
 10
1653.322898444973
 20
1470.539071676715
 30
0.0
 11
1654.48956511164
 21
1470.539071676715
 31
0.0
 12
1653.906231778307
 22
1474.039071676714
 32
0.0
 13
1653.906231778307
 23
1474.039071676714
 33
0.0
  0
SOLID
  5
717
330
699
100
AcDbEntity
  8
AM_5
440
 16777216
100
AcDbTrace
 10
1653.322898444973
 20
1284.539071676715
 30
0.0
 11
1654.48956511164
 21
1284.539071676715
 31
0.0
 12
1653.906231778307
 22
1281.039071676715
 32
0.0
 13
1653.906231778307
 23
1281.039071676715
 33
0.0
  0
MTEXT
  5
718
330
699
100
AcDbEntity
  8
AM_5
 62
     2
440
 16777216
100
AcDbMText
 10
1650.656231778306
 20
1377.539071676715
 30
0.0
 40
3.5
 41
0.0
 46
0.0
 71
     5
 72
     1
  1
193
 11
0.0000000000000001
 21
1.0
 31
0.0
 73
     1
 44
1.0
  0
POINT
  5
719
330
699
100
AcDbEntity
  8
Defpoints
 62
     0
440
 16777216
100
AcDbPoint
 10
1679.28595221499
 20
1474.039071676714
 30
0.0
  0
POINT
  5
71A
330
699
100
AcDbEntity
  8
Defpoints
 62
     0
440
 16777216
100
AcDbPoint
 10
1710.28595221499
 20
1281.039071676715
 30
0.0
  0
POINT
  5
71B
330
699
100
AcDbEntity
  8
Defpoints
 62
     0
440
 16777216
100
AcDbPoint
 10
1653.906231778307
 20
1281.039071676715
 30
0.0
  0
ENDBLK
  5
69B
330
699
100
AcDbEntity
  8
0
100
AcDbBlockEnd
  0
BLOCK
  5
727
330
726
100
AcDbEntity
  8
0
100
AcDbBlockBegin
  2
*D12
 70
     1
 10
0.0
 20
0.0
 30
0.0
  3
*D12
  1

  0
LINE
  5
8F9
330
726
100
AcDbEntity
  8
AM_5
  6
ByBlock
440
 16777216
100
AcDbLine
 10
1446.285952214991
 20
1574.519071676714
 30
0.0
 11
1446.285952214991
 21
1510.48319118312
 31
0.0
  0
LINE
  5
8FA
330
726
100
AcDbEntity
  8
AM_5
  6
ByBlock
440
 16777216
100
AcDbLine
 10
1395.28595221499
 20
1605.739071676714
 30
0.0
 11
1395.28595221499
 21
1510.48319118312
 31
0.0
  0
LINE
  5
8FB
330
726
100
AcDbEntity
  8
AM_5
  6
ByBlock
440
 16777216
100
AcDbLine
 10
1442.785952214991
 20
1511.483191183121
 30
0.0
 11
1398.78595221499
 21
1511.483191183121
 31
0.0
  0
SOLID
  5
8FC
330
726
100
AcDbEntity
  8
AM_5
440
 16777216
100
AcDbTrace
 10
1442.785952214991
 20
1512.066524516454
 30
0.0
 11
1442.785952214991
 21
1510.899857849787
 31
0.0
 12
1446.285952214991
 22
1511.483191183121
 32
0.0
 13
1446.285952214991
 23
1511.483191183121
 33
0.0
  0
SOLID
  5
8FD
330
726
100
AcDbEntity
  8
AM_5
440
 16777216
100
AcDbTrace
 10
1398.78595221499
 20
1512.066524516454
 30
0.0
 11
1398.78595221499
 21
1510.899857849787
 31
0.0
 12
1395.28595221499
 22
1511.483191183121
 32
0.0
 13
1395.28595221499
 23
1511.483191183121
 33
0.0
  0
MTEXT
  5
8FE
330
726
100
AcDbEntity
  8
AM_5
 62
     2
440
 16777216
100
AcDbMText
 10
1420.78595221499
 20
1514.73319118312
 30
0.0
 40
3.5
 41
0.0
 46
0.0
 71
     5
 72
     1
  1
51
 73
     1
 44
1.0
  0
POINT
  5
8FF
330
726
100
AcDbEntity
  8
Defpoints
 62
     0
440
 16777216
100
AcDbPoint
 10
1446.285952214991
 20
1575.519071676715
 30
0.0
  0
POINT
  5
900
330
726
100
AcDbEntity
  8
Defpoints
 62
     0
440
 16777216
100
AcDbPoint
 10
1395.28595221499
 20
1606.739071676714
 30
0.0
  0
POINT
  5
901
330
726
100
AcDbEntity
  8
Defpoints
 62
     0
440
 16777216
100
AcDbPoint
 10
1395.28595221499
 20
1511.483191183121
 30
0.0
  0
ENDBLK
  5
728
330
726
100
AcDbEntity
  8
0
100
AcDbBlockEnd
  0
BLOCK
  5
76C
330
76B
100
AcDbEntity
  8
0
100
AcDbBlockBegin
  2
*D13
 70
     1
 10
0.0
 20
0.0
 30
0.0
  3
*D13
  1

  0
LINE
  5
8E7
330
76B
100
AcDbEntity
  8
AM_5
  6
ByBlock
440
 16777216
100
AcDbLine
 10
1446.285952214991
 20
1475.039071676714
 30
0.0
 11
1446.285952214991
 21
1512.48319118312
 31
0.0
  0
LINE
  5
8E8
330
76B
100
AcDbEntity
  8
AM_5
  6
ByBlock
440
 16777216
100
AcDbLine
 10
1679.28595221499
 20
1475.039071676714
 30
0.0
 11
1679.28595221499
 21
1512.48319118312
 31
0.0
  0
LINE
  5
8E9
330
76B
100
AcDbEntity
  8
AM_5
  6
ByBlock
440
 16777216
100
AcDbLine
 10
1449.78595221499
 20
1511.483191183121
 30
0.0
 11
1675.78595221499
 21
1511.483191183121
 31
0.0
  0
SOLID
  5
8EA
330
76B
100
AcDbEntity
  8
AM_5
440
 16777216
100
AcDbTrace
 10
1449.78595221499
 20
1512.066524516454
 30
0.0
 11
1449.78595221499
 21
1510.899857849787
 31
0.0
 12
1446.285952214991
 22
1511.483191183121
 32
0.0
 13
1446.285952214991
 23
1511.483191183121
 33
0.0
  0
SOLID
  5
8EB
330
76B
100
AcDbEntity
  8
AM_5
440
 16777216
100
AcDbTrace
 10
1675.78595221499
 20
1512.066524516454
 30
0.0
 11
1675.78595221499
 21
1510.899857849787
 31
0.0
 12
1679.28595221499
 22
1511.483191183121
 32
0.0
 13
1679.28595221499
 23
1511.483191183121
 33
0.0
  0
MTEXT
  5
8EC
330
76B
100
AcDbEntity
  8
AM_5
 62
     2
440
 16777216
100
AcDbMText
 10
1562.78595221499
 20
1514.73353567131
 30
0.0
 40
3.5
 41
0.0
 46
0.0
 71
     5
 72
     1
  1
233
 73
     1
 44
1.0
  0
POINT
  5
8ED
330
76B
100
AcDbEntity
  8
Defpoints
 62
     0
440
 16777216
100
AcDbPoint
 10
1446.285952214991
 20
1474.039071676714
 30
0.0
  0
POINT
  5
8EE
330
76B
100
AcDbEntity
  8
Defpoints
 62
     0
440
 16777216
100
AcDbPoint
 10
1679.28595221499
 20
1474.039071676714
 30
0.0
  0
POINT
  5
8EF
330
76B
100
AcDbEntity
  8
Defpoints
 62
     0
440
 16777216
100
AcDbPoint
 10
1679.28595221499
 20
1511.483191183121
 30
0.0
  0
ENDBLK
  5
76D
330
76B
100
AcDbEntity
  8
0
100
AcDbBlockEnd
  0
BLOCK
  5
7B1
330
7B0
100
AcDbEntity
  8
0
100
AcDbBlockBegin
  2
*D14
 70
     1
 10
0.0
 20
0.0
 30
0.0
  3
*D14
  1

  0
LINE
  5
8F0
330
7B0
100
AcDbEntity
  8
AM_5
  6
ByBlock
440
 16777216
100
AcDbLine
 10
1679.28595221499
 20
1475.039071676714
 30
0.0
 11
1679.28595221499
 21
1512.48319118312
 31
0.0
  0
LINE
  5
8F1
330
7B0
100
AcDbEntity
  8
AM_5
  6
ByBlock
440
 16777216
100
AcDbLine
 10
1710.28595221499
 20
1605.739071676714
 30
0.0
 11
1710.28595221499
 21
1510.48319118312
 31
0.0
  0
LINE
  5
8F2
330
7B0
100
AcDbEntity
  8
AM_5
  6
ByBlock
440
 16777216
100
AcDbLine
 10
1682.785952214991
 20
1511.483191183121
 30
0.0
 11
1706.78595221499
 21
1511.483191183121
 31
0.0
  0
SOLID
  5
8F3
330
7B0
100
AcDbEntity
  8
AM_5
440
 16777216
100
AcDbTrace
 10
1682.785952214991
 20
1512.066524516454
 30
0.0
 11
1682.785952214991
 21
1510.899857849787
 31
0.0
 12
1679.28595221499
 22
1511.483191183121
 32
0.0
 13
1679.28595221499
 23
1511.483191183121
 33
0.0
  0
SOLID
  5
8F4
330
7B0
100
AcDbEntity
  8
AM_5
440
 16777216
100
AcDbTrace
 10
1706.78595221499
 20
1512.066524516454
 30
0.0
 11
1706.78595221499
 21
1510.899857849787
 31
0.0
 12
1710.28595221499
 22
1511.483191183121
 32
0.0
 13
1710.28595221499
 23
1511.483191183121
 33
0.0
  0
MTEXT
  5
8F5
330
7B0
100
AcDbEntity
  8
AM_5
 62
     2
440
 16777216
100
AcDbMText
 10
1694.78595221499
 20
1514.73319118312
 30
0.0
 40
3.5
 41
0.0
 46
0.0
 71
     5
 72
     1
  1
31
 73
     1
 44
1.0
  0
POINT
  5
8F6
330
7B0
100
AcDbEntity
  8
Defpoints
 62
     0
440
 16777216
100
AcDbPoint
 10
1679.28595221499
 20
1474.039071676714
 30
0.0
  0
POINT
  5
8F7
330
7B0
100
AcDbEntity
  8
Defpoints
 62
     0
440
 16777216
100
AcDbPoint
 10
1710.28595221499
 20
1606.739071676714
 30
0.0
  0
POINT
  5
8F8
330
7B0
100
AcDbEntity
  8
Defpoints
 62
     0
440
 16777216
100
AcDbPoint
 10
1710.28595221499
 20
1511.483191183121
 30
0.0
  0
ENDBLK
  5
7B2
330
7B0
100
AcDbEntity
  8
0
100
AcDbBlockEnd
  0
BLOCK
  5
7FF
330
7FE
100
AcDbEntity
  8
0
100
AcDbBlockBegin
  2
*D15
 70
     1
 10
0.0
 20
0.0
 30
0.0
  3
*D15
  1

  0
LINE
  5
8DE
330
7FE
100
AcDbEntity
  8
AM_5
  6
ByBlock
440
 16777216
100
AcDbLine
 10
1395.28595221499
 20
1931.439071676715
 30
0.0
 11
1395.28595221499
 21
1740.699432851415
 31
0.0
  0
LINE
  5
8DF
330
7FE
100
AcDbEntity
  8
AM_5
  6
ByBlock
440
 16777216
100
AcDbLine
 10
1417.08595221499
 20
1805.739071676714
 30
0.0
 11
1417.08595221499
 21
1740.699432851415
 31
0.0
  0
LINE
  5
8E0
330
7FE
100
AcDbEntity
  8
AM_5
  6
ByBlock
440
 16777216
100
AcDbLine
 10
1398.78595221499
 20
1741.699432851414
 30
0.0
 11
1413.58595221499
 21
1741.699432851414
 31
0.0
  0
SOLID
  5
8E1
330
7FE
100
AcDbEntity
  8
AM_5
440
 16777216
100
AcDbTrace
 10
1398.78595221499
 20
1742.282766184748
 30
0.0
 11
1398.78595221499
 21
1741.116099518081
 31
0.0
 12
1395.28595221499
 22
1741.699432851414
 32
0.0
 13
1395.28595221499
 23
1741.699432851414
 33
0.0
  0
SOLID
  5
8E2
330
7FE
100
AcDbEntity
  8
AM_5
440
 16777216
100
AcDbTrace
 10
1413.58595221499
 20
1742.282766184748
 30
0.0
 11
1413.58595221499
 21
1741.116099518081
 31
0.0
 12
1417.08595221499
 22
1741.699432851414
 32
0.0
 13
1417.08595221499
 23
1741.699432851414
 33
0.0
  0
MTEXT
  5
8E3
330
7FE
100
AcDbEntity
  8
AM_5
 62
     2
440
 16777216
100
AcDbMText
 10
1406.18595221499
 20
1744.949777339604
 30
0.0
 40
3.5
 41
0.0
 46
0.0
 71
     5
 72
     1
  1
21.8
 73
     1
 44
1.0
  0
POINT
  5
8E4
330
7FE
100
AcDbEntity
  8
Defpoints
 62
     0
440
 16777216
100
AcDbPoint
 10
1395.28595221499
 20
1932.439071676714
 30
0.0
  0
POINT
  5
8E5
330
7FE
100
AcDbEntity
  8
Defpoints
 62
     0
440
 16777216
100
AcDbPoint
 10
1417.08595221499
 20
1806.739071676714
 30
0.0
  0
POINT
  5
8E6
330
7FE
100
AcDbEntity
  8
Defpoints
 62
     0
440
 16777216
100
AcDbPoint
 10
1417.08595221499
 20
1741.699432851414
 30
0.0
  0
ENDBLK
  5
800
330
7FE
100
AcDbEntity
  8
0
100
AcDbBlockEnd
  0
BLOCK
  5
844
330
843
100
AcDbEntity
  8
0
100
AcDbBlockBegin
  2
*D16
 70
     1
 10
0.0
 20
0.0
 30
0.0
  3
*D16
  1

  0
LINE
  5
8CC
330
843
100
AcDbEntity
  8
AM_5
  6
ByBlock
440
 16777216
100
AcDbLine
 10
1417.08595221499
 20
1693.239071676714
 30
0.0
 11
1417.08595221499
 21
1742.699432851415
 31
0.0
  0
LINE
  5
8CD
330
843
100
AcDbEntity
  8
AM_5
  6
ByBlock
440
 16777216
100
AcDbLine
 10
1688.48595221499
 20
1693.239071676714
 30
0.0
 11
1688.48595221499
 21
1742.699432851415
 31
0.0
  0
LINE
  5
8CE
330
843
100
AcDbEntity
  8
AM_5
  6
ByBlock
440
 16777216
100
AcDbLine
 10
1420.58595221499
 20
1741.699432851414
 30
0.0
 11
1684.98595221499
 21
1741.699432851414
 31
0.0
  0
SOLID
  5
8CF
330
843
100
AcDbEntity
  8
AM_5
440
 16777216
100
AcDbTrace
 10
1420.58595221499
 20
1742.282766184748
 30
0.0
 11
1420.58595221499
 21
1741.116099518081
 31
0.0
 12
1417.08595221499
 22
1741.699432851414
 32
0.0
 13
1417.08595221499
 23
1741.699432851414
 33
0.0
  0
SOLID
  5
8D0
330
843
100
AcDbEntity
  8
AM_5
440
 16777216
100
AcDbTrace
 10
1684.98595221499
 20
1742.282766184748
 30
0.0
 11
1684.98595221499
 21
1741.116099518081
 31
0.0
 12
1688.48595221499
 22
1741.699432851414
 32
0.0
 13
1688.48595221499
 23
1741.699432851414
 33
0.0
  0
MTEXT
  5
8D1
330
843
100
AcDbEntity
  8
AM_5
 62
     2
440
 16777216
100
AcDbMText
 10
1552.78595221499
 20
1744.949777339604
 30
0.0
 40
3.5
 41
0.0
 46
0.0
 71
     5
 72
     1
  1
271.4
 73
     1
 44
1.0
  0
POINT
  5
8D2
330
843
100
AcDbEntity
  8
Defpoints
 62
     0
440
 16777216
100
AcDbPoint
 10
1417.08595221499
 20
1692.239071676714
 30
0.0
  0
POINT
  5
8D3
330
843
100
AcDbEntity
  8
Defpoints
 62
     0
440
 16777216
100
AcDbPoint
 10
1688.48595221499
 20
1692.239071676715
 30
0.0
  0
POINT
  5
8D4
330
843
100
AcDbEntity
  8
Defpoints
 62
     0
440
 16777216
100
AcDbPoint
 10
1688.48595221499
 20
1741.699432851414
 30
0.0
  0
ENDBLK
  5
845
330
843
100
AcDbEntity
  8
0
100
AcDbBlockEnd
  0
BLOCK
  5
889
330
888
100
AcDbEntity
  8
0
100
AcDbBlockBegin
  2
*D17
 70
     1
 10
0.0
 20
0.0
 30
0.0
  3
*D17
  1

  0
LINE
  5
8D5
330
888
100
AcDbEntity
  8
AM_5
  6
ByBlock
440
 16777216
100
AcDbLine
 10
1688.48595221499
 20
1693.239071676714
 30
0.0
 11
1688.48595221499
 21
1742.699432851415
 31
0.0
  0
LINE
  5
8D6
330
888
100
AcDbEntity
  8
AM_5
  6
ByBlock
440
 16777216
100
AcDbLine
 10
1710.28595221499
 20
1607.739071676714
 30
0.0
 11
1710.28595221499
 21
1742.699432851415
 31
0.0
  0
LINE
  5
8D7
330
888
100
AcDbEntity
  8
AM_5
  6
ByBlock
440
 16777216
100
AcDbLine
 10
1691.98595221499
 20
1741.699432851414
 30
0.0
 11
1706.78595221499
 21
1741.699432851414
 31
0.0
  0
SOLID
  5
8D8
330
888
100
AcDbEntity
  8
AM_5
440
 16777216
100
AcDbTrace
 10
1691.98595221499
 20
1742.282766184748
 30
0.0
 11
1691.98595221499
 21
1741.116099518081
 31
0.0
 12
1688.48595221499
 22
1741.699432851414
 32
0.0
 13
1688.48595221499
 23
1741.699432851414
 33
0.0
  0
SOLID
  5
8D9
330
888
100
AcDbEntity
  8
AM_5
440
 16777216
100
AcDbTrace
 10
1706.78595221499
 20
1742.282766184748
 30
0.0
 11
1706.78595221499
 21
1741.116099518081
 31
0.0
 12
1710.28595221499
 22
1741.699432851414
 32
0.0
 13
1710.28595221499
 23
1741.699432851414
 33
0.0
  0
MTEXT
  5
8DA
330
888
100
AcDbEntity
  8
AM_5
 62
     2
440
 16777216
100
AcDbMText
 10
1699.38595221499
 20
1744.949777339604
 30
0.0
 40
3.5
 41
0.0
 46
0.0
 71
     5
 72
     1
  1
21.8
 73
     1
 44
1.0
  0
POINT
  5
8DB
330
888
100
AcDbEntity
  8
Defpoints
 62
     0
440
 16777216
100
AcDbPoint
 10
1688.48595221499
 20
1692.239071676715
 30
0.0
  0
POINT
  5
8DC
330
888
100
AcDbEntity
  8
Defpoints
 62
     0
440
 16777216
100
AcDbPoint
 10
1710.28595221499
 20
1606.739071676714
 30
0.0
  0
POINT
  5
8DD
330
888
100
AcDbEntity
  8
Defpoints
 62
     0
440
 16777216
100
AcDbPoint
 10
1710.28595221499
 20
1741.699432851414
 30
0.0
  0
ENDBLK
  5
88A
330
888
100
AcDbEntity
  8
0
100
AcDbBlockEnd
  0
BLOCK
  5
904
330
903
100
AcDbEntity
  8
0
100
AcDbBlockBegin
  2
*D18
 70
     1
 10
0.0
 20
0.0
 30
0.0
  3
*D18
  1

  0
LINE
  5
93E
330
903
100
AcDbEntity
  8
AM_5
  6
ByBlock
440
 16777216
100
AcDbLine
 10
1394.28595221499
 20
1932.439071676714
 30
0.0
 11
1367.259478816371
 21
1932.439071676714
 31
0.0
  0
LINE
  5
93F
330
903
100
AcDbEntity
  8
AM_5
  6
ByBlock
440
 16777216
100
AcDbLine
 10
1394.28595221499
 20
1281.039071676715
 30
0.0
 11
1367.259478816371
 21
1281.039071676715
 31
0.0
  0
LINE
  5
940
330
903
100
AcDbEntity
  8
AM_5
  6
ByBlock
440
 16777216
100
AcDbLine
 10
1368.259478816371
 20
1928.939071676714
 30
0.0
 11
1368.259478816371
 21
1284.539071676715
 31
0.0
  0
SOLID
  5
941
330
903
100
AcDbEntity
  8
AM_5
440
 16777216
100
AcDbTrace
 10
1367.676145483038
 20
1928.939071676714
 30
0.0
 11
1368.842812149704
 21
1928.939071676714
 31
0.0
 12
1368.259478816371
 22
1932.439071676714
 32
0.0
 13
1368.259478816371
 23
1932.439071676714
 33
0.0
  0
SOLID
  5
942
330
903
100
AcDbEntity
  8
AM_5
440
 16777216
100
AcDbTrace
 10
1367.676145483037
 20
1284.539071676715
 30
0.0
 11
1368.842812149704
 21
1284.539071676715
 31
0.0
 12
1368.259478816371
 22
1281.039071676715
 32
0.0
 13
1368.259478816371
 23
1281.039071676715
 33
0.0
  0
MTEXT
  5
943
330
903
100
AcDbEntity
  8
AM_5
 62
     2
440
 16777216
100
AcDbMText
 10
1365.00947881637
 20
1606.739071676715
 30
0.0
 40
3.5
 41
0.0
 46
0.0
 71
     5
 72
     1
  1
651.4
 11
0.0000000000000001
 21
1.0
 31
0.0
 73
     1
 44
1.0
  0
POINT
  5
944
330
903
100
AcDbEntity
  8
Defpoints
 62
     0
440
 16777216
100
AcDbPoint
 10
1395.28595221499
 20
1932.439071676714
 30
0.0
  0
POINT
  5
945
330
903
100
AcDbEntity
  8
Defpoints
 62
     0
440
 16777216
100
AcDbPoint
 10
1395.28595221499
 20
1281.039071676715
 30
0.0
  0
POINT
  5
946
330
903
100
AcDbEntity
  8
Defpoints
 62
     0
440
 16777216
100
AcDbPoint
 10
1368.259478816371
 20
1281.039071676715
 30
0.0
  0
ENDBLK
  5
905
330
903
100
AcDbEntity
  8
0
100
AcDbBlockEnd
  0
BLOCK
  5
949
330
948
100
AcDbEntity
  8
0
100
AcDbBlockBegin
  2
*D19
 70
     1
 10
0.0
 20
0.0
 30
0.0
  3
*D19
  1

  0
LINE
  5
983
330
948
100
AcDbEntity
  8
AM_5
  6
ByBlock
440
 16777216
100
AcDbLine
 10
1395.28595221499
 20
1280.039071676714
 30
0.0
 11
1395.28595221499
 21
1258.285471539396
 31
0.0
  0
LINE
  5
984
330
948
100
AcDbEntity
  8
AM_5
  6
ByBlock
440
 16777216
100
AcDbLine
 10
1710.28595221499
 20
1280.039071676714
 30
0.0
 11
1710.28595221499
 21
1258.285471539396
 31
0.0
  0
LINE
  5
985
330
948
100
AcDbEntity
  8
AM_5
  6
ByBlock
440
 16777216
100
AcDbLine
 10
1398.78595221499
 20
1259.285471539396
 30
0.0
 11
1706.78595221499
 21
1259.285471539396
 31
0.0
  0
SOLID
  5
986
330
948
100
AcDbEntity
  8
AM_5
440
 16777216
100
AcDbTrace
 10
1398.78595221499
 20
1259.868804872729
 30
0.0
 11
1398.78595221499
 21
1258.702138206063
 31
0.0
 12
1395.28595221499
 22
1259.285471539396
 32
0.0
 13
1395.28595221499
 23
1259.285471539396
 33
0.0
  0
SOLID
  5
987
330
948
100
AcDbEntity
  8
AM_5
440
 16777216
100
AcDbTrace
 10
1706.78595221499
 20
1259.868804872729
 30
0.0
 11
1706.78595221499
 21
1258.702138206063
 31
0.0
 12
1710.28595221499
 22
1259.285471539396
 32
0.0
 13
1710.28595221499
 23
1259.285471539396
 33
0.0
  0
MTEXT
  5
988
330
948
100
AcDbEntity
  8
AM_5
 62
     2
440
 16777216
100
AcDbMText
 10
1552.78595221499
 20
1262.535471539396
 30
0.0
 40
3.5
 41
0.0
 46
0.0
 71
     5
 72
     1
  1
315
 73
     1
 44
1.0
  0
POINT
  5
989
330
948
100
AcDbEntity
  8
Defpoints
 62
     0
440
 16777216
100
AcDbPoint
 10
1395.28595221499
 20
1281.039071676715
 30
0.0
  0
POINT
  5
98A
330
948
100
AcDbEntity
  8
Defpoints
 62
     0
440
 16777216
100
AcDbPoint
 10
1710.28595221499
 20
1281.039071676715
 30
0.0
  0
POINT
  5
98B
330
948
100
AcDbEntity
  8
Defpoints
 62
     0
440
 16777216
100
AcDbPoint
 10
1710.28595221499
 20
1259.285471539396
 30
0.0
  0
ENDBLK
  5
94A
330
948
100
AcDbEntity
  8
0
100
AcDbBlockEnd
  0
BLOCK
  5
98E
330
98D
100
AcDbEntity
  8
0
100
AcDbBlockBegin
  2
*D20
 70
     1
 10
0.0
 20
0.0
 30
0.0
  3
*D20
  1

  0
LINE
  5
9C8
330
98D
100
AcDbEntity
  8
AM_5
  6
ByBlock
440
 16777216
100
AcDbLine
 10
1396.285952214991
 20
1281.039071676715
 30
0.0
 11
1422.58595221499
 21
1281.039071676715
 31
0.0
  0
LINE
  5
9C9
330
98D
100
AcDbEntity
  8
AM_5
  6
ByBlock
440
 16777216
100
AcDbLine
 10
1410.58595221499
 20
1303.239071676715
 30
0.0
 11
1422.58595221499
 21
1303.239071676715
 31
0.0
  0
LINE
  5
9CA
330
98D
100
AcDbEntity
  8
AM_5
  6
ByBlock
440
 16777216
100
AcDbLine
 10
1421.58595221499
 20
1284.539071676715
 30
0.0
 11
1421.58595221499
 21
1299.739071676715
 31
0.0
  0
SOLID
  5
9CB
330
98D
100
AcDbEntity
  8
AM_5
440
 16777216
100
AcDbTrace
 10
1421.002618881657
 20
1284.539071676715
 30
0.0
 11
1422.169285548324
 21
1284.539071676715
 31
0.0
 12
1421.58595221499
 22
1281.039071676715
 32
0.0
 13
1421.58595221499
 23
1281.039071676715
 33
0.0
  0
SOLID
  5
9CC
330
98D
100
AcDbEntity
  8
AM_5
440
 16777216
100
AcDbTrace
 10
1421.002618881657
 20
1299.739071676715
 30
0.0
 11
1422.169285548324
 21
1299.739071676715
 31
0.0
 12
1421.58595221499
 22
1303.239071676715
 32
0.0
 13
1421.58595221499
 23
1303.239071676715
 33
0.0
  0
MTEXT
  5
9CD
330
98D
100
AcDbEntity
  8
AM_5
 62
     2
440
 16777216
100
AcDbMText
 10
1418.335607726801
 20
1292.139071676715
 30
0.0
 40
3.5
 41
0.0
 46
0.0
 71
     5
 72
     1
  1
22.2
 11
0.0000000000000001
 21
1.0
 31
0.0
 73
     1
 44
1.0
  0
POINT
  5
9CE
330
98D
100
AcDbEntity
  8
Defpoints
 62
     0
440
 16777216
100
AcDbPoint
 10
1395.28595221499
 20
1281.039071676715
 30
0.0
  0
POINT
  5
9CF
330
98D
100
AcDbEntity
  8
Defpoints
 62
     0
440
 16777216
100
AcDbPoint
 10
1409.58595221499
 20
1303.239071676715
 30
0.0
  0
POINT
  5
9D0
330
98D
100
AcDbEntity
  8
Defpoints
 62
     0
440
 16777216
100
AcDbPoint
 10
1421.58595221499
 20
1303.239071676715
 30
0.0
  0
ENDBLK
  5
98F
330
98D
100
AcDbEntity
  8
0
100
AcDbBlockEnd
  0
BLOCK
  5
9D3
330
9D2
100
AcDbEntity
  8
0
100
AcDbBlockBegin
  2
*D21
 70
     1
 10
0.0
 20
0.0
 30
0.0
  3
*D21
  1

  0
LINE
  5
A0D
330
9D2
100
AcDbEntity
  8
AM_5
  6
ByBlock
440
 16777216
100
AcDbLine
 10
1395.28595221499
 20
1282.039071676714
 30
0.0
 11
1395.28595221499
 21
1316.239071676714
 31
0.0
  0
LINE
  5
A0E
330
9D2
100
AcDbEntity
  8
AM_5
  6
ByBlock
440
 16777216
100
AcDbLine
 10
1409.58595221499
 20
1304.239071676715
 30
0.0
 11
1409.58595221499
 21
1316.239071676714
 31
0.0
  0
LINE
  5
A0F
330
9D2
100
AcDbEntity
  8
AM_5
  6
ByBlock
440
 16777216
100
AcDbLine
 10
1398.78595221499
 20
1315.239071676715
 30
0.0
 11
1406.08595221499
 21
1315.239071676715
 31
0.0
  0
SOLID
  5
A10
330
9D2
100
AcDbEntity
  8
AM_5
440
 16777216
100
AcDbTrace
 10
1398.78595221499
 20
1315.822405010048
 30
0.0
 11
1398.78595221499
 21
1314.655738343381
 31
0.0
 12
1395.28595221499
 22
1315.239071676715
 32
0.0
 13
1395.28595221499
 23
1315.239071676715
 33
0.0
  0
SOLID
  5
A11
330
9D2
100
AcDbEntity
  8
AM_5
440
 16777216
100
AcDbTrace
 10
1406.08595221499
 20
1315.822405010048
 30
0.0
 11
1406.08595221499
 21
1314.655738343381
 31
0.0
 12
1409.58595221499
 22
1315.239071676715
 32
0.0
 13
1409.58595221499
 23
1315.239071676715
 33
0.0
  0
MTEXT
  5
A12
330
9D2
100
AcDbEntity
  8
AM_5
 62
     2
440
 16777216
100
AcDbMText
 10
1402.435952214991
 20
1318.489071676715
 30
0.0
 40
3.5
 41
0.0
 46
0.0
 71
     5
 72
     1
  1
14.3
 73
     1
 44
1.0
  0
POINT
  5
A13
330
9D2
100
AcDbEntity
  8
Defpoints
 62
     0
440
 16777216
100
AcDbPoint
 10
1395.28595221499
 20
1281.039071676715
 30
0.0
  0
POINT
  5
A14
330
9D2
100
AcDbEntity
  8
Defpoints
 62
     0
440
 16777216
100
AcDbPoint
 10
1409.58595221499
 20
1303.239071676715
 30
0.0
  0
POINT
  5
A15
330
9D2
100
AcDbEntity
  8
Defpoints
 62
     0
440
 16777216
100
AcDbPoint
 10
1409.58595221499
 20
1315.239071676715
 30
0.0
  0
ENDBLK
  5
9D4
330
9D2
100
AcDbEntity
  8
0
100
AcDbBlockEnd
  0
BLOCK
  5
A18
330
A17
100
AcDbEntity
  8
0
100
AcDbBlockBegin
  2
*D22
 70
     1
 10
0.0
 20
0.0
 30
0.0
  3
*D22
  1

  0
LINE
  5
A52
330
A17
100
AcDbEntity
  8
AM_5
  6
ByBlock
440
 16777216
100
AcDbLine
 10
1709.28595221499
 20
1281.039071676715
 30
0.0
 11
1682.98595221499
 21
1281.039071676715
 31
0.0
  0
LINE
  5
A53
330
A17
100
AcDbEntity
  8
AM_5
  6
ByBlock
440
 16777216
100
AcDbLine
 10
1694.985952214991
 20
1303.239071676715
 30
0.0
 11
1682.98595221499
 21
1303.239071676715
 31
0.0
  0
LINE
  5
A54
330
A17
100
AcDbEntity
  8
AM_5
  6
ByBlock
440
 16777216
100
AcDbLine
 10
1683.985952214991
 20
1284.539071676715
 30
0.0
 11
1683.985952214991
 21
1299.739071676715
 31
0.0
  0
SOLID
  5
A55
330
A17
100
AcDbEntity
  8
AM_5
440
 16777216
100
AcDbTrace
 10
1683.402618881657
 20
1284.539071676715
 30
0.0
 11
1684.569285548324
 21
1284.539071676715
 31
0.0
 12
1683.985952214991
 22
1281.039071676715
 32
0.0
 13
1683.985952214991
 23
1281.039071676715
 33
0.0
  0
SOLID
  5
A56
330
A17
100
AcDbEntity
  8
AM_5
440
 16777216
100
AcDbTrace
 10
1683.402618881657
 20
1299.739071676715
 30
0.0
 11
1684.569285548324
 21
1299.739071676715
 31
0.0
 12
1683.985952214991
 22
1303.239071676715
 32
0.0
 13
1683.985952214991
 23
1303.239071676715
 33
0.0
  0
MTEXT
  5
A57
330
A17
100
AcDbEntity
  8
AM_5
 62
     2
440
 16777216
100
AcDbMText
 10
1680.735607726801
 20
1292.139071676715
 30
0.0
 40
3.5
 41
0.0
 46
0.0
 71
     5
 72
     1
  1
22.2
 11
0.0000000000000001
 21
1.0
 31
0.0
 73
     1
 44
1.0
  0
POINT
  5
A58
330
A17
100
AcDbEntity
  8
Defpoints
 62
     0
440
 16777216
100
AcDbPoint
 10
1710.28595221499
 20
1281.039071676715
 30
0.0
  0
POINT
  5
A59
330
A17
100
AcDbEntity
  8
Defpoints
 62
     0
440
 16777216
100
AcDbPoint
 10
1695.98595221499
 20
1303.239071676715
 30
0.0
  0
POINT
  5
A5A
330
A17
100
AcDbEntity
  8
Defpoints
 62
     0
440
 16777216
100
AcDbPoint
 10
1683.985952214991
 20
1303.239071676715
 30
0.0
  0
ENDBLK
  5
A19
330
A17
100
AcDbEntity
  8
0
100
AcDbBlockEnd
  0
BLOCK
  5
A5D
330
A5C
100
AcDbEntity
  8
0
100
AcDbBlockBegin
  2
*D23
 70
     1
 10
0.0
 20
0.0
 30
0.0
  3
*D23
  1

  0
LINE
  5
A97
330
A5C
100
AcDbEntity
  8
AM_5
  6
ByBlock
440
 16777216
100
AcDbLine
 10
1710.28595221499
 20
1282.039071676714
 30
0.0
 11
1710.28595221499
 21
1316.239071676714
 31
0.0
  0
LINE
  5
A98
330
A5C
100
AcDbEntity
  8
AM_5
  6
ByBlock
440
 16777216
100
AcDbLine
 10
1695.98595221499
 20
1304.239071676715
 30
0.0
 11
1695.98595221499
 21
1316.239071676714
 31
0.0
  0
LINE
  5
A99
330
A5C
100
AcDbEntity
  8
AM_5
  6
ByBlock
440
 16777216
100
AcDbLine
 10
1706.78595221499
 20
1315.239071676715
 30
0.0
 11
1699.48595221499
 21
1315.239071676715
 31
0.0
  0
SOLID
  5
A9A
330
A5C
100
AcDbEntity
  8
AM_5
440
 16777216
100
AcDbTrace
 10
1706.78595221499
 20
1315.822405010048
 30
0.0
 11
1706.78595221499
 21
1314.655738343381
 31
0.0
 12
1710.28595221499
 22
1315.239071676715
 32
0.0
 13
1710.28595221499
 23
1315.239071676715
 33
0.0
  0
SOLID
  5
A9B
330
A5C
100
AcDbEntity
  8
AM_5
440
 16777216
100
AcDbTrace
 10
1699.48595221499
 20
1315.822405010048
 30
0.0
 11
1699.48595221499
 21
1314.655738343381
 31
0.0
 12
1695.98595221499
 22
1315.239071676715
 32
0.0
 13
1695.98595221499
 23
1315.239071676715
 33
0.0
  0
MTEXT
  5
A9C
330
A5C
100
AcDbEntity
  8
AM_5
 62
     2
440
 16777216
100
AcDbMText
 10
1703.13595221499
 20
1318.489071676715
 30
0.0
 40
3.5
 41
0.0
 46
0.0
 71
     5
 72
     1
  1
14.3
 73
     1
 44
1.0
  0
POINT
  5
A9D
330
A5C
100
AcDbEntity
  8
Defpoints
 62
     0
440
 16777216
100
AcDbPoint
 10
1710.28595221499
 20
1281.039071676715
 30
0.0
  0
POINT
  5
A9E
330
A5C
100
AcDbEntity
  8
Defpoints
 62
     0
440
 16777216
100
AcDbPoint
 10
1695.98595221499
 20
1303.239071676715
 30
0.0
  0
POINT
  5
A9F
330
A5C
100
AcDbEntity
  8
Defpoints
 62
     0
440
 16777216
100
AcDbPoint
 10
1695.98595221499
 20
1315.239071676715
 30
0.0
  0
ENDBLK
  5
A5E
330
A5C
100
AcDbEntity
  8
0
100
AcDbBlockEnd
  0
BLOCK
  5
AA2
330
AA1
100
AcDbEntity
  8
0
100
AcDbBlockBegin
  2
*D24
 70
     1
 10
0.0
 20
0.0
 30
0.0
  3
*D24
  1

  0
LINE
  5
AEE
330
AA1
100
AcDbEntity
  8
AM_5
  6
ByBlock
440
 16777216
100
AcDbLine
 10
1687.48595221499
 20
1921.239071676714
 30
0.0
 11
1652.906231778307
 21
1921.239071676714
 31
0.0
  0
LINE
  5
AEF
330
AA1
100
AcDbEntity
  8
AM_5
  6
ByBlock
440
 16777216
100
AcDbLine
 10
1709.28595221499
 20
1932.439071676714
 30
0.0
 11
1652.906231778307
 21
1932.439071676714
 31
0.0
  0
LINE
  5
AF0
330
AA1
100
AcDbEntity
  8
AM_5
  6
ByBlock
440
 16777216
100
AcDbLine
 10
1653.906231778307
 20
1924.739071676714
 30
0.0
 11
1653.906231778307
 21
1928.939071676714
 31
0.0
  0
SOLID
  5
AF1
330
AA1
100
AcDbEntity
  8
AM_5
440
 16777216
100
AcDbTrace
 10
1653.322898444973
 20
1924.739071676714
 30
0.0
 11
1654.48956511164
 21
1924.739071676714
 31
0.0
 12
1653.906231778307
 22
1921.239071676714
 32
0.0
 13
1653.906231778307
 23
1921.239071676714
 33
0.0
  0
SOLID
  5
AF2
330
AA1
100
AcDbEntity
  8
AM_5
440
 16777216
100
AcDbTrace
 10
1653.322898444973
 20
1928.939071676714
 30
0.0
 11
1654.48956511164
 21
1928.939071676714
 31
0.0
 12
1653.906231778307
 22
1932.439071676714
 32
0.0
 13
1653.906231778307
 23
1932.439071676714
 33
0.0
  0
MTEXT
  5
AF3
330
AA1
100
AcDbEntity
  8
AM_5
 62
     2
440
 16777216
100
AcDbMText
 10
1650.655887290118
 20
1926.839071676715
 30
0.0
 40
3.5
 41
0.0
 46
0.0
 71
     5
 72
     1
  1
11.2
 11
0.0000000000000001
 21
1.0
 31
0.0
 73
     1
 44
1.0
  0
POINT
  5
AF4
330
AA1
100
AcDbEntity
  8
Defpoints
 62
     0
440
 16777216
100
AcDbPoint
 10
1688.48595221499
 20
1921.239071676714
 30
0.0
  0
POINT
  5
AF5
330
AA1
100
AcDbEntity
  8
Defpoints
 62
     0
440
 16777216
100
AcDbPoint
 10
1710.28595221499
 20
1932.439071676714
 30
0.0
  0
POINT
  5
AF6
330
AA1
100
AcDbEntity
  8
Defpoints
 62
     0
440
 16777216
100
AcDbPoint
 10
1653.906231778307
 20
1932.439071676714
 30
0.0
  0
ENDBLK
  5
AA3
330
AA1
100
AcDbEntity
  8
0
100
AcDbBlockEnd
  0
BLOCK
  5
AF9
330
AF8
100
AcDbEntity
  8
0
100
AcDbBlockBegin
  2
*D25
 70
     1
 10
0.0
 20
0.0
 30
0.0
  3
*D25
  1

  0
LINE
  5
B33
330
AF8
100
AcDbEntity
  8
AM_5
  6
ByBlock
440
 16777216
100
AcDbLine
 10
1394.28595221499
 20
1932.439071676714
 30
0.0
 11
1382.285952214991
 21
1932.439071676714
 31
0.0
  0
LINE
  5
B34
330
AF8
100
AcDbEntity
  8
AM_5
  6
ByBlock
440
 16777216
100
AcDbLine
 10
1408.585952214991
 20
1908.239071676715
 30
0.0
 11
1382.285952214991
 21
1908.239071676715
 31
0.0
  0
LINE
  5
B35
330
AF8
100
AcDbEntity
  8
AM_5
  6
ByBlock
440
 16777216
100
AcDbLine
 10
1383.285952214991
 20
1928.939071676714
 30
0.0
 11
1383.285952214991
 21
1911.739071676714
 31
0.0
  0
SOLID
  5
B36
330
AF8
100
AcDbEntity
  8
AM_5
440
 16777216
100
AcDbTrace
 10
1382.702618881658
 20
1928.939071676714
 30
0.0
 11
1383.869285548324
 21
1928.939071676714
 31
0.0
 12
1383.285952214991
 22
1932.439071676714
 32
0.0
 13
1383.285952214991
 23
1932.439071676714
 33
0.0
  0
SOLID
  5
B37
330
AF8
100
AcDbEntity
  8
AM_5
440
 16777216
100
AcDbTrace
 10
1382.702618881658
 20
1911.739071676714
 30
0.0
 11
1383.869285548324
 21
1911.739071676714
 31
0.0
 12
1383.285952214991
 22
1908.239071676715
 32
0.0
 13
1383.285952214991
 23
1908.239071676715
 33
0.0
  0
MTEXT
  5
B38
330
AF8
100
AcDbEntity
  8
AM_5
 62
     2
440
 16777216
100
AcDbMText
 10
1380.035607726801
 20
1920.339071676715
 30
0.0
 40
3.5
 41
0.0
 46
0.0
 71
     5
 72
     1
  1
24.2
 11
0.0000000000000001
 21
1.0
 31
0.0
 73
     1
 44
1.0
  0
POINT
  5
B39
330
AF8
100
AcDbEntity
  8
Defpoints
 62
     0
440
 16777216
100
AcDbPoint
 10
1395.28595221499
 20
1932.439071676714
 30
0.0
  0
POINT
  5
B3A
330
AF8
100
AcDbEntity
  8
Defpoints
 62
     0
440
 16777216
100
AcDbPoint
 10
1409.58595221499
 20
1908.239071676715
 30
0.0
  0
POINT
  5
B3B
330
AF8
100
AcDbEntity
  8
Defpoints
 62
     0
440
 16777216
100
AcDbPoint
 10
1383.285952214991
 20
1908.239071676715
 30
0.0
  0
ENDBLK
  5
AFA
330
AF8
100
AcDbEntity
  8
0
100
AcDbBlockEnd
  0
BLOCK
  5
B3E
330
B3D
100
AcDbEntity
  8
0
100
AcDbBlockBegin
  2
*D26
 70
     1
 10
0.0
 20
0.0
 30
0.0
  3
*D26
  1

  0
LINE
  5
B78
330
B3D
100
AcDbEntity
  8
AM_5
  6
ByBlock
440
 16777216
100
AcDbLine
 10
1395.28595221499
 20
1933.439071676714
 30
0.0
 11
1395.28595221499
 21
1945.439072676714
 31
0.0
  0
LINE
  5
B79
330
B3D
100
AcDbEntity
  8
AM_5
  6
ByBlock
440
 16777216
100
AcDbLine
 10
1409.58595221499
 20
1909.239071676714
 30
0.0
 11
1409.58595221499
 21
1945.439072676714
 31
0.0
  0
LINE
  5
B7A
330
B3D
100
AcDbEntity
  8
AM_5
  6
ByBlock
440
 16777216
100
AcDbLine
 10
1398.78595221499
 20
1944.439072676714
 30
0.0
 11
1406.08595221499
 21
1944.439072676714
 31
0.0
  0
SOLID
  5
B7B
330
B3D
100
AcDbEntity
  8
AM_5
440
 16777216
100
AcDbTrace
 10
1398.78595221499
 20
1945.022406010048
 30
0.0
 11
1398.78595221499
 21
1943.855739343381
 31
0.0
 12
1395.28595221499
 22
1944.439072676714
 32
0.0
 13
1395.28595221499
 23
1944.439072676714
 33
0.0
  0
SOLID
  5
B7C
330
B3D
100
AcDbEntity
  8
AM_5
440
 16777216
100
AcDbTrace
 10
1406.08595221499
 20
1945.022406010048
 30
0.0
 11
1406.08595221499
 21
1943.855739343381
 31
0.0
 12
1409.58595221499
 22
1944.439072676714
 32
0.0
 13
1409.58595221499
 23
1944.439072676714
 33
0.0
  0
MTEXT
  5
B7D
330
B3D
100
AcDbEntity
  8
AM_5
 62
     2
440
 16777216
100
AcDbMText
 10
1402.435952214991
 20
1947.689072676715
 30
0.0
 40
3.5
 41
0.0
 46
0.0
 71
     5
 72
     1
  1
14.3
 73
     1
 44
1.0
  0
POINT
  5
B7E
330
B3D
100
AcDbEntity
  8
Defpoints
 62
     0
440
 16777216
100
AcDbPoint
 10
1395.28595221499
 20
1932.439071676714
 30
0.0
  0
POINT
  5
B7F
330
B3D
100
AcDbEntity
  8
Defpoints
 62
     0
440
 16777216
100
AcDbPoint
 10
1409.58595221499
 20
1908.239071676715
 30
0.0
  0
POINT
  5
B80
330
B3D
100
AcDbEntity
  8
Defpoints
 62
     0
440
 16777216
100
AcDbPoint
 10
1409.58595221499
 20
1944.439072676714
 30
0.0
  0
ENDBLK
  5
B3F
330
B3D
100
AcDbEntity
  8
0
100
AcDbBlockEnd
  0
BLOCK
  5
B83
330
B82
100
AcDbEntity
  8
0
100
AcDbBlockBegin
  2
*D27
 70
     1
 10
0.0
 20
0.0
 30
0.0
  3
*D27
  1

  0
LINE
  5
B99
330
B82
100
AcDbEntity
  8
AM_5
  6
ByBlock
440
 16777216
100
AcDbLine
 10
1710.28595221499
 20
1933.439071676714
 30
0.0
 11
1710.28595221499
 21
1945.439071676714
 31
0.0
  0
LINE
  5
B9A
330
B82
100
AcDbEntity
  8
AM_5
  6
ByBlock
440
 16777216
100
AcDbLine
 10
1695.98595221499
 20
1909.239071676714
 30
0.0
 11
1695.98595221499
 21
1945.439071676714
 31
0.0
  0
LINE
  5
B9B
330
B82
100
AcDbEntity
  8
AM_5
  6
ByBlock
440
 16777216
100
AcDbLine
 10
1706.78595221499
 20
1944.439071676714
 30
0.0
 11
1699.48595221499
 21
1944.439071676714
 31
0.0
  0
SOLID
  5
B9C
330
B82
100
AcDbEntity
  8
AM_5
440
 16777216
100
AcDbTrace
 10
1706.78595221499
 20
1945.022405010048
 30
0.0
 11
1706.78595221499
 21
1943.855738343381
 31
0.0
 12
1710.28595221499
 22
1944.439071676714
 32
0.0
 13
1710.28595221499
 23
1944.439071676714
 33
0.0
  0
SOLID
  5
B9D
330
B82
100
AcDbEntity
  8
AM_5
440
 16777216
100
AcDbTrace
 10
1699.48595221499
 20
1945.022405010048
 30
0.0
 11
1699.48595221499
 21
1943.855738343381
 31
0.0
 12
1695.98595221499
 22
1944.439071676714
 32
0.0
 13
1695.98595221499
 23
1944.439071676714
 33
0.0
  0
MTEXT
  5
B9E
330
B82
100
AcDbEntity
  8
AM_5
 62
     2
440
 16777216
100
AcDbMText
 10
1703.13595221499
 20
1947.689071676714
 30
0.0
 40
3.5
 41
0.0
 46
0.0
 71
     5
 72
     1
  1
14.3
 73
     1
 44
1.0
  0
POINT
  5
B9F
330
B82
100
AcDbEntity
  8
Defpoints
 62
     0
440
 16777216
100
AcDbPoint
 10
1710.28595221499
 20
1932.439071676714
 30
0.0
  0
POINT
  5
BA0
330
B82
100
AcDbEntity
  8
Defpoints
 62
     0
440
 16777216
100
AcDbPoint
 10
1695.98595221499
 20
1908.239071676715
 30
0.0
  0
POINT
  5
BA1
330
B82
100
AcDbEntity
  8
Defpoints
 62
     0
440
 16777216
100
AcDbPoint
 10
1695.98595221499
 20
1944.439071676714
 30
0.0
  0
ENDBLK
  5
B84
330
B82
100
AcDbEntity
  8
0
100
AcDbBlockEnd
  0
BLOCK
  5
BA4
330
BA3
100
AcDbEntity
  8
0
100
AcDbBlockBegin
  2
*D28
 70
     1
 10
0.0
 20
0.0
 30
0.0
  3
*D28
  1

  0
LINE
  5
BD2
330
BA3
100
AcDbEntity
  8
AM_5
  6
ByBlock
440
 16777216
100
AcDbLine
 10
1414.080831745746
 20
1308.605267536354
 30
0.0
 11
1417.011164277111
 21
1312.103634553663
 31
0.0
  0
LINE
  5
BD3
330
BA3
100
AcDbEntity
  8
AM_5
  6
ByBlock
440
 16777216
100
AcDbLine
 10
1417.011164277111
 20
1312.103634553663
 30
0.0
 11
1423.06116427711
 21
1312.103634553663
 31
0.0
  0
SOLID
  5
BD4
330
BA3
100
AcDbEntity
  8
AM_5
440
 16777216
100
AcDbTrace
 10
1413.633648757443
 20
1308.979840830583
 30
0.0
 11
1414.528014734049
 21
1308.230694242124
 31
0.0
 12
1411.833391980368
 22
1305.922169606535
 32
0.0
 13
1411.833391980368
 23
1305.922169606535
 33
0.0
  0
MTEXT
  5
BD5
330
BA3
100
AcDbEntity
  8
AM_5
 62
     2
440
 16777216
100
AcDbMText
 10
1420.78616427711
 20
1315.353634553664
 30
0.0
 40
3.5
 41
0.0
 46
0.0
 71
     5
 72
     1
  1
∅7
 73
     1
 44
1.0
  0
POINT
  5
BD6
330
BA3
100
AcDbEntity
  8
Defpoints
 62
     0
440
 16777216
100
AcDbPoint
 10
1411.833391980368
 20
1305.922169606535
 30
0.0
  0
POINT
  5
BD7
330
BA3
100
AcDbEntity
  8
Defpoints
 62
     0
440
 16777216
100
AcDbPoint
 10
1407.338512449613
 20
1300.555973746896
 30
0.0
  0
ENDBLK
  5
BA5
330
BA3
100
AcDbEntity
  8
0
100
AcDbBlockEnd
  0
BLOCK
  5
C03
330
C02
100
AcDbEntity
  8
0
100
AcDbBlockBegin
  2
*D29
 70
     1
 10
0.0
 20
0.0
 30
0.0
  3
*D29
  1

  0
LINE
  5
C30
330
C02
100
AcDbEntity
  8
AM_5
  6
ByBlock
440
 16777216
100
AcDbLine
 10
1691.170765588497
 20
1308.319817463706
 30
0.0
 11
1687.435218903865
 21
1312.261380803251
 31
0.0
  0
LINE
  5
C31
330
C02
100
AcDbEntity
  8
AM_5
  6
ByBlock
440
 16777216
100
AcDbLine
 10
1687.435218903865
 20
1312.261380803251
 30
0.0
 11
1681.385218903865
 21
1312.261380803251
 31
0.0
  0
SOLID
  5
C32
330
C02
100
AcDbEntity
  8
AM_5
440
 16777216
100
AcDbTrace
 10
1691.594161070746
 20
1308.721083015914
 30
0.0
 11
1690.747370106247
 21
1307.918551911498
 31
0.0
 12
1693.578358901743
 22
1305.77944457021
 32
0.0
 13
1693.578358901743
 23
1305.77944457021
 33
0.0
  0
MTEXT
  5
C33
330
C02
100
AcDbEntity
  8
AM_5
 62
     2
440
 16777216
100
AcDbMText
 10
1683.660218903865
 20
1315.511380803251
 30
0.0
 40
3.5
 41
0.0
 46
0.0
 71
     5
 72
     1
  1
∅7
 73
     1
 44
1.0
  0
POINT
  5
C34
330
C02
100
AcDbEntity
  8
Defpoints
 62
     0
440
 16777216
100
AcDbPoint
 10
1693.578358901743
 20
1305.77944457021
 30
0.0
  0
POINT
  5
C35
330
C02
100
AcDbEntity
  8
Defpoints
 62
     0
440
 16777216
100
AcDbPoint
 10
1698.393545528237
 20
1300.698698783219
 30
0.0
  0
ENDBLK
  5
C04
330
C02
100
AcDbEntity
  8
0
100
AcDbBlockEnd
  0
BLOCK
  5
C38
330
C37
100
AcDbEntity
  8
0
100
AcDbBlockBegin
  2
*D30
 70
     1
 10
0.0
 20
0.0
 30
0.0
  3
*D30
  1

  0
LINE
  5
C4D
330
C37
100
AcDbEntity
  8
AM_5
  6
ByBlock
440
 16777216
100
AcDbLine
 10
1406.990874842068
 20
1901.737873831044
 30
0.0
 11
1403.999983920774
 21
1894.245082357065
 31
0.0
  0
LINE
  5
C4E
330
C37
100
AcDbEntity
  8
AM_5
  6
ByBlock
440
 16777216
100
AcDbLine
 10
1403.999983920774
 20
1894.245082357065
 30
0.0
 11
1397.949983920774
 21
1894.245082357064
 31
0.0
  0
SOLID
  5
C4F
330
C37
100
AcDbEntity
  8
AM_5
440
 16777216
100
AcDbTrace
 10
1406.449108354929
 20
1901.954130278787
 30
0.0
 11
1407.532641329207
 21
1901.5216173833
 31
0.0
 12
1408.288413528529
 22
1904.988472753879
 32
0.0
 13
1408.288413528529
 23
1904.988472753879
 33
0.0
  0
MTEXT
  5
C50
330
C37
100
AcDbEntity
  8
AM_5
 62
     2
440
 16777216
100
AcDbMText
 10
1400.224983920774
 20
1897.495082357065
 30
0.0
 40
3.5
 41
0.0
 46
0.0
 71
     5
 72
     1
  1
∅7
 73
     1
 44
1.0
  0
POINT
  5
C51
330
C37
100
AcDbEntity
  8
Defpoints
 62
     0
440
 16777216
100
AcDbPoint
 10
1408.288413528529
 20
1904.988472753879
 30
0.0
  0
POINT
  5
C52
330
C37
100
AcDbEntity
  8
Defpoints
 62
     0
440
 16777216
100
AcDbPoint
 10
1410.883490901451
 20
1911.48967059955
 30
0.0
  0
ENDBLK
  5
C39
330
C37
100
AcDbEntity
  8
0
100
AcDbBlockEnd
  0
BLOCK
  5
C55
330
C54
100
AcDbEntity
  8
0
100
AcDbBlockBegin
  2
*D31
 70
     1
 10
0.0
 20
0.0
 30
0.0
  3
*D31
  1

  0
LINE
  5
C6A
330
C54
100
AcDbEntity
  8
AM_5
  6
ByBlock
440
 16777216
100
AcDbLine
 10
1698.256685480586
 20
1901.617608814437
 30
0.0
 11
1700.856413930912
 21
1894.036795318356
 31
0.0
  0
LINE
  5
C6B
330
C54
100
AcDbEntity
  8
AM_5
  6
ByBlock
440
 16777216
100
AcDbLine
 10
1700.856413930912
 20
1894.036795318356
 30
0.0
 11
1706.906413930912
 21
1894.036795318356
 31
0.0
  0
SOLID
  5
C6C
330
C54
100
AcDbEntity
  8
AM_5
440
 16777216
100
AcDbTrace
 10
1698.808474052443
 20
1901.80683658657
 30
0.0
 11
1697.704896908729
 21
1901.428381042304
 31
0.0
 12
1697.121318847788
 22
1904.928340245575
 32
0.0
 13
1697.121318847788
 23
1904.928340245575
 33
0.0
  0
MTEXT
  5
C6D
330
C54
100
AcDbEntity
  8
AM_5
 62
     2
440
 16777216
100
AcDbMText
 10
1704.631413930911
 20
1897.286795318356
 30
0.0
 40
3.5
 41
0.0
 46
0.0
 71
     5
 72
     1
  1
∅7
 73
     1
 44
1.0
  0
POINT
  5
C6E
330
C54
100
AcDbEntity
  8
Defpoints
 62
     0
440
 16777216
100
AcDbPoint
 10
1697.121318847788
 20
1904.928340245575
 30
0.0
  0
POINT
  5
C6F
330
C54
100
AcDbEntity
  8
Defpoints
 62
     0
440
 16777216
100
AcDbPoint
 10
1694.850585582192
 20
1911.549803107852
 30
0.0
  0
ENDBLK
  5
C56
330
C54
100
AcDbEntity
  8
0
100
AcDbBlockEnd
  0
BLOCK
  5
D2E
330
D2D
100
AcDbEntity
  8
0
100
AcDbBlockBegin
  2
*D33
 70
     1
 10
0.0
 20
0.0
 30
0.0
  3
*D33
  1

  0
LINE
  5
D30
330
D2D
100
AcDbEntity
  8
AM_5
  6
ByBlock
440
 16777216
100
AcDbLine
 10
1868.620932604509
 20
1932.439071676714
 30
0.0
 11
1856.620932604508
 21
1932.439071676714
 31
0.0
  0
LINE
  5
D31
330
D2D
100
AcDbEntity
  8
AM_5
  6
ByBlock
440
 16777216
100
AcDbLine
 10
1890.420932604509
 20
1921.239071676714
 30
0.0
 11
1856.620932604508
 21
1921.239071676714
 31
0.0
  0
LINE
  5
D32
330
D2D
100
AcDbEntity
  8
AM_5
  6
ByBlock
440
 16777216
100
AcDbLine
 10
1857.620932604509
 20
1928.939071676714
 30
0.0
 11
1857.620932604509
 21
1924.739071676714
 31
0.0
  0
SOLID
  5
D33
330
D2D
100
AcDbEntity
  8
AM_5
440
 16777216
100
AcDbTrace
 10
1857.037599271175
 20
1928.939071676714
 30
0.0
 11
1858.204265937842
 21
1928.939071676714
 31
0.0
 12
1857.620932604509
 22
1932.439071676714
 32
0.0
 13
1857.620932604509
 23
1932.439071676714
 33
0.0
  0
SOLID
  5
D34
330
D2D
100
AcDbEntity
  8
AM_5
440
 16777216
100
AcDbTrace
 10
1857.037599271175
 20
1924.739071676714
 30
0.0
 11
1858.204265937842
 21
1924.739071676714
 31
0.0
 12
1857.620932604509
 22
1921.239071676714
 32
0.0
 13
1857.620932604509
 23
1921.239071676714
 33
0.0
  0
MTEXT
  5
D35
330
D2D
100
AcDbEntity
  8
AM_5
 62
     2
440
 16777216
100
AcDbMText
 10
1854.370588116319
 20
1926.839071676715
 30
0.0
 40
3.5
 41
0.0
 46
0.0
 71
     5
 72
     1
  1
11.2
 11
0.0000000000000001
 21
1.0
 31
0.0
 73
     1
 44
1.0
  0
POINT
  5
D36
330
D2D
100
AcDbEntity
  8
Defpoints
 62
     0
440
 16777216
100
AcDbPoint
 10
1869.620932604508
 20
1932.439071676714
 30
0.0
  0
POINT
  5
D37
330
D2D
100
AcDbEntity
  8
Defpoints
 62
     0
440
 16777216
100
AcDbPoint
 10
1891.420932604509
 20
1921.239071676714
 30
0.0
  0
POINT
  5
D38
330
D2D
100
AcDbEntity
  8
Defpoints
 62
     0
440
 16777216
100
AcDbPoint
 10
1857.620932604509
 20
1921.239071676714
 30
0.0
  0
ENDBLK
  5
D2F
330
D2D
100
AcDbEntity
  8
0
100
AcDbBlockEnd
  0
BLOCK
  5
D3A
330
D39
100
AcDbEntity
  8
0
100
AcDbBlockBegin
  2
*D34
 70
     1
 10
0.0
 20
0.0
 30
0.0
  3
*D34
  1

  0
LINE
  5
D3C
330
D39
100
AcDbEntity
  8
AM_5
  6
ByBlock
440
 16777216
100
AcDbLine
 10
1868.620932604509
 20
1932.439071676714
 30
0.0
 11
1846.422958636996
 21
1932.439071676714
 31
0.0
  0
LINE
  5
D3D
330
D39
100
AcDbEntity
  8
AM_5
  6
ByBlock
440
 16777216
100
AcDbLine
 10
1882.920932604508
 20
1908.239071676715
 30
0.0
 11
1846.422958636996
 21
1908.239071676715
 31
0.0
  0
LINE
  5
D3E
330
D39
100
AcDbEntity
  8
AM_5
  6
ByBlock
440
 16777216
100
AcDbLine
 10
1847.422958636996
 20
1928.939071676714
 30
0.0
 11
1847.422958636996
 21
1911.739071676714
 31
0.0
  0
SOLID
  5
D3F
330
D39
100
AcDbEntity
  8
AM_5
440
 16777216
100
AcDbTrace
 10
1846.839625303662
 20
1928.939071676714
 30
0.0
 11
1848.006291970329
 21
1928.939071676714
 31
0.0
 12
1847.422958636996
 22
1932.439071676714
 32
0.0
 13
1847.422958636996
 23
1932.439071676714
 33
0.0
  0
SOLID
  5
D40
330
D39
100
AcDbEntity
  8
AM_5
440
 16777216
100
AcDbTrace
 10
1846.839625303662
 20
1911.739071676714
 30
0.0
 11
1848.006291970329
 21
1911.739071676714
 31
0.0
 12
1847.422958636996
 22
1908.239071676715
 32
0.0
 13
1847.422958636996
 23
1908.239071676715
 33
0.0
  0
MTEXT
  5
D41
330
D39
100
AcDbEntity
  8
AM_5
 62
     2
440
 16777216
100
AcDbMText
 10
1844.172614148806
 20
1920.339071676715
 30
0.0
 40
3.5
 41
0.0
 46
0.0
 71
     5
 72
     1
  1
24.2
 11
0.0000000000000001
 21
1.0
 31
0.0
 73
     1
 44
1.0
  0
POINT
  5
D42
330
D39
100
AcDbEntity
  8
Defpoints
 62
     0
440
 16777216
100
AcDbPoint
 10
1869.620932604508
 20
1932.439071676714
 30
0.0
  0
POINT
  5
D43
330
D39
100
AcDbEntity
  8
Defpoints
 62
     0
440
 16777216
100
AcDbPoint
 10
1883.920932604508
 20
1908.239071676715
 30
0.0
  0
POINT
  5
D44
330
D39
100
AcDbEntity
  8
Defpoints
 62
     0
440
 16777216
100
AcDbPoint
 10
1847.422958636996
 20
1908.239071676715
 30
0.0
  0
ENDBLK
  5
D3B
330
D39
100
AcDbEntity
  8
0
100
AcDbBlockEnd
  0
BLOCK
  5
D46
330
D45
100
AcDbEntity
  8
0
100
AcDbBlockBegin
  2
*D35
 70
     1
 10
0.0
 20
0.0
 30
0.0
  3
*D35
  1

  0
LINE
  5
D48
330
D45
100
AcDbEntity
  8
AM_5
  6
ByBlock
440
 16777216
100
AcDbLine
 10
1892.420932604508
 20
1921.239071676714
 30
0.0
 11
1927.000653041193
 21
1921.239071676714
 31
0.0
  0
LINE
  5
D49
330
D45
100
AcDbEntity
  8
AM_5
  6
ByBlock
440
 16777216
100
AcDbLine
 10
1892.420932604508
 20
1692.239071676715
 30
0.0
 11
1927.000653041193
 21
1692.239071676715
 31
0.0
  0
LINE
  5
D4A
330
D45
100
AcDbEntity
  8
AM_5
  6
ByBlock
440
 16777216
100
AcDbLine
 10
1926.000653041193
 20
1917.739071676714
 30
0.0
 11
1926.000653041193
 21
1695.739071676714
 31
0.0
  0
SOLID
  5
D4B
330
D45
100
AcDbEntity
  8
AM_5
440
 16777216
100
AcDbTrace
 10
1925.417319707859
 20
1917.739071676714
 30
0.0
 11
1926.583986374526
 21
1917.739071676714
 31
0.0
 12
1926.000653041193
 22
1921.239071676714
 32
0.0
 13
1926.000653041193
 23
1921.239071676714
 33
0.0
  0
SOLID
  5
D4C
330
D45
100
AcDbEntity
  8
AM_5
440
 16777216
100
AcDbTrace
 10
1925.417319707859
 20
1695.739071676714
 30
0.0
 11
1926.583986374526
 21
1695.739071676714
 31
0.0
 12
1926.000653041193
 22
1692.239071676715
 32
0.0
 13
1926.000653041193
 23
1692.239071676715
 33
0.0
  0
MTEXT
  5
D4D
330
D45
100
AcDbEntity
  8
AM_5
 62
     2
440
 16777216
100
AcDbMText
 10
1922.750308553003
 20
1806.739071676714
 30
0.0
 40
3.5
 41
0.0
 46
0.0
 71
     5
 72
     1
  1
229
 11
0.0000000000000001
 21
1.0
 31
0.0
 73
     1
 44
1.0
  0
POINT
  5
D4E
330
D45
100
AcDbEntity
  8
Defpoints
 62
     0
440
 16777216
100
AcDbPoint
 10
1891.420932604509
 20
1921.239071676714
 30
0.0
  0
POINT
  5
D4F
330
D45
100
AcDbEntity
  8
Defpoints
 62
     0
440
 16777216
100
AcDbPoint
 10
1891.420932604509
 20
1692.239071676715
 30
0.0
  0
POINT
  5
D50
330
D45
100
AcDbEntity
  8
Defpoints
 62
     0
440
 16777216
100
AcDbPoint
 10
1926.000653041193
 20
1692.239071676715
 30
0.0
  0
ENDBLK
  5
D47
330
D45
100
AcDbEntity
  8
0
100
AcDbBlockEnd
  0
BLOCK
  5
D52
330
D51
100
AcDbEntity
  8
0
100
AcDbBlockBegin
  2
*D36
 70
     1
 10
0.0
 20
0.0
 30
0.0
  3
*D36
  1

  0
LINE
  5
D54
330
D51
100
AcDbEntity
  8
AM_5
  6
ByBlock
440
 16777216
100
AcDbLine
 10
1892.420932604508
 20
1692.239071676715
 30
0.0
 11
1927.000653041193
 21
1692.239071676715
 31
0.0
  0
LINE
  5
D55
330
D51
100
AcDbEntity
  8
AM_5
  6
ByBlock
440
 16777216
100
AcDbLine
 10
1901.620932604508
 20
1676.999071676714
 30
0.0
 11
1927.000653041193
 21
1676.999071676714
 31
0.0
  0
LINE
  5
D56
330
D51
100
AcDbEntity
  8
AM_5
  6
ByBlock
440
 16777216
100
AcDbLine
 10
1926.000653041193
 20
1688.739071676715
 30
0.0
 11
1926.000653041193
 21
1680.499071676714
 31
0.0
  0
SOLID
  5
D57
330
D51
100
AcDbEntity
  8
AM_5
440
 16777216
100
AcDbTrace
 10
1925.41731970786
 20
1688.739071676715
 30
0.0
 11
1926.583986374527
 21
1688.739071676715
 31
0.0
 12
1926.000653041193
 22
1692.239071676715
 32
0.0
 13
1926.000653041193
 23
1692.239071676715
 33
0.0
  0
SOLID
  5
D58
330
D51
100
AcDbEntity
  8
AM_5
440
 16777216
100
AcDbTrace
 10
1925.41731970786
 20
1680.499071676714
 30
0.0
 11
1926.583986374527
 21
1680.499071676714
 31
0.0
 12
1926.000653041193
 22
1676.999071676714
 32
0.0
 13
1926.000653041193
 23
1676.999071676714
 33
0.0
  0
MTEXT
  5
D59
330
D51
100
AcDbEntity
  8
AM_5
 62
     2
440
 16777216
100
AcDbMText
 10
1922.750308553004
 20
1684.619071676715
 30
0.0
 40
3.5
 41
0.0
 46
0.0
 71
     5
 72
     1
  1
15.24
 11
0.0000000000000001
 21
1.0
 31
0.0
 73
     1
 44
1.0
  0
POINT
  5
D5A
330
D51
100
AcDbEntity
  8
Defpoints
 62
     0
440
 16777216
100
AcDbPoint
 10
1891.420932604509
 20
1692.239071676715
 30
0.0
  0
POINT
  5
D5B
330
D51
100
AcDbEntity
  8
Defpoints
 62
     0
440
 16777216
100
AcDbPoint
 10
1900.620932604509
 20
1676.999071676714
 30
0.0
  0
POINT
  5
D5C
330
D51
100
AcDbEntity
  8
Defpoints
 62
     0
440
 16777216
100
AcDbPoint
 10
1926.000653041193
 20
1676.999071676714
 30
0.0
  0
ENDBLK
  5
D53
330
D51
100
AcDbEntity
  8
0
100
AcDbBlockEnd
  0
BLOCK
  5
D5E
330
D5D
100
AcDbEntity
  8
0
100
AcDbBlockBegin
  2
*D37
 70
     1
 10
0.0
 20
0.0
 30
0.0
  3
*D37
  1

  0
LINE
  5
D60
330
D5D
100
AcDbEntity
  8
AM_5
  6
ByBlock
440
 16777216
100
AcDbLine
 10
1901.620932604508
 20
1676.999071676714
 30
0.0
 11
1927.000653041193
 21
1676.999071676714
 31
0.0
  0
LINE
  5
D61
330
D5D
100
AcDbEntity
  8
AM_5
  6
ByBlock
440
 16777216
100
AcDbLine
 10
1901.620932604508
 20
1474.039071676714
 30
0.0
 11
1927.000653041193
 21
1474.039071676714
 31
0.0
  0
LINE
  5
D62
330
D5D
100
AcDbEntity
  8
AM_5
  6
ByBlock
440
 16777216
100
AcDbLine
 10
1926.000653041193
 20
1673.499071676715
 30
0.0
 11
1926.000653041193
 21
1477.539071676714
 31
0.0
  0
SOLID
  5
D63
330
D5D
100
AcDbEntity
  8
AM_5
440
 16777216
100
AcDbTrace
 10
1925.41731970786
 20
1673.499071676715
 30
0.0
 11
1926.583986374527
 21
1673.499071676715
 31
0.0
 12
1926.000653041193
 22
1676.999071676714
 32
0.0
 13
1926.000653041193
 23
1676.999071676714
 33
0.0
  0
SOLID
  5
D64
330
D5D
100
AcDbEntity
  8
AM_5
440
 16777216
100
AcDbTrace
 10
1925.41731970786
 20
1477.539071676714
 30
0.0
 11
1926.583986374526
 21
1477.539071676714
 31
0.0
 12
1926.000653041193
 22
1474.039071676714
 32
0.0
 13
1926.000653041193
 23
1474.039071676714
 33
0.0
  0
MTEXT
  5
D65
330
D5D
100
AcDbEntity
  8
AM_5
 62
     2
440
 16777216
100
AcDbMText
 10
1922.750308553004
 20
1575.519071676715
 30
0.0
 40
3.5
 41
0.0
 46
0.0
 71
     5
 72
     1
  1
202.96
 11
0.0000000000000001
 21
1.0
 31
0.0
 73
     1
 44
1.0
  0
POINT
  5
D66
330
D5D
100
AcDbEntity
  8
Defpoints
 62
     0
440
 16777216
100
AcDbPoint
 10
1900.620932604509
 20
1676.999071676714
 30
0.0
  0
POINT
  5
D67
330
D5D
100
AcDbEntity
  8
Defpoints
 62
     0
440
 16777216
100
AcDbPoint
 10
1900.620932604509
 20
1474.039071676714
 30
0.0
  0
POINT
  5
D68
330
D5D
100
AcDbEntity
  8
Defpoints
 62
     0
440
 16777216
100
AcDbPoint
 10
1926.000653041193
 20
1474.039071676714
 30
0.0
  0
ENDBLK
  5
D5F
330
D5D
100
AcDbEntity
  8
0
100
AcDbBlockEnd
  0
BLOCK
  5
D6A
330
D69
100
AcDbEntity
  8
0
100
AcDbBlockBegin
  2
*D38
 70
     1
 10
0.0
 20
0.0
 30
0.0
  3
*D38
  1

  0
LINE
  5
D6C
330
D69
100
AcDbEntity
  8
AM_5
  6
ByBlock
440
 16777216
100
AcDbLine
 10
1901.620932604508
 20
1474.039071676714
 30
0.0
 11
1927.000653041193
 21
1474.039071676714
 31
0.0
  0
LINE
  5
D6D
330
D69
100
AcDbEntity
  8
AM_5
  6
ByBlock
440
 16777216
100
AcDbLine
 10
1870.620932604509
 20
1281.039071676715
 30
0.0
 11
1927.000653041193
 21
1281.039071676715
 31
0.0
  0
LINE
  5
D6E
330
D69
100
AcDbEntity
  8
AM_5
  6
ByBlock
440
 16777216
100
AcDbLine
 10
1926.000653041193
 20
1470.539071676715
 30
0.0
 11
1926.000653041193
 21
1284.539071676715
 31
0.0
  0
SOLID
  5
D6F
330
D69
100
AcDbEntity
  8
AM_5
440
 16777216
100
AcDbTrace
 10
1925.41731970786
 20
1470.539071676715
 30
0.0
 11
1926.583986374526
 21
1470.539071676715
 31
0.0
 12
1926.000653041193
 22
1474.039071676714
 32
0.0
 13
1926.000653041193
 23
1474.039071676714
 33
0.0
  0
SOLID
  5
D70
330
D69
100
AcDbEntity
  8
AM_5
440
 16777216
100
AcDbTrace
 10
1925.41731970786
 20
1284.539071676715
 30
0.0
 11
1926.583986374526
 21
1284.539071676715
 31
0.0
 12
1926.000653041193
 22
1281.039071676715
 32
0.0
 13
1926.000653041193
 23
1281.039071676715
 33
0.0
  0
MTEXT
  5
D71
330
D69
100
AcDbEntity
  8
AM_5
 62
     2
440
 16777216
100
AcDbMText
 10
1922.750653041193
 20
1377.539071676715
 30
0.0
 40
3.5
 41
0.0
 46
0.0
 71
     5
 72
     1
  1
193
 11
0.0000000000000001
 21
1.0
 31
0.0
 73
     1
 44
1.0
  0
POINT
  5
D72
330
D69
100
AcDbEntity
  8
Defpoints
 62
     0
440
 16777216
100
AcDbPoint
 10
1900.620932604509
 20
1474.039071676714
 30
0.0
  0
POINT
  5
D73
330
D69
100
AcDbEntity
  8
Defpoints
 62
     0
440
 16777216
100
AcDbPoint
 10
1869.620932604508
 20
1281.039071676715
 30
0.0
  0
POINT
  5
D74
330
D69
100
AcDbEntity
  8
Defpoints
 62
     0
440
 16777216
100
AcDbPoint
 10
1926.000653041193
 20
1281.039071676715
 30
0.0
  0
ENDBLK
  5
D6B
330
D69
100
AcDbEntity
  8
0
100
AcDbBlockEnd
  0
BLOCK
  5
D76
330
D75
100
AcDbEntity
  8
0
100
AcDbBlockBegin
  2
*D39
 70
     1
 10
0.0
 20
0.0
 30
0.0
  3
*D39
  1

  0
LINE
  5
D78
330
D75
100
AcDbEntity
  8
AM_5
  6
ByBlock
440
 16777216
100
AcDbLine
 10
2133.620932604509
 20
1574.519071676714
 30
0.0
 11
2133.620932604509
 21
1510.48319118312
 31
0.0
  0
LINE
  5
D79
330
D75
100
AcDbEntity
  8
AM_5
  6
ByBlock
440
 16777216
100
AcDbLine
 10
2184.620932604509
 20
1605.739071676714
 30
0.0
 11
2184.620932604509
 21
1510.48319118312
 31
0.0
  0
LINE
  5
D7A
330
D75
100
AcDbEntity
  8
AM_5
  6
ByBlock
440
 16777216
100
AcDbLine
 10
2137.120932604509
 20
1511.483191183121
 30
0.0
 11
2181.120932604509
 21
1511.483191183121
 31
0.0
  0
SOLID
  5
D7B
330
D75
100
AcDbEntity
  8
AM_5
440
 16777216
100
AcDbTrace
 10
2137.120932604509
 20
1512.066524516454
 30
0.0
 11
2137.120932604509
 21
1510.899857849787
 31
0.0
 12
2133.620932604509
 22
1511.483191183121
 32
0.0
 13
2133.620932604509
 23
1511.483191183121
 33
0.0
  0
SOLID
  5
D7C
330
D75
100
AcDbEntity
  8
AM_5
440
 16777216
100
AcDbTrace
 10
2181.120932604509
 20
1512.066524516454
 30
0.0
 11
2181.120932604509
 21
1510.899857849787
 31
0.0
 12
2184.620932604509
 22
1511.483191183121
 32
0.0
 13
2184.620932604509
 23
1511.483191183121
 33
0.0
  0
MTEXT
  5
D7D
330
D75
100
AcDbEntity
  8
AM_5
 62
     2
440
 16777216
100
AcDbMText
 10
2159.120932604508
 20
1514.73319118312
 30
0.0
 40
3.5
 41
0.0
 46
0.0
 71
     5
 72
     1
  1
51
 73
     1
 44
1.0
  0
POINT
  5
D7E
330
D75
100
AcDbEntity
  8
Defpoints
 62
     0
440
 16777216
100
AcDbPoint
 10
2133.620932604509
 20
1575.519071676715
 30
0.0
  0
POINT
  5
D7F
330
D75
100
AcDbEntity
  8
Defpoints
 62
     0
440
 16777216
100
AcDbPoint
 10
2184.620932604509
 20
1606.739071676714
 30
0.0
  0
POINT
  5
D80
330
D75
100
AcDbEntity
  8
Defpoints
 62
     0
440
 16777216
100
AcDbPoint
 10
2184.620932604509
 20
1511.483191183121
 30
0.0
  0
ENDBLK
  5
D77
330
D75
100
AcDbEntity
  8
0
100
AcDbBlockEnd
  0
BLOCK
  5
D82
330
D81
100
AcDbEntity
  8
0
100
AcDbBlockBegin
  2
*D40
 70
     1
 10
0.0
 20
0.0
 30
0.0
  3
*D40
  1

  0
LINE
  5
D84
330
D81
100
AcDbEntity
  8
AM_5
  6
ByBlock
440
 16777216
100
AcDbLine
 10
2133.620932604509
 20
1475.039071676714
 30
0.0
 11
2133.620932604509
 21
1512.48319118312
 31
0.0
  0
LINE
  5
D85
330
D81
100
AcDbEntity
  8
AM_5
  6
ByBlock
440
 16777216
100
AcDbLine
 10
1900.620932604509
 20
1475.039071676714
 30
0.0
 11
1900.620932604509
 21
1512.48319118312
 31
0.0
  0
LINE
  5
D86
330
D81
100
AcDbEntity
  8
AM_5
  6
ByBlock
440
 16777216
100
AcDbLine
 10
2130.120932604508
 20
1511.483191183121
 30
0.0
 11
1904.120932604509
 21
1511.483191183121
 31
0.0
  0
SOLID
  5
D87
330
D81
100
AcDbEntity
  8
AM_5
440
 16777216
100
AcDbTrace
 10
2130.120932604508
 20
1512.066524516454
 30
0.0
 11
2130.120932604508
 21
1510.899857849787
 31
0.0
 12
2133.620932604509
 22
1511.483191183121
 32
0.0
 13
2133.620932604509
 23
1511.483191183121
 33
0.0
  0
SOLID
  5
D88
330
D81
100
AcDbEntity
  8
AM_5
440
 16777216
100
AcDbTrace
 10
1904.120932604509
 20
1512.066524516454
 30
0.0
 11
1904.120932604509
 21
1510.899857849787
 31
0.0
 12
1900.620932604509
 22
1511.483191183121
 32
0.0
 13
1900.620932604509
 23
1511.483191183121
 33
0.0
  0
MTEXT
  5
D89
330
D81
100
AcDbEntity
  8
AM_5
 62
     2
440
 16777216
100
AcDbMText
 10
2017.120932604509
 20
1514.73353567131
 30
0.0
 40
3.5
 41
0.0
 46
0.0
 71
     5
 72
     1
  1
233
 73
     1
 44
1.0
  0
POINT
  5
D8A
330
D81
100
AcDbEntity
  8
Defpoints
 62
     0
440
 16777216
100
AcDbPoint
 10
2133.620932604509
 20
1474.039071676714
 30
0.0
  0
POINT
  5
D8B
330
D81
100
AcDbEntity
  8
Defpoints
 62
     0
440
 16777216
100
AcDbPoint
 10
1900.620932604509
 20
1474.039071676714
 30
0.0
  0
POINT
  5
D8C
330
D81
100
AcDbEntity
  8
Defpoints
 62
     0
440
 16777216
100
AcDbPoint
 10
1900.620932604509
 20
1511.483191183121
 30
0.0
  0
ENDBLK
  5
D83
330
D81
100
AcDbEntity
  8
0
100
AcDbBlockEnd
  0
BLOCK
  5
D8E
330
D8D
100
AcDbEntity
  8
0
100
AcDbBlockBegin
  2
*D41
 70
     1
 10
0.0
 20
0.0
 30
0.0
  3
*D41
  1

  0
LINE
  5
D90
330
D8D
100
AcDbEntity
  8
AM_5
  6
ByBlock
440
 16777216
100
AcDbLine
 10
1900.620932604509
 20
1475.039071676714
 30
0.0
 11
1900.620932604509
 21
1512.48319118312
 31
0.0
  0
LINE
  5
D91
330
D8D
100
AcDbEntity
  8
AM_5
  6
ByBlock
440
 16777216
100
AcDbLine
 10
1869.620932604508
 20
1605.739071676714
 30
0.0
 11
1869.620932604508
 21
1510.48319118312
 31
0.0
  0
LINE
  5
D92
330
D8D
100
AcDbEntity
  8
AM_5
  6
ByBlock
440
 16777216
100
AcDbLine
 10
1897.120932604509
 20
1511.483191183121
 30
0.0
 11
1873.120932604508
 21
1511.483191183121
 31
0.0
  0
SOLID
  5
D93
330
D8D
100
AcDbEntity
  8
AM_5
440
 16777216
100
AcDbTrace
 10
1897.120932604509
 20
1512.066524516454
 30
0.0
 11
1897.120932604509
 21
1510.899857849787
 31
0.0
 12
1900.620932604509
 22
1511.483191183121
 32
0.0
 13
1900.620932604509
 23
1511.483191183121
 33
0.0
  0
SOLID
  5
D94
330
D8D
100
AcDbEntity
  8
AM_5
440
 16777216
100
AcDbTrace
 10
1873.120932604508
 20
1512.066524516454
 30
0.0
 11
1873.120932604508
 21
1510.899857849787
 31
0.0
 12
1869.620932604508
 22
1511.483191183121
 32
0.0
 13
1869.620932604508
 23
1511.483191183121
 33
0.0
  0
MTEXT
  5
D95
330
D8D
100
AcDbEntity
  8
AM_5
 62
     2
440
 16777216
100
AcDbMText
 10
1885.120932604509
 20
1514.73319118312
 30
0.0
 40
3.5
 41
0.0
 46
0.0
 71
     5
 72
     1
  1
31
 73
     1
 44
1.0
  0
POINT
  5
D96
330
D8D
100
AcDbEntity
  8
Defpoints
 62
     0
440
 16777216
100
AcDbPoint
 10
1900.620932604509
 20
1474.039071676714
 30
0.0
  0
POINT
  5
D97
330
D8D
100
AcDbEntity
  8
Defpoints
 62
     0
440
 16777216
100
AcDbPoint
 10
1869.620932604508
 20
1606.739071676714
 30
0.0
  0
POINT
  5
D98
330
D8D
100
AcDbEntity
  8
Defpoints
 62
     0
440
 16777216
100
AcDbPoint
 10
1869.620932604508
 20
1511.483191183121
 30
0.0
  0
ENDBLK
  5
D8F
330
D8D
100
AcDbEntity
  8
0
100
AcDbBlockEnd
  0
BLOCK
  5
D9A
330
D99
100
AcDbEntity
  8
0
100
AcDbBlockBegin
  2
*D42
 70
     1
 10
0.0
 20
0.0
 30
0.0
  3
*D42
  1

  0
LINE
  5
D9C
330
D99
100
AcDbEntity
  8
AM_5
  6
ByBlock
440
 16777216
100
AcDbLine
 10
2184.620932604509
 20
1931.439071676715
 30
0.0
 11
2184.620932604509
 21
1740.699432851415
 31
0.0
  0
LINE
  5
D9D
330
D99
100
AcDbEntity
  8
AM_5
  6
ByBlock
440
 16777216
100
AcDbLine
 10
2162.820932604509
 20
1805.739071676714
 30
0.0
 11
2162.820932604509
 21
1740.699432851415
 31
0.0
  0
LINE
  5
D9E
330
D99
100
AcDbEntity
  8
AM_5
  6
ByBlock
440
 16777216
100
AcDbLine
 10
2181.120932604509
 20
1741.699432851414
 30
0.0
 11
2166.320932604509
 21
1741.699432851414
 31
0.0
  0
SOLID
  5
D9F
330
D99
100
AcDbEntity
  8
AM_5
440
 16777216
100
AcDbTrace
 10
2181.120932604509
 20
1742.282766184748
 30
0.0
 11
2181.120932604509
 21
1741.116099518081
 31
0.0
 12
2184.620932604509
 22
1741.699432851414
 32
0.0
 13
2184.620932604509
 23
1741.699432851414
 33
0.0
  0
SOLID
  5
DA0
330
D99
100
AcDbEntity
  8
AM_5
440
 16777216
100
AcDbTrace
 10
2166.320932604509
 20
1742.282766184748
 30
0.0
 11
2166.320932604509
 21
1741.116099518081
 31
0.0
 12
2162.820932604509
 22
1741.699432851414
 32
0.0
 13
2162.820932604509
 23
1741.699432851414
 33
0.0
  0
MTEXT
  5
DA1
330
D99
100
AcDbEntity
  8
AM_5
 62
     2
440
 16777216
100
AcDbMText
 10
2173.720932604509
 20
1744.949777339604
 30
0.0
 40
3.5
 41
0.0
 46
0.0
 71
     5
 72
     1
  1
21.8
 73
     1
 44
1.0
  0
POINT
  5
DA2
330
D99
100
AcDbEntity
  8
Defpoints
 62
     0
440
 16777216
100
AcDbPoint
 10
2184.620932604509
 20
1932.439071676714
 30
0.0
  0
POINT
  5
DA3
330
D99
100
AcDbEntity
  8
Defpoints
 62
     0
440
 16777216
100
AcDbPoint
 10
2162.820932604509
 20
1806.739071676714
 30
0.0
  0
POINT
  5
DA4
330
D99
100
AcDbEntity
  8
Defpoints
 62
     0
440
 16777216
100
AcDbPoint
 10
2162.820932604509
 20
1741.699432851414
 30
0.0
  0
ENDBLK
  5
D9B
330
D99
100
AcDbEntity
  8
0
100
AcDbBlockEnd
  0
BLOCK
  5
DA6
330
DA5
100
AcDbEntity
  8
0
100
AcDbBlockBegin
  2
*D43
 70
     1
 10
0.0
 20
0.0
 30
0.0
  3
*D43
  1

  0
LINE
  5
DA8
330
DA5
100
AcDbEntity
  8
AM_5
  6
ByBlock
440
 16777216
100
AcDbLine
 10
2162.820932604509
 20
1693.239071676714
 30
0.0
 11
2162.820932604509
 21
1742.699432851415
 31
0.0
  0
LINE
  5
DA9
330
DA5
100
AcDbEntity
  8
AM_5
  6
ByBlock
440
 16777216
100
AcDbLine
 10
1891.420932604509
 20
1693.239071676714
 30
0.0
 11
1891.420932604509
 21
1742.699432851415
 31
0.0
  0
LINE
  5
DAA
330
DA5
100
AcDbEntity
  8
AM_5
  6
ByBlock
440
 16777216
100
AcDbLine
 10
2159.320932604509
 20
1741.699432851414
 30
0.0
 11
1894.920932604509
 21
1741.699432851414
 31
0.0
  0
SOLID
  5
DAB
330
DA5
100
AcDbEntity
  8
AM_5
440
 16777216
100
AcDbTrace
 10
2159.320932604509
 20
1742.282766184748
 30
0.0
 11
2159.320932604509
 21
1741.116099518081
 31
0.0
 12
2162.820932604509
 22
1741.699432851414
 32
0.0
 13
2162.820932604509
 23
1741.699432851414
 33
0.0
  0
SOLID
  5
DAC
330
DA5
100
AcDbEntity
  8
AM_5
440
 16777216
100
AcDbTrace
 10
1894.920932604509
 20
1742.282766184748
 30
0.0
 11
1894.920932604509
 21
1741.116099518081
 31
0.0
 12
1891.420932604509
 22
1741.699432851414
 32
0.0
 13
1891.420932604509
 23
1741.699432851414
 33
0.0
  0
MTEXT
  5
DAD
330
DA5
100
AcDbEntity
  8
AM_5
 62
     2
440
 16777216
100
AcDbMText
 10
2027.120932604509
 20
1744.949777339604
 30
0.0
 40
3.5
 41
0.0
 46
0.0
 71
     5
 72
     1
  1
271.4
 73
     1
 44
1.0
  0
POINT
  5
DAE
330
DA5
100
AcDbEntity
  8
Defpoints
 62
     0
440
 16777216
100
AcDbPoint
 10
2162.820932604509
 20
1692.239071676714
 30
0.0
  0
POINT
  5
DAF
330
DA5
100
AcDbEntity
  8
Defpoints
 62
     0
440
 16777216
100
AcDbPoint
 10
1891.420932604509
 20
1692.239071676715
 30
0.0
  0
POINT
  5
DB0
330
DA5
100
AcDbEntity
  8
Defpoints
 62
     0
440
 16777216
100
AcDbPoint
 10
1891.420932604509
 20
1741.699432851414
 30
0.0
  0
ENDBLK
  5
DA7
330
DA5
100
AcDbEntity
  8
0
100
AcDbBlockEnd
  0
BLOCK
  5
DB2
330
DB1
100
AcDbEntity
  8
0
100
AcDbBlockBegin
  2
*D44
 70
     1
 10
0.0
 20
0.0
 30
0.0
  3
*D44
  1

  0
LINE
  5
DB4
330
DB1
100
AcDbEntity
  8
AM_5
  6
ByBlock
440
 16777216
100
AcDbLine
 10
1891.420932604509
 20
1693.239071676714
 30
0.0
 11
1891.420932604509
 21
1742.699432851415
 31
0.0
  0
LINE
  5
DB5
330
DB1
100
AcDbEntity
  8
AM_5
  6
ByBlock
440
 16777216
100
AcDbLine
 10
1869.620932604508
 20
1607.739071676714
 30
0.0
 11
1869.620932604508
 21
1742.699432851415
 31
0.0
  0
LINE
  5
DB6
330
DB1
100
AcDbEntity
  8
AM_5
  6
ByBlock
440
 16777216
100
AcDbLine
 10
1887.920932604509
 20
1741.699432851414
 30
0.0
 11
1873.120932604508
 21
1741.699432851414
 31
0.0
  0
SOLID
  5
DB7
330
DB1
100
AcDbEntity
  8
AM_5
440
 16777216
100
AcDbTrace
 10
1887.920932604509
 20
1742.282766184748
 30
0.0
 11
1887.920932604509
 21
1741.116099518081
 31
0.0
 12
1891.420932604509
 22
1741.699432851414
 32
0.0
 13
1891.420932604509
 23
1741.699432851414
 33
0.0
  0
SOLID
  5
DB8
330
DB1
100
AcDbEntity
  8
AM_5
440
 16777216
100
AcDbTrace
 10
1873.120932604508
 20
1742.282766184748
 30
0.0
 11
1873.120932604508
 21
1741.116099518081
 31
0.0
 12
1869.620932604508
 22
1741.699432851414
 32
0.0
 13
1869.620932604508
 23
1741.699432851414
 33
0.0
  0
MTEXT
  5
DB9
330
DB1
100
AcDbEntity
  8
AM_5
 62
     2
440
 16777216
100
AcDbMText
 10
1880.520932604509
 20
1744.949777339604
 30
0.0
 40
3.5
 41
0.0
 46
0.0
 71
     5
 72
     1
  1
21.8
 73
     1
 44
1.0
  0
POINT
  5
DBA
330
DB1
100
AcDbEntity
  8
Defpoints
 62
     0
440
 16777216
100
AcDbPoint
 10
1891.420932604509
 20
1692.239071676715
 30
0.0
  0
POINT
  5
DBB
330
DB1
100
AcDbEntity
  8
Defpoints
 62
     0
440
 16777216
100
AcDbPoint
 10
1869.620932604508
 20
1606.739071676714
 30
0.0
  0
POINT
  5
DBC
330
DB1
100
AcDbEntity
  8
Defpoints
 62
     0
440
 16777216
100
AcDbPoint
 10
1869.620932604508
 20
1741.699432851414
 30
0.0
  0
ENDBLK
  5
DB3
330
DB1
100
AcDbEntity
  8
0
100
AcDbBlockEnd
  0
BLOCK
  5
DBE
330
DBD
100
AcDbEntity
  8
0
100
AcDbBlockBegin
  2
*D45
 70
     1
 10
0.0
 20
0.0
 30
0.0
  3
*D45
  1

  0
LINE
  5
DC0
330
DBD
100
AcDbEntity
  8
AM_5
  6
ByBlock
440
 16777216
100
AcDbLine
 10
2185.620932604509
 20
1932.439071676714
 30
0.0
 11
2212.647406003129
 21
1932.439071676714
 31
0.0
  0
LINE
  5
DC1
330
DBD
100
AcDbEntity
  8
AM_5
  6
ByBlock
440
 16777216
100
AcDbLine
 10
2185.620932604509
 20
1281.039071676715
 30
0.0
 11
2212.647406003129
 21
1281.039071676715
 31
0.0
  0
LINE
  5
DC2
330
DBD
100
AcDbEntity
  8
AM_5
  6
ByBlock
440
 16777216
100
AcDbLine
 10
2211.647406003129
 20
1928.939071676714
 30
0.0
 11
2211.647406003129
 21
1284.539071676715
 31
0.0
  0
SOLID
  5
DC3
330
DBD
100
AcDbEntity
  8
AM_5
440
 16777216
100
AcDbTrace
 10
2211.064072669795
 20
1928.939071676714
 30
0.0
 11
2212.230739336462
 21
1928.939071676714
 31
0.0
 12
2211.647406003129
 22
1932.439071676714
 32
0.0
 13
2211.647406003129
 23
1932.439071676714
 33
0.0
  0
SOLID
  5
DC4
330
DBD
100
AcDbEntity
  8
AM_5
440
 16777216
100
AcDbTrace
 10
2211.064072669795
 20
1284.539071676715
 30
0.0
 11
2212.230739336462
 21
1284.539071676715
 31
0.0
 12
2211.647406003129
 22
1281.039071676715
 32
0.0
 13
2211.647406003129
 23
1281.039071676715
 33
0.0
  0
MTEXT
  5
DC5
330
DBD
100
AcDbEntity
  8
AM_5
 62
     2
440
 16777216
100
AcDbMText
 10
2208.397406003129
 20
1606.739071676714
 30
0.0
 40
3.5
 41
0.0
 46
0.0
 71
     5
 72
     1
  1
651.4
 11
0.0000000000000001
 21
1.0
 31
0.0
 73
     1
 44
1.0
  0
POINT
  5
DC6
330
DBD
100
AcDbEntity
  8
Defpoints
 62
     0
440
 16777216
100
AcDbPoint
 10
2184.620932604509
 20
1932.439071676714
 30
0.0
  0
POINT
  5
DC7
330
DBD
100
AcDbEntity
  8
Defpoints
 62
     0
440
 16777216
100
AcDbPoint
 10
2184.620932604509
 20
1281.039071676715
 30
0.0
  0
POINT
  5
DC8
330
DBD
100
AcDbEntity
  8
Defpoints
 62
     0
440
 16777216
100
AcDbPoint
 10
2211.647406003129
 20
1281.039071676715
 30
0.0
  0
ENDBLK
  5
DBF
330
DBD
100
AcDbEntity
  8
0
100
AcDbBlockEnd
  0
BLOCK
  5
DCA
330
DC9
100
AcDbEntity
  8
0
100
AcDbBlockBegin
  2
*D46
 70
     1
 10
0.0
 20
0.0
 30
0.0
  3
*D46
  1

  0
LINE
  5
DCC
330
DC9
100
AcDbEntity
  8
AM_5
  6
ByBlock
440
 16777216
100
AcDbLine
 10
2184.620932604509
 20
1280.039071676714
 30
0.0
 11
2184.620932604509
 21
1258.285471539395
 31
0.0
  0
LINE
  5
DCD
330
DC9
100
AcDbEntity
  8
AM_5
  6
ByBlock
440
 16777216
100
AcDbLine
 10
1869.620932604508
 20
1280.039071676714
 30
0.0
 11
1869.620932604508
 21
1258.285471539396
 31
0.0
  0
LINE
  5
DCE
330
DC9
100
AcDbEntity
  8
AM_5
  6
ByBlock
440
 16777216
100
AcDbLine
 10
2181.120932604509
 20
1259.285471539395
 30
0.0
 11
1873.120932604508
 21
1259.285471539396
 31
0.0
  0
SOLID
  5
DCF
330
DC9
100
AcDbEntity
  8
AM_5
440
 16777216
100
AcDbTrace
 10
2181.120932604509
 20
1259.868804872729
 30
0.0
 11
2181.120932604509
 21
1258.702138206062
 31
0.0
 12
2184.620932604509
 22
1259.285471539395
 32
0.0
 13
2184.620932604509
 23
1259.285471539395
 33
0.0
  0
SOLID
  5
DD0
330
DC9
100
AcDbEntity
  8
AM_5
440
 16777216
100
AcDbTrace
 10
1873.120932604508
 20
1259.868804872729
 30
0.0
 11
1873.120932604508
 21
1258.702138206063
 31
0.0
 12
1869.620932604508
 22
1259.285471539396
 32
0.0
 13
1869.620932604508
 23
1259.285471539396
 33
0.0
  0
MTEXT
  5
DD1
330
DC9
100
AcDbEntity
  8
AM_5
 62
     2
440
 16777216
100
AcDbMText
 10
2027.120932604509
 20
1262.535471539395
 30
0.0
 40
3.5
 41
0.0
 46
0.0
 71
     5
 72
     1
  1
315
 73
     1
 44
1.0
  0
POINT
  5
DD2
330
DC9
100
AcDbEntity
  8
Defpoints
 62
     0
440
 16777216
100
AcDbPoint
 10
2184.620932604509
 20
1281.039071676715
 30
0.0
  0
POINT
  5
DD3
330
DC9
100
AcDbEntity
  8
Defpoints
 62
     0
440
 16777216
100
AcDbPoint
 10
1869.620932604508
 20
1281.039071676715
 30
0.0
  0
POINT
  5
DD4
330
DC9
100
AcDbEntity
  8
Defpoints
 62
     0
440
 16777216
100
AcDbPoint
 10
1869.620932604508
 20
1259.285471539396
 30
0.0
  0
ENDBLK
  5
DCB
330
DC9
100
AcDbEntity
  8
0
100
AcDbBlockEnd
  0
BLOCK
  5
DD6
330
DD5
100
AcDbEntity
  8
0
100
AcDbBlockBegin
  2
*D47
 70
     1
 10
0.0
 20
0.0
 30
0.0
  3
*D47
  1

  0
LINE
  5
DD8
330
DD5
100
AcDbEntity
  8
AM_5
  6
ByBlock
440
 16777216
100
AcDbLine
 10
2183.620932604509
 20
1281.039071676715
 30
0.0
 11
2157.320932604509
 21
1281.039071676715
 31
0.0
  0
LINE
  5
DD9
330
DD5
100
AcDbEntity
  8
AM_5
  6
ByBlock
440
 16777216
100
AcDbLine
 10
2169.320932604509
 20
1303.239071676715
 30
0.0
 11
2157.320932604509
 21
1303.239071676715
 31
0.0
  0
LINE
  5
DDA
330
DD5
100
AcDbEntity
  8
AM_5
  6
ByBlock
440
 16777216
100
AcDbLine
 10
2158.320932604509
 20
1284.539071676715
 30
0.0
 11
2158.320932604509
 21
1299.739071676715
 31
0.0
  0
SOLID
  5
DDB
330
DD5
100
AcDbEntity
  8
AM_5
440
 16777216
100
AcDbTrace
 10
2157.737599271175
 20
1284.539071676715
 30
0.0
 11
2158.904265937843
 21
1284.539071676715
 31
0.0
 12
2158.320932604509
 22
1281.039071676715
 32
0.0
 13
2158.320932604509
 23
1281.039071676715
 33
0.0
  0
SOLID
  5
DDC
330
DD5
100
AcDbEntity
  8
AM_5
440
 16777216
100
AcDbTrace
 10
2157.737599271175
 20
1299.739071676715
 30
0.0
 11
2158.904265937843
 21
1299.739071676715
 31
0.0
 12
2158.320932604509
 22
1303.239071676715
 32
0.0
 13
2158.320932604509
 23
1303.239071676715
 33
0.0
  0
MTEXT
  5
DDD
330
DD5
100
AcDbEntity
  8
AM_5
 62
     2
440
 16777216
100
AcDbMText
 10
2155.070588116319
 20
1292.139071676715
 30
0.0
 40
3.5
 41
0.0
 46
0.0
 71
     5
 72
     1
  1
22.2
 11
0.0000000000000001
 21
1.0
 31
0.0
 73
     1
 44
1.0
  0
POINT
  5
DDE
330
DD5
100
AcDbEntity
  8
Defpoints
 62
     0
440
 16777216
100
AcDbPoint
 10
2184.620932604509
 20
1281.039071676715
 30
0.0
  0
POINT
  5
DDF
330
DD5
100
AcDbEntity
  8
Defpoints
 62
     0
440
 16777216
100
AcDbPoint
 10
2170.320932604509
 20
1303.239071676715
 30
0.0
  0
POINT
  5
DE0
330
DD5
100
AcDbEntity
  8
Defpoints
 62
     0
440
 16777216
100
AcDbPoint
 10
2158.320932604509
 20
1303.239071676715
 30
0.0
  0
ENDBLK
  5
DD7
330
DD5
100
AcDbEntity
  8
0
100
AcDbBlockEnd
  0
BLOCK
  5
DE2
330
DE1
100
AcDbEntity
  8
0
100
AcDbBlockBegin
  2
*D48
 70
     1
 10
0.0
 20
0.0
 30
0.0
  3
*D48
  1

  0
LINE
  5
DE4
330
DE1
100
AcDbEntity
  8
AM_5
  6
ByBlock
440
 16777216
100
AcDbLine
 10
2184.620932604509
 20
1282.039071676714
 30
0.0
 11
2184.620932604509
 21
1316.239071676714
 31
0.0
  0
LINE
  5
DE5
330
DE1
100
AcDbEntity
  8
AM_5
  6
ByBlock
440
 16777216
100
AcDbLine
 10
2170.320932604509
 20
1304.239071676715
 30
0.0
 11
2170.320932604509
 21
1316.239071676714
 31
0.0
  0
LINE
  5
DE6
330
DE1
100
AcDbEntity
  8
AM_5
  6
ByBlock
440
 16777216
100
AcDbLine
 10
2181.120932604509
 20
1315.239071676715
 30
0.0
 11
2173.820932604509
 21
1315.239071676715
 31
0.0
  0
SOLID
  5
DE7
330
DE1
100
AcDbEntity
  8
AM_5
440
 16777216
100
AcDbTrace
 10
2181.120932604509
 20
1315.822405010048
 30
0.0
 11
2181.120932604509
 21
1314.655738343381
 31
0.0
 12
2184.620932604509
 22
1315.239071676715
 32
0.0
 13
2184.620932604509
 23
1315.239071676715
 33
0.0
  0
SOLID
  5
DE8
330
DE1
100
AcDbEntity
  8
AM_5
440
 16777216
100
AcDbTrace
 10
2173.820932604509
 20
1315.822405010048
 30
0.0
 11
2173.820932604509
 21
1314.655738343381
 31
0.0
 12
2170.320932604509
 22
1315.239071676715
 32
0.0
 13
2170.320932604509
 23
1315.239071676715
 33
0.0
  0
MTEXT
  5
DE9
330
DE1
100
AcDbEntity
  8
AM_5
 62
     2
440
 16777216
100
AcDbMText
 10
2177.470932604509
 20
1318.489071676715
 30
0.0
 40
3.5
 41
0.0
 46
0.0
 71
     5
 72
     1
  1
14.3
 73
     1
 44
1.0
  0
POINT
  5
DEA
330
DE1
100
AcDbEntity
  8
Defpoints
 62
     0
440
 16777216
100
AcDbPoint
 10
2184.620932604509
 20
1281.039071676715
 30
0.0
  0
POINT
  5
DEB
330
DE1
100
AcDbEntity
  8
Defpoints
 62
     0
440
 16777216
100
AcDbPoint
 10
2170.320932604509
 20
1303.239071676715
 30
0.0
  0
POINT
  5
DEC
330
DE1
100
AcDbEntity
  8
Defpoints
 62
     0
440
 16777216
100
AcDbPoint
 10
2170.320932604509
 20
1315.239071676715
 30
0.0
  0
ENDBLK
  5
DE3
330
DE1
100
AcDbEntity
  8
0
100
AcDbBlockEnd
  0
BLOCK
  5
DEE
330
DED
100
AcDbEntity
  8
0
100
AcDbBlockBegin
  2
*D49
 70
     1
 10
0.0
 20
0.0
 30
0.0
  3
*D49
  1

  0
LINE
  5
DF0
330
DED
100
AcDbEntity
  8
AM_5
  6
ByBlock
440
 16777216
100
AcDbLine
 10
1870.620932604509
 20
1281.039071676715
 30
0.0
 11
1896.920932604508
 21
1281.039071676715
 31
0.0
  0
LINE
  5
DF1
330
DED
100
AcDbEntity
  8
AM_5
  6
ByBlock
440
 16777216
100
AcDbLine
 10
1884.920932604509
 20
1303.239071676715
 30
0.0
 11
1896.920932604508
 21
1303.239071676715
 31
0.0
  0
LINE
  5
DF2
330
DED
100
AcDbEntity
  8
AM_5
  6
ByBlock
440
 16777216
100
AcDbLine
 10
1895.920932604509
 20
1284.539071676715
 30
0.0
 11
1895.920932604509
 21
1299.739071676715
 31
0.0
  0
SOLID
  5
DF3
330
DED
100
AcDbEntity
  8
AM_5
440
 16777216
100
AcDbTrace
 10
1895.337599271175
 20
1284.539071676715
 30
0.0
 11
1896.504265937842
 21
1284.539071676715
 31
0.0
 12
1895.920932604509
 22
1281.039071676715
 32
0.0
 13
1895.920932604509
 23
1281.039071676715
 33
0.0
  0
SOLID
  5
DF4
330
DED
100
AcDbEntity
  8
AM_5
440
 16777216
100
AcDbTrace
 10
1895.337599271175
 20
1299.739071676715
 30
0.0
 11
1896.504265937842
 21
1299.739071676715
 31
0.0
 12
1895.920932604509
 22
1303.239071676715
 32
0.0
 13
1895.920932604509
 23
1303.239071676715
 33
0.0
  0
MTEXT
  5
DF5
330
DED
100
AcDbEntity
  8
AM_5
 62
     2
440
 16777216
100
AcDbMText
 10
1892.670588116319
 20
1292.139071676715
 30
0.0
 40
3.5
 41
0.0
 46
0.0
 71
     5
 72
     1
  1
22.2
 11
0.0000000000000001
 21
1.0
 31
0.0
 73
     1
 44
1.0
  0
POINT
  5
DF6
330
DED
100
AcDbEntity
  8
Defpoints
 62
     0
440
 16777216
100
AcDbPoint
 10
1869.620932604508
 20
1281.039071676715
 30
0.0
  0
POINT
  5
DF7
330
DED
100
AcDbEntity
  8
Defpoints
 62
     0
440
 16777216
100
AcDbPoint
 10
1883.920932604508
 20
1303.239071676715
 30
0.0
  0
POINT
  5
DF8
330
DED
100
AcDbEntity
  8
Defpoints
 62
     0
440
 16777216
100
AcDbPoint
 10
1895.920932604509
 20
1303.239071676715
 30
0.0
  0
ENDBLK
  5
DEF
330
DED
100
AcDbEntity
  8
0
100
AcDbBlockEnd
  0
BLOCK
  5
DFA
330
DF9
100
AcDbEntity
  8
0
100
AcDbBlockBegin
  2
*D50
 70
     1
 10
0.0
 20
0.0
 30
0.0
  3
*D50
  1

  0
LINE
  5
DFC
330
DF9
100
AcDbEntity
  8
AM_5
  6
ByBlock
440
 16777216
100
AcDbLine
 10
1869.620932604508
 20
1282.039071676714
 30
0.0
 11
1869.620932604508
 21
1316.239071676714
 31
0.0
  0
LINE
  5
DFD
330
DF9
100
AcDbEntity
  8
AM_5
  6
ByBlock
440
 16777216
100
AcDbLine
 10
1883.920932604508
 20
1304.239071676715
 30
0.0
 11
1883.920932604508
 21
1316.239071676714
 31
0.0
  0
LINE
  5
DFE
330
DF9
100
AcDbEntity
  8
AM_5
  6
ByBlock
440
 16777216
100
AcDbLine
 10
1873.120932604508
 20
1315.239071676715
 30
0.0
 11
1880.420932604508
 21
1315.239071676715
 31
0.0
  0
SOLID
  5
DFF
330
DF9
100
AcDbEntity
  8
AM_5
440
 16777216
100
AcDbTrace
 10
1873.120932604508
 20
1315.822405010048
 30
0.0
 11
1873.120932604508
 21
1314.655738343381
 31
0.0
 12
1869.620932604508
 22
1315.239071676715
 32
0.0
 13
1869.620932604508
 23
1315.239071676715
 33
0.0
  0
SOLID
  5
E00
330
DF9
100
AcDbEntity
  8
AM_5
440
 16777216
100
AcDbTrace
 10
1880.420932604508
 20
1315.822405010048
 30
0.0
 11
1880.420932604508
 21
1314.655738343381
 31
0.0
 12
1883.920932604508
 22
1315.239071676715
 32
0.0
 13
1883.920932604508
 23
1315.239071676715
 33
0.0
  0
MTEXT
  5
E01
330
DF9
100
AcDbEntity
  8
AM_5
 62
     2
440
 16777216
100
AcDbMText
 10
1876.770932604509
 20
1318.489071676715
 30
0.0
 40
3.5
 41
0.0
 46
0.0
 71
     5
 72
     1
  1
14.3
 73
     1
 44
1.0
  0
POINT
  5
E02
330
DF9
100
AcDbEntity
  8
Defpoints
 62
     0
440
 16777216
100
AcDbPoint
 10
1869.620932604508
 20
1281.039071676715
 30
0.0
  0
POINT
  5
E03
330
DF9
100
AcDbEntity
  8
Defpoints
 62
     0
440
 16777216
100
AcDbPoint
 10
1883.920932604508
 20
1303.239071676715
 30
0.0
  0
POINT
  5
E04
330
DF9
100
AcDbEntity
  8
Defpoints
 62
     0
440
 16777216
100
AcDbPoint
 10
1883.920932604508
 20
1315.239071676715
 30
0.0
  0
ENDBLK
  5
DFB
330
DF9
100
AcDbEntity
  8
0
100
AcDbBlockEnd
  0
BLOCK
  5
E06
330
E05
100
AcDbEntity
  8
0
100
AcDbBlockBegin
  2
*D51
 70
     1
 10
0.0
 20
0.0
 30
0.0
  3
*D51
  1

  0
LINE
  5
E08
330
E05
100
AcDbEntity
  8
AM_5
  6
ByBlock
440
 16777216
100
AcDbLine
 10
1892.420932604508
 20
1921.239071676714
 30
0.0
 11
1927.000653041193
 21
1921.239071676714
 31
0.0
  0
LINE
  5
E09
330
E05
100
AcDbEntity
  8
AM_5
  6
ByBlock
440
 16777216
100
AcDbLine
 10
1870.620932604509
 20
1932.439071676714
 30
0.0
 11
1927.000653041193
 21
1932.439071676714
 31
0.0
  0
LINE
  5
E0A
330
E05
100
AcDbEntity
  8
AM_5
  6
ByBlock
440
 16777216
100
AcDbLine
 10
1926.000653041193
 20
1924.739071676714
 30
0.0
 11
1926.000653041193
 21
1928.939071676714
 31
0.0
  0
SOLID
  5
E0B
330
E05
100
AcDbEntity
  8
AM_5
440
 16777216
100
AcDbTrace
 10
1925.417319707859
 20
1924.739071676714
 30
0.0
 11
1926.583986374526
 21
1924.739071676714
 31
0.0
 12
1926.000653041193
 22
1921.239071676714
 32
0.0
 13
1926.000653041193
 23
1921.239071676714
 33
0.0
  0
SOLID
  5
E0C
330
E05
100
AcDbEntity
  8
AM_5
440
 16777216
100
AcDbTrace
 10
1925.417319707859
 20
1928.939071676714
 30
0.0
 11
1926.583986374526
 21
1928.939071676714
 31
0.0
 12
1926.000653041193
 22
1932.439071676714
 32
0.0
 13
1926.000653041193
 23
1932.439071676714
 33
0.0
  0
MTEXT
  5
E0D
330
E05
100
AcDbEntity
  8
AM_5
 62
     2
440
 16777216
100
AcDbMText
 10
1922.750308553003
 20
1926.839071676715
 30
0.0
 40
3.5
 41
0.0
 46
0.0
 71
     5
 72
     1
  1
11.2
 11
0.0000000000000001
 21
1.0
 31
0.0
 73
     1
 44
1.0
  0
POINT
  5
E0E
330
E05
100
AcDbEntity
  8
Defpoints
 62
     0
440
 16777216
100
AcDbPoint
 10
1891.420932604509
 20
1921.239071676714
 30
0.0
  0
POINT
  5
E0F
330
E05
100
AcDbEntity
  8
Defpoints
 62
     0
440
 16777216
100
AcDbPoint
 10
1869.620932604508
 20
1932.439071676714
 30
0.0
  0
POINT
  5
E10
330
E05
100
AcDbEntity
  8
Defpoints
 62
     0
440
 16777216
100
AcDbPoint
 10
1926.000653041193
 20
1932.439071676714
 30
0.0
  0
ENDBLK
  5
E07
330
E05
100
AcDbEntity
  8
0
100
AcDbBlockEnd
  0
BLOCK
  5
E12
330
E11
100
AcDbEntity
  8
0
100
AcDbBlockBegin
  2
*D52
 70
     1
 10
0.0
 20
0.0
 30
0.0
  3
*D52
  1

  0
LINE
  5
E14
330
E11
100
AcDbEntity
  8
AM_5
  6
ByBlock
440
 16777216
100
AcDbLine
 10
2185.620932604509
 20
1932.439071676714
 30
0.0
 11
2197.620932604508
 21
1932.439071676714
 31
0.0
  0
LINE
  5
E15
330
E11
100
AcDbEntity
  8
AM_5
  6
ByBlock
440
 16777216
100
AcDbLine
 10
2171.320932604509
 20
1908.239071676715
 30
0.0
 11
2197.620932604508
 21
1908.239071676715
 31
0.0
  0
LINE
  5
E16
330
E11
100
AcDbEntity
  8
AM_5
  6
ByBlock
440
 16777216
100
AcDbLine
 10
2196.620932604508
 20
1928.939071676714
 30
0.0
 11
2196.620932604508
 21
1911.739071676714
 31
0.0
  0
SOLID
  5
E17
330
E11
100
AcDbEntity
  8
AM_5
440
 16777216
100
AcDbTrace
 10
2196.037599271175
 20
1928.939071676714
 30
0.0
 11
2197.204265937842
 21
1928.939071676714
 31
0.0
 12
2196.620932604508
 22
1932.439071676714
 32
0.0
 13
2196.620932604508
 23
1932.439071676714
 33
0.0
  0
SOLID
  5
E18
330
E11
100
AcDbEntity
  8
AM_5
440
 16777216
100
AcDbTrace
 10
2196.037599271175
 20
1911.739071676714
 30
0.0
 11
2197.204265937842
 21
1911.739071676714
 31
0.0
 12
2196.620932604508
 22
1908.239071676715
 32
0.0
 13
2196.620932604508
 23
1908.239071676715
 33
0.0
  0
MTEXT
  5
E19
330
E11
100
AcDbEntity
  8
AM_5
 62
     2
440
 16777216
100
AcDbMText
 10
2193.370588116319
 20
1920.339071676714
 30
0.0
 40
3.5
 41
0.0
 46
0.0
 71
     5
 72
     1
  1
24.2
 11
0.0000000000000001
 21
1.0
 31
0.0
 73
     1
 44
1.0
  0
POINT
  5
E1A
330
E11
100
AcDbEntity
  8
Defpoints
 62
     0
440
 16777216
100
AcDbPoint
 10
2184.620932604509
 20
1932.439071676714
 30
0.0
  0
POINT
  5
E1B
330
E11
100
AcDbEntity
  8
Defpoints
 62
     0
440
 16777216
100
AcDbPoint
 10
2170.320932604509
 20
1908.239071676715
 30
0.0
  0
POINT
  5
E1C
330
E11
100
AcDbEntity
  8
Defpoints
 62
     0
440
 16777216
100
AcDbPoint
 10
2196.620932604508
 20
1908.239071676715
 30
0.0
  0
ENDBLK
  5
E13
330
E11
100
AcDbEntity
  8
0
100
AcDbBlockEnd
  0
BLOCK
  5
E1E
330
E1D
100
AcDbEntity
  8
0
100
AcDbBlockBegin
  2
*D53
 70
     1
 10
0.0
 20
0.0
 30
0.0
  3
*D53
  1

  0
LINE
  5
E20
330
E1D
100
AcDbEntity
  8
AM_5
  6
ByBlock
440
 16777216
100
AcDbLine
 10
2184.620932604509
 20
1933.439071676714
 30
0.0
 11
2184.620932604509
 21
1945.439072676714
 31
0.0
  0
LINE
  5
E21
330
E1D
100
AcDbEntity
  8
AM_5
  6
ByBlock
440
 16777216
100
AcDbLine
 10
2170.320932604509
 20
1909.239071676714
 30
0.0
 11
2170.320932604509
 21
1945.439072676714
 31
0.0
  0
LINE
  5
E22
330
E1D
100
AcDbEntity
  8
AM_5
  6
ByBlock
440
 16777216
100
AcDbLine
 10
2181.120932604509
 20
1944.439072676714
 30
0.0
 11
2173.820932604509
 21
1944.439072676714
 31
0.0
  0
SOLID
  5
E23
330
E1D
100
AcDbEntity
  8
AM_5
440
 16777216
100
AcDbTrace
 10
2181.120932604509
 20
1945.022406010048
 30
0.0
 11
2181.120932604509
 21
1943.855739343381
 31
0.0
 12
2184.620932604509
 22
1944.439072676714
 32
0.0
 13
2184.620932604509
 23
1944.439072676714
 33
0.0
  0
SOLID
  5
E24
330
E1D
100
AcDbEntity
  8
AM_5
440
 16777216
100
AcDbTrace
 10
2173.820932604509
 20
1945.022406010048
 30
0.0
 11
2173.820932604509
 21
1943.855739343381
 31
0.0
 12
2170.320932604509
 22
1944.439072676714
 32
0.0
 13
2170.320932604509
 23
1944.439072676714
 33
0.0
  0
MTEXT
  5
E25
330
E1D
100
AcDbEntity
  8
AM_5
 62
     2
440
 16777216
100
AcDbMText
 10
2177.470932604509
 20
1947.689072676715
 30
0.0
 40
3.5
 41
0.0
 46
0.0
 71
     5
 72
     1
  1
14.3
 73
     1
 44
1.0
  0
POINT
  5
E26
330
E1D
100
AcDbEntity
  8
Defpoints
 62
     0
440
 16777216
100
AcDbPoint
 10
2184.620932604509
 20
1932.439071676714
 30
0.0
  0
POINT
  5
E27
330
E1D
100
AcDbEntity
  8
Defpoints
 62
     0
440
 16777216
100
AcDbPoint
 10
2170.320932604509
 20
1908.239071676715
 30
0.0
  0
POINT
  5
E28
330
E1D
100
AcDbEntity
  8
Defpoints
 62
     0
440
 16777216
100
AcDbPoint
 10
2170.320932604509
 20
1944.439072676714
 30
0.0
  0
ENDBLK
  5
E1F
330
E1D
100
AcDbEntity
  8
0
100
AcDbBlockEnd
  0
BLOCK
  5
E2A
330
E29
100
AcDbEntity
  8
0
100
AcDbBlockBegin
  2
*D54
 70
     1
 10
0.0
 20
0.0
 30
0.0
  3
*D54
  1

  0
LINE
  5
E2C
330
E29
100
AcDbEntity
  8
AM_5
  6
ByBlock
440
 16777216
100
AcDbLine
 10
1869.620932604508
 20
1933.439071676714
 30
0.0
 11
1869.620932604508
 21
1945.439071676714
 31
0.0
  0
LINE
  5
E2D
330
E29
100
AcDbEntity
  8
AM_5
  6
ByBlock
440
 16777216
100
AcDbLine
 10
1883.920932604508
 20
1909.239071676714
 30
0.0
 11
1883.920932604508
 21
1945.439071676714
 31
0.0
  0
LINE
  5
E2E
330
E29
100
AcDbEntity
  8
AM_5
  6
ByBlock
440
 16777216
100
AcDbLine
 10
1873.120932604508
 20
1944.439071676714
 30
0.0
 11
1880.420932604508
 21
1944.439071676714
 31
0.0
  0
SOLID
  5
E2F
330
E29
100
AcDbEntity
  8
AM_5
440
 16777216
100
AcDbTrace
 10
1873.120932604508
 20
1945.022405010048
 30
0.0
 11
1873.120932604508
 21
1943.855738343381
 31
0.0
 12
1869.620932604508
 22
1944.439071676714
 32
0.0
 13
1869.620932604508
 23
1944.439071676714
 33
0.0
  0
SOLID
  5
E30
330
E29
100
AcDbEntity
  8
AM_5
440
 16777216
100
AcDbTrace
 10
1880.420932604508
 20
1945.022405010048
 30
0.0
 11
1880.420932604508
 21
1943.855738343381
 31
0.0
 12
1883.920932604508
 22
1944.439071676714
 32
0.0
 13
1883.920932604508
 23
1944.439071676714
 33
0.0
  0
MTEXT
  5
E31
330
E29
100
AcDbEntity
  8
AM_5
 62
     2
440
 16777216
100
AcDbMText
 10
1876.770932604509
 20
1947.689071676714
 30
0.0
 40
3.5
 41
0.0
 46
0.0
 71
     5
 72
     1
  1
14.3
 73
     1
 44
1.0
  0
POINT
  5
E32
330
E29
100
AcDbEntity
  8
Defpoints
 62
     0
440
 16777216
100
AcDbPoint
 10
1869.620932604508
 20
1932.439071676714
 30
0.0
  0
POINT
  5
E33
330
E29
100
AcDbEntity
  8
Defpoints
 62
     0
440
 16777216
100
AcDbPoint
 10
1883.920932604508
 20
1908.239071676715
 30
0.0
  0
POINT
  5
E34
330
E29
100
AcDbEntity
  8
Defpoints
 62
     0
440
 16777216
100
AcDbPoint
 10
1883.920932604508
 20
1944.439071676714
 30
0.0
  0
ENDBLK
  5
E2B
330
E29
100
AcDbEntity
  8
0
100
AcDbBlockEnd
  0
BLOCK
  5
E36
330
E35
100
AcDbEntity
  8
0
100
AcDbBlockBegin
  2
*D55
 70
     1
 10
0.0
 20
0.0
 30
0.0
  3
*D55
  1

  0
LINE
  5
E59
330
E35
100
AcDbEntity
  8
AM_5
  6
ByBlock
440
 16777216
100
AcDbLine
 10
2165.826053073754
 20
1308.605267536352
 30
0.0
 11
2162.895720542388
 21
1312.103634553662
 31
0.0
  0
LINE
  5
E5A
330
E35
100
AcDbEntity
  8
AM_5
  6
ByBlock
440
 16777216
100
AcDbLine
 10
2162.895720542388
 20
1312.103634553662
 30
0.0
 11
2156.845720542388
 21
1312.103634553662
 31
0.0
  0
SOLID
  5
E5B
330
E35
100
AcDbEntity
  8
AM_5
440
 16777216
100
AcDbTrace
 10
2166.273236062057
 20
1308.979840830582
 30
0.0
 11
2165.37887008545
 21
1308.230694242123
 31
0.0
 12
2168.073492839131
 22
1305.922169606533
 32
0.0
 13
2168.073492839131
 23
1305.922169606533
 33
0.0
  0
MTEXT
  5
E5C
330
E35
100
AcDbEntity
  8
AM_5
 62
     2
440
 16777216
100
AcDbMText
 10
2159.120720542388
 20
1315.353634553662
 30
0.0
 40
3.5
 41
0.0
 46
0.0
 71
     5
 72
     1
  1
∅7
 73
     1
 44
1.0
  0
POINT
  5
E5D
330
E35
100
AcDbEntity
  8
Defpoints
 62
     0
440
 16777216
100
AcDbPoint
 10
2168.073492839131
 20
1305.922169606533
 30
0.0
  0
POINT
  5
E5E
330
E35
100
AcDbEntity
  8
Defpoints
 62
     0
440
 16777216
100
AcDbPoint
 10
2172.568372369887
 20
1300.555973746895
 30
0.0
  0
ENDBLK
  5
E37
330
E35
100
AcDbEntity
  8
0
100
AcDbBlockEnd
  0
BLOCK
  5
E3F
330
E3E
100
AcDbEntity
  8
0
100
AcDbBlockBegin
  2
*D56
 70
     1
 10
0.0
 20
0.0
 30
0.0
  3
*D56
  1

  0
LINE
  5
E65
330
E3E
100
AcDbEntity
  8
AM_5
  6
ByBlock
440
 16777216
100
AcDbLine
 10
1888.736119231002
 20
1308.319817463707
 30
0.0
 11
1892.471665915633
 21
1312.261380803251
 31
0.0
  0
LINE
  5
E66
330
E3E
100
AcDbEntity
  8
AM_5
  6
ByBlock
440
 16777216
100
AcDbLine
 10
1892.471665915633
 20
1312.261380803251
 30
0.0
 11
1898.521665915633
 21
1312.261380803251
 31
0.0
  0
SOLID
  5
E67
330
E3E
100
AcDbEntity
  8
AM_5
440
 16777216
100
AcDbTrace
 10
1888.312723748753
 20
1308.721083015915
 30
0.0
 11
1889.159514713251
 21
1307.918551911499
 31
0.0
 12
1886.328525917755
 22
1305.779444570211
 32
0.0
 13
1886.328525917755
 23
1305.779444570211
 33
0.0
  0
MTEXT
  5
E68
330
E3E
100
AcDbEntity
  8
AM_5
 62
     2
440
 16777216
100
AcDbMText
 10
1896.246665915633
 20
1315.511380803251
 30
0.0
 40
3.5
 41
0.0
 46
0.0
 71
     5
 72
     1
  1
∅7
 73
     1
 44
1.0
  0
POINT
  5
E69
330
E3E
100
AcDbEntity
  8
Defpoints
 62
     0
440
 16777216
100
AcDbPoint
 10
1886.328525917755
 20
1305.779444570211
 30
0.0
  0
POINT
  5
E6A
330
E3E
100
AcDbEntity
  8
Defpoints
 62
     0
440
 16777216
100
AcDbPoint
 10
1881.513339291262
 20
1300.698698783219
 30
0.0
  0
ENDBLK
  5
E40
330
E3E
100
AcDbEntity
  8
0
100
AcDbBlockEnd
  0
BLOCK
  5
E48
330
E47
100
AcDbEntity
  8
0
100
AcDbBlockBegin
  2
*D57
 70
     1
 10
0.0
 20
0.0
 30
0.0
  3
*D57
  1

  0
LINE
  5
E5F
330
E47
100
AcDbEntity
  8
AM_5
  6
ByBlock
440
 16777216
100
AcDbLine
 10
2172.916009977431
 20
1901.737873831044
 30
0.0
 11
2175.906900898724
 21
1894.245082357064
 31
0.0
  0
LINE
  5
E60
330
E47
100
AcDbEntity
  8
AM_5
  6
ByBlock
440
 16777216
100
AcDbLine
 10
2175.906900898724
 20
1894.245082357064
 30
0.0
 11
2181.956900898724
 21
1894.245082357064
 31
0.0
  0
SOLID
  5
E61
330
E47
100
AcDbEntity
  8
AM_5
440
 16777216
100
AcDbTrace
 10
2173.457776464571
 20
1901.954130278788
 30
0.0
 11
2172.374243490292
 21
1901.5216173833
 31
0.0
 12
2171.618471290971
 22
1904.988472753879
 32
0.0
 13
2171.618471290971
 23
1904.988472753879
 33
0.0
  0
MTEXT
  5
E62
330
E47
100
AcDbEntity
  8
AM_5
 62
     2
440
 16777216
100
AcDbMText
 10
2179.681900898725
 20
1897.495082357065
 30
0.0
 40
3.5
 41
0.0
 46
0.0
 71
     5
 72
     1
  1
∅7
 73
     1
 44
1.0
  0
POINT
  5
E63
330
E47
100
AcDbEntity
  8
Defpoints
 62
     0
440
 16777216
100
AcDbPoint
 10
2171.618471290971
 20
1904.988472753879
 30
0.0
  0
POINT
  5
E64
330
E47
100
AcDbEntity
  8
Defpoints
 62
     0
440
 16777216
100
AcDbPoint
 10
2169.023393918048
 20
1911.48967059955
 30
0.0
  0
ENDBLK
  5
E49
330
E47
100
AcDbEntity
  8
0
100
AcDbBlockEnd
  0
BLOCK
  5
E51
330
E50
100
AcDbEntity
  8
0
100
AcDbBlockBegin
  2
*D58
 70
     1
 10
0.0
 20
0.0
 30
0.0
  3
*D58
  1

  0
LINE
  5
E6B
330
E50
100
AcDbEntity
  8
AM_5
  6
ByBlock
440
 16777216
100
AcDbLine
 10
1881.650199338912
 20
1901.617608814438
 30
0.0
 11
1879.050470888586
 21
1894.036795318358
 31
0.0
  0
LINE
  5
E6C
330
E50
100
AcDbEntity
  8
AM_5
  6
ByBlock
440
 16777216
100
AcDbLine
 10
1879.050470888586
 20
1894.036795318358
 30
0.0
 11
1873.000470888587
 21
1894.036795318358
 31
0.0
  0
SOLID
  5
E6D
330
E50
100
AcDbEntity
  8
AM_5
440
 16777216
100
AcDbTrace
 10
1881.098410767055
 20
1901.806836586571
 30
0.0
 11
1882.201987910768
 21
1901.428381042305
 31
0.0
 12
1882.78556597171
 22
1904.928340245576
 32
0.0
 13
1882.78556597171
 23
1904.928340245576
 33
0.0
  0
MTEXT
  5
E6E
330
E50
100
AcDbEntity
  8
AM_5
 62
     2
440
 16777216
100
AcDbMText
 10
1875.275470888587
 20
1897.286795318358
 30
0.0
 40
3.5
 41
0.0
 46
0.0
 71
     5
 72
     1
  1
∅7
 73
     1
 44
1.0
  0
POINT
  5
E6F
330
E50
100
AcDbEntity
  8
Defpoints
 62
     0
440
 16777216
100
AcDbPoint
 10
1882.78556597171
 20
1904.928340245576
 30
0.0
  0
POINT
  5
E70
330
E50
100
AcDbEntity
  8
Defpoints
 62
     0
440
 16777216
100
AcDbPoint
 10
1885.056299237307
 20
1911.549803107853
 30
0.0
  0
ENDBLK
  5
E52
330
E50
100
AcDbEntity
  8
0
100
AcDbBlockEnd
  0
ENDSEC
  0
SECTION
  2
ENTITIES
  0
LINE
  5
CCF
102
{ACAD_REACTORS
330
CF3
330
CFC
102
}
330
1F
100
AcDbEntity
  8
0
100
AcDbLine
 10
2184.620932604509
 20
1932.439071676714
 30
0.0
 11
2184.620932604509
 21
1281.039071676715
 31
0.0
  0
LINE
  5
CD0
102
{ACAD_REACTORS
330
D05
330
D08
330
D0B
330
D0E
102
}
330
1F
100
AcDbEntity
  8
0
100
AcDbLine
 10
2184.620932604509
 20
1281.039071676715
 30
0.0
 11
1869.620932604508
 21
1281.039071676715
 31
0.0
  0
LINE
  5
CD1
102
{ACAD_REACTORS
330
CF0
330
CF9
330
D02
330
D08
330
D11
330
D14
102
}
330
1F
100
AcDbEntity
  8
0
100
AcDbLine
 10
1869.620932604508
 20
1281.039071676715
 30
0.0
 11
1869.620932604508
 21
1932.439071676714
 31
0.0
  0
LINE
  5
CD2
102
{ACAD_REACTORS
330
CE1
330
CE4
330
D05
330
D17
330
D1A
330
D1D
330
D20
102
}
330
1F
100
AcDbEntity
  8
0
100
AcDbLine
 10
1869.620932604508
 20
1932.439071676714
 30
0.0
 11
2184.620932604509
 21
1932.439071676714
 31
0.0
  0
LINE
  5
CD3
330
1F
100
AcDbEntity
  8
0
100
AcDbLine
 10
2162.820932604509
 20
1921.239071676714
 30
0.0
 11
1891.420932604509
 21
1921.239071676714
 31
0.0
  0
LINE
  5
CD4
102
{ACAD_REACTORS
330
CE1
330
CE7
330
D17
102
}
330
1F
100
AcDbEntity
  8
0
100
AcDbLine
 10
1891.420932604509
 20
1921.239071676714
 30
0.0
 11
1891.420932604509
 21
1692.239071676715
 31
0.0
  0
LINE
  5
CD5
102
{ACAD_REACTORS
330
CFC
102
}
330
1F
100
AcDbEntity
  8
0
100
AcDbLine
 10
2162.820932604509
 20
1921.239071676714
 30
0.0
 11
2162.820932604509
 21
1692.239071676714
 31
0.0
  0
LINE
  5
CD6
102
{ACAD_REACTORS
330
CE7
330
CEA
330
CFF
330
D02
102
}
330
1F
100
AcDbEntity
  8
0
100
AcDbLine
 10
2162.820932604509
 20
1692.239071676714
 30
0.0
 11
1891.420932604509
 21
1692.239071676715
 31
0.0
  0
LINE
  5
CD7
330
1F
100
AcDbEntity
  8
0
100
AcDbLine
 10
2133.620932604509
 20
1474.039071676714
 30
0.0
 11
1900.620932604509
 21
1474.039071676714
 31
0.0
  0
LINE
  5
CD8
102
{ACAD_REACTORS
330
CED
330
CF0
330
CF6
330
CF9
102
}
330
1F
100
AcDbEntity
  8
0
100
AcDbLine
 10
1900.620932604509
 20
1474.039071676714
 30
0.0
 11
1900.620932604509
 21
1676.999071676714
 31
0.0
  0
LINE
  5
CD9
102
{ACAD_REACTORS
330
CEA
330
CED
102
}
330
1F
100
AcDbEntity
  8
0
100
AcDbLine
 10
1900.620932604509
 20
1676.999071676714
 30
0.0
 11
2133.620932604509
 21
1676.999071676714
 31
0.0
  0
LINE
  5
CDA
102
{ACAD_REACTORS
330
CF3
330
CF6
102
}
330
1F
100
AcDbEntity
  8
0
100
AcDbLine
 10
2133.620932604509
 20
1676.999071676714
 30
0.0
 11
2133.620932604509
 21
1474.039071676714
 31
0.0
  0
CIRCLE
  5
CDB
102
{ACAD_REACTORS
330
D0B
330
D0E
330
D23
102
}
330
1F
100
AcDbEntity
  8
0
100
AcDbCircle
 10
2170.320932604509
 20
1303.239071676715
 30
0.0
 40
3.5
  0
CIRCLE
  5
CDC
102
{ACAD_REACTORS
330
D1A
330
D1D
330
D29
102
}
330
1F
100
AcDbEntity
  8
0
100
AcDbCircle
 10
2170.320932604509
 20
1908.239071676715
 30
0.0
 40
3.5
  0
CIRCLE
  5
CDD
102
{ACAD_REACTORS
330
D11
330
D14
330
D26
102
}
330
1F
100
AcDbEntity
  8
0
100
AcDbCircle
 10
1883.920932604508
 20
1303.239071676715
 30
0.0
 40
3.5
  0
CIRCLE
  5
CDE
102
{ACAD_REACTORS
330
CE4
330
D20
330
D2C
102
}
330
1F
100
AcDbEntity
  8
0
100
AcDbCircle
 10
1883.920932604508
 20
1908.239071676715
 30
0.0
 40
3.5
  0
DIMENSION
  5
CDF
102
{ACAD_XDICTIONARY
360
CE0
102
}
102
{ACAD_REACTORS
330
CE1
102
}
330
1F
100
AcDbEntity
  8
AM_5
100
AcDbDimension
280
     0
  2
*D33
 10
1857.620932604509
 20
1921.239071676714
 30
0.0
 11
1854.370588116319
 21
1926.839071676715
 31
0.0
 70
    32
  1
<>
 71
     5
 42
11.20000000000004
 73
     0
 74
     0
 75
     0
  3
AM_ISO$0
100
AcDbAlignedDimension
 13
1869.620932604508
 23
1932.439071676714
 33
0.0
 14
1891.420932604509
 24
1921.239071676714
 34
0.0
 50
90.0
100
AcDbRotatedDimension
1001
ACAD_DSTYLE_DIMINSPECT
1070
   396
1000
100%
1070
   395
1000

1070
   394
1070
    33
1070
   393
1070
     0
  0
DIMENSION
  5
CE2
102
{ACAD_XDICTIONARY
360
CE3
102
}
102
{ACAD_REACTORS
330
CE4
330
D20
102
}
330
1F
100
AcDbEntity
  8
AM_5
100
AcDbDimension
280
     0
  2
*D34
 10
1847.422958636996
 20
1908.239071676715
 30
0.0
 11
1844.172614148806
 21
1920.339071676715
 31
0.0
 70
    32
  1
<>
 71
     5
 42
24.20000000000005
 73
     0
 74
     0
 75
     0
  3
AM_ISO$0
100
AcDbAlignedDimension
 13
1869.620932604508
 23
1932.439071676714
 33
0.0
 14
1883.920932604508
 24
1908.239071676715
 34
0.0
 50
90.0
100
AcDbRotatedDimension
1001
ACAD_DSTYLE_DIMINSPECT
1070
   396
1000
100%
1070
   395
1000

1070
   394
1070
    33
1070
   393
1070
     0
  0
DIMENSION
  5
CE5
102
{ACAD_XDICTIONARY
360
CE6
102
}
102
{ACAD_REACTORS
330
CE7
102
}
330
1F
100
AcDbEntity
  8
AM_5
100
AcDbDimension
280
     0
  2
*D35
 10
1926.000653041193
 20
1692.239071676715
 30
0.0
 11
1922.750308553003
 21
1806.739071676714
 31
0.0
 70
    32
  1
<>
 71
     5
 42
229.0
 73
     0
 74
     0
 75
     0
  3
AM_ISO$0
100
AcDbAlignedDimension
 13
1891.420932604509
 23
1921.239071676714
 33
0.0
 14
1891.420932604509
 24
1692.239071676715
 34
0.0
 50
90.0
100
AcDbRotatedDimension
1001
ACAD_DSTYLE_DIMINSPECT
1070
   396
1000
100%
1070
   395
1000

1070
   394
1070
    33
1070
   393
1070
     0
1001
ACAD
1000
DSTYLE
1002
{
1070
   279
1070
     0
1002
}
  0
DIMENSION
  5
CE8
102
{ACAD_XDICTIONARY
360
CE9
102
}
102
{ACAD_REACTORS
330
CEA
102
}
330
1F
100
AcDbEntity
  8
AM_5
100
AcDbDimension
280
     0
  2
*D36
 10
1926.000653041193
 20
1676.999071676714
 30
0.0
 11
1926.000653041193
 21
1684.619071676715
 31
0.0
 70
   160
  1
<>
 71
     5
 42
15.23999999999978
 73
     0
 74
     0
 75
     0
  3
AM_ISO$0
100
AcDbAlignedDimension
 13
1891.420932604509
 23
1692.239071676715
 33
0.0
 14
1900.620932604509
 24
1676.999071676714
 34
0.0
 50
90.0
100
AcDbRotatedDimension
1001
ACAD_DSTYLE_DIMINSPECT
1070
   396
1000
100%
1070
   395
1000

1070
   394
1070
    33
1070
   393
1070
     0
1001
ACAD
1000
DSTYLE
1002
{
1070
   279
1070
     0
1002
}
  0
DIMENSION
  5
CEB
102
{ACAD_XDICTIONARY
360
CEC
102
}
102
{ACAD_REACTORS
330
CED
102
}
330
1F
100
AcDbEntity
  8
AM_5
100
AcDbDimension
280
     0
  2
*D37
 10
1926.000653041193
 20
1474.039071676714
 30
0.0
 11
1926.000653041193
 21
1575.519071676715
 31
0.0
 70
   160
  1
<>
 71
     5
 42
202.96
 73
     0
 74
     0
 75
     0
  3
AM_ISO$0
100
AcDbAlignedDimension
 13
1900.620932604509
 23
1676.999071676714
 33
0.0
 14
1900.620932604509
 24
1474.039071676714
 34
0.0
 50
90.0
100
AcDbRotatedDimension
1001
ACAD_DSTYLE_DIMINSPECT
1070
   396
1000
100%
1070
   395
1000

1070
   394
1070
    33
1070
   393
1070
     0
1001
ACAD
1000
DSTYLE
1002
{
1070
   279
1070
     0
1002
}
  0
DIMENSION
  5
CEE
102
{ACAD_XDICTIONARY
360
CEF
102
}
102
{ACAD_REACTORS
330
CF0
102
}
330
1F
100
AcDbEntity
  8
AM_5
100
AcDbDimension
280
     0
  2
*D38
 10
1926.000653041193
 20
1281.039071676715
 30
0.0
 11
1926.000653041193
 21
1377.539071676715
 31
0.0
 70
   160
  1
<>
 71
     5
 42
193.0
 73
     0
 74
     0
 75
     0
  3
AM_ISO$0
100
AcDbAlignedDimension
 13
1900.620932604509
 23
1474.039071676714
 33
0.0
 14
1869.620932604508
 24
1281.039071676715
 34
0.0
 50
90.0
100
AcDbRotatedDimension
1001
ACAD_DSTYLE_DIMINSPECT
1070
   396
1000
100%
1070
   395
1000

1070
   394
1070
    33
1070
   393
1070
     0
1001
ACAD
1000
DSTYLE
1002
{
1070
   279
1070
     0
1002
}
  0
DIMENSION
  5
CF1
102
{ACAD_XDICTIONARY
360
CF2
102
}
102
{ACAD_REACTORS
330
CF3
102
}
330
1F
100
AcDbEntity
  8
AM_5
100
AcDbDimension
280
     0
  2
*D39
 10
2184.620932604509
 20
1511.483191183121
 30
0.0
 11
2159.120932604508
 21
1511.483191183121
 31
0.0
 70
   160
  1
<>
 71
     5
 42
51.0
 73
     0
 74
     0
 75
     0
  3
AM_ISO$0
100
AcDbAlignedDimension
 13
2133.620932604509
 23
1575.519071676715
 33
0.0
 14
2184.620932604509
 24
1606.739071676714
 34
0.0
 50
180.0
100
AcDbRotatedDimension
1001
ACAD_DSTYLE_DIMINSPECT
1070
   396
1000
100%
1070
   395
1000

1070
   394
1070
    33
1070
   393
1070
     0
1001
ACAD
1000
DSTYLE
1002
{
1070
   279
1070
     0
1002
}
  0
DIMENSION
  5
CF4
102
{ACAD_XDICTIONARY
360
CF5
102
}
102
{ACAD_REACTORS
330
CF6
102
}
330
1F
100
AcDbEntity
  8
AM_5
100
AcDbDimension
280
     0
  2
*D40
 10
1900.620932604509
 20
1511.483191183121
 30
0.0
 11
2017.120932604509
 21
1514.73353567131
 31
0.0
 70
    32
  1
<>
 71
     5
 42
233.0
 73
     0
 74
     0
 75
     0
  3
AM_ISO$0
100
AcDbAlignedDimension
 13
2133.620932604509
 23
1474.039071676714
 33
0.0
 14
1900.620932604509
 24
1474.039071676714
 34
0.0
 50
180.0
100
AcDbRotatedDimension
1001
ACAD_DSTYLE_DIMINSPECT
1070
   396
1000
100%
1070
   395
1000

1070
   394
1070
    33
1070
   393
1070
     0
1001
ACAD
1000
DSTYLE
1002
{
1070
   279
1070
     0
1002
}
  0
DIMENSION
  5
CF7
102
{ACAD_XDICTIONARY
360
CF8
102
}
102
{ACAD_REACTORS
330
CF9
102
}
330
1F
100
AcDbEntity
  8
AM_5
100
AcDbDimension
280
     0
  2
*D41
 10
1869.620932604508
 20
1511.483191183121
 30
0.0
 11
1885.120932604509
 21
1511.483191183121
 31
0.0
 70
   160
  1
<>
 71
     5
 42
31.0
 73
     0
 74
     0
 75
     0
  3
AM_ISO$0
100
AcDbAlignedDimension
 13
1900.620932604509
 23
1474.039071676714
 33
0.0
 14
1869.620932604508
 24
1606.739071676714
 34
0.0
 50
180.0
100
AcDbRotatedDimension
1001
ACAD_DSTYLE_DIMINSPECT
1070
   396
1000
100%
1070
   395
1000

1070
   394
1070
    33
1070
   393
1070
     0
1001
ACAD
1000
DSTYLE
1002
{
1070
   279
1070
     0
1002
}
  0
DIMENSION
  5
CFA
102
{ACAD_XDICTIONARY
360
CFB
102
}
102
{ACAD_REACTORS
330
CFC
102
}
330
1F
100
AcDbEntity
  8
AM_5
100
AcDbDimension
280
     0
  2
*D42
 10
2162.820932604509
 20
1741.699432851414
 30
0.0
 11
2173.720932604509
 21
1741.699432851414
 31
0.0
 70
   160
  1
<>
 71
     5
 42
21.79999999999973
 73
     0
 74
     0
 75
     0
  3
AM_ISO$0
100
AcDbAlignedDimension
 13
2184.620932604509
 23
1932.439071676714
 33
0.0
 14
2162.820932604509
 24
1806.739071676714
 34
0.0
 50
180.0
100
AcDbRotatedDimension
1001
ACAD_DSTYLE_DIMINSPECT
1070
   396
1000
100%
1070
   395
1000

1070
   394
1070
    33
1070
   393
1070
     0
1001
ACAD
1000
DSTYLE
1002
{
1070
   279
1070
     0
1002
}
  0
DIMENSION
  5
CFD
102
{ACAD_XDICTIONARY
360
CFE
102
}
102
{ACAD_REACTORS
330
CFF
102
}
330
1F
100
AcDbEntity
  8
AM_5
100
AcDbDimension
280
     0
  2
*D43
 10
1891.420932604509
 20
1741.699432851414
 30
0.0
 11
2027.120932604509
 21
1744.949777339604
 31
0.0
 70
    32
  1
<>
 71
     5
 42
271.4000000000001
 73
     0
 74
     0
 75
     0
  3
AM_ISO$0
100
AcDbAlignedDimension
 13
2162.820932604509
 23
1692.239071676714
 33
0.0
 14
1891.420932604509
 24
1692.239071676715
 34
0.0
 50
180.0
100
AcDbRotatedDimension
1001
ACAD_DSTYLE_DIMINSPECT
1070
   396
1000
100%
1070
   395
1000

1070
   394
1070
    33
1070
   393
1070
     0
1001
ACAD
1000
DSTYLE
1002
{
1070
   279
1070
     0
1002
}
  0
DIMENSION
  5
D00
102
{ACAD_XDICTIONARY
360
D01
102
}
102
{ACAD_REACTORS
330
D02
102
}
330
1F
100
AcDbEntity
  8
AM_5
100
AcDbDimension
280
     0
  2
*D44
 10
1869.620932604508
 20
1741.699432851414
 30
0.0
 11
1880.520932604509
 21
1741.699432851414
 31
0.0
 70
   160
  1
<>
 71
     5
 42
21.80000000000018
 73
     0
 74
     0
 75
     0
  3
AM_ISO$0
100
AcDbAlignedDimension
 13
1891.420932604509
 23
1692.239071676715
 33
0.0
 14
1869.620932604508
 24
1606.739071676714
 34
0.0
 50
180.0
100
AcDbRotatedDimension
1001
ACAD_DSTYLE_DIMINSPECT
1070
   396
1000
100%
1070
   395
1000

1070
   394
1070
    33
1070
   393
1070
     0
1001
ACAD
1000
DSTYLE
1002
{
1070
   279
1070
     0
1002
}
  0
DIMENSION
  5
D03
102
{ACAD_XDICTIONARY
360
D04
102
}
102
{ACAD_REACTORS
330
D05
102
}
330
1F
100
AcDbEntity
  8
AM_5
100
AcDbDimension
280
     0
  2
*D45
 10
2211.647406003129
 20
1281.039071676715
 30
0.0
 11
2208.397406003129
 21
1606.739071676714
 31
0.0
 70
    32
  1
<>
 71
     5
 42
651.3999999999998
 73
     0
 74
     0
 75
     0
  3
AM_ISO$0
100
AcDbAlignedDimension
 13
2184.620932604509
 23
1932.439071676714
 33
0.0
 14
2184.620932604509
 24
1281.039071676715
 34
0.0
 50
90.0
100
AcDbRotatedDimension
1001
ACAD_DSTYLE_DIMINSPECT
1070
   396
1000
100%
1070
   395
1000

1070
   394
1070
    33
1070
   393
1070
     0
  0
DIMENSION
  5
D06
102
{ACAD_XDICTIONARY
360
D07
102
}
102
{ACAD_REACTORS
330
D08
102
}
330
1F
100
AcDbEntity
  8
AM_5
100
AcDbDimension
280
     0
  2
*D46
 10
1869.620932604508
 20
1259.285471539396
 30
0.0
 11
2027.120932604509
 21
1262.535471539395
 31
0.0
 70
    32
  1
<>
 71
     5
 42
315.0
 73
     0
 74
     0
 75
     0
  3
AM_ISO$0
100
AcDbAlignedDimension
 13
2184.620932604509
 23
1281.039071676715
 33
0.0
 14
1869.620932604508
 24
1281.039071676715
 34
0.0
 50
179.9999999999999
100
AcDbRotatedDimension
1001
ACAD_DSTYLE_DIMINSPECT
1070
   396
1000
100%
1070
   395
1000

1070
   394
1070
    33
1070
   393
1070
     0
  0
DIMENSION
  5
D09
102
{ACAD_XDICTIONARY
360
D0A
102
}
102
{ACAD_REACTORS
330
D0B
330
D0E
102
}
330
1F
100
AcDbEntity
  8
AM_5
100
AcDbDimension
280
     0
  2
*D47
 10
2158.320932604509
 20
1303.239071676715
 30
0.0
 11
2155.070588116319
 21
1292.139071676715
 31
0.0
 70
    32
  1
<>
 71
     5
 42
22.20000000000005
 73
     0
 74
     0
 75
     0
  3
AM_ISO$0
100
AcDbAlignedDimension
 13
2184.620932604509
 23
1281.039071676715
 33
0.0
 14
2170.320932604509
 24
1303.239071676715
 34
0.0
 50
90.0
100
AcDbRotatedDimension
1001
ACAD_DSTYLE_DIMINSPECT
1070
   396
1000
100%
1070
   395
1000

1070
   394
1070
    33
1070
   393
1070
     0
  0
DIMENSION
  5
D0C
102
{ACAD_XDICTIONARY
360
D0D
102
}
102
{ACAD_REACTORS
330
D0E
102
}
330
1F
100
AcDbEntity
  8
AM_5
100
AcDbDimension
280
     0
  2
*D48
 10
2170.320932604509
 20
1315.239071676715
 30
0.0
 11
2177.470932604509
 21
1318.489071676715
 31
0.0
 70
    32
  1
<>
 71
     5
 42
14.29999999999973
 73
     0
 74
     0
 75
     0
  3
AM_ISO$0
100
AcDbAlignedDimension
 13
2184.620932604509
 23
1281.039071676715
 33
0.0
 14
2170.320932604509
 24
1303.239071676715
 34
0.0
 50
180.0
100
AcDbRotatedDimension
1001
ACAD_DSTYLE_DIMINSPECT
1070
   396
1000
100%
1070
   395
1000

1070
   394
1070
    33
1070
   393
1070
     0
  0
DIMENSION
  5
D0F
102
{ACAD_XDICTIONARY
360
D10
102
}
102
{ACAD_REACTORS
330
D11
330
D14
102
}
330
1F
100
AcDbEntity
  8
AM_5
100
AcDbDimension
280
     0
  2
*D49
 10
1895.920932604509
 20
1303.239071676715
 30
0.0
 11
1892.670588116319
 21
1292.139071676715
 31
0.0
 70
    32
  1
<>
 71
     5
 42
22.20000000000005
 73
     0
 74
     0
 75
     0
  3
AM_ISO$0
100
AcDbAlignedDimension
 13
1869.620932604508
 23
1281.039071676715
 33
0.0
 14
1883.920932604508
 24
1303.239071676715
 34
0.0
 50
90.0
100
AcDbRotatedDimension
1001
ACAD_DSTYLE_DIMINSPECT
1070
   396
1000
100%
1070
   395
1000

1070
   394
1070
    33
1070
   393
1070
     0
  0
DIMENSION
  5
D12
102
{ACAD_XDICTIONARY
360
D13
102
}
102
{ACAD_REACTORS
330
D14
102
}
330
1F
100
AcDbEntity
  8
AM_5
100
AcDbDimension
280
     0
  2
*D50
 10
1883.920932604508
 20
1315.239071676715
 30
0.0
 11
1876.770932604509
 21
1318.489071676715
 31
0.0
 70
    32
  1
<>
 71
     5
 42
14.29999999999995
 73
     0
 74
     0
 75
     0
  3
AM_ISO$0
100
AcDbAlignedDimension
 13
1869.620932604508
 23
1281.039071676715
 33
0.0
 14
1883.920932604508
 24
1303.239071676715
 34
0.0
 50
180.0
100
AcDbRotatedDimension
1001
ACAD_DSTYLE_DIMINSPECT
1070
   396
1000
100%
1070
   395
1000

1070
   394
1070
    33
1070
   393
1070
     0
  0
DIMENSION
  5
D15
102
{ACAD_XDICTIONARY
360
D16
102
}
102
{ACAD_REACTORS
330
D17
102
}
330
1F
100
AcDbEntity
  8
AM_5
100
AcDbDimension
280
     0
  2
*D51
 10
1926.000653041193
 20
1932.439071676714
 30
0.0
 11
1926.000653041193
 21
1926.839071676715
 31
0.0
 70
   160
  1
<>
 71
     5
 42
11.20000000000004
 73
     0
 74
     0
 75
     0
  3
AM_ISO$0
100
AcDbAlignedDimension
 13
1891.420932604509
 23
1921.239071676714
 33
0.0
 14
1869.620932604508
 24
1932.439071676714
 34
0.0
 50
90.0
100
AcDbRotatedDimension
1001
ACAD_DSTYLE_DIMINSPECT
1070
   396
1000
100%
1070
   395
1000

1070
   394
1070
    33
1070
   393
1070
     0
1001
ACAD
1000
DSTYLE
1002
{
1070
   279
1070
     0
1002
}
  0
DIMENSION
  5
D18
102
{ACAD_XDICTIONARY
360
D19
102
}
102
{ACAD_REACTORS
330
D1A
330
D1D
102
}
330
1F
100
AcDbEntity
  8
AM_5
100
AcDbDimension
280
     0
  2
*D52
 10
2196.620932604508
 20
1908.239071676715
 30
0.0
 11
2193.370588116319
 21
1920.339071676714
 31
0.0
 70
    32
  1
<>
 71
     5
 42
24.20000000000005
 73
     0
 74
     0
 75
     0
  3
AM_ISO$0
100
AcDbAlignedDimension
 13
2184.620932604509
 23
1932.439071676714
 33
0.0
 14
2170.320932604509
 24
1908.239071676715
 34
0.0
 50
90.0
100
AcDbRotatedDimension
1001
ACAD_DSTYLE_DIMINSPECT
1070
   396
1000
100%
1070
   395
1000

1070
   394
1070
    33
1070
   393
1070
     0
  0
DIMENSION
  5
D1B
102
{ACAD_XDICTIONARY
360
D1C
102
}
102
{ACAD_REACTORS
330
D1D
102
}
330
1F
100
AcDbEntity
  8
AM_5
100
AcDbDimension
280
     0
  2
*D53
 10
2170.320932604509
 20
1944.439072676714
 30
0.0
 11
2177.470932604509
 21
1947.689072676715
 31
0.0
 70
    32
  1
<>
 71
     5
 42
14.29999999999973
 73
     0
 74
     0
 75
     0
  3
AM_ISO$0
100
AcDbAlignedDimension
 13
2184.620932604509
 23
1932.439071676714
 33
0.0
 14
2170.320932604509
 24
1908.239071676715
 34
0.0
 50
180.0
100
AcDbRotatedDimension
1001
ACAD_DSTYLE_DIMINSPECT
1070
   396
1000
100%
1070
   395
1000

1070
   394
1070
    33
1070
   393
1070
     0
  0
DIMENSION
  5
D1E
102
{ACAD_XDICTIONARY
360
D1F
102
}
102
{ACAD_REACTORS
330
D20
102
}
330
1F
100
AcDbEntity
  8
AM_5
100
AcDbDimension
280
     0
  2
*D54
 10
1883.920932604508
 20
1944.439071676714
 30
0.0
 11
1876.770932604509
 21
1947.689071676714
 31
0.0
 70
    32
 71
     5
 42
14.29999999999995
 73
     0
 74
     0
 75
     0
  3
AM_ISO$0
100
AcDbAlignedDimension
 13
1869.620932604508
 23
1932.439071676714
 33
0.0
 14
1883.920932604508
 24
1908.239071676715
 34
0.0
 50
180.0
100
AcDbRotatedDimension
1001
ACAD_DSTYLE_DIMINSPECT
1070
   396
1000
100%
1070
   395
1000

1070
   394
1070
    33
1070
   393
1070
     0
  0
DIMENSION
  5
D21
102
{ACAD_XDICTIONARY
360
D22
102
}
102
{ACAD_REACTORS
330
D23
102
}
330
1F
100
AcDbEntity
  8
AM_5
100
AcDbDimension
280
     0
  2
*D55
 10
2172.568372369887
 20
1300.555973746895
 30
0.0
 11
2159.120720542388
 21
1312.103634553662
 31
0.0
 70
   163
  1
<>
 71
     5
 42
7.000000000000113
 73
     0
 74
     0
 75
     0
  3
AM_ISO$3
100
AcDbDiametricDimension
 15
2168.073492839131
 25
1305.922169606533
 35
0.0
 40
0.0
1001
ACAD_DSTYLE_DIMRADIAL_EXTENSION
1070
   387
1070
     1
1070
   388
1040
0.0
1070
   390
1040
0.0
1001
ACAD_DSTYLE_DIMINSPECT
1070
   396
1000
100%
1070
   395
1000

1070
   394
1070
    33
1070
   393
1070
     0
  0
DIMENSION
  5
D24
102
{ACAD_XDICTIONARY
360
D25
102
}
102
{ACAD_REACTORS
330
D26
102
}
330
1F
100
AcDbEntity
  8
AM_5
100
AcDbDimension
280
     0
  2
*D56
 10
1881.513339291262
 20
1300.698698783219
 30
0.0
 11
1896.246665915633
 21
1312.26138080325
 31
0.0
 70
   163
  1
<>
 71
     5
 42
6.99999999999909
 73
     0
 74
     0
 75
     0
  3
AM_ISO$3
100
AcDbDiametricDimension
 15
1886.328525917755
 25
1305.779444570211
 35
0.0
 40
0.0
1001
ACAD_DSTYLE_DIMRADIAL_EXTENSION
1070
   387
1070
     1
1070
   388
1040
0.0
1070
   390
1040
0.0
1001
ACAD_DSTYLE_DIMINSPECT
1070
   396
1000
100%
1070
   395
1000

1070
   394
1070
    33
1070
   393
1070
     0
  0
DIMENSION
  5
D27
102
{ACAD_XDICTIONARY
360
D28
102
}
102
{ACAD_REACTORS
330
D29
102
}
330
1F
100
AcDbEntity
  8
AM_5
100
AcDbDimension
280
     0
  2
*D57
 10
2169.023393918048
 20
1911.48967059955
 30
0.0
 11
2179.681900898725
 21
1894.245082357064
 31
0.0
 70
   163
 71
     5
 42
7.000000000000454
 73
     0
 74
     0
 75
     0
  3
AM_ISO$3
100
AcDbDiametricDimension
 15
2171.618471290971
 25
1904.988472753879
 35
0.0
 40
0.0
1001
ACAD_DSTYLE_DIMINSPECT
1070
   396
1000
100%
1070
   395
1000

1070
   394
1070
    33
1070
   393
1070
     0
1001
ACAD_DSTYLE_DIMRADIAL_EXTENSION
1070
   387
1070
     1
1070
   388
1040
0.0
1070
   390
1040
0.0
  0
DIMENSION
  5
D2A
102
{ACAD_XDICTIONARY
360
D2B
102
}
102
{ACAD_REACTORS
330
D2C
102
}
330
1F
100
AcDbEntity
  8
AM_5
100
AcDbDimension
280
     0
  2
*D58
 10
1885.056299237307
 20
1911.549803107853
 30
0.0
 11
1875.275470888587
 21
1894.036795318358
 31
0.0
 70
   163
 71
     5
 42
7.0
 73
     0
 74
     0
 75
     0
  3
AM_ISO$3
100
AcDbDiametricDimension
 15
1882.78556597171
 25
1904.928340245576
 35
0.0
 40
0.0
1001
ACAD_DSTYLE_DIMINSPECT
1070
   396
1000
100%
1070
   395
1000

1070
   394
1070
    33
1070
   393
1070
     0
1001
ACAD_DSTYLE_DIMRADIAL_EXTENSION
1070
   387
1070
     1
1070
   388
1040
0.0
1070
   390
1040
0.0
  0
ENDSEC
  0
SECTION
  2
OBJECTS
  0
DICTIONARY
  5
C
330
0
100
AcDbDictionary
281
     1
  3
ACAD_COLOR
350
BE
  3
ACAD_GROUP
350
D
  3
ACAD_LAYOUT
350
1A
  3
ACAD_MATERIAL
350
BD
  3
ACAD_MLEADERSTYLE
350
2C4
  3
ACAD_MLINESTYLE
350
17
  3
ACAD_PLOTSETTINGS
350
19
  3
ACAD_PLOTSTYLENAME
350
E
  3
ACAD_SCALELIST
350
2A2
  3
ACAD_TABLESTYLE
350
11A
  3
ACAD_VISUALSTYLE
350
26E
  3
ACDB_RECOMPOSE_DATA
350
E72
  3
AcDbVariableDictionary
350
94
  3
AcmDictionary
350
5B
  3
AMG
350
41
  3
AMGSNAPSETTINGS
350
3BD
  0
DICTIONARY
  5
3E3
330
2
100
AcDbDictionary
280
     1
281
     1
  3
ACAD_LAYERSTATES
360
3E4
  0
DICTIONARY
  5
3D7
330
10
100
AcDbDictionary
280
     1
281
     1
  3
ADSK_XREC_LAYER_RECONCILED
360
3D8
  0
DICTIONARY
  5
8F
330
1F
100
AcDbDictionary
280
     1
281
     1
  0
DICTIONARY
  5
CE0
330
CDF
100
AcDbDictionary
280
     1
281
     1
  3
ACAD_DIMASSOC
360
CE1
  0
DICTIONARY
  5
CE3
330
CE2
100
AcDbDictionary
280
     1
281
     1
  3
ACAD_DIMASSOC
360
CE4
  0
DICTIONARY
  5
CE6
330
CE5
100
AcDbDictionary
280
     1
281
     1
  3
ACAD_DIMASSOC
360
CE7
  0
DICTIONARY
  5
CE9
330
CE8
100
AcDbDictionary
280
     1
281
     1
  3
ACAD_DIMASSOC
360
CEA
  0
DICTIONARY
  5
CEC
330
CEB
100
AcDbDictionary
280
     1
281
     1
  3
ACAD_DIMASSOC
360
CED
  0
DICTIONARY
  5
CEF
330
CEE
100
AcDbDictionary
280
     1
281
     1
  3
ACAD_DIMASSOC
360
CF0
  0
DICTIONARY
  5
CF2
330
CF1
100
AcDbDictionary
280
     1
281
     1
  3
ACAD_DIMASSOC
360
CF3
  0
DICTIONARY
  5
CF5
330
CF4
100
AcDbDictionary
280
     1
281
     1
  3
ACAD_DIMASSOC
360
CF6
  0
DICTIONARY
  5
CF8
330
CF7
100
AcDbDictionary
280
     1
281
     1
  3
ACAD_DIMASSOC
360
CF9
  0
DICTIONARY
  5
CFB
330
CFA
100
AcDbDictionary
280
     1
281
     1
  3
ACAD_DIMASSOC
360
CFC
  0
DICTIONARY
  5
CFE
330
CFD
100
AcDbDictionary
280
     1
281
     1
  3
ACAD_DIMASSOC
360
CFF
  0
DICTIONARY
  5
D01
330
D00
100
AcDbDictionary
280
     1
281
     1
  3
ACAD_DIMASSOC
360
D02
  0
DICTIONARY
  5
D04
330
D03
100
AcDbDictionary
280
     1
281
     1
  3
ACAD_DIMASSOC
360
D05
  0
DICTIONARY
  5
D07
330
D06
100
AcDbDictionary
280
     1
281
     1
  3
ACAD_DIMASSOC
360
D08
  0
DICTIONARY
  5
D0A
330
D09
100
AcDbDictionary
280
     1
281
     1
  3
ACAD_DIMASSOC
360
D0B
  0
DICTIONARY
  5
D0D
330
D0C
100
AcDbDictionary
280
     1
281
     1
  3
ACAD_DIMASSOC
360
D0E
  0
DICTIONARY
  5
D10
330
D0F
100
AcDbDictionary
280
     1
281
     1
  3
ACAD_DIMASSOC
360
D11
  0
DICTIONARY
  5
D13
330
D12
100
AcDbDictionary
280
     1
281
     1
  3
ACAD_DIMASSOC
360
D14
  0
DICTIONARY
  5
D16
330
D15
100
AcDbDictionary
280
     1
281
     1
  3
ACAD_DIMASSOC
360
D17
  0
DICTIONARY
  5
D19
330
D18
100
AcDbDictionary
280
     1
281
     1
  3
ACAD_DIMASSOC
360
D1A
  0
DICTIONARY
  5
D1C
330
D1B
100
AcDbDictionary
280
     1
281
     1
  3
ACAD_DIMASSOC
360
D1D
  0
DICTIONARY
  5
D1F
330
D1E
100
AcDbDictionary
280
     1
281
     1
  3
ACAD_DIMASSOC
360
D20
  0
DICTIONARY
  5
D22
330
D21
100
AcDbDictionary
280
     1
281
     1
  3
ACAD_DIMASSOC
360
D23
  0
DICTIONARY
  5
D25
330
D24
100
AcDbDictionary
280
     1
281
     1
  3
ACAD_DIMASSOC
360
D26
  0
DICTIONARY
  5
D28
330
D27
100
AcDbDictionary
280
     1
281
     1
  3
ACAD_DIMASSOC
360
D29
  0
DICTIONARY
  5
D2B
330
D2A
100
AcDbDictionary
280
     1
281
     1
  3
ACAD_DIMASSOC
360
D2C
  0
DICTIONARY
  5
BE
102
{ACAD_REACTORS
330
C
102
}
330
C
100
AcDbDictionary
281
     1
  0
DICTIONARY
  5
D
102
{ACAD_REACTORS
330
C
102
}
330
C
100
AcDbDictionary
281
     1
  0
DICTIONARY
  5
1A
102
{ACAD_REACTORS
330
C
102
}
330
C
100
AcDbDictionary
281
     1
  3
Layout1
350
1E
  3
Layout2
350
26
  3
Model
350
22
  0
DICTIONARY
  5
BD
102
{ACAD_REACTORS
330
C
102
}
330
C
100
AcDbDictionary
281
     1
  3
ByBlock
350
26C
  3
ByLayer
350
26B
  3
Global
350
26D
  0
DICTIONARY
  5
2C4
102
{ACAD_REACTORS
330
C
102
}
330
C
100
AcDbDictionary
281
     1
  3
Standard
350
2C5
  0
DICTIONARY
  5
17
102
{ACAD_REACTORS
330
C
102
}
330
C
100
AcDbDictionary
281
     1
  3
Standard
350
18
  0
DICTIONARY
  5
19
102
{ACAD_REACTORS
330
C
102
}
330
C
100
AcDbDictionary
281
     1
  0
ACDBDICTIONARYWDFLT
  5
E
102
{ACAD_REACTORS
330
C
102
}
330
C
100
AcDbDictionary
281
     1
  3
Normal
350
F
100
AcDbDictionaryWithDefault
340
F
  0
DICTIONARY
  5
2A2
102
{ACAD_REACTORS
330
C
102
}
330
C
100
AcDbDictionary
281
     1
  3
A0
350
2A3
  3
A1
350
2A4
  3
A2
350
2A5
  3
A3
350
2A6
  3
A4
350
2A7
  3
A5
350
2A8
  3
A6
350
2A9
  3
A7
350
2AA
  3
A8
350
2AB
  3
A9
350
2AC
  3
B0
350
2AD
  3
B1
350
2AE
  3
B2
350
2AF
  3
B3
350
2B0
  3
B4
350
2B1
  3
B5
350
2B2
  3
B6
350
2B3
  3
B7
350
2B4
  3
B8
350
2B5
  3
B9
350
2B6
  3
C0
350
2B7
  3
C1
350
2B8
  3
C2
350
2B9
  3
C3
350
2BA
  3
C4
350
2BB
  3
C5
350
2BC
  3
C6
350
2BD
  3
C7
350
2BE
  3
C8
350
2BF
  3
C9
350
2C0
  3
D0
350
2C1
  3
D1
350
2C2
  3
D2
350
2C3
  0
DICTIONARY
  5
11A
102
{ACAD_REACTORS
330
C
102
}
330
C
100
AcDbDictionary
281
     1
  3
Standard
350
11B
  0
DICTIONARY
  5
26E
102
{ACAD_REACTORS
330
C
102
}
330
C
100
AcDbDictionary
281
     1
  3
2dWireframe
350
274
  3
3D Hidden
350
276
  3
3dWireframe
350
275
  3
Basic
350
273
  3
Brighten
350
27A
  3
ColorChange
350
27E
  3
Conceptual
350
277
  3
Dim
350
279
  3
EdgeColorOff
350
34B
  3
Facepattern
350
27D
  3
Flat
350
26F
  3
FlatWithEdges
350
270
  3
Gouraud
350
271
  3
GouraudWithEdges
350
272
  3
Hidden
350
388
  3
JitterOff
350
349
  3
Linepattern
350
27C
  3
OverhangOff
350
34A
  3
Realistic
350
278
  3
Shaded
350
38D
  3
Shaded with edges
350
38C
  3
Shades of Gray
350
389
  3
Sketchy
350
38A
  3
Thicken
350
27B
  3
Wireframe
350
387
  3
X-Ray
350
38B
  0
XRECORD
  5
E72
102
{ACAD_REACTORS
330
C
102
}
330
C
100
AcDbXrecord
280
     1
 90
        1
330
11B
  0
DICTIONARY
  5
94
102
{ACAD_REACTORS
330
C
102
}
330
C
100
AcDbDictionary
281
     1
  3
CANNOSCALE
350
2E9
  3
CMLEADERSTYLE
350
2E7
  3
CTABLESTYLE
350
138
  3
DIMASSOC
350
96
  3
INDEXCTL
350
95
  3
LAYEREVAL
350
346
  3
LAYERNOTIFY
350
347
  3
LIGHTINGUNITS
350
2EA
  3
MSLTSCALE
350
2E8
  0
DICTIONARY
  5
5B
102
{ACAD_REACTORS
330
C
102
}
330
C
100
AcDbDictionary
281
     1
  3
AcmStdDictionary
350
61
  3
AMDTSECTSYM_ARROWCOLOR
350
123
  0
DICTIONARY
  5
41
102
{ACAD_REACTORS
330
C
102
}
330
C
100
AcDbDictionary
281
     1
  0
DICTIONARY
  5
3BD
102
{ACAD_REACTORS
330
C
102
}
330
C
100
AcDbDictionary
281
     1
  0
DICTIONARY
  5
3E4
102
{ACAD_REACTORS
330
3E3
102
}
330
3E3
100
AcDbDictionary
281
     1
  0
XRECORD
  5
3D8
102
{ACAD_REACTORS
330
3D7
102
}
330
3D7
100
AcDbXrecord
280
     1
290
     1
  0
DIMASSOC
  5
CE1
102
{ACAD_REACTORS
330
CE0
102
}
330
CE0
100
AcDbDimAssoc
330
CDF
 90
        3
 70
     0
 71
     0
  1
AcDbOsnapPointRef
 72
    13
331
CD2
 73
     0
 91
        0
 40
0.0
 10
0.0
 20
0.0
 30
2.000000000000000E+50
 75
     0
  1
AcDbOsnapPointRef
 72
    13
331
CD4
 73
     0
 91
        0
 40
0.0
 10
0.0
 20
0.0
 30
2.000000000000000E+50
 75
     0
  0
DIMASSOC
  5
CE4
102
{ACAD_REACTORS
330
CE3
102
}
330
CE3
100
AcDbDimAssoc
330
CE2
 90
        3
 70
     0
 71
     0
  1
AcDbOsnapPointRef
 72
    13
331
CD2
 73
     0
 91
        0
 40
0.0
 10
0.0
 20
0.0
 30
2.000000000000000E+50
 75
     0
  1
AcDbOsnapPointRef
 72
     3
331
CDE
 73
     0
 91
        0
 40
0.0
 10
0.0
 20
0.0
 30
0.0
 75
     0
  0
DIMASSOC
  5
CE7
102
{ACAD_REACTORS
330
CE6
102
}
330
CE6
100
AcDbDimAssoc
330
CE5
 90
        3
 70
     0
 71
     0
  1
AcDbOsnapPointRef
 72
    13
331
CD4
 73
     0
 91
        0
 40
0.0
 10
0.0
 20
0.0
 30
2.000000000000000E+50
 75
     0
  1
AcDbOsnapPointRef
 72
     1
331
CD6
 73
     0
 91
        0
 40
0.0
 10
0.0
 20
0.0
 30
2.000000000000000E+50
 75
     0
  0
DIMASSOC
  5
CEA
102
{ACAD_REACTORS
330
CE9
102
}
330
CE9
100
AcDbDimAssoc
330
CE8
 90
        3
 70
     0
 71
     0
  1
AcDbOsnapPointRef
 72
     1
331
CD6
 73
     0
 91
        0
 40
0.0
 10
0.0
 20
0.0
 30
2.000000000000000E+50
 75
     0
  1
AcDbOsnapPointRef
 72
    13
331
CD9
 73
     0
 91
        0
 40
0.0
 10
0.0
 20
0.0
 30
2.000000000000000E+50
 75
     0
  0
DIMASSOC
  5
CED
102
{ACAD_REACTORS
330
CEC
102
}
330
CEC
100
AcDbDimAssoc
330
CEB
 90
        3
 70
     0
 71
     0
  1
AcDbOsnapPointRef
 72
    13
331
CD9
 73
     0
 91
        0
 40
0.0
 10
0.0
 20
0.0
 30
2.000000000000000E+50
 75
     0
  1
AcDbOsnapPointRef
 72
    13
331
CD8
 73
     0
 91
        0
 40
0.0
 10
0.0
 20
0.0
 30
2.000000000000000E+50
 75
     0
  0
DIMASSOC
  5
CF0
102
{ACAD_REACTORS
330
CEF
102
}
330
CEF
100
AcDbDimAssoc
330
CEE
 90
        3
 70
     0
 71
     0
  1
AcDbOsnapPointRef
 72
    13
331
CD8
 73
     0
 91
        0
 40
0.0
 10
0.0
 20
0.0
 30
2.000000000000000E+50
 75
     0
  1
AcDbOsnapPointRef
 72
    13
331
CD1
 73
     0
 91
        0
 40
0.0
 10
0.0
 20
0.0
 30
2.000000000000000E+50
 75
     0
  0
DIMASSOC
  5
CF3
102
{ACAD_REACTORS
330
CF2
102
}
330
CF2
100
AcDbDimAssoc
330
CF1
 90
        3
 70
     0
 71
     0
  1
AcDbOsnapPointRef
 72
     2
331
CDA
 73
     0
 91
        0
 40
0.0
 10
0.0
 20
0.0
 30
0.0
 75
     0
  1
AcDbOsnapPointRef
 72
     2
331
CCF
 73
     0
 91
        0
 40
0.0
 10
0.0
 20
0.0
 30
0.0
 75
     0
  0
DIMASSOC
  5
CF6
102
{ACAD_REACTORS
330
CF5
102
}
330
CF5
100
AcDbDimAssoc
330
CF4
 90
        3
 70
     0
 71
     0
  1
AcDbOsnapPointRef
 72
     1
331
CDA
 73
     0
 91
        0
 40
0.0
 10
0.0
 20
0.0
 30
2.000000000000000E+50
 75
     0
  1
AcDbOsnapPointRef
 72
    13
331
CD8
 73
     0
 91
        0
 40
0.0
 10
0.0
 20
0.0
 30
2.000000000000000E+50
 75
     0
  0
DIMASSOC
  5
CF9
102
{ACAD_REACTORS
330
CF8
102
}
330
CF8
100
AcDbDimAssoc
330
CF7
 90
        3
 70
     0
 71
     0
  1
AcDbOsnapPointRef
 72
    13
331
CD8
 73
     0
 91
        0
 40
0.0
 10
0.0
 20
0.0
 30
2.000000000000000E+50
 75
     0
  1
AcDbOsnapPointRef
 72
     2
331
CD1
 73
     0
 91
        0
 40
0.0
 10
0.0
 20
0.0
 30
0.0
 75
     0
  0
DIMASSOC
  5
CFC
102
{ACAD_REACTORS
330
CFB
102
}
330
CFB
100
AcDbDimAssoc
330
CFA
 90
        3
 70
     0
 71
     0
  1
AcDbOsnapPointRef
 72
    13
331
CCF
 73
     0
 91
        0
 40
0.0
 10
0.0
 20
0.0
 30
2.000000000000000E+50
 75
     0
  1
AcDbOsnapPointRef
 72
     2
331
CD5
 73
     0
 91
        0
 40
0.0
 10
0.0
 20
0.0
 30
0.0
 75
     0
  0
DIMASSOC
  5
CFF
102
{ACAD_REACTORS
330
CFE
102
}
330
CFE
100
AcDbDimAssoc
330
CFD
 90
        3
 70
     0
 71
     0
  1
AcDbOsnapPointRef
 72
    13
331
CD6
 73
     0
 91
        0
 40
0.0
 10
0.0
 20
0.0
 30
2.000000000000000E+50
 75
     0
  1
AcDbOsnapPointRef
 72
     1
331
CD6
 73
     0
 91
        0
 40
0.0
 10
0.0
 20
0.0
 30
2.000000000000000E+50
 75
     0
  0
DIMASSOC
  5
D02
102
{ACAD_REACTORS
330
D01
102
}
330
D01
100
AcDbDimAssoc
330
D00
 90
        3
 70
     0
 71
     0
  1
AcDbOsnapPointRef
 72
     1
331
CD6
 73
     0
 91
        0
 40
0.0
 10
0.0
 20
0.0
 30
2.000000000000000E+50
 75
     0
  1
AcDbOsnapPointRef
 72
     2
331
CD1
 73
     0
 91
        0
 40
0.0
 10
0.0
 20
0.0
 30
0.0
 75
     0
  0
DIMASSOC
  5
D05
102
{ACAD_REACTORS
330
D04
102
}
330
D04
100
AcDbDimAssoc
330
D03
 90
        3
 70
     0
 71
     0
  1
AcDbOsnapPointRef
 72
     1
331
CD2
 73
     0
 91
        0
 40
0.0
 10
0.0
 20
0.0
 30
2.000000000000000E+50
 75
     0
  1
AcDbOsnapPointRef
 72
    13
331
CD0
 73
     0
 91
        0
 40
0.0
 10
0.0
 20
0.0
 30
2.000000000000000E+50
 75
     0
  0
DIMASSOC
  5
D08
102
{ACAD_REACTORS
330
D07
102
}
330
D07
100
AcDbDimAssoc
330
D06
 90
        3
 70
     0
 71
     0
  1
AcDbOsnapPointRef
 72
    13
331
CD0
 73
     0
 91
        0
 40
0.0
 10
0.0
 20
0.0
 30
2.000000000000000E+50
 75
     0
  1
AcDbOsnapPointRef
 72
    13
331
CD1
 73
     0
 91
        0
 40
0.0
 10
0.0
 20
0.0
 30
2.000000000000000E+50
 75
     0
  0
DIMASSOC
  5
D0B
102
{ACAD_REACTORS
330
D0A
102
}
330
D0A
100
AcDbDimAssoc
330
D09
 90
        3
 70
     0
 71
     0
  1
AcDbOsnapPointRef
 72
    13
331
CD0
 73
     0
 91
        0
 40
0.0
 10
0.0
 20
0.0
 30
2.000000000000000E+50
 75
     0
  1
AcDbOsnapPointRef
 72
     3
331
CDB
 73
     0
 91
        0
 40
0.0
 10
0.0
 20
0.0
 30
0.0
 75
     0
  0
DIMASSOC
  5
D0E
102
{ACAD_REACTORS
330
D0D
102
}
330
D0D
100
AcDbDimAssoc
330
D0C
 90
        3
 70
     0
 71
     0
  1
AcDbOsnapPointRef
 72
    13
331
CD0
 73
     0
 91
        0
 40
0.0
 10
0.0
 20
0.0
 30
2.000000000000000E+50
 75
     0
  1
AcDbOsnapPointRef
 72
     3
331
D09
331
CDB
 73
     0
 91
        0
 40
0.0
 10
0.0
 20
0.0
 30
0.0
 75
     0
  0
DIMASSOC
  5
D11
102
{ACAD_REACTORS
330
D10
102
}
330
D10
100
AcDbDimAssoc
330
D0F
 90
        3
 70
     0
 71
     0
  1
AcDbOsnapPointRef
 72
    13
331
CD1
 73
     0
 91
        0
 40
0.0
 10
0.0
 20
0.0
 30
2.000000000000000E+50
 75
     0
  1
AcDbOsnapPointRef
 72
     3
331
CDD
 73
     0
 91
        0
 40
0.0
 10
0.0
 20
0.0
 30
0.0
 75
     0
  0
DIMASSOC
  5
D14
102
{ACAD_REACTORS
330
D13
102
}
330
D13
100
AcDbDimAssoc
330
D12
 90
        3
 70
     0
 71
     0
  1
AcDbOsnapPointRef
 72
    13
331
CD1
 73
     0
 91
        0
 40
0.0
 10
0.0
 20
0.0
 30
2.000000000000000E+50
 75
     0
  1
AcDbOsnapPointRef
 72
     3
331
D0F
331
CDD
 73
     0
 91
        0
 40
0.0
 10
0.0
 20
0.0
 30
0.0
 75
     0
  0
DIMASSOC
  5
D17
102
{ACAD_REACTORS
330
D16
102
}
330
D16
100
AcDbDimAssoc
330
D15
 90
        3
 70
     0
 71
     0
  1
AcDbOsnapPointRef
 72
    13
331
CD4
 73
     0
 91
        0
 40
0.0
 10
0.0
 20
0.0
 30
2.000000000000000E+50
 75
     0
  1
AcDbOsnapPointRef
 72
    13
331
CD2
 73
     0
 91
        0
 40
0.0
 10
0.0
 20
0.0
 30
2.000000000000000E+50
 75
     0
  0
DIMASSOC
  5
D1A
102
{ACAD_REACTORS
330
D19
102
}
330
D19
100
AcDbDimAssoc
330
D18
 90
        3
 70
     0
 71
     0
  1
AcDbOsnapPointRef
 72
     1
331
CD2
 73
     0
 91
        0
 40
0.0
 10
0.0
 20
0.0
 30
2.000000000000000E+50
 75
     0
  1
AcDbOsnapPointRef
 72
     3
331
CDC
 73
     0
 91
        0
 40
0.0
 10
0.0
 20
0.0
 30
0.0
 75
     0
  0
DIMASSOC
  5
D1D
102
{ACAD_REACTORS
330
D1C
102
}
330
D1C
100
AcDbDimAssoc
330
D1B
 90
        3
 70
     0
 71
     0
  1
AcDbOsnapPointRef
 72
     1
331
CD2
 73
     0
 91
        0
 40
0.0
 10
0.0
 20
0.0
 30
2.000000000000000E+50
 75
     0
  1
AcDbOsnapPointRef
 72
     3
331
D18
331
CDC
 73
     0
 91
        0
 40
0.0
 10
0.0
 20
0.0
 30
0.0
 75
     0
  0
DIMASSOC
  5
D20
102
{ACAD_REACTORS
330
D1F
102
}
330
D1F
100
AcDbDimAssoc
330
D1E
 90
        3
 70
     0
 71
     0
  1
AcDbOsnapPointRef
 72
    13
331
CD2
 73
     0
 91
        0
 40
0.0
 10
0.0
 20
0.0
 30
2.000000000000000E+50
 75
     0
  1
AcDbOsnapPointRef
 72
     3
331
CE2
331
CDE
 73
     0
 91
        0
 40
0.0
 10
0.0
 20
0.0
 30
0.0
 75
     0
  0
DIMASSOC
  5
D23
102
{ACAD_REACTORS
330
D22
102
}
330
D22
100
AcDbDimAssoc
330
D21
 90
        2
 70
     0
 71
     0
  1
AcDbOsnapPointRef
 72
     3
331
CDB
 73
     2
 91
        0
 40
0.0
 10
0.0
 20
0.0
 30
0.0
 75
     0
  0
DIMASSOC
  5
D26
102
{ACAD_REACTORS
330
D25
102
}
330
D25
100
AcDbDimAssoc
330
D24
 90
        2
 70
     0
 71
     0
  1
AcDbOsnapPointRef
 72
     3
331
CDD
 73
     2
 91
        0
 40
0.0
 10
0.0
 20
0.0
 30
0.0
 75
     0
  0
DIMASSOC
  5
D29
102
{ACAD_REACTORS
330
D28
102
}
330
D28
100
AcDbDimAssoc
330
D27
 90
        2
 70
     0
 71
     0
  1
AcDbOsnapPointRef
 72
     3
331
CDC
 73
     2
 91
        0
 40
0.0
 10
0.0
 20
0.0
 30
0.0
 75
     0
  0
DIMASSOC
  5
D2C
102
{ACAD_REACTORS
330
D2B
102
}
330
D2B
100
AcDbDimAssoc
330
D2A
 90
        2
 70
     0
 71
     0
  1
AcDbOsnapPointRef
 72
     3
331
CDE
 73
     2
 91
        0
 40
0.0
 10
0.0
 20
0.0
 30
0.0
 75
     0
  0
LAYOUT
  5
1E
102
{ACAD_REACTORS
330
1A
102
}
330
1A
100
AcDbPlotSettings
  1

  2

  4

  6

 40
0.0
 41
0.0
 42
0.0
 43
0.0
 44
0.0
 45
0.0
 46
0.0
 47
0.0
 48
0.0
 49
0.0
140
0.0
141
0.0
142
1.0
143
1.0
 70
   688
 72
     0
 73
     0
 74
     5
  7

 75
    16
147
1.0
 76
     0
 77
     2
 78
   300
148
0.0
149
0.0
100
AcDbLayout
  1
Layout1
 70
     1
 71
     1
 10
0.0
 20
0.0
 11
420.0
 21
297.0
 12
0.0
 22
0.0
 32
0.0
 14
1.000000000000000E+20
 24
1.000000000000000E+20
 34
1.000000000000000E+20
 15
-1.000000000000000E+20
 25
-1.000000000000000E+20
 35
-1.000000000000000E+20
146
0.0
 13
0.0
 23
0.0
 33
0.0
 16
1.0
 26
0.0
 36
0.0
 17
0.0
 27
1.0
 37
0.0
 76
     0
330
1B
  0
LAYOUT
  5
26
102
{ACAD_REACTORS
330
1A
102
}
330
1A
100
AcDbPlotSettings
  1

  2

  4

  6

 40
0.0
 41
0.0
 42
0.0
 43
0.0
 44
0.0
 45
0.0
 46
0.0
 47
0.0
 48
0.0
 49
0.0
140
0.0
141
0.0
142
1.0
143
1.0
 70
   688
 72
     0
 73
     0
 74
     5
  7

 75
    16
147
1.0
 76
     0
 77
     2
 78
   300
148
0.0
149
0.0
100
AcDbLayout
  1
Layout2
 70
     1
 71
     2
 10
0.0
 20
0.0
 11
12.0
 21
9.0
 12
0.0
 22
0.0
 32
0.0
 14
0.0
 24
0.0
 34
0.0
 15
0.0
 25
0.0
 35
0.0
146
0.0
 13
0.0
 23
0.0
 33
0.0
 16
1.0
 26
0.0
 36
0.0
 17
0.0
 27
1.0
 37
0.0
 76
     0
330
23
  0
LAYOUT
  5
22
102
{ACAD_XDICTIONARY
360
3E9
102
}
102
{ACAD_REACTORS
330
1A
102
}
330
1A
100
AcDbPlotSettings
  1

  2
Microsoft XPS Document Writer
  4
A4 Small
  6

 40
3.174999952316284
 41
3.174999952316284
 42
3.175003051757812
 43
3.17498779296875
 44
210.0
 45
297.0
 46
0.0
 47
0.0
 48
0.0
 49
0.0
140
0.0
141
0.0
142
1.0
143
8.571590702772617
 70
 11952
 72
     1
 73
     1
 74
     0
  7

 75
     0
147
0.1166644599206696
 76
     0
 77
     2
 78
   300
148
1.591154049132228
149
-275.1363725668245
100
AcDbLayout
  1
Model
 70
     1
 71
     0
 10
0.0
 20
0.0
 11
12.0
 21
9.0
 12
0.0
 22
0.0
 32
0.0
 14
0.0
 24
0.0
 34
0.0
 15
0.0
 25
0.0
 35
0.0
146
0.0
 13
0.0
 23
0.0
 33
0.0
 16
1.0
 26
0.0
 36
0.0
 17
0.0
 27
1.0
 37
0.0
 76
     0
330
1F
331
269
1001
ACAD_PSEXT
1000
Microsoft XPS Document Writer
1000
Microsoft XPS Document Writer
1000
XPSPort:
1000

1070
     0
  0
MATERIAL
  5
26C
102
{ACAD_REACTORS
330
BD
102
}
330
BD
100
AcDbMaterial
  1
ByBlock
 73
     1
 78
     1
172
     1
176
     1
270
     1
274
     1
 94
       63
  0
MATERIAL
  5
26B
102
{ACAD_REACTORS
330
BD
102
}
330
BD
100
AcDbMaterial
  1
ByLayer
 73
     1
 78
     1
172
     1
176
     1
270
     1
274
     1
 94
       63
  0
MATERIAL
  5
26D
102
{ACAD_REACTORS
330
BD
102
}
330
BD
100
AcDbMaterial
  1
Global
 73
     1
 78
     1
172
     1
176
     1
270
     1
274
     1
 94
       63
  0
MLEADERSTYLE
  5
2C5
102
{ACAD_REACTORS
330
2C4
102
}
330
2C4
100
AcDbMLeaderStyle
179
     2
170
     2
171
     1
172
     0
 90
        2
 40
0.0
 41
0.0
173
     1
 91
-1056964608
340
14
 92
       -2
290
     1
 42
2.0
291
     1
 43
0.36
  3
Standard
 44
4.0
300

342
11
174
     1
178
     6
175
     1
176
     0
 93
-1056964608
 45
4.0
292
     0
297
     0
 46
4.0
 94
-1056964608
 47
1.0
 49
1.0
140
1.0
293
     1
141
0.0
294
     1
177
     0
142
1.0
295
     0
296
     0
143
0.125
271
     0
272
     9
273
     9
  0
MLINESTYLE
  5
18
102
{ACAD_REACTORS
330
17
102
}
330
17
100
AcDbMlineStyle
  2
STANDARD
 70
     0
  3

 62
   256
 51
90.0
 52
90.0
 71
     2
 49
0.5
 62
   256
  6
BYLAYER
 49
-0.5
 62
   256
  6
BYLAYER
  0
ACDBPLACEHOLDER
  5
F
102
{ACAD_REACTORS
330
E
102
}
330
E
  0
SCALE
  5
2A3
102
{ACAD_REACTORS
330
2A2
102
}
330
2A2
100
AcDbScale
 70
     0
300
1:1
140
1.0
141
1.0
290
     1
  0
SCALE
  5
2A4
102
{ACAD_REACTORS
330
2A2
102
}
330
2A2
100
AcDbScale
 70
     0
300
1:2
140
1.0
141
2.0
290
     0
  0
SCALE
  5
2A5
102
{ACAD_REACTORS
330
2A2
102
}
330
2A2
100
AcDbScale
 70
     0
300
1:4
140
1.0
141
4.0
290
     0
  0
SCALE
  5
2A6
102
{ACAD_REACTORS
330
2A2
102
}
330
2A2
100
AcDbScale
 70
     0
300
1:5
140
1.0
141
5.0
290
     0
  0
SCALE
  5
2A7
102
{ACAD_REACTORS
330
2A2
102
}
330
2A2
100
AcDbScale
 70
     0
300
1:8
140
1.0
141
8.0
290
     0
  0
SCALE
  5
2A8
102
{ACAD_REACTORS
330
2A2
102
}
330
2A2
100
AcDbScale
 70
     0
300
1:10
140
1.0
141
10.0
290
     0
  0
SCALE
  5
2A9
102
{ACAD_REACTORS
330
2A2
102
}
330
2A2
100
AcDbScale
 70
     0
300
1:16
140
1.0
141
16.0
290
     0
  0
SCALE
  5
2AA
102
{ACAD_REACTORS
330
2A2
102
}
330
2A2
100
AcDbScale
 70
     0
300
1:20
140
1.0
141
20.0
290
     0
  0
SCALE
  5
2AB
102
{ACAD_REACTORS
330
2A2
102
}
330
2A2
100
AcDbScale
 70
     0
300
1:30
140
1.0
141
30.0
290
     0
  0
SCALE
  5
2AC
102
{ACAD_REACTORS
330
2A2
102
}
330
2A2
100
AcDbScale
 70
     0
300
1:40
140
1.0
141
40.0
290
     0
  0
SCALE
  5
2AD
102
{ACAD_REACTORS
330
2A2
102
}
330
2A2
100
AcDbScale
 70
     0
300
1:50
140
1.0
141
50.0
290
     0
  0
SCALE
  5
2AE
102
{ACAD_REACTORS
330
2A2
102
}
330
2A2
100
AcDbScale
 70
     0
300
1:100
140
1.0
141
100.0
290
     0
  0
SCALE
  5
2AF
102
{ACAD_REACTORS
330
2A2
102
}
330
2A2
100
AcDbScale
 70
     0
300
2:1
140
2.0
141
1.0
290
     0
  0
SCALE
  5
2B0
102
{ACAD_REACTORS
330
2A2
102
}
330
2A2
100
AcDbScale
 70
     0
300
4:1
140
4.0
141
1.0
290
     0
  0
SCALE
  5
2B1
102
{ACAD_REACTORS
330
2A2
102
}
330
2A2
100
AcDbScale
 70
     0
300
8:1
140
8.0
141
1.0
290
     0
  0
SCALE
  5
2B2
102
{ACAD_REACTORS
330
2A2
102
}
330
2A2
100
AcDbScale
 70
     0
300
10:1
140
10.0
141
1.0
290
     0
  0
SCALE
  5
2B3
102
{ACAD_REACTORS
330
2A2
102
}
330
2A2
100
AcDbScale
 70
     0
300
100:1
140
100.0
141
1.0
290
     0
  0
SCALE
  5
2B4
102
{ACAD_REACTORS
330
2A2
102
}
330
2A2
100
AcDbScale
 70
     0
300
1/128" = 1'-0"
140
0.0078125
141
12.0
290
     0
  0
SCALE
  5
2B5
102
{ACAD_REACTORS
330
2A2
102
}
330
2A2
100
AcDbScale
 70
     0
300
1/64" = 1'-0"
140
0.015625
141
12.0
290
     0
  0
SCALE
  5
2B6
102
{ACAD_REACTORS
330
2A2
102
}
330
2A2
100
AcDbScale
 70
     0
300
1/32" = 1'-0"
140
0.03125
141
12.0
290
     0
  0
SCALE
  5
2B7
102
{ACAD_REACTORS
330
2A2
102
}
330
2A2
100
AcDbScale
 70
     0
300
1/16" = 1'-0"
140
0.0625
141
12.0
290
     0
  0
SCALE
  5
2B8
102
{ACAD_REACTORS
330
2A2
102
}
330
2A2
100
AcDbScale
 70
     0
300
3/32" = 1'-0"
140
0.09375
141
12.0
290
     0
  0
SCALE
  5
2B9
102
{ACAD_REACTORS
330
2A2
102
}
330
2A2
100
AcDbScale
 70
     0
300
1/8" = 1'-0"
140
0.125
141
12.0
290
     0
  0
SCALE
  5
2BA
102
{ACAD_REACTORS
330
2A2
102
}
330
2A2
100
AcDbScale
 70
     0
300
3/16" = 1'-0"
140
0.1875
141
12.0
290
     0
  0
SCALE
  5
2BB
102
{ACAD_REACTORS
330
2A2
102
}
330
2A2
100
AcDbScale
 70
     0
300
1/4" = 1'-0"
140
0.25
141
12.0
290
     0
  0
SCALE
  5
2BC
102
{ACAD_REACTORS
330
2A2
102
}
330
2A2
100
AcDbScale
 70
     0
300
3/8" = 1'-0"
140
0.375
141
12.0
290
     0
  0
SCALE
  5
2BD
102
{ACAD_REACTORS
330
2A2
102
}
330
2A2
100
AcDbScale
 70
     0
300
1/2" = 1'-0"
140
0.5
141
12.0
290
     0
  0
SCALE
  5
2BE
102
{ACAD_REACTORS
330
2A2
102
}
330
2A2
100
AcDbScale
 70
     0
300
3/4" = 1'-0"
140
0.75
141
12.0
290
     0
  0
SCALE
  5
2BF
102
{ACAD_REACTORS
330
2A2
102
}
330
2A2
100
AcDbScale
 70
     0
300
1" = 1'-0"
140
1.0
141
12.0
290
     0
  0
SCALE
  5
2C0
102
{ACAD_REACTORS
330
2A2
102
}
330
2A2
100
AcDbScale
 70
     0
300
1-1/2" = 1'-0"
140
1.5
141
12.0
290
     0
  0
SCALE
  5
2C1
102
{ACAD_REACTORS
330
2A2
102
}
330
2A2
100
AcDbScale
 70
     0
300
3" = 1'-0"
140
3.0
141
12.0
290
     0
  0
SCALE
  5
2C2
102
{ACAD_REACTORS
330
2A2
102
}
330
2A2
100
AcDbScale
 70
     0
300
6" = 1'-0"
140
6.0
141
12.0
290
     0
  0
SCALE
  5
2C3
102
{ACAD_REACTORS
330
2A2
102
}
330
2A2
100
AcDbScale
 70
     0
300
1'-0" = 1'-0"
140
12.0
141
12.0
290
     0
  0
TABLESTYLE
  5
11B
102
{ACAD_XDICTIONARY
360
2E4
102
}
102
{ACAD_REACTORS
330
11A
102
}
330
11A
100
AcDbTableStyle
280
     0
  3
Standard
 70
     0
 71
     0
 40
1.5
 41
1.5
280
     0
281
     0
  7
STANDARD
140
4.5
170
     2
 62
     0
 63
     7
283
     0
 90
      512
 91
        0
  1

274
    -2
284
     1
 64
     0
275
    -2
285
     1
 65
     0
276
    -2
286
     1
 66
     0
277
    -2
287
     1
 67
     0
278
    -2
288
     1
 68
     0
279
    -2
289
     1
 69
     0
  7
STANDARD
140
6.0
170
     5
 62
     0
 63
     7
283
     0
 90
      512
 91
        0
  1

274
    -2
284
     1
 64
     0
275
    -2
285
     1
 65
     0
276
    -2
286
     1
 66
     0
277
    -2
287
     1
 67
     0
278
    -2
288
     1
 68
     0
279
    -2
289
     1
 69
     0
  7
STANDARD
140
4.5
170
     5
 62
     0
 63
     7
283
     0
 90
      512
 91
        0
  1

274
    -2
284
     1
 64
     0
275
    -2
285
     1
 65
     0
276
    -2
286
     1
 66
     0
277
    -2
287
     1
 67
     0
278
    -2
288
     1
 68
     0
279
    -2
289
     1
 69
     0
  0
VISUALSTYLE
  5
274
102
{ACAD_REACTORS
330
26E
102
}
330
26E
100
AcDbVisualStyle
  2
2dWireframe
 70
     4
177
     2
291
     0
 71
     0
176
     1
 72
     2
176
     1
 73
     0
176
     1
 90
        0
176
     1
 40
0.6
176
     1
 41
30.0
176
     1
 63
     7
421
 16777215
176
     1
 74
     1
176
     1
 91
        4
176
     1
 64
     7
176
     1
 65
   257
176
     1
 75
     1
176
     1
175
     1
176
     1
 42
1.0
176
     1
 92
        0
176
     1
 66
   257
176
     1
 43
1.0
176
     1
 76
     1
176
     1
 77
     6
176
     1
 78
     2
176
     1
 67
     7
176
     1
 79
     5
176
     1
170
     0
176
     1
171
     0
176
     1
290
     0
176
     1
 93
        1
176
     1
 44
0.0
176
     1
173
     0
176
     1
  0
VISUALSTYLE
  5
276
102
{ACAD_REACTORS
330
26E
102
}
330
26E
100
AcDbVisualStyle
  2
3D Hidden
 70
     6
177
     2
291
     0
 71
     1
176
     1
 72
     2
176
     1
 73
     2
176
     1
 90
        0
176
     1
 40
0.6
176
     1
 41
30.0
176
     1
 63
     7
421
 16777215
176
     1
 74
     2
176
     1
 91
        2
176
     1
 64
     7
176
     1
 65
   257
176
     1
 75
     2
176
     1
175
     1
176
     1
 42
40.0
176
     1
 92
        0
176
     1
 66
   257
176
     1
 43
1.0
176
     1
 76
     1
176
     1
 77
     6
176
     1
 78
     2
176
     1
 67
     7
176
     1
 79
     3
176
     1
170
     0
176
     1
171
     0
176
     1
290
     0
176
     1
 93
        1
176
     1
 44
0.0
176
     1
173
     0
176
     1
  0
VISUALSTYLE
  5
275
102
{ACAD_REACTORS
330
26E
102
}
330
26E
100
AcDbVisualStyle
  2
3dWireframe
 70
     5
177
     2
291
     0
 71
     0
176
     1
 72
     2
176
     1
 73
     0
176
     1
 90
        0
176
     1
 40
0.6
176
     1
 41
30.0
176
     1
 63
     7
421
 16777215
176
     1
 74
     1
176
     1
 91
        4
176
     1
 64
     7
176
     1
 65
   257
176
     1
 75
     1
176
     1
175
     1
176
     1
 42
1.0
176
     1
 92
        0
176
     1
 66
   257
176
     1
 43
1.0
176
     1
 76
     1
176
     1
 77
     6
176
     1
 78
     2
176
     1
 67
     7
176
     1
 79
     5
176
     1
170
     0
176
     1
171
     0
176
     1
290
     0
176
     1
 93
        1
176
     1
 44
0.0
176
     1
173
     0
176
     1
  0
VISUALSTYLE
  5
273
102
{ACAD_REACTORS
330
26E
102
}
330
26E
100
AcDbVisualStyle
  2
Basic
 70
     7
177
     2
291
     1
 71
     1
176
     1
 72
     0
176
     1
 73
     1
176
     1
 90
        0
176
     1
 40
0.6
176
     1
 41
30.0
176
     1
 63
     7
421
 16777215
176
     1
 74
     0
176
     1
 91
        4
176
     1
 64
     7
176
     1
 65
   257
176
     1
 75
     1
176
     1
175
     1
176
     1
 42
1.0
176
     1
 92
        8
176
     1
 66
     7
176
     1
 43
1.0
176
     1
 76
     1
176
     1
 77
     6
176
     1
 78
     2
176
     1
 67
     7
176
     1
 79
     5
176
     1
170
     0
176
     1
171
     0
176
     1
290
     0
176
     1
 93
        1
176
     1
 44
0.0
176
     1
173
     0
176
     1
  0
VISUALSTYLE
  5
27A
102
{ACAD_REACTORS
330
26E
102
}
330
26E
100
AcDbVisualStyle
  2
Brighten
 70
    12
177
     2
291
     1
 71
     2
176
     1
 72
     2
176
     1
 73
     0
176
     1
 90
        0
176
     1
 40
0.6
176
     1
 41
30.0
176
     1
 63
     7
421
 16777215
176
     1
 74
     1
176
     1
 91
        4
176
     1
 64
     7
176
     1
 65
   257
176
     1
 75
     1
176
     1
175
     1
176
     1
 42
1.0
176
     1
 92
        8
176
     1
 66
     7
176
     1
 43
1.0
176
     1
 76
     1
176
     1
 77
     6
176
     1
 78
     2
176
     1
 67
     7
176
     1
 79
     5
176
     1
170
     0
176
     1
171
     0
176
     1
290
     0
176
     1
 93
        1
176
     1
 44
50.0
176
     1
173
     0
176
     1
  0
VISUALSTYLE
  5
27E
102
{ACAD_REACTORS
330
26E
102
}
330
26E
100
AcDbVisualStyle
  2
ColorChange
 70
    16
177
     2
291
     1
 71
     2
176
     1
 72
     2
176
     1
 73
     3
176
     1
 90
        0
176
     1
 40
0.6
176
     1
 41
30.0
176
     1
 63
     8
421
  8421504
176
     1
 74
     1
176
     1
 91
        4
176
     1
 64
     7
176
     1
 65
   257
176
     1
 75
     1
176
     1
175
     1
176
     1
 42
1.0
176
     1
 92
        8
176
     1
 66
     8
424
  8421504
176
     1
 43
1.0
176
     1
 76
     1
176
     1
 77
     6
176
     1
 78
     2
176
     1
 67
     7
176
     1
 79
     5
176
     1
170
     0
176
     1
171
     0
176
     1
290
     0
176
     1
 93
        1
176
     1
 44
0.0
176
     1
173
     0
176
     1
  0
VISUALSTYLE
  5
277
102
{ACAD_REACTORS
330
26E
102
}
330
26E
100
AcDbVisualStyle
  2
Conceptual
 70
     9
177
     2
291
     0
 71
     3
176
     1
 72
     2
176
     1
 73
     0
176
     1
 90
        0
176
     1
 40
0.6
176
     1
 41
30.0
176
     1
 63
     7
421
 16777215
176
     1
 74
     2
176
     1
 91
        2
176
     1
 64
     7
176
     1
 65
   257
176
     1
 75
     1
176
     1
175
     1
176
     1
 42
40.0
176
     1
 92
        8
176
     1
 66
     7
176
     1
 43
1.0
176
     1
 76
     1
176
     1
 77
     6
176
     1
 78
     2
176
     1
 67
     7
176
     1
 79
     3
176
     1
170
     0
176
     1
171
     0
176
     1
290
     0
176
     1
 93
        1
176
     1
 44
0.0
176
     1
173
     0
176
     1
  0
VISUALSTYLE
  5
279
102
{ACAD_REACTORS
330
26E
102
}
330
26E
100
AcDbVisualStyle
  2
Dim
 70
    11
177
     2
291
     1
 71
     2
176
     1
 72
     2
176
     1
 73
     0
176
     1
 90
        0
176
     1
 40
0.6
176
     1
 41
30.0
176
     1
 63
     7
421
 16777215
176
     1
 74
     1
176
     1
 91
        4
176
     1
 64
     7
176
     1
 65
   257
176
     1
 75
     1
176
     1
175
     1
176
     1
 42
1.0
176
     1
 92
        8
176
     1
 66
     7
176
     1
 43
1.0
176
     1
 76
     1
176
     1
 77
     6
176
     1
 78
     2
176
     1
 67
     7
176
     1
 79
     5
176
     1
170
     0
176
     1
171
     0
176
     1
290
     0
176
     1
 93
        1
176
     1
 44
-50.0
176
     1
173
     0
176
     1
  0
VISUALSTYLE
  5
34B
102
{ACAD_REACTORS
330
26E
102
}
330
26E
100
AcDbVisualStyle
  2
EdgeColorOff
 70
    22
177
     2
291
     1
 71
     2
176
     0
 72
     2
176
     0
 73
     0
176
     0
 90
        0
176
     0
 40
0.6
176
     0
 41
30.0
176
     0
 63
     7
421
 16777215
176
     0
 74
     1
176
     0
 91
        4
176
     0
 64
     7
176
     0
 65
   257
176
     0
 75
     1
176
     0
175
     1
176
     0
 42
1.0
176
     0
 92
        8
176
     2
 66
     7
176
     0
 43
1.0
176
     0
 76
     1
176
     0
 77
     6
176
     0
 78
     2
176
     0
 67
     7
176
     0
 79
     5
176
     0
170
     0
176
     0
171
     0
176
     0
290
     0
176
     0
 93
        1
176
     0
 44
0.0
176
     0
173
     0
176
     0
  0
VISUALSTYLE
  5
27D
102
{ACAD_REACTORS
330
26E
102
}
330
26E
100
AcDbVisualStyle
  2
Facepattern
 70
    15
177
     2
291
     1
 71
     2
176
     1
 72
     2
176
     1
 73
     0
176
     1
 90
        0
176
     1
 40
0.6
176
     1
 41
30.0
176
     1
 63
     7
421
 16777215
176
     1
 74
     1
176
     1
 91
        4
176
     1
 64
     7
176
     1
 65
   257
176
     1
 75
     1
176
     1
175
     1
176
     1
 42
1.0
176
     1
 92
        8
176
     1
 66
     7
176
     1
 43
1.0
176
     1
 76
     1
176
     1
 77
     6
176
     1
 78
     2
176
     1
 67
     7
176
     1
 79
     5
176
     1
170
     0
176
     1
171
     0
176
     1
290
     0
176
     1
 93
        1
176
     1
 44
0.0
176
     1
173
     0
176
     1
  0
VISUALSTYLE
  5
26F
102
{ACAD_REACTORS
330
26E
102
}
330
26E
100
AcDbVisualStyle
  2
Flat
 70
     0
177
     2
291
     1
 71
     2
176
     1
 72
     1
176
     1
 73
     1
176
     1
 90
        2
176
     1
 40
0.6
176
     1
 41
30.0
176
     1
 63
     7
421
 16777215
176
     1
 74
     0
176
     1
 91
        4
176
     1
 64
     7
176
     1
 65
   257
176
     1
 75
     1
176
     1
175
     1
176
     1
 42
1.0
176
     1
 92
        8
176
     1
 66
     7
176
     1
 43
1.0
176
     1
 76
     1
176
     1
 77
     6
176
     1
 78
     2
176
     1
 67
     7
176
     1
 79
     5
176
     1
170
     0
176
     1
171
     0
176
     1
290
     0
176
     1
 93
       13
176
     1
 44
0.0
176
     1
173
     0
176
     1
  0
VISUALSTYLE
  5
270
102
{ACAD_REACTORS
330
26E
102
}
330
26E
100
AcDbVisualStyle
  2
FlatWithEdges
 70
     1
177
     2
291
     1
 71
     2
176
     1
 72
     1
176
     1
 73
     1
176
     1
 90
        2
176
     1
 40
0.6
176
     1
 41
30.0
176
     1
 63
     7
421
 16777215
176
     1
 74
     1
176
     1
 91
        4
176
     1
 64
     7
176
     1
 65
   257
176
     1
 75
     1
176
     1
175
     1
176
     1
 42
1.0
176
     1
 92
        0
176
     1
 66
   257
176
     1
 43
1.0
176
     1
 76
     1
176
     1
 77
     6
176
     1
 78
     2
176
     1
 67
     7
176
     1
 79
     5
176
     1
170
     0
176
     1
171
     0
176
     1
290
     0
176
     1
 93
       13
176
     1
 44
0.0
176
     1
173
     0
176
     1
  0
VISUALSTYLE
  5
271
102
{ACAD_REACTORS
330
26E
102
}
330
26E
100
AcDbVisualStyle
  2
Gouraud
 70
     2
177
     2
291
     1
 71
     2
176
     1
 72
     2
176
     1
 73
     1
176
     1
 90
        2
176
     1
 40
0.6
176
     1
 41
30.0
176
     1
 63
     7
421
 16777215
176
     1
 74
     0
176
     1
 91
        4
176
     1
 64
     7
176
     1
 65
   257
176
     1
 75
     1
176
     1
175
     1
176
     1
 42
1.0
176
     1
 92
        0
176
     1
 66
     7
176
     1
 43
1.0
176
     1
 76
     1
176
     1
 77
     6
176
     1
 78
     2
176
     1
 67
     7
176
     1
 79
     5
176
     1
170
     0
176
     1
171
     0
176
     1
290
     0
176
     1
 93
       13
176
     1
 44
0.0
176
     1
173
     0
176
     1
  0
VISUALSTYLE
  5
272
102
{ACAD_REACTORS
330
26E
102
}
330
26E
100
AcDbVisualStyle
  2
GouraudWithEdges
 70
     3
177
     2
291
     1
 71
     2
176
     1
 72
     2
176
     1
 73
     1
176
     1
 90
        2
176
     1
 40
0.6
176
     1
 41
30.0
176
     1
 63
     7
421
 16777215
176
     1
 74
     1
176
     1
 91
        4
176
     1
 64
     7
176
     1
 65
   257
176
     1
 75
     1
176
     1
175
     1
176
     1
 42
1.0
176
     1
 92
        0
176
     1
 66
   257
176
     1
 43
1.0
176
     1
 76
     1
176
     1
 77
     6
176
     1
 78
     2
176
     1
 67
     7
176
     1
 79
     5
176
     1
170
     0
176
     1
171
     0
176
     1
290
     0
176
     1
 93
       13
176
     1
 44
0.0
176
     1
173
     0
176
     1
  0
VISUALSTYLE
  5
388
102
{ACAD_REACTORS
330
26E
102
}
330
26E
100
AcDbVisualStyle
  2
Hidden
 70
     6
177
     2
291
     0
 71
     1
176
     1
 72
     2
176
     1
 73
     2
176
     1
 90
        0
176
     1
 40
0.6
176
     1
 41
30.0
176
     1
 63
     7
421
 16777215
176
     1
 74
     2
176
     1
 91
        2
176
     1
 64
     7
176
     1
 65
   257
176
     1
 75
     2
176
     1
175
     1
176
     1
 42
40.0
176
     1
 92
        0
176
     1
 66
   257
176
     1
 43
1.0
176
     1
 76
     1
176
     1
 77
     6
176
     1
 78
     2
176
     1
 67
     7
176
     1
 79
     3
176
     1
170
     0
176
     1
171
     0
176
     1
290
     0
176
     1
 93
        1
176
     1
 44
0.0
176
     1
173
     0
176
     1
  0
VISUALSTYLE
  5
349
102
{ACAD_REACTORS
330
26E
102
}
330
26E
100
AcDbVisualStyle
  2
JitterOff
 70
    20
177
     2
291
     1
 71
     2
176
     0
 72
     2
176
     0
 73
     0
176
     0
 90
        0
176
     0
 40
0.6
176
     0
 41
30.0
176
     0
 63
     7
421
 16777215
176
     0
 74
     1
176
     0
 91
        4
176
     0
 64
     7
176
     0
 65
   257
176
     0
 75
     1
176
     0
175
     1
176
     0
 42
1.0
176
     0
 92
       10
176
     2
 66
     7
176
     0
 43
1.0
176
     0
 76
     1
176
     0
 77
     6
176
     0
 78
     2
176
     0
 67
     7
176
     0
 79
     5
176
     0
170
     0
176
     0
171
     0
176
     0
290
     0
176
     0
 93
        1
176
     0
 44
0.0
176
     0
173
     0
176
     0
  0
VISUALSTYLE
  5
27C
102
{ACAD_REACTORS
330
26E
102
}
330
26E
100
AcDbVisualStyle
  2
Linepattern
 70
    14
177
     2
291
     1
 71
     2
176
     1
 72
     2
176
     1
 73
     0
176
     1
 90
        0
176
     1
 40
0.6
176
     1
 41
30.0
176
     1
 63
     7
421
 16777215
176
     1
 74
     1
176
     1
 91
        4
176
     1
 64
     7
176
     1
 65
   257
176
     1
 75
     7
176
     1
175
     7
176
     1
 42
1.0
176
     1
 92
        8
176
     1
 66
     7
176
     1
 43
1.0
176
     1
 76
     1
176
     1
 77
     6
176
     1
 78
     2
176
     1
 67
     7
176
     1
 79
     5
176
     1
170
     0
176
     1
171
     0
176
     1
290
     0
176
     1
 93
        1
176
     1
 44
0.0
176
     1
173
     0
176
     1
  0
VISUALSTYLE
  5
34A
102
{ACAD_REACTORS
330
26E
102
}
330
26E
100
AcDbVisualStyle
  2
OverhangOff
 70
    21
177
     2
291
     1
 71
     2
176
     0
 72
     2
176
     0
 73
     0
176
     0
 90
        0
176
     0
 40
0.6
176
     0
 41
30.0
176
     0
 63
     7
421
 16777215
176
     0
 74
     1
176
     0
 91
        4
176
     0
 64
     7
176
     0
 65
   257
176
     0
 75
     1
176
     0
175
     1
176
     0
 42
1.0
176
     0
 92
        9
176
     2
 66
     7
176
     0
 43
1.0
176
     0
 76
     1
176
     0
 77
     6
176
     0
 78
     2
176
     0
 67
     7
176
     0
 79
     5
176
     0
170
     0
176
     0
171
     0
176
     0
290
     0
176
     0
 93
        1
176
     0
 44
0.0
176
     0
173
     0
176
     0
  0
VISUALSTYLE
  5
278
102
{ACAD_REACTORS
330
26E
102
}
330
26E
100
AcDbVisualStyle
  2
Realistic
 70
     8
177
     2
291
     0
 71
     2
176
     1
 72
     2
176
     1
 73
     0
176
     1
 90
        0
176
     1
 40
0.6
176
     1
 41
30.0
176
     1
 63
     7
421
 16777215
176
     1
 74
     1
176
     1
 91
        0
176
     1
 64
     7
176
     1
 65
   257
176
     1
 75
     1
176
     1
175
     1
176
     1
 42
1.0
176
     1
 92
        8
176
     1
 66
     8
424
  7895160
176
     1
 43
1.0
176
     1
 76
     1
176
     1
 77
     6
176
     1
 78
     2
176
     1
 67
     7
176
     1
 79
     5
176
     1
170
     0
176
     1
171
     0
176
     1
290
     0
176
     1
 93
       13
176
     1
 44
0.0
176
     1
173
     0
176
     1
  0
VISUALSTYLE
  5
38D
102
{ACAD_REACTORS
330
26E
102
}
330
26E
100
AcDbVisualStyle
  2
Shaded
 70
    27
177
     2
291
     0
 71
     2
176
     1
 72
     2
176
     1
 73
     1
176
     1
 90
        2
176
     1
 40
0.6
176
     1
 41
30.0
176
     1
 63
     7
421
 16777215
176
     1
 74
     0
176
     1
 91
        4
176
     1
 64
     7
176
     1
 65
   257
176
     1
 75
     1
176
     1
175
     1
176
     1
 42
1.0
176
     1
 92
        8
176
     1
 66
   257
176
     1
 43
1.0
176
     1
 76
     1
176
     1
 77
     6
176
     1
 78
     2
176
     1
 67
     8
425
  7895160
176
     1
 79
     3
176
     1
170
     0
176
     1
171
     0
176
     1
290
     0
176
     1
 93
        5
176
     1
 44
0.0
176
     1
173
     0
176
     1
  0
VISUALSTYLE
  5
38C
102
{ACAD_REACTORS
330
26E
102
}
330
26E
100
AcDbVisualStyle
  2
Shaded with edges
 70
    26
177
     2
291
     0
 71
     2
176
     1
 72
     2
176
     1
 73
     1
176
     1
 90
        2
176
     1
 40
0.6
176
     1
 41
30.0
176
     1
 63
     7
421
 16777215
176
     1
 74
     1
176
     1
 91
       10
176
     1
 64
     7
176
     1
 65
   257
176
     1
 75
     2
176
     1
175
     1
176
     1
 42
1.0
176
     1
 92
        8
176
     1
 66
   257
176
     1
 43
1.0
176
     1
 76
     1
176
     1
 77
     6
176
     1
 78
     2
176
     1
 67
     7
176
     1
 79
     3
176
     1
170
     0
176
     1
171
     0
176
     1
290
     0
176
     1
 93
        5
176
     1
 44
0.0
176
     1
173
     0
176
     1
  0
VISUALSTYLE
  5
389
102
{ACAD_REACTORS
330
26E
102
}
330
26E
100
AcDbVisualStyle
  2
Shades of Gray
 70
    23
177
     2
291
     0
 71
     2
176
     1
 72
     2
176
     1
 73
     3
176
     1
 90
        0
176
     1
 40
0.6
176
     1
 41
30.0
176
     1
 63
     7
421
 16777215
176
     1
 74
     2
176
     1
 91
        2
176
     1
 64
     7
176
     1
 65
     7
176
     1
 75
     1
176
     1
175
     1
176
     1
 42
40.0
176
     1
 92
        8
176
     1
 66
     7
176
     1
 43
1.0
176
     1
 76
     1
176
     1
 77
     6
176
     1
 78
     2
176
     1
 67
     7
176
     1
 79
     3
176
     1
170
     0
176
     1
171
     0
176
     1
290
     0
176
     1
 93
        1
176
     1
 44
0.0
176
     1
173
     0
176
     1
  0
VISUALSTYLE
  5
38A
102
{ACAD_REACTORS
330
26E
102
}
330
26E
100
AcDbVisualStyle
  2
Sketchy
 70
    24
177
     2
291
     0
 71
     1
176
     1
 72
     2
176
     1
 73
     2
176
     1
 90
        0
176
     1
 40
0.6
176
     1
 41
30.0
176
     1
 63
     7
421
 16777215
176
     1
 74
     2
176
     1
 91
        2
176
     1
 64
     7
176
     1
 65
     7
176
     1
 75
     1
176
     1
175
     1
176
     1
 42
40.0
176
     1
 92
       11
176
     1
 66
     7
176
     1
 43
1.0
176
     1
 76
     1
176
     1
 77
     6
176
     1
 78
     2
176
     1
 67
     7
176
     1
 79
     6
176
     1
170
     0
176
     1
171
     0
176
     1
290
     0
176
     1
 93
        1
176
     1
 44
0.0
176
     1
173
     0
176
     1
  0
VISUALSTYLE
  5
27B
102
{ACAD_REACTORS
330
26E
102
}
330
26E
100
AcDbVisualStyle
  2
Thicken
 70
    13
177
     2
291
     1
 71
     2
176
     1
 72
     2
176
     1
 73
     0
176
     1
 90
        0
176
     1
 40
0.6
176
     1
 41
30.0
176
     1
 63
     7
421
 16777215
176
     1
 74
     1
176
     1
 91
        4
176
     1
 64
     7
176
     1
 65
   257
176
     1
 75
     1
176
     1
175
     1
176
     1
 42
1.0
176
     1
 92
       12
176
     1
 66
     7
176
     1
 43
1.0
176
     1
 76
     1
176
     1
 77
     6
176
     1
 78
     2
176
     1
 67
     7
176
     1
 79
     5
176
     1
170
     0
176
     1
171
     0
176
     1
290
     0
176
     1
 93
        1
176
     1
 44
0.0
176
     1
173
     0
176
     1
  0
VISUALSTYLE
  5
387
102
{ACAD_REACTORS
330
26E
102
}
330
26E
100
AcDbVisualStyle
  2
Wireframe
 70
     5
177
     2
291
     0
 71
     0
176
     1
 72
     2
176
     1
 73
     0
176
     1
 90
        0
176
     1
 40
0.6
176
     1
 41
30.0
176
     1
 63
     7
421
 16777215
176
     1
 74
     1
176
     1
 91
        4
176
     1
 64
     7
176
     1
 65
   257
176
     1
 75
     1
176
     1
175
     1
176
     1
 42
1.0
176
     1
 92
        0
176
     1
 66
   257
176
     1
 43
1.0
176
     1
 76
     1
176
     1
 77
     6
176
     1
 78
     2
176
     1
 67
     7
176
     1
 79
     3
176
     1
170
     0
176
     1
171
     0
176
     1
290
     0
176
     1
 93
        1
176
     1
 44
0.0
176
     1
173
     0
176
     1
  0
VISUALSTYLE
  5
38B
102
{ACAD_REACTORS
330
26E
102
}
330
26E
100
AcDbVisualStyle
  2
X-Ray
 70
    25
177
     2
291
     0
 71
     2
176
     1
 72
     2
176
     1
 73
     1
176
     1
 90
        1
176
     1
 40
0.5
176
     1
 41
30.0
176
     1
 63
     7
421
 16777215
176
     1
 74
     1
176
     1
 91
        0
176
     1
 64
     7
176
     1
 65
   257
176
     1
 75
     1
176
     1
175
     1
176
     1
 42
1.0
176
     1
 92
        8
176
     1
 66
     7
176
     1
 43
1.0
176
     1
 76
     1
176
     1
 77
     6
176
     1
 78
     2
176
     1
 67
     7
176
     1
 79
     3
176
     1
170
     0
176
     1
171
     0
176
     1
290
     0
176
     1
 93
       13
176
     1
 44
0.0
176
     1
173
     0
176
     1
  0
DICTIONARYVAR
  5
2E9
102
{ACAD_REACTORS
330
94
102
}
330
94
100
DictionaryVariables
280
     0
  1
1:1
  0
DICTIONARYVAR
  5
2E7
102
{ACAD_REACTORS
330
94
102
}
330
94
100
DictionaryVariables
280
     0
  1
STANDARD
  0
DICTIONARYVAR
  5
138
102
{ACAD_REACTORS
330
94
102
}
330
94
100
DictionaryVariables
280
     0
  1
STANDARD
  0
DICTIONARYVAR
  5
96
102
{ACAD_REACTORS
330
94
102
}
330
94
100
DictionaryVariables
280
     0
  1
2
  0
DICTIONARYVAR
  5
95
102
{ACAD_REACTORS
330
94
102
}
330
94
100
DictionaryVariables
280
     0
  1
1
  0
DICTIONARYVAR
  5
346
102
{ACAD_REACTORS
330
94
102
}
330
94
100
DictionaryVariables
280
     0
  1
1
  0
DICTIONARYVAR
  5
347
102
{ACAD_REACTORS
330
94
102
}
330
94
100
DictionaryVariables
280
     0
  1
15
  0
DICTIONARYVAR
  5
2EA
102
{ACAD_REACTORS
330
94
102
}
330
94
100
DictionaryVariables
280
     0
  1
0
  0
DICTIONARYVAR
  5
2E8
102
{ACAD_REACTORS
330
94
102
}
330
94
100
DictionaryVariables
280
     0
  1
0
  0
DICTIONARY
  5
61
102
{ACAD_REACTORS
330
5B
102
}
330
5B
100
AcDbDictionary
281
     1
  0
XRECORD
  5
123
102
{ACAD_REACTORS
330
5B
102
}
330
5B
100
AcDbXrecord
280
     1
 90
-1023410169
  0
DICTIONARY
  5
3E9
330
22
100
AcDbDictionary
280
     1
281
     1
  3
ADSK_XREC_LAYOUTTHUMBNAIL
360
3EA
  0
DICTIONARY
  5
2E4
330
11B
100
AcDbDictionary
280
     1
281
     1
  3
ACAD_ROUNDTRIP_2008_TABLESTYLE_CELLSTYLEMAP
360
E71
  0
XRECORD
  5
3EA
102
{ACAD_REACTORS
330
3E9
102
}
330
3E9
100
AcDbXrecord
280
     1
310
280000000001000079000000010008000000000000790000000000000000000000010000000000003028210000000000FFFFFF000000000000000000000000000000000000000000000000000000000000000000330000006600000099000000CC000000FF00000000330000333300006633000099330000CC330000FF3300
310
0000660000336600006666000099660000CC660000FF66000000990000339900006699000099990000CC990000FF99000000CC000033CC000066CC000099CC0000CCCC0000FFCC000000FF000033FF000066FF000099FF0000CCFF0000FFFF000000003300330033006600330099003300CC003300FF003300003333003333
310
33006633330099333300CC333300FF33330000663300336633006666330099663300CC663300FF66330000993300339933006699330099993300CC993300FF99330000CC330033CC330066CC330099CC3300CCCC3300FFCC330000FF330033FF330066FF330099FF3300CCFF3300FFFF330000006600330066006600660099
310
006600CC006600FF00660000336600333366006633660099336600CC336600FF33660000666600336666006666660099666600CC666600FF66660000996600339966006699660099996600CC996600FF99660000CC660033CC660066CC660099CC6600CCCC6600FFCC660000FF660033FF660066FF660099FF6600CCFF6600
310
FFFF660000009900330099006600990099009900CC009900FF00990000339900333399006633990099339900CC339900FF33990000669900336699006666990099669900CC669900FF66990000999900339999006699990099999900CC999900FF99990000CC990033CC990066CC990099CC9900CCCC9900FFCC990000FF99
310
0033FF990066FF990099FF9900CCFF9900FFFF99000000CC003300CC006600CC009900CC00CC00CC00FF00CC000033CC003333CC006633CC009933CC00CC33CC00FF33CC000066CC003366CC006666CC009966CC00CC66CC00FF66CC000099CC003399CC006699CC009999CC00CC99CC00FF99CC0000CCCC0033CCCC0066CC
310
CC0099CCCC00CCCCCC00FFCCCC0000FFCC0033FFCC0066FFCC0099FFCC00CCFFCC00FFFFCC000000FF003300FF006600FF009900FF00CC00FF00FF00FF000033FF003333FF006633FF009933FF00CC33FF00FF33FF000066FF003366FF006666FF009966FF00CC66FF00FF66FF000099FF003399FF006699FF009999FF00CC
310
99FF00FF99FF0000CCFF0033CCFF0066CCFF0099CCFF00CCCCFF00FFCCFF0000FFFF0033FFFF0066FFFF0099FFFF00CCFFFF00FFFFFF00000000000D0D0D001A1A1A00282828003535350043434300505050005D5D5D006B6B6B00787878008686860093939300A1A1A100AEAEAE00BBBBBB00C9C9C900D6D6D600E4E4E400
310
F1F1F100FFFFFF000000000000000000000000000000000000000000000000000000000000000000000000000000000000000000000000000000000000000000000000000000000000000000000000000000000000000000000000000000000000000000000000000000000000000000000000000000000000000000000000
310
00000000000000000000000000000000000000000000000000000000000000000000000000000000000000000000000000000000000000000000000000000000000000000000000000000000000000000000000000000000000000000000000000000000000000000000000000000000000000000000000000000000000000
310
00000000000000000000000000000000000000000000000000000000000000000000000000000000000000000000000000000000000000000000000000000000000000000000000000000000000000000000000000000000000000000000000000000000000000000000000000000000000000000000000000000000000000
310
00000000000000000000000000000000000000000000000000000000000000000000000000000000000000000000000000000000000000000000000000000000000000000000000000000000000000000000000000000000000000000000000000000000000000000000000000000000000000000000000000000000000000
310
00000000000000000000000000000000000000000000000000000000000000000000000000000000000000000000000000000000000000000000000000000000000000000000000000000000000000000000000000000000000000000000000000000000000000000000000000000000000000000000000000000000000000
310
00000000000000000000000000000000000000000000000000000000000000000000000000000000000000000000000000000000000000000000000000000000000000000000000000000000000000000000000000000000000000000000000000000000000000000000000000000000000000000000000000000000000000
310
00000000000000000000000000000000000000000000000000000000000000000000000000000000000000000000000000000000000000000000000000000000000000000000000000000000000000000000000000000000000000000000000000000000000000000000000000000000000000000000000000000000000000
310
00000000000000000000000000000000000000000000000000000000000000000000000000000000000000000000000000000000000000000000000000000000000000000000000000000000000000000000000000000000000000000000000000000000000000000000000000000000000000000000000000000000000000
310
00000000000000000000000000000000000000000000000000000000000000000000000000000000000000000000000000000000000000000000000000000000000000000000000000000000000000000000000000000000000000000000000000000000000000000000000000000000000000000000000000000000000000
310
00000000000000000000000000000000000000000000000000000000000000000000000000000000000000000000000000000000000000000000000000000000000000000000000000000000000000000000000000000000000000000000000000000000000000000000000000000000000000000000000000000000000000
310
00000000000000000000000000000000000000000000000000000000000000000000000000000000000000000000000000000000000000000000000000000000000000000000000000000000000000000000000000000000000000000000000000000000000000000000000000000000000000000000000000000000000000
310
00000000000000000000000000000000000000000000000000000000000000000000000000000000000000000000000000000000000000000000000000000000000000000000000000000000000000000000000000000000000000000000000000000000000000000000000000000000000000000000000000000000000000
310
00000000000000000000000000000000000000000000000000000000000000000000000000000000000000000000000000000000000000000000000000000000000000000000000000000000000000000000000000000000000000000000000000000000000000000000000000000000000000000000000000000000000000
310
00000000000000000000000000000000000000000000000000000000000000000000000000000000000000000000000000000000000000000000000000000000000000000000000000000000000000000000000000000000000000000000000000000000000000000000000000000000000000000000000000000000000000
310
00000000000000000000000000000000000000000000000000000000000000000000000000000000000000000000000000000000000000000000000000000000000000000000000000000000000000000000000000000000000000000000000000000000000000000000000000000000000000000000000000000000000000
310
00000000000000000000000000000000000000000000000000000000000000000000000000000000000000000000000000000000000000000000000000000000000000000000000000000000000000000000000000000000000000000000000000000000000000000000000000000000000000000000000000000000000000
310
00000000000000000000000000000000000000000000000000000000000000000000000000000000000000000000000000000000000000000000000000000000000000000000000000000000000000000000000000000000000000000000000000000000000000000000000000000000000000000000000000000000000000
310
00000000000000000000000000000000000000000000000000000000000000000000000000000000000000000000000000000000000000000000000000000000000000000000000000000000000000000000000000000000000000000000000000000000000000000000000000000000000000000000000000000000000000
310
00000000000000000000000000000000000000000000000000000000000000000000000000000000000000000000000000000000000000000000000000000000000000000000000000000000000000000000000000000000000000000000000000000000000000000000000000000000000000000000000000000000000000
310
00000000000000000000000000000000000000000000000000000000000000000000000000000000000000000000000000000000000000000000000000000000000000000000000000000000000000000000000000000000000000000000000000000000000000000000000000000000000000000000000000000000000000
310
00000000000000000000000000000000000000000000000000000000000000000000000000000000000000000000000000000000000000000000000000000000000000000000000000000000000000000000000000000000000000000000000000000000000000000000000000000000000000000000000000000000000000
310
00000000000000000000000000000000000000000000000000000000000000000000000000000000000000000000000000000000000000000000000000000000000000000000000000000000000000000000000000000000000000000000000000000000000000000000000000000000000000000000000000000000000000
310
00000000000000000000000000000000000000000000000000000000000000000000000000000000000000000000000000000000000000000000000000000000000000000000000000000000000000000000000000000000000000000000000000000000000000000000000000000000000000000000000000000000000000
310
00000000000000000000000000000000000000000000000000000000000000000000000000000000000000000000000000000000000000000000000000000000000000000000000000000000000000000000000000000000000000000000000000000000000000000000000000000000000000000000000000000000000000
310
00000000000000000000000000000000000000000000000000000000000000000000000000000000000000000000000000000000000000000000000000000000000000000000000000000000000000000000000000000000000000000000000000000000000000000000000000000000000000000000000000000000000000
310
00000000000000000000000000000000000000000000000000000000000000000000000000000000000000000000000000000000000000000000000000000000000000000000000000000000000000000000000000000000000000000000000000000000000000000000000000000000000000000000000000000000000000
310
00000000000000000000000000000000000000000000000000000000000000000000000000000000000000000000000000000000000000000000000000000000000000000000000000000000000000000000000000000000000000000000000000000000000000000000000000000000000000000000000000000000000000
310
00000000000000000000000000000000000000000000000000000000000000000000000000000000000000000000000000000000000000000000000000000000000000000000000000000000000000000000000000000000000000000000000000000000000000000000000000000000000000000000000000000000000000
310
00000000000000000000000000000000000000000000000000000000000000000000000000000000000000000000000000000000000000000000000000000000000000000000000000000000000000000000000000000000000000000000000000000000000000000000000000000000000000000000000000000000000000
310
00000000000000000000000000000000000000000000000000000000000000000000000000000000000000000000000000000000000000000000000000000000000000000000000000000000000000000000000000000000000000000000000000000000000000000000000000000000000000000000000000000000000000
310
00000000000000000000000000000000000000000000000000000000000000000000000000000000000000000000000000000000000000000000000000000000000000000000000000000000000000000000000000000000000000000000000000000000000000000000000000000000000000000000000000000000000000
310
00000000000000000000000000000000000000000000000000000000000000000000000000000000000000000000000000000000000000000000000000000000000000000000000000000000000000000000000000000000000000000000000000000000000000000000000000000000000000000000000000000000000000
310
00000000000000000000000000000000000000000000000000000000000000000000000000000000000000000000000000000000000000000000000000000000000000000000000000000000000000000000000000000000000000000000000000000000000000000000000000000000000000000000000000000000000000
310
00000000000000000000000000000000000000000000000000000000000000000000000000000000000000000000000000000000000000000000000000000000000000000000000000000000000000000000000000000000000000000000000000000000000000000000000000000000000000000000000000000000000000
310
00000000000000000000000000000000000000000000000000000000000000000000000000000000000000000000000000000000000000000000000000000000000000000000000000000000000000000000000000000000000000000000000000000000000000000000000000000000000000000000000000000000000000
310
00000000000000000000000000000000000000000000000000000000000000000000000000000000000000000000000000000000000000000000000000000000000000000000000000000000000000000000000000000000000000000000000000000000000000000000000000000000000000000000000000000000000000
310
00000000000000000000000000000000000000000000000000000000000000000000000000000000000000000000000000000000000000000000000000000000000000000000000000000000000000000000000000000000000000000000000000000000000000000000000000000000000000000000000000000000000000
310
00000000000000000000000000000000000000000000000000000000000000000000000000000000000000000000000000000000000000000000000000000000000000000000000000000000000000000000000000000000000000000000000000000000000000000000000000000000000000000000000000000000000000
310
00000000000000000000000000000000000000000000000000000000000000000000000000000000000000000000000000000000000000000000000000000000000000000000000000000000000000000000000000000000000000000000000000000000000000000000000000000000000000000000000000000000000000
310
00000000000000000000000000000000000000000000000000000000000000000000000000000000000000000000000000000000000000000000000000000000000000000000000000000000000000000000000000000000000000000000000000000000000000000000000000000000000000000000000000000000000000
310
00000000000000000000000000000000000000000000000000000000000000000000000000000000000000000000000000000000000000000000000000000000000000000000000000000000000000000000000000000000000000000000000000000000000000000000000000000000000000000000000000000000000000
310
00000000000000000000000000000000000000000000000000000000000000000000000000000000000000000000000000000000000000000000000000000000000000000000000000000000000000000000000000000000000000000000000000000000000000000000000000000000000000000000000000000000000000
310
00000000000000000000000000000000000000000000000000000000000000000000000000000000000000000000000000000000000000000000000000000000000000000000000000000000000000000000000000000000000000000000000000000000000000000000000000000000000000000000000000000000000000
310
00000000000000000000000000000000000000000000000000000000000000000000000000000000000000000000000000000000000000000000000000000000000000000000000000000000000000000000000000000000000000000000000000000000000000000000000000000000000000000000000000000000000000
310
00000000000000000000000000000000000000000000000000000000000000000000000000000000000000000000000000000000000000000000000000000000000000000000000000000000000000000000000000000000000000000000000000000000000000000000000000000000000000000000000000000000000000
310
00000000000000000000000000000000000000000000000000000000000000000000000000000000000000000000000000000000000000000000000000000000000000000000000000000000000000000000000000000000000000000000000000000000000000000000000000000000000000000000000000000000000000
310
00000000000000000000000000000000000000000000000000000000000000000000000000000000000000000000000000000000000000000000000000000000000000000000000000000000000000000000000000000000000000000000000000000000000000000000000000000000000000000000000000000000000000
310
00000000000000000000000000000000000000000000000000000000000000000000000000000000000000000000000000000000000000000000000000000000000000000000000000000000000000000000000000000000000000000000000000000000000000000000000000000000000000000000000000000000000000
310
00000000000000000000000000000000000000000000000000000000000000000000000000000000000000000000000000000000000000000000000000000000000000000000000000000000000000000000000000000000000000000000000000000000000000000000000000000000000000000000000000000000000000
310
00000000000000000000000000000000000000000000000000000000000000000000000000000000000000000000000000000000000000000000000000000000000000000000000000000000000000000000000000000000000000000000000000000000000000000000000000000000000000000000000000000000000000
310
00000000000000000000000000000000000000000000000000000000000000000000000000000000000000000000000000000000000000000000000000000000000000000000000000000000000000000000000000000000000000000000000000000000000000000000000000000000000000000000000000000000000000
310
00000000000000000000000000000000000000000000000000000000000000000000000000000000000000000000000000000000000000000000000000000000000000000000000000000000000000000000000000000000000000000000000000000000000000000000000000000000000000000000000000000000000000
310
00000000000000000000000000000000000000000000000000000000000000000000000000000000000000000000000000000000000000000000000000000000000000000000000000000000000000000000000000000000000000000000000000000000000000000000000000000000000000000000000000000000000000
310
00000000000000000000000000000000000000000000000000000000000000000000000000000000000000000000000000000000000000000000000000000000000000000000000000000000000000000000000000000000000000000000000000000000000000000000000000000000000000000000000000000000000000
310
00000000000000000000000000000000000000000000000000000000000000000000000000000000000000000000000000000000000000000000000000000000000000000000000000000000000000000000000000000000000000000000000000000000000000000000000000000000000000000000000000000000000000
310
00000000000000000000000000000000000000000000000000000000000000000000000000000000000000000000000000000000000000F5F5F5F5F5F5F5F5F5F5F5F5F5F5F5F5F5F5F5F500000000000000000000000000000000000000000000000000000000000000000000000000000000000000000000000000000000
310
00000000000000000000000000000000000000000000000000000000000000000000000000000000000000000000000000000000000000000000000000000000000000000000000000000000000000000000000000000000000000000000000000000000000000000000000000000000000000000000000000000000000000
310
000000000000000000000000000000000000000000000000000000000000000000000000000000000000000000000000000000000000000000F5F500000000000000000000000000000000F5F50000000000000000000000000000000000000000000000000000000000000000000000000000000000000000000000000000
310
00000000000000000000000000000000000000000000000000000000000000000000000000000000000000000000000000000000000000000000000000000000000000000000000000000000000000000000000000000000000000000000000000000000000000000000000000000000000000000000000000000000000000
310
0000000000000000000000000000000000000000000000000000000000000000000000000000000000000000000000000000000000000000000000F5F500000000000000000000000000000000F5F5000000000000000000000000000000000000000000000000000000000000000000000000000000000000000000000000
310
00000000000000000000000000000000000000000000000000000000000000000000000000000000000000000000000000000000000000000000000000000000000000000000000000000000000000000000000000000000000000000000000000000000000000000000000000000000000000000000000000000000000000
310
00000000000000000000000000000000000000000000000000000000000000000000000000000000000000000000000000000000000000000000000000F5000000000000000000000000000000000000F500000000000000000000000000000000000000000000000000000000000000000000000000000000000000000000
310
00000000000000000000000000000000000000000000000000000000000000000000000000000000000000000000000000000000000000000000000000000000000000000000000000000000000000000000000000000000000000000000000000000000000000000000000000000000000000000000000000000000000000
310
000000000000000000000000000000000000000000000000000000000000000000000000000000000000000000000000000000000000000000000000000000F5000000000000000000000000000000000000F50000000000000000000000000000000000000000000000000000000000000000000000000000000000000000
310
00000000000000000000000000000000000000000000000000000000000000000000000000000000000000000000000000000000000000000000000000000000000000000000000000000000000000000000000000000000000000000000000000000000000000000000000000000000000000000000000000000000000000
310
0000000000000000000000000000000000000000000000000000000000000000000000000000000000000000000000000000000000000000000000000000000000F5000000000000000000000000000000000000F5000000000000000000000000000000000000000000000000000000000000000000000000000000000000
310
00000000000000000000000000000000000000000000000000000000000000000000000000000000000000000000000000000000000000000000000000000000000000000000000000000000000000000000000000000000000000000000000000000000000000000000000000000000000000000000000000000000000000
310
00000000000000000000000000000000000000000000000000000000000000000000000000000000000000000000000000000000000000000000000000000000000000F5000000000000000000000000000000000000F500000000000000000000000000000000000000000000000000000000000000000000000000000000
310
00000000000000000000000000000000000000000000000000000000000000000000000000000000000000000000000000000000000000000000000000000000000000000000000000000000000000000000000000000000000000000000000000000000000000000000000000000000000000000000000000000000000000
310
000000000000000000000000000000000000000000000000000000000000000000000000000000000000000000000000000000000000000000000000000000000000000000F5000000000000000000000000000000000000F50000000000000000000000000000000000000000000000000000000000000000000000000000
310
00000000000000000000000000000000000000000000000000000000000000000000000000000000000000000000000000000000000000000000000000000000000000000000000000000000000000000000000000000000000000000000000000000000000000000000000000000000000000000000000000000000000000
310
0000000000000000000000000000000000000000000000000000000000000000000000000000000000000000000000000000000000000000000000000000000000000000000000F5000000000000000000000000000000000000F5000000000000000000000000000000000000000000000000000000000000000000000000
310
00000000000000000000000000000000000000000000000000000000000000000000000000000000000000000000000000000000000000000000000000000000000000000000000000000000000000000000000000000000000000000000000000000000000000000000000000000000000000000000000000000000000000
310
00000000000000000000000000000000000000000000000000000000000000000000000000000000000000000000000000000000000000000000000000000000000000000000000000F5000000000000000000000000000000000000F500000000000000000000000000000000000000000000000000000000000000000000
310
00000000000000000000000000000000000000000000000000000000000000000000000000000000000000000000000000000000000000000000000000000000000000000000000000000000000000000000000000000000000000000000000000000000000000000000000000000000000000000000000000000000000000
310
000000000000000000000000000000000000000000000000000000000000000000000000000000000000000000000000000000000000000000000000000000000000000000000000000000F5000000000000000000000000000000000000F50000000000000000000000000000000000000000000000000000000000000000
310
00000000000000000000000000000000000000000000000000000000000000000000000000000000000000000000000000000000000000000000000000000000000000000000000000000000000000000000000000000000000000000000000000000000000000000000000000000000000000000000000000000000000000
310
0000000000000000000000000000000000000000000000000000000000000000000000000000000000000000000000000000000000000000000000000000000000000000000000000000000000F5000000000000000000000000000000000000F5000000000000000000000000000000000000000000000000000000000000
310
00000000000000000000000000000000000000000000000000000000000000000000000000000000000000000000000000000000000000000000000000000000000000000000000000000000000000000000000000000000000000000000000000000000000000000000000000000000000000000000000000000000000000
310
00000000000000000000000000000000000000000000000000000000000000000000000000000000000000000000000000000000000000000000000000000000000000000000000000000000000000F50000F5F5F5F5F5F5F5F5F5F5F5F5F5F5F500F500000000000000000000000000000000000000000000000000000000
310
00000000000000000000000000000000000000000000000000000000000000000000000000000000000000000000000000000000000000000000000000000000000000000000000000000000000000000000000000000000000000000000000000000000000000000000000000000000000000000000000000000000000000
310
000000000000000000000000000000000000000000000000000000000000000000000000000000000000000000000000000000000000000000000000000000000000000000000000000000000000000000F50000F500000000000000000000000000F500F50000000000000000000000000000000000000000000000000000
310
00000000000000000000000000000000000000000000000000000000000000000000000000000000000000000000000000000000000000000000000000000000000000000000000000000000000000000000000000000000000000000000000000000000000000000000000000000000000000000000000000000000000000
310
0000000000000000000000000000000000000000000000000000000000000000000000000000000000000000000000000000000000000000000000000000000000000000000000000000000000000000000000F50000F500000000000000000000000000F500F5000000000000000000000000000000000000000000000000
310
00000000000000000000000000000000000000000000000000000000000000000000000000000000000000000000000000000000000000000000000000000000000000000000000000000000000000000000000000000000000000000000000000000000000000000000000000000000000000000000000000000000000000
310
00000000000000000000000000000000000000000000000000000000000000000000000000000000000000000000000000000000000000000000000000000000000000000000000000000000000000000000000000F50000F500000000000000000000000000F500F500000000000000000000000000000000000000000000
310
00000000000000000000000000000000000000000000000000000000000000000000000000000000000000000000000000000000000000000000000000000000000000000000000000000000000000000000000000000000000000000000000000000000000000000000000000000000000000000000000000000000000000
310
000000000000000000000000000000000000000000000000000000000000000000000000000000000000000000000000000000000000000000000000000000000000000000000000000000000000000000000000000000F50000F500000000000000000000000000F500F50000000000000000000000000000000000000000
310
00000000000000000000000000000000000000000000000000000000000000000000000000000000000000000000000000000000000000000000000000000000000000000000000000000000000000000000000000000000000000000000000000000000000000000000000000000000000000000000000000000000000000
310
0000000000000000000000000000000000000000000000000000000000000000000000000000000000000000000000000000000000000000000000000000000000000000000000000000000000000000000000000000000000F50000F500000000000000000000000000F500F5000000000000000000000000000000000000
310
00000000000000000000000000000000000000000000000000000000000000000000000000000000000000000000000000000000000000000000000000000000000000000000000000000000000000000000000000000000000000000000000000000000000000000000000000000000000000000000000000000000000000
310
00000000000000000000000000000000000000000000000000000000000000000000000000000000000000000000000000000000000000000000000000000000000000000000000000000000000000000000000000000000000000F50000F500000000000000000000000000F500F500000000000000000000000000000000
310
00000000000000000000000000000000000000000000000000000000000000000000000000000000000000000000000000000000000000000000000000000000000000000000000000000000000000000000000000000000000000000000000000000000000000000000000000000000000000000000000000000000000000
310
000000000000000000000000000000000000000000000000000000000000000000000000000000000000000000000000000000000000000000000000000000000000000000000000000000000000000000000000000000000000000000F50000F500000000000000000000000000F500F50000000000000000000000000000
310
00000000000000000000000000000000000000000000000000000000000000000000000000000000000000000000000000000000000000000000000000000000000000000000000000000000000000000000000000000000000000000000000000000000000000000000000000000000000000000000000000000000000000
310
0000000000000000000000000000000000000000000000000000000000000000000000000000000000000000000000000000000000000000000000000000000000000000000000000000000000000000000000000000000000000000000000F50000F500000000000000000000000000F500F5000000000000000000000000
310
00000000000000000000000000000000000000000000000000000000000000000000000000000000000000000000000000000000000000000000000000000000000000000000000000000000000000000000000000000000000000000000000000000000000000000000000000000000000000000000000000000000000000
310
00000000000000000000000000000000000000000000000000000000000000000000000000000000000000000000000000000000000000000000000000000000000000000000000000000000000000000000000000000000000000000000000000F50000F500000000000000000000000000F500F500000000000000000000
310
00000000000000000000000000000000000000000000000000000000000000000000000000000000000000000000000000000000000000000000000000000000000000000000000000000000000000000000000000000000000000000000000000000000000000000000000000000000000000000000000000000000000000
310
000000000000000000000000000000000000000000000000000000000000000000000000000000000000000000000000000000000000000000000000000000000000000000000000000000000000000000000000000000000000000000000000000000F50000F500000000000000000000000000F500F50000000000000000
310
00000000000000000000000000000000000000000000000000000000000000000000000000000000000000000000000000000000000000000000000000000000000000000000000000000000000000000000000000000000000000000000000000000000000000000000000000000000000000000000000000000000000000
310
0000000000000000000000000000000000000000000000000000000000000000000000000000000000000000000000000000000000000000000000000000000000000000000000000000000000000000000000000000000000000000000000000000000000F50000F500000000000000000000000000F500F5000000000000
310
00000000000000000000000000000000000000000000000000000000000000000000000000000000000000000000000000000000000000000000000000000000000000000000000000000000000000000000000000000000000000000000000000000000000000000000000000000000000000000000000000000000000000
310
00000000000000000000000000000000000000000000000000000000000000000000000000000000000000000000000000000000000000000000000000000000000000000000000000000000000000000000000000000000000000000000000000000000000000F50000F5F5F5F5F5F5F5F5F5F5F5F5F5F5F500F500000000
310
00000000000000000000000000000000000000000000000000000000000000000000000000000000000000000000000000000000000000000000000000000000000000000000000000000000000000000000000000000000000000000000000000000000000000000000000000000000000000000000000000000000000000
310
000000000000000000000000000000000000000000000000000000000000000000000000000000000000000000000000000000000000000000000000000000000000000000000000000000000000000000000000000000000000000000000000000000000000000000F5F5F5F5F5F5F5F5F5F5F5F5F5F5F5F5F5F5F5F50000
310
00000000000000000000000000000000000000000000000000000000000000000000000000000000000000000000000000000000000000000000000000000000000000000000000000000000000000000000000000000000000000000000000000000000000000000000000000000000000000000000000000000000000000
310
0000000000000000000000000000000000000000000000000000000000000000000000000000000000000000000000000000000000000000000000000000000000000000000000000000000000000000000000000000000000000000000000000000000000000000000000F5F500000000000000000000000000000000F5F5
310
00000000000000000000000000000000000000000000000000000000000000000000000000000000000000000000000000000000000000000000000000000000000000000000000000000000000000000000000000000000000000000000000000000000000000000000000000000000000000000000000000000000000000
310
00000000000000000000000000000000000000000000000000000000000000000000000000000000000000000000000000000000000000000000000000000000000000000000000000000000000000000000000000000000000000000000000000000000000000000000000000F5F500000000000000000000000000000000
310
F5F50000000000000000000000000000000000000000000000000000000000000000000000000000000000000000000000000000000000000000000000000000000000000000000000000000000000000000000000000000000000000000000000000000000000000000000000000000000000000000000000000000000000
310
000000000000000000000000000000000000000000000000000000000000000000000000000000000000000000000000000000000000000000000000000000000000000000000000000000000000000000000000000000000000000000000000000000000000000000000000000000F5F50000000000000000000000000000
310
0000F5F5000000000000000000000000000000000000000000000000000000000000000000000000000000000000000000000000000000000000000000000000000000000000000000000000000000000000000000000000000000000000000000000000000000000000000000000000000000000000000000000000000000
310
0000000000000000000000000000000000000000000000000000000000000000000000000000000000000000000000000000000000000000000000000000000000000000000000000000000000000000000000000000000000000000000000000000000000000000000000000000000000F5F5000000000000000000000000
310
00000000F5F500000000000000000000000000000000000000000000000000000000000000000000000000000000000000000000000000000000000000000000000000000000000000000000000000000000000000000000000000000000000000000000000000000000000000000000000000000000000000000000000000
310
00000000000000000000000000000000000000000000000000000000000000000000000000000000000000000000000000000000000000000000000000000000000000000000000000000000000000000000000000000000000000000000000000000000000000000000000000000000000000F5F500000000000000000000
310
000000000000F5F50000000000000000000000000000000000000000000000000000000000000000000000000000000000000000000000000000000000000000000000000000000000000000000000000000000000000000000000000000000000000000000000000000000000000000000000000000000000000000000000
310
000000000000000000000000000000000000000000000000000000000000000000000000000000000000000000000000000000000000000000000000000000000000000000000000000000000000000000000000000000000000000000000000000000000000000000000000000000000000000000F5F50000000000000000
310
0000000000000000F5F5000000000000000000000000000000000000000000000000000000000000000000000000000000000000000000000000000000000000000000000000000000000000000000000000000000000000000000000000000000000000000000000000000000000000000000000000000000000000000000
310
0000000000000000000000000000000000000000000000000000000000000000000000000000000000000000000000000000000000000000000000000000000000000000000000000000000000000000000000000000000000000000000000000000000000000000000000000000000000000000000000F5F5000000000000
310
00000000000000000000F5F500000000000000000000000000000000000000000000000000000000000000000000000000000000000000000000000000000000000000000000000000000000000000000000000000000000000000000000000000000000000000000000000000000000000000000000000000000000000000
310
00000000000000000000000000000000000000000000000000000000000000000000000000000000000000000000000000000000000000000000000000000000000000000000000000000000000000000000000000000000000000000000000000000000000000000000000000000000000000000000000000F5F500000000
310
000000000000000000000000F5F50000000000000000000000000000000000000000000000000000000000000000000000000000000000000000000000000000000000000000000000000000000000000000000000000000000000000000000000000000000000000000000000000000000000000000000000000000000000
310
000000000000000000000000000000000000000000000000000000000000000000000000000000000000000000000000000000000000000000000000000000000000000000000000000000000000000000000000000000000000000000000000000000000000000000000000000000000000000000000000000000F5F50000
310
0000000000000000000000000000F5F5000000000000000000000000000000000000000000000000000000000000000000000000000000000000000000000000000000000000000000000000000000000000000000000000000000000000000000000000000000000000000000000000000000000000000000000000000000
310
0000000000000000000000000000000000000000000000000000000000000000000000000000000000000000000000000000000000000000000000000000000000000000000000000000000000000000000000000000000000000000000000000000000000000000000000000000000000000000000000000000000000F5F5
310
00000000000000000000000000000000F5F500000000000000000000000000000000000000000000000000000000000000000000000000000000000000000000000000000000000000000000000000000000000000000000000000000000000000000000000000000000000000000000000000000000000000000000000000
310
00000000000000000000000000000000000000000000000000000000000000000000000000000000000000000000000000000000000000000000000000000000000000000000000000000000000000000000000000000000000000000000000000000000000000000000000000000000000000000000000000000000000000
310
F5F500000000000000000000000000000000F5F50000000000000000000000000000000000000000000000000000000000000000000000000000000000000000000000000000000000000000000000000000000000000000000000000000000000000000000000000000000000000000000000000000000000000000000000
310
00000000000000000000000000000000000000000000000000000000000000000000000000000000000000000000000000000000000000000000000000000000000000000000000000000000000000000000000000000000000000000000000000000000000000000000000000000000000000000000000000000000000000
310
0000F5F500000000000000000000000000000000F5F5000000000000000000000000000000000000000000000000000000000000000000000000000000000000000000000000000000000000000000000000000000000000000000000000000000000000000000000000000000000000000000000000000000000000000000
310
00000000000000000000000000000000000000000000000000000000000000000000000000000000000000000000000000000000000000000000000000000000000000000000000000000000000000000000000000000000000000000000000000000000000000000000000000000000000000000000000000000000000000
310
00000000F5F500000000000000000000000000000000F5F500000000000000000000000000000000000000000000000000000000000000000000000000000000000000000000000000000000000000000000000000000000000000000000000000000000000000000000000000000000000000000000000000000000000000
310
00000000000000000000000000000000000000000000000000000000000000000000000000000000000000000000000000000000000000000000000000000000000000000000000000000000000000000000000000000000000000000000000000000000000000000000000000000000000000000000000000000000000000
310
000000000000F5F5F5F5F5F5F5F5F5F5F5F5F5F5F5F5F5F5F5F50000000000000000000000000000000000000000000000000000000000000000000000000000000000000000000000000000000000000000000000000000000000000000000000000000000000000000000000000000000000000000000000000000000000
310
00000000000000000000000000000000000000000000000000000000000000000000000000000000000000000000000000000000000000000000000000000000000000000000000000000000000000000000000000000000000000000000000000000000000000000000000000000000000000000000000000000000000000
310
00000000000000000000000000000000000000000000000000000000000000000000000000000000000000000000000000000000000000000000000000000000000000000000000000000000000000000000000000000000000000000000000000000000000000000000000000000000000000000000000000000000000000
310
00000000000000000000000000000000000000000000000000000000000000000000000000000000000000000000000000000000000000000000000000000000000000000000000000000000000000000000000000000000000000000000000000000000000000000000000000000000000000000000000000000000000000
310
00000000000000000000000000000000000000000000000000000000000000000000000000000000000000000000000000000000000000000000000000000000000000000000000000000000000000000000000000000000000000000000000000000000000000000000000000000000000000000000000000000000000000
310
00000000000000000000000000000000000000000000000000000000000000000000000000000000000000000000000000000000000000000000000000000000000000000000000000000000000000000000000000000000000000000000000000000000000000000000000000000000000000000000000000000000000000
310
00000000000000000000000000000000000000000000000000000000000000000000000000000000000000000000000000000000000000000000000000000000000000000000000000000000000000000000000000000000000000000000000000000000000000000000000000000000000000000000000000000000000000
310
00000000000000000000000000000000000000000000000000000000000000000000000000000000000000000000000000000000000000000000000000000000000000000000000000000000000000000000000000000000000000000000000000000000000000000000000000000000000000000000000000000000000000
310
00000000000000000000000000000000000000000000000000000000000000000000000000000000000000000000000000000000000000000000000000000000000000000000000000000000000000000000000000000000000000000000000000000000000000000000000000000000000000000000000000000000000000
310
00000000000000000000000000000000000000000000000000000000000000000000000000000000000000000000000000000000000000000000000000000000000000000000000000000000000000000000000000000000000000000000000000000000000000000000000000000000000000000000000000000000000000
310
00000000000000000000000000000000000000000000000000000000000000000000000000000000000000000000000000000000000000000000000000000000000000000000000000000000000000000000000000000000000000000000000000000000000000000000000000000000000000000000000000000000000000
310
00000000000000000000000000000000000000000000000000000000000000000000000000000000000000000000000000000000000000000000000000000000000000000000000000000000000000000000000000000000000000000000000000000000000000000000000000000000000000000000000000000000000000
310
00000000000000000000000000000000000000000000000000000000000000000000000000000000000000000000000000000000000000000000000000000000000000000000000000000000000000000000000000000000000000000000000000000000000000000000000000000000000000000000000000000000000000
310
00000000000000000000000000000000000000000000000000000000000000000000000000000000000000000000000000000000000000000000000000000000000000000000000000000000000000000000000000000000000000000000000000000000000000000000000000000000000000000000000000000000000000
310
00000000000000000000000000000000000000000000000000000000000000000000000000000000000000000000000000000000000000000000000000000000000000000000000000000000000000000000000000000000000000000000000000000000000000000000000000000000000000000000000000000000000000
310
00000000000000000000000000000000000000000000000000000000000000000000000000000000000000000000000000000000000000000000000000000000000000000000000000000000000000000000000000000000000000000000000000000000000000000000000000000000000000000000000000000000000000
310
00000000000000000000000000000000000000000000000000000000000000000000000000000000000000000000000000000000000000000000000000000000000000000000000000000000000000000000000000000000000000000000000000000000000000000000000000000000000000000000000000000000000000
310
00000000000000000000000000000000000000000000000000000000000000000000000000000000000000000000000000000000000000000000000000000000000000000000000000000000000000000000000000000000000000000000000000000000000000000000000000000000000000000000000000000000000000
310
00000000000000000000000000000000000000000000000000000000000000000000000000000000000000000000000000000000000000000000000000000000000000000000000000000000000000000000000000000000000000000000000000000000000000000000000000000000000000000000000000000000000000
310
00000000000000000000000000000000000000000000000000000000000000000000000000000000000000000000000000000000000000000000000000000000000000000000000000000000000000000000000000000000000000000000000000000000000000000000000000000000000000000000000000000000000000
310
00000000000000000000000000000000000000000000000000000000000000000000000000000000000000000000000000000000000000000000000000000000000000000000000000000000000000000000000000000000000000000000000000000000000000000000000000000000000000000000000000000000000000
310
00000000000000000000000000000000000000000000000000000000000000000000000000000000000000000000000000000000000000000000000000000000000000000000000000000000000000000000000000000000000000000000000000000000000000000000000000000000000000000000000000000000000000
310
00000000000000000000000000000000000000000000000000000000000000000000000000000000000000000000000000000000000000000000000000000000000000000000000000000000000000000000000000000000000000000000000000000000000000000000000000000000000000000000000000000000000000
310
00000000000000000000000000000000000000000000000000000000000000000000000000000000000000000000000000000000000000000000000000000000000000000000000000000000000000000000000000000000000000000000000000000000000000000000000000000000000000000000000000000000000000
310
00000000000000000000000000000000000000000000000000000000000000000000000000000000000000000000000000000000000000000000000000000000000000000000000000000000000000000000000000000000000000000000000000000000000000000000000000000000000000000000000000000000000000
310
00000000000000000000000000000000000000000000000000000000000000000000000000000000000000000000000000000000000000000000000000000000000000000000000000000000000000000000000000000000000000000000000000000000000000000000000000000000000000000000000000000000000000
310
00000000000000000000000000000000000000000000000000000000000000000000000000000000000000000000000000000000000000000000000000000000000000000000000000000000000000000000000000000000000000000000000000000000000000000000000000000000000000000000000000000000000000
310
00000000000000000000000000000000000000000000000000000000000000000000000000000000000000000000000000000000000000000000000000000000000000000000000000000000000000000000000000000000000000000000000000000000000000000000000000000000000000000000000000000000000000
310
00000000000000000000000000000000000000000000000000000000000000000000000000000000000000000000000000000000000000000000000000000000000000000000000000000000000000000000000000000000000000000000000000000000000000000000000000000000000000000000000000000000000000
310
00000000000000000000000000000000000000000000000000000000000000000000000000000000000000000000000000000000000000000000000000000000000000000000000000000000000000000000000000000000000000000000000000000000000000000000000000000000000000000000000000000000000000
310
00000000000000000000000000000000000000000000000000000000000000000000000000000000000000000000000000000000000000000000000000000000000000000000000000000000000000000000000000000000000000000000000000000000000000000000000000000000000000000000000000000000000000
310
00000000000000000000000000000000000000000000000000000000000000000000000000000000000000000000000000000000000000000000000000000000000000000000000000000000000000000000000000000000000000000000000000000000000000000000000000000000000000000000000000000000000000
310
00000000000000000000000000000000000000000000000000000000000000000000000000000000000000000000000000000000000000000000000000000000000000000000000000000000000000000000000000000000000000000000000000000000000000000000000000000000000000000000000000000000000000
310
00000000000000000000000000000000000000000000000000000000000000000000000000000000000000000000000000000000000000000000000000000000000000000000000000000000000000000000000000000000000000000000000000000000000000000000000000000000000000000000000000000000000000
310
00000000000000000000000000000000000000000000000000000000000000000000000000000000000000000000000000000000000000000000000000000000000000000000000000000000000000000000000000000000000000000000000000000000000000000000000000000000000000000000000000000000000000
310
00000000000000000000000000000000000000000000000000000000000000000000000000000000000000000000000000000000000000000000000000000000000000000000000000000000000000000000000000000000000000000000000000000000000000000000000000000000000000000000000000000000000000
310
00000000000000000000000000000000000000000000000000000000000000000000000000000000000000000000000000000000000000000000000000000000000000000000000000000000000000000000000000000000000000000000000000000000000000000000000000000000000000000000000000000000000000
310
00000000000000000000000000000000000000000000000000000000000000000000000000000000000000000000000000000000000000000000000000000000000000000000000000000000000000000000000000000000000000000000000000000000000000000000000000000000000000000000000000000000000000
310
00000000000000000000000000000000000000000000000000000000000000000000000000000000000000000000000000000000000000000000000000000000000000000000000000000000000000000000000000000000000000000000000000000000000000000000000000000000000000000000000000000000000000
310
00000000000000000000000000000000000000000000000000000000000000000000000000000000000000000000000000000000000000000000000000000000000000000000000000000000000000000000000000000000000000000000000000000000000000000000000000000000000000000000000000000000000000
310
00000000000000000000000000000000000000000000000000000000000000000000000000000000000000000000000000000000000000000000000000000000000000000000000000000000000000000000000000000000000000000000000000000000000000000000000000000000000000000000000000000000000000
310
00000000000000000000000000000000000000000000000000000000000000000000000000000000000000000000000000000000000000000000000000000000000000000000000000000000000000000000000000000000000000000000000000000000000000000000000000000000000000000000000000000000000000
310
00000000000000000000000000000000000000000000000000000000000000000000000000000000000000000000000000000000000000000000000000000000000000000000000000000000000000000000000000000000000000000000000000000000000000000000000000000000000000000000000000000000000000
310
00000000000000000000000000000000000000000000000000000000000000000000000000000000000000000000000000000000000000000000000000000000000000000000000000000000000000000000000000000000000000000000000000000000000000000000000000000000000000000000000000000000000000
310
00000000000000000000000000000000000000000000000000000000000000000000000000000000000000000000000000000000000000000000000000000000000000000000000000000000000000000000000000000000000000000000000000000000000000000000000000000000000000000000000000000000000000
310
00000000000000000000000000000000000000000000000000000000000000000000000000000000000000000000000000000000000000000000000000000000000000000000000000000000000000000000000000000000000000000000000000000000000000000000000000000000000000000000000000000000000000
310
00000000000000000000000000000000000000000000000000000000000000000000000000000000000000000000000000000000000000000000000000000000000000000000000000000000000000000000000000000000000000000000000000000000000000000000000000000000000000000000000000000000000000
310
00000000000000000000000000000000000000000000000000000000000000000000000000000000000000000000000000000000000000000000000000000000000000000000000000000000000000000000000000000000000000000000000000000000000000000000000000000000000000000000000000000000000000
310
00000000000000000000000000000000000000000000000000000000000000000000000000000000000000000000000000000000000000000000000000000000000000000000000000000000000000000000000000000000000000000000000000000000000000000000000000000000000000000000000000000000000000
310
00000000000000000000000000000000000000000000000000000000000000000000000000000000000000000000000000000000000000000000000000000000000000000000000000000000000000000000000000000000000000000000000000000000000000000000000000000000000000000000000000000000000000
310
00000000000000000000000000000000000000000000000000000000000000000000000000000000000000000000000000000000000000000000000000000000000000000000000000000000000000000000000000000000000000000000000000000000000000000000000000000000000000000000000000000000000000
310
00000000000000000000000000000000000000000000000000000000000000000000000000000000000000000000000000000000000000000000000000000000000000000000000000000000000000000000000000000000000000000000000000000000000000000000000000000000000000000000000000000000000000
310
00000000000000000000000000000000000000000000000000000000000000000000000000000000000000000000000000000000000000000000000000000000000000000000000000000000000000000000000000000000000000000000000000000000000000000000000000000000000000000000000000000000000000
310
00000000000000000000000000000000000000000000000000000000000000000000000000000000000000000000000000000000000000000000000000000000000000000000000000000000000000000000000000000000000000000000000000000000000000000000000000000000000000000000000000000000000000
310
00000000000000000000000000000000000000000000000000000000000000000000000000000000000000000000000000000000000000000000000000000000000000000000000000000000000000000000000000000000000000000000000000000000000000000000000000000000000000000000000000000000000000
310
00000000000000000000000000000000000000000000000000000000000000000000000000000000000000000000000000000000000000000000000000000000000000000000000000000000000000000000000000000000000000000000000000000000000000000000000000000000000000000000000000000000000000
310
00000000000000000000000000000000000000000000000000000000000000000000000000000000000000000000000000000000000000000000000000000000000000000000000000000000000000000000000000000000000000000000000000000000000000000000000000000000000000000000000000000000000000
310
00000000000000000000000000000000000000000000000000000000000000000000000000000000000000000000000000000000000000000000000000000000000000000000000000000000000000000000000000000000000000000000000000000000000000000000000000000000000000000000000000000000000000
310
00000000000000000000000000000000000000000000000000000000000000000000000000000000000000000000000000000000000000000000000000000000000000000000000000000000000000000000000000000000000000000000000000000000000000000000000000000000000000000000000000000000000000
310
00000000000000000000000000000000000000000000000000000000000000000000000000000000000000000000000000000000000000000000000000000000000000000000000000000000000000000000000000000000000000000000000000000000000000000000000000000000000000000000000000000000000000
310
00000000000000000000000000000000000000000000000000000000000000000000000000000000000000000000000000000000000000000000000000000000000000000000000000000000000000000000000000000000000000000000000000000000000000000000000000000000000000000000000000000000000000
310
00000000000000000000000000000000000000000000000000000000000000000000000000000000000000000000000000000000000000000000000000000000000000000000000000000000000000000000000000000000000000000000000000000000000000000000000000000000000000000000000000000000000000
310
00000000000000000000000000000000000000000000000000000000000000000000000000000000000000000000000000000000000000000000000000000000000000000000000000000000000000000000000000000000000000000000000000000000000000000000000000000000000000000000000000000000000000
310
00000000000000000000000000000000000000000000000000000000000000000000000000000000000000000000000000000000000000000000000000000000000000000000000000000000000000000000000000000000000000000000000000000000000000000000000000000000000000000000000000000000000000
310
00000000000000000000000000000000000000000000000000000000000000000000000000000000000000000000000000000000000000000000000000000000000000000000000000000000000000000000000000000000000000000000000000000000000000000000000000000000000000000000000000000000000000
310
00000000000000000000000000000000000000000000000000000000000000000000000000000000000000000000000000000000000000000000000000000000000000000000000000000000000000000000000000000000000000000000000000000000000000000000000000000000000000000000000000000000000000
310
00000000000000000000000000000000000000000000000000000000000000000000000000000000000000000000000000000000000000000000000000000000000000000000000000000000000000000000000000000000000000000000000000000000000000000000000000000000000000000000000000000000000000
310
00000000000000000000000000000000000000000000000000000000000000000000000000000000000000000000000000000000000000000000000000000000000000000000000000000000000000000000000000000000000000000000000000000000000000000000000000000000000000000000000000000000000000
310
00000000000000000000000000000000000000000000000000000000000000000000000000000000000000000000000000000000000000000000000000000000000000000000000000000000000000000000000000000000000000000000000000000000000000000000000000000000000000000000000000000000000000
310
00000000000000000000000000000000000000000000000000000000000000000000000000000000000000000000000000000000000000000000000000000000000000000000000000000000000000000000000000000000000000000000000000000000000000000000000000000000000000000000000000000000000000
310
00000000000000000000000000000000000000000000000000000000000000000000000000000000000000000000000000000000000000000000000000000000000000000000000000000000000000000000000000000000000000000000000000000000000000000000000000000000000000000000000000000000000000
310
00000000000000000000000000000000000000000000000000000000000000000000000000000000000000000000000000000000000000000000000000000000000000000000000000000000000000000000000000000000000000000000000000000000000000000000000000000000000000000000000000000000000000
310
00000000000000000000000000000000000000000000000000000000000000000000000000000000000000000000000000000000000000000000000000000000000000000000000000000000000000000000000000000000000000000000000000000000000000000000000000000000000000000000000000000000000000
310
00000000000000000000000000000000000000000000000000000000000000000000000000000000000000000000000000000000000000000000000000000000000000000000000000000000000000000000000000000000000000000000000000000000000000000000000000000000000000000000000000000000000000
310
00000000000000000000000000000000000000000000000000000000000000000000000000000000000000000000000000000000000000000000000000000000000000000000000000000000000000000000000000000000000000000000000000000000000000000000000000000000000000000000000000000000000000
310
00000000000000000000000000000000000000000000000000000000000000000000000000000000000000000000000000000000000000000000000000000000000000000000000000000000000000000000000000000000000000000000000000000000000000000000000000000000000000000000000000000000000000
310
00000000000000000000000000000000000000000000000000000000000000000000000000000000000000000000000000000000000000000000000000000000000000000000000000000000000000000000000000000000000000000000000000000000000000000000000000000000000000000000000000000000000000
310
00000000000000000000000000000000000000000000000000000000000000000000000000000000000000000000000000000000000000000000000000000000000000000000000000000000000000000000000000000000000000000000000000000000000000000000000000000000000000000000000000000000000000
310
00000000000000000000000000000000000000000000000000000000000000000000000000000000000000000000000000000000000000000000000000000000000000000000000000000000000000000000000000000000000000000000000000000000000000000000000000000000000000000000000000000000000000
310
00000000000000000000000000000000000000000000000000000000000000000000000000000000000000000000000000000000000000000000000000000000000000000000000000000000000000000000000000000000000000000000000000000000000000000000000000000000000000000000000000000000000000
310
00000000000000000000000000000000000000000000000000000000000000000000000000000000000000000000000000000000000000000000000000000000000000000000000000000000000000000000000000000000000000000000000000000000000000000000000000000000000000000000000000000000000000
310
00000000000000000000000000000000000000000000000000000000000000000000000000000000000000000000000000000000000000000000000000000000000000000000000000000000000000000000000000000000000000000000000000000000000000000000000000000000000000000000000000000000000000
310
00000000000000000000000000000000000000000000000000000000000000000000000000000000000000000000000000000000000000000000000000000000000000000000000000000000000000000000000000000000000000000000000000000000000000000000000000000000000000000000000000000000000000
310
00000000000000000000000000000000000000000000000000000000000000000000000000000000000000000000000000000000000000000000000000000000000000000000000000000000000000000000000000000000000000000000000000000000000000000000000000000000000000000000000000000000000000
310
00000000000000000000000000000000000000000000000000000000000000000000000000000000000000000000000000000000000000000000000000000000000000000000000000000000000000000000000000000000000000000000000000000000000000000000000000000000000000000000000000000000000000
310
00000000000000000000000000000000000000000000000000000000000000000000000000000000000000000000000000000000000000000000000000000000000000000000000000000000000000000000000000000000000000000000000000000000000000000000000000000000000000000000000000000000000000
310
00000000000000000000000000000000000000000000000000000000000000000000000000000000000000000000000000000000000000000000000000000000000000000000000000000000000000000000000000000000000000000000000000000000000000000000000000000000000000000000000000000000000000
310
00000000000000000000000000000000000000000000000000000000000000000000000000000000000000000000000000000000000000000000000000000000000000000000000000000000000000000000000000000000000000000000000000000000000000000000000000000000000000000000000000000000000000
310
00000000000000000000000000000000000000000000000000000000000000000000000000000000000000000000000000000000000000000000000000000000000000000000000000000000000000000000000000000000000000000000000000000000000000000000000000000000000000000000000000000000000000
310
00000000000000000000000000000000000000000000000000000000000000000000000000000000000000000000000000000000000000000000000000000000000000000000000000000000000000000000000000000000000000000000000000000000000000000000000000000000000000000000000000000000000000
310
00000000000000000000000000000000000000000000000000000000000000000000000000000000000000000000000000000000000000000000000000000000000000000000000000000000000000000000000000000000000000000000000000000000000000000000000000000000000000000000000000000000000000
310
00000000000000000000000000000000000000000000000000000000000000000000000000000000000000000000000000000000000000000000000000000000000000000000000000000000000000000000000000000000000000000000000000000000000000000000000000000000000000000000000000000000000000
310
00000000000000000000000000000000000000000000000000000000000000000000000000000000000000000000000000000000000000000000000000000000000000000000000000000000000000000000000000000000000000000000000000000000000000000000000000000000000000000000000000000000000000
310
00000000000000000000000000000000000000000000000000000000000000000000000000000000000000000000000000000000000000000000000000000000000000000000000000000000000000000000000000000000000000000000000000000000000000000000000000000000000000000000000000000000000000
310
00000000000000000000000000000000000000000000000000000000000000000000000000000000000000000000000000000000000000000000000000000000000000000000000000000000000000000000000000000000000000000000000000000000000000000000000000000000000000000000000000000000000000
310
00000000000000000000000000000000000000000000000000000000000000000000000000000000000000000000000000000000000000000000000000000000000000000000000000000000000000000000000000000000000000000000000000000000000000000000000000000000000000000000000000000000000000
310
00000000000000000000000000000000000000000000000000000000000000000000000000000000000000000000000000000000000000000000000000000000000000000000000000000000000000000000000000000000000000000000000000000000000000000000000000000000000000000000000000000000000000
310
00000000000000000000000000000000000000000000000000000000000000000000000000000000000000000000000000000000000000000000000000000000000000000000000000000000000000000000000000000000000000000000000000000000000000000000000000000000000000000000000000000000000000
310
00000000000000000000000000000000000000000000000000000000000000000000000000000000000000000000000000000000000000000000000000000000000000000000000000000000000000000000000000000000000000000000000000000000000000000000000000000000000000000000000000000000000000
310
00000000000000000000000000000000000000000000000000000000000000000000000000000000000000000000000000000000000000000000000000000000000000000000000000000000000000000000000000000000000000000000000000000000000000000000000000000000000000000000000000000000000000
310
00000000000000000000000000000000000000000000000000000000000000000000000000000000000000000000000000000000000000000000000000000000000000000000000000000000000000000000000000000000000000000000000000000000000000000000000000000000000000000000000000000000000000
310
00000000000000000000000000000000000000000000000000000000000000000000000000000000000000000000000000000000000000000000000000000000000000000000000000000000000000000000000000000000000000000000000000000000000000000000000000000000000000000000000000000000000000
310
00000000000000000000000000000000000000000000000000000000000000000000000000000000000000000000000000000000000000000000000000000000000000000000000000000000000000000000000000000000000000000000000000000000000000000000000000000000000000000000000000000000000000
310
00000000000000000000000000000000000000000000000000000000000000000000000000000000000000000000000000000000000000000000000000000000000000000000000000000000000000000000000000000000000000000000000000000000000000000000000000000000000000000000000000000000000000
310
00000000000000000000000000000000000000000000000000000000000000000000000000000000000000000000000000000000000000000000000000000000000000000000000000000000000000000000000000000000000000000000000000000000000000000000000000000000000000000000000000000000000000
310
00000000000000000000000000000000000000000000000000000000000000000000000000000000000000000000000000000000000000000000000000000000000000000000000000000000000000000000000000000000000000000000000000000000000000000000000000000000000000000000000000000000000000
310
00000000000000000000000000000000000000000000000000000000000000000000000000000000000000000000000000000000000000000000000000000000000000000000000000000000000000000000000000000000000000000000000000000000000000000000000000000000000000000000000000000000000000
310
00000000000000000000000000000000000000000000000000000000000000000000000000000000000000000000000000000000000000000000000000000000000000000000000000000000000000000000000000000000000000000000000000000000000000000000000000000000000000000000000000000000000000
310
00000000000000000000000000000000000000000000000000000000000000000000000000000000000000000000000000000000000000000000000000000000000000000000000000000000000000000000000000000000000000000000000000000000000000000000000000000000000000000000000000000000000000
310
00000000000000000000000000000000000000000000000000000000000000000000000000000000000000000000000000000000000000000000000000000000000000000000000000000000000000000000000000000000000000000000000000000000000000000000000000000000000000000000000000000000000000
310
000000000000000000000000000000000000000000000000000000000000000000000000
  0
CELLSTYLEMAP
  5
E71
102
{ACAD_REACTORS
330
2E4
102
}
330
2E4
100
AcDbCellStyleMap
 90
        3
300
CELLSTYLE
  1
TABLEFORMAT_BEGIN
 90
        5
170
     1
 91
        0
 92
    32768
 62
   257
 93
        1
300
CONTENTFORMAT
  1
CONTENTFORMAT_BEGIN
 90
        0
 91
        0
 92
      512
 93
        0
300

 40
0.0
140
1.0
 94
        5
 62
     0
340
11
144
6.0
309
CONTENTFORMAT_END
171
     1
301
MARGIN
  1
CELLMARGIN_BEGIN
 40
1.5
 40
1.5
 40
1.5
 40
1.5
 40
0.18
 40
0.18
309
CELLMARGIN_END
 94
        6
 95
        1
302
GRIDFORMAT
  1
GRIDFORMAT_BEGIN
 90
        0
 91
        1
 62
     0
 92
       -2
340
0
 93
        0
 40
0.045
309
GRIDFORMAT_END
 95
        2
302
GRIDFORMAT
  1
GRIDFORMAT_BEGIN
 90
        0
 91
        1
 62
     0
 92
       -2
340
0
 93
        0
 40
0.045
309
GRIDFORMAT_END
 95
        4
302
GRIDFORMAT
  1
GRIDFORMAT_BEGIN
 90
        0
 91
        1
 62
     0
 92
       -2
340
0
 93
        0
 40
0.045
309
GRIDFORMAT_END
 95
        8
302
GRIDFORMAT
  1
GRIDFORMAT_BEGIN
 90
        0
 91
        1
 62
     0
 92
       -2
340
0
 93
        0
 40
0.045
309
GRIDFORMAT_END
 95
       16
302
GRIDFORMAT
  1
GRIDFORMAT_BEGIN
 90
        0
 91
        1
 62
     0
 92
       -2
340
0
 93
        0
 40
0.045
309
GRIDFORMAT_END
 95
       32
302
GRIDFORMAT
  1
GRIDFORMAT_BEGIN
 90
        0
 91
        1
 62
     0
 92
       -2
340
0
 93
        0
 40
0.045
309
GRIDFORMAT_END
309
TABLEFORMAT_END
  1
CELLSTYLE_BEGIN
 90
        1
 91
        1
300
_TITLE
309
CELLSTYLE_END
300
CELLSTYLE
  1
TABLEFORMAT_BEGIN
 90
        5
170
     1
 91
        0
 92
        0
 62
   257
 93
        1
300
CONTENTFORMAT
  1
CONTENTFORMAT_BEGIN
 90
        0
 91
        0
 92
      512
 93
        0
300

 40
0.0
140
1.0
 94
        5
 62
     0
340
11
144
4.5
309
CONTENTFORMAT_END
171
     1
301
MARGIN
  1
CELLMARGIN_BEGIN
 40
1.5
 40
1.5
 40
1.5
 40
1.5
 40
0.18
 40
0.18
309
CELLMARGIN_END
 94
        6
 95
        1
302
GRIDFORMAT
  1
GRIDFORMAT_BEGIN
 90
        0
 91
        1
 62
     0
 92
       -2
340
0
 93
        0
 40
0.045
309
GRIDFORMAT_END
 95
        2
302
GRIDFORMAT
  1
GRIDFORMAT_BEGIN
 90
        0
 91
        1
 62
     0
 92
       -2
340
0
 93
        0
 40
0.045
309
GRIDFORMAT_END
 95
        4
302
GRIDFORMAT
  1
GRIDFORMAT_BEGIN
 90
        0
 91
        1
 62
     0
 92
       -2
340
0
 93
        0
 40
0.045
309
GRIDFORMAT_END
 95
        8
302
GRIDFORMAT
  1
GRIDFORMAT_BEGIN
 90
        0
 91
        1
 62
     0
 92
       -2
340
0
 93
        0
 40
0.045
309
GRIDFORMAT_END
 95
       16
302
GRIDFORMAT
  1
GRIDFORMAT_BEGIN
 90
        0
 91
        1
 62
     0
 92
       -2
340
0
 93
        0
 40
0.045
309
GRIDFORMAT_END
 95
       32
302
GRIDFORMAT
  1
GRIDFORMAT_BEGIN
 90
        0
 91
        1
 62
     0
 92
       -2
340
0
 93
        0
 40
0.045
309
GRIDFORMAT_END
309
TABLEFORMAT_END
  1
CELLSTYLE_BEGIN
 90
        2
 91
        1
300
_HEADER
309
CELLSTYLE_END
300
CELLSTYLE
  1
TABLEFORMAT_BEGIN
 90
        5
170
     1
 91
        0
 92
        0
 62
   257
 93
        1
300
CONTENTFORMAT
  1
CONTENTFORMAT_BEGIN
 90
        0
 91
        0
 92
      512
 93
        0
300

 40
0.0
140
1.0
 94
        2
 62
     0
340
11
144
4.5
309
CONTENTFORMAT_END
171
     1
301
MARGIN
  1
CELLMARGIN_BEGIN
 40
1.5
 40
1.5
 40
1.5
 40
1.5
 40
0.18
 40
0.18
309
CELLMARGIN_END
 94
        6
 95
        1
302
GRIDFORMAT
  1
GRIDFORMAT_BEGIN
 90
        0
 91
        1
 62
     0
 92
       -2
340
0
 93
        0
 40
0.045
309
GRIDFORMAT_END
 95
        2
302
GRIDFORMAT
  1
GRIDFORMAT_BEGIN
 90
        0
 91
        1
 62
     0
 92
       -2
340
0
 93
        0
 40
0.045
309
GRIDFORMAT_END
 95
        4
302
GRIDFORMAT
  1
GRIDFORMAT_BEGIN
 90
        0
 91
        1
 62
     0
 92
       -2
340
0
 93
        0
 40
0.045
309
GRIDFORMAT_END
 95
        8
302
GRIDFORMAT
  1
GRIDFORMAT_BEGIN
 90
        0
 91
        1
 62
     0
 92
       -2
340
0
 93
        0
 40
0.045
309
GRIDFORMAT_END
 95
       16
302
GRIDFORMAT
  1
GRIDFORMAT_BEGIN
 90
        0
 91
        1
 62
     0
 92
       -2
340
0
 93
        0
 40
0.045
309
GRIDFORMAT_END
 95
       32
302
GRIDFORMAT
  1
GRIDFORMAT_BEGIN
 90
        0
 91
        1
 62
     0
 92
       -2
340
0
 93
        0
 40
0.045
309
GRIDFORMAT_END
309
TABLEFORMAT_END
  1
CELLSTYLE_BEGIN
 90
        3
 91
        2
300
_DATA
309
CELLSTYLE_END
  0
ENDSEC
  0
EOF
