999
DXF file: C:\Users\danielc\Documents\My Drawings\lt-58180-cutout.dxf
999
Pro/ENGINEER 2018400 by Parametric Technology Corporation
  0
SECTION
  2
HEADER
  9
$EXTMAX
 10
594.0
 20
420.0
 30
0.0
  9
$EXTMIN
 10
0.0
 20
0.0
 30
0.0
  9
$LIMMIN
 10
0.0
 20
0.0
  9
$LIMMAX
 10
594.0
 20
420.0
  9
$VIEWCTR
 10
297.0
 20
210.0
  9
$VIEWSIZE
 40
420.0
  9
$CLAYER
  8
0
  9
$LTSCALE
 40
32.67
  9
$CELTYPE
  6
BYLAYER
  9
$DIMSCALE
 40
1.0
  9
$DIMASZ
 40
15.0
  9
$DIMEXO
 40
0.0625
  9
$DIMDLI
 40
22.572
  9
$DIMEXE
 40
1.0
  9
$DIMCEN
 40
5.346
  9
$DIMLFAC
 40
1.0
  9
$DIMBLK
  1
_FILLED
  9
$DIMALT
 70
0
  9
$DIMALTF
 40
0.0393700787
  9
$DIMTXT
 40
3.5
  9
$AUNITS
 70
0
  9
$PDMODE
 70
3
  9
$PDSIZE
 40
0.3125
  9
$TILEMODE
 70
1
  0
ENDSEC
  0
SECTION
  2
TABLES
  0
TABLE
  2
LTYPE
 70
6
  0
LTYPE
  2
BYBLOCK
 70
0
  3

 72
65
 73
0
 40
0.0
  0
LTYPE
  2
BYLAYER
 70
0
  3

 72
65
 73
0
 40
0.0
  0
LTYPE
  2
CONTINUOUS
 70
64
  3
Solid line
 72
65
 73
0
 40
0.0
  0
LTYPE
  2
CENTER
 70
64
  3
____ _ ____ _ ____ _ ____ _ ____ _ ____ _ ____
 72
65
 73
4
 40
0.6
 49
0.375
 49
-0.075
 49
0.075
 49
-0.075
  0
LTYPE
  2
HIDDEN
 70
64
  3
- - - - - - - - - - - - - - - - - - - -
 72
65
 73
2
 40
0.2
 49
0.1
 49
-0.1
  0
LTYPE
  2
PHANTOM
 70
64
  3
_____ _ _ _____ _ _ _____ _ _ _____
 72
65
 73
6
 40
0.8
 49
0.45
 49
-0.05
 49
0.1
 49
-0.05
 49
0.1
 49
-0.05
  0
LTYPE
  2
DOT
 70
64
  3
. . . . . . . . . . . . . . . . . . . .
 72
65
 73
2
 40
0.2
 49
0.1
 49
-0.1
  0
LTYPE
  2
DASHED
 70
64
  3
- - - - - - - - - - - - - - - - - - - -
 72
65
 73
2
 40
0.2
 49
0.1
 49
-0.1
  0
ENDTAB
  0
TABLE
  2
LAYER
 70
36
  0
LAYER
  2
0
 70
0
 62
7
  6
CONTINUOUS
  0
LAYER
  2
DEFAULT_1
 70
0
 62
7
  6
CENTER
  0
LAYER
  2
DEFAULT_2
 70
0
 62
8
  6
HIDDEN
  0
LAYER
  2
DEFAULT_3
 70
0
 62
7
  6
PHANTOM
  0
LAYER
  2
01___PRT_ALL_DTM_PLN
 70
0
 62
7
  6
CONTINUOUS
  0
LAYER
  2
01___PRT_DEF_DTM_PLN
 70
0
 62
7
  6
CONTINUOUS
  0
LAYER
  2
02___PRT_ALL_AXES
 70
0
 62
7
  6
CONTINUOUS
  0
LAYER
  2
03___PRT_ALL_CURVES
 70
0
 62
7
  6
CONTINUOUS
  0
LAYER
  2
04___PRT_ALL_DTM_PNT
 70
0
 62
7
  6
CONTINUOUS
  0
LAYER
  2
05___PRT_ALL_DTM_CSYS
 70
0
 62
7
  6
CONTINUOUS
  0
LAYER
  2
05___PRT_DEF_DTM_CSYS
 70
0
 62
7
  6
CONTINUOUS
  0
LAYER
  2
06___PRT_ALL_SURFS
 70
0
 62
7
  6
CONTINUOUS
  0
ENDTAB
  0
TABLE
  2
STYLE
 70
1
  0
STYLE
  2
STANDARD
 70
0
 40
0.0
 41
1.0
 50
0.0
 71
0
 42
0.2
  3
arial.ttf
  4

  0
STYLE
  2
TEXTSTYLE_1
 70
0
 40
0.0
 41
0.8
 50
0.0
 71
0
 42
0.2
  3
gdt
  4

  0
ENDTAB
  0
ENDSEC
  0
SECTION
  2
BLOCKS
  0
BLOCK
  8
0
  2
_FILLED
 70
64
 10
0.0
 20
0.0
  0
SOLID
  8
0
  6
BYBLOCK
 62
0
 10
0.0
 20
0.0
 11
-1.0
 21
0.1333333333
 12
-1.0
 22
-0.1333333333
 13
-1.0
 23
-0.1333333333
  0
ENDBLK
  8
0
  6
BYBLOCK
 62
0
  0
BLOCK
  8
0
 62
2
  6
CONTINUOUS
  2
*D0
 70
65
 10
0.0
 20
0.0
  0
TEXT
  8
0
 62
5
  6
CONTINUOUS
 10
190.7416228499
 20
1095.4488963134
  7
STANDARD
 40
10.0
  1
609,6
 41
1.0
 72
1
 11
208.213741809
 21
1095.4488963134
  0
TEXT
  8
0
 62
5
  6
CONTINUOUS
 10
190.7416228499
 20
1080.4488963134
  7
STANDARD
 40
10.0
  1
[
 41
1.0
 72
1
 11
192.6747083517
 21
1080.4488963134
  0
TEXT
  8
0
 62
5
  6
CONTINUOUS
 10
194.6077938536
 20
1080.4488963134
  7
STANDARD
 40
10.0
  1
24.00
 41
1.0
 72
1
 11
212.0799128127
 21
1080.4488963134
  0
TEXT
  8
0
 62
5
  6
CONTINUOUS
 10
229.5520317718
 20
1080.4488963134
  7
STANDARD
 40
10.0
  1
]
 41
1.0
 72
1
 11
231.4851172737
 21
1080.4488963134
  0
LINE
  8
0
 62
2
  6
CONTINUOUS
 10
516.8799128127
 20
1008.8205433414
 11
516.8799128127
 21
1093.9488963134
  0
LINE
  8
0
 62
2
  6
CONTINUOUS
 10
-92.7200871873
 20
1008.8205433414
 11
-92.7200871873
 21
1093.9488963134
  0
LINE
  8
0
 62
2
  6
CONTINUOUS
 10
516.8799128127
 20
1092.9488963134
 11
212.0799128127
 21
1092.9488963134
  0
LINE
  8
0
 62
2
  6
CONTINUOUS
 10
-92.7200871873
 20
1092.9488963134
 11
212.0799128127
 21
1092.9488963134
  0
INSERT
  8
0
 62
2
  6
CONTINUOUS
  2
_FILLED
 10
516.8799128127
 20
1092.9488963134
 41
15.0
 42
15.0
 43
15.0
  0
INSERT
  8
0
 62
2
  6
CONTINUOUS
  2
_FILLED
 10
-92.7200871873
 20
1092.9488963134
 41
15.0
 42
15.0
 43
15.0
 50
180.0
  0
ENDBLK
  8
0
  6
BYBLOCK
 62
0
  0
BLOCK
  8
0
 62
2
  6
CONTINUOUS
  2
*D1
 70
65
 10
0.0
 20
0.0
  0
TEXT
  8
0
 62
5
  6
CONTINUOUS
 10
-183.9369176761
 20
225.4197533786
  7
STANDARD
 40
10.0
  1
1524
 50
90.0
 41
1.0
 72
1
 11
-183.9369176761
 21
240.9587868358
  0
TEXT
  8
0
 62
5
  6
CONTINUOUS
 10
-168.9369176761
 20
225.4197533786
  7
STANDARD
 40
10.0
  1
[
 50
90.0
 41
1.0
 72
1
 11
-168.9369176761
 21
227.3528388804
  0
TEXT
  8
0
 62
5
  6
CONTINUOUS
 10
-168.9369176761
 20
229.2859243823
  7
STANDARD
 40
10.0
  1
60.00
 50
90.0
 41
1.0
 72
1
 11
-168.9369176761
 21
246.7580433414
  0
TEXT
  8
0
 62
5
  6
CONTINUOUS
 10
-168.9369176761
 20
264.2301623005
  7
STANDARD
 40
10.0
  1
]
 50
90.0
 41
1.0
 72
1
 11
-168.9369176761
 21
266.1632478024
  0
LINE
  8
0
 62
2
  6
CONTINUOUS
 10
-92.7825871873
 20
1008.7580433414
 11
-182.4369176761
 21
1008.7580433414
  0
LINE
  8
0
 62
2
  6
CONTINUOUS
 10
-92.7825871873
 20
-515.2419566586
 11
-182.4369176761
 21
-515.2419566586
  0
LINE
  8
0
 62
2
  6
CONTINUOUS
 10
-181.4369176761
 20
1008.7580433414
 11
-181.4369176761
 21
246.7580433414
  0
LINE
  8
0
 62
2
  6
CONTINUOUS
 10
-181.4369176761
 20
-515.2419566586
 11
-181.4369176761
 21
246.7580433414
  0
INSERT
  8
0
 62
2
  6
CONTINUOUS
  2
_FILLED
 10
-181.4369176761
 20
1008.7580433414
 41
15.0
 42
15.0
 43
15.0
 50
90.0
  0
INSERT
  8
0
 62
2
  6
CONTINUOUS
  2
_FILLED
 10
-181.4369176761
 20
-515.2419566586
 41
15.0
 42
15.0
 43
15.0
 50
270.0
  0
ENDBLK
  8
0
  6
BYBLOCK
 62
0
  0
BLOCK
  8
0
 62
2
  6
CONTINUOUS
  2
*D2
 70
65
 10
0.0
 20
0.0
  0
TEXT
  8
0
 62
5
  6
CONTINUOUS
 10
-128.0292402784
 20
1049.9483206555
  7
STANDARD
 40
10.0
  1
48,1
 41
1.0
 72
2
 11
-100.8545190888
 21
1049.9483206555
  0
TEXT
  8
0
 62
5
  6
CONTINUOUS
 10
-128.0292402784
 20
1034.9483206555
  7
STANDARD
 40
10.0
  1
[
 41
1.0
 72
2
 11
-124.1630692747
 21
1034.9483206555
  0
TEXT
  8
0
 62
5
  6
CONTINUOUS
 10
-124.1630692747
 20
1034.9483206555
  7
STANDARD
 40
10.0
  1
1.89
 41
1.0
 72
2
 11
-96.9883480851
 21
1034.9483206555
  0
TEXT
  8
0
 62
5
  6
CONTINUOUS
 10
-96.9883480851
 20
1034.9483206555
  7
STANDARD
 40
10.0
  1
]
 41
1.0
 72
2
 11
-93.1221770814
 21
1034.9483206555
  0
LINE
  8
0
 62
2
  6
CONTINUOUS
 10
-92.7200871873
 20
1008.8205433414
 11
-92.7200871873
 21
1048.4483206555
  0
LINE
  8
0
 62
2
  6
CONTINUOUS
 10
-44.6200871873
 20
944.8205433414
 11
-44.6200871873
 21
1048.4483206555
  0
LINE
  8
0
 62
2
  6
CONTINUOUS
 10
-92.7200871873
 20
1047.4483206555
 11
-68.6700871873
 21
1047.4483206555
  0
LINE
  8
0
 62
2
  6
CONTINUOUS
 10
-68.6700871873
 20
1047.4483206555
 11
-128.0292402784
 21
1047.4483206555
  0
LINE
  8
0
 62
2
  6
CONTINUOUS
 10
-44.6200871873
 20
1047.4483206555
 11
-68.6700871873
 21
1047.4483206555
  0
INSERT
  8
0
 62
2
  6
CONTINUOUS
  2
_FILLED
 10
-92.7200871873
 20
1047.4483206555
 41
15.0
 42
15.0
 43
15.0
 50
180.0
  0
INSERT
  8
0
 62
2
  6
CONTINUOUS
  2
_FILLED
 10
-44.6200871873
 20
1047.4483206555
 41
15.0
 42
15.0
 43
15.0
  0
ENDBLK
  8
0
  6
BYBLOCK
 62
0
  0
BLOCK
  8
0
 62
2
  6
CONTINUOUS
  2
*D3
 70
65
 10
0.0
 20
0.0
  0
TEXT
  8
0
 62
5
  6
CONTINUOUS
 10
86.8416228499
 20
1049.9483206555
  7
STANDARD
 40
10.0
  1
305,6
 41
1.0
 72
1
 11
104.313741809
 21
1049.9483206555
  0
TEXT
  8
0
 62
5
  6
CONTINUOUS
 10
86.8416228499
 20
1034.9483206555
  7
STANDARD
 40
10.0
  1
[
 41
1.0
 72
1
 11
88.7747083517
 21
1034.9483206555
  0
TEXT
  8
0
 62
5
  6
CONTINUOUS
 10
90.7077938536
 20
1034.9483206555
  7
STANDARD
 40
10.0
  1
12.03
 41
1.0
 72
1
 11
108.1799128127
 21
1034.9483206555
  0
TEXT
  8
0
 62
5
  6
CONTINUOUS
 10
125.6520317718
 20
1034.9483206555
  7
STANDARD
 40
10.0
  1
]
 41
1.0
 72
1
 11
127.5851172737
 21
1034.9483206555
  0
LINE
  8
0
 62
2
  6
CONTINUOUS
 10
260.9799128127
 20
944.8205433414
 11
260.9799128127
 21
1048.4483206555
  0
LINE
  8
0
 62
2
  6
CONTINUOUS
 10
-44.6200871873
 20
944.8205433414
 11
-44.6200871873
 21
1048.4483206555
  0
LINE
  8
0
 62
2
  6
CONTINUOUS
 10
260.9799128127
 20
1047.4483206555
 11
108.1799128127
 21
1047.4483206555
  0
LINE
  8
0
 62
2
  6
CONTINUOUS
 10
-44.6200871873
 20
1047.4483206555
 11
108.1799128127
 21
1047.4483206555
  0
INSERT
  8
0
 62
2
  6
CONTINUOUS
  2
_FILLED
 10
260.9799128127
 20
1047.4483206555
 41
15.0
 42
15.0
 43
15.0
  0
INSERT
  8
0
 62
2
  6
CONTINUOUS
  2
_FILLED
 10
-44.6200871873
 20
1047.4483206555
 41
15.0
 42
15.0
 43
15.0
 50
180.0
  0
ENDBLK
  8
0
  6
BYBLOCK
 62
0
  0
BLOCK
  8
0
 62
2
  6
CONTINUOUS
  2
*D4
 70
65
 10
0.0
 20
0.0
  0
TEXT
  8
0
 62
5
  6
CONTINUOUS
 10
367.5916228499
 20
1049.9483206555
  7
STANDARD
 40
10.0
  1
255,9
 41
1.0
 72
1
 11
385.063741809
 21
1049.9483206555
  0
TEXT
  8
0
 62
5
  6
CONTINUOUS
 10
367.5916228499
 20
1034.9483206555
  7
STANDARD
 40
10.0
  1
[
 41
1.0
 72
1
 11
369.5247083517
 21
1034.9483206555
  0
TEXT
  8
0
 62
5
  6
CONTINUOUS
 10
371.4577938536
 20
1034.9483206555
  7
STANDARD
 40
10.0
  1
10.07
 41
1.0
 72
1
 11
388.9299128127
 21
1034.9483206555
  0
TEXT
  8
0
 62
5
  6
CONTINUOUS
 10
406.4020317718
 20
1034.9483206555
  7
STANDARD
 40
10.0
  1
]
 41
1.0
 72
1
 11
408.3351172737
 21
1034.9483206555
  0
LINE
  8
0
 62
2
  6
CONTINUOUS
 10
260.9799128127
 20
944.8205433414
 11
260.9799128127
 21
1048.4483206555
  0
LINE
  8
0
 62
2
  6
CONTINUOUS
 10
516.8799128127
 20
1008.8205433414
 11
516.8799128127
 21
1048.4483206555
  0
LINE
  8
0
 62
2
  6
CONTINUOUS
 10
260.9799128127
 20
1047.4483206555
 11
388.9299128127
 21
1047.4483206555
  0
LINE
  8
0
 62
2
  6
CONTINUOUS
 10
516.8799128127
 20
1047.4483206555
 11
388.9299128127
 21
1047.4483206555
  0
INSERT
  8
0
 62
2
  6
CONTINUOUS
  2
_FILLED
 10
260.9799128127
 20
1047.4483206555
 41
15.0
 42
15.0
 43
15.0
 50
180.0
  0
INSERT
  8
0
 62
2
  6
CONTINUOUS
  2
_FILLED
 10
516.8799128127
 20
1047.4483206555
 41
15.0
 42
15.0
 43
15.0
  0
ENDBLK
  8
0
  6
BYBLOCK
 62
0
  0
BLOCK
  8
0
 62
2
  6
CONTINUOUS
  2
*D5
 70
65
 10
0.0
 20
0.0
  0
TEXT
  8
0
 62
5
  6
CONTINUOUS
 10
58.3416228499
 20
-599.3774411202
  7
STANDARD
 40
10.0
  1
344,8
 41
1.0
 72
1
 11
75.813741809
 21
-599.3774411202
  0
TEXT
  8
0
 62
5
  6
CONTINUOUS
 10
58.3416228499
 20
-614.3774411202
  7
STANDARD
 40
10.0
  1
[
 41
1.0
 72
1
 11
60.2747083517
 21
-614.3774411202
  0
TEXT
  8
0
 62
5
  6
CONTINUOUS
 10
62.2077938536
 20
-614.3774411202
  7
STANDARD
 40
10.0
  1
13.57
 41
1.0
 72
1
 11
79.6799128127
 21
-614.3774411202
  0
TEXT
  8
0
 62
5
  6
CONTINUOUS
 10
97.1520317718
 20
-614.3774411202
  7
STANDARD
 40
10.0
  1
]
 41
1.0
 72
1
 11
99.0851172737
 21
-614.3774411202
  0
LINE
  8
0
 62
2
  6
CONTINUOUS
 10
-92.7200871873
 20
-515.3044566586
 11
-92.7200871873
 21
-602.8774411202
  0
LINE
  8
0
 62
2
  6
CONTINUOUS
 10
252.0799128127
 20
-473.3044566586
 11
252.0799128127
 21
-602.8774411202
  0
LINE
  8
0
 62
2
  6
CONTINUOUS
 10
-92.7200871873
 20
-601.8774411202
 11
79.6799128127
 21
-601.8774411202
  0
LINE
  8
0
 62
2
  6
CONTINUOUS
 10
252.0799128127
 20
-601.8774411202
 11
79.6799128127
 21
-601.8774411202
  0
INSERT
  8
0
 62
2
  6
CONTINUOUS
  2
_FILLED
 10
-92.7200871873
 20
-601.8774411202
 41
15.0
 42
15.0
 43
15.0
 50
180.0
  0
INSERT
  8
0
 62
2
  6
CONTINUOUS
  2
_FILLED
 10
252.0799128127
 20
-601.8774411202
 41
15.0
 42
15.0
 43
15.0
  0
ENDBLK
  8
0
  6
BYBLOCK
 62
0
  0
BLOCK
  8
0
 62
2
  6
CONTINUOUS
  2
*D6
 70
65
 10
0.0
 20
0.0
  0
TEXT
  8
0
 62
5
  6
CONTINUOUS
 10
342.1263812142
 20
-599.3774411202
  7
STANDARD
 40
10.0
  1
215
 41
1.0
 72
1
 11
353.7806563071
 21
-599.3774411202
  0
TEXT
  8
0
 62
5
  6
CONTINUOUS
 10
342.1263812142
 20
-614.3774411202
  7
STANDARD
 40
10.0
  1
[
 41
1.0
 72
1
 11
344.0594667161
 21
-614.3774411202
  0
TEXT
  8
0
 62
5
  6
CONTINUOUS
 10
345.9925522179
 20
-614.3774411202
  7
STANDARD
 40
10.0
  1
8.46
 41
1.0
 72
1
 11
359.5799128127
 21
-614.3774411202
  0
TEXT
  8
0
 62
5
  6
CONTINUOUS
 10
373.1672734075
 20
-614.3774411202
  7
STANDARD
 40
10.0
  1
]
 41
1.0
 72
1
 11
375.1003589094
 21
-614.3774411202
  0
LINE
  8
0
 62
2
  6
CONTINUOUS
 10
252.0799128127
 20
-473.3044566586
 11
252.0799128127
 21
-602.8774411202
  0
LINE
  8
0
 62
2
  6
CONTINUOUS
 10
467.0799128127
 20
-473.3044566586
 11
467.0799128127
 21
-602.8774411202
  0
LINE
  8
0
 62
2
  6
CONTINUOUS
 10
252.0799128127
 20
-601.8774411202
 11
359.5799128127
 21
-601.8774411202
  0
LINE
  8
0
 62
2
  6
CONTINUOUS
 10
467.0799128127
 20
-601.8774411202
 11
359.5799128127
 21
-601.8774411202
  0
INSERT
  8
0
 62
2
  6
CONTINUOUS
  2
_FILLED
 10
252.0799128127
 20
-601.8774411202
 41
15.0
 42
15.0
 43
15.0
 50
180.0
  0
INSERT
  8
0
 62
2
  6
CONTINUOUS
  2
_FILLED
 10
467.0799128127
 20
-601.8774411202
 41
15.0
 42
15.0
 43
15.0
  0
ENDBLK
  8
0
  6
BYBLOCK
 62
0
  0
BLOCK
  8
0
 62
2
  6
CONTINUOUS
  2
*D7
 70
65
 10
0.0
 20
0.0
  0
TEXT
  8
0
 62
5
  6
CONTINUOUS
 10
519.3675825419
 20
-599.3774411202
  7
STANDARD
 40
10.0
  1
49,8
 41
1.0
 72
0
  0
TEXT
  8
0
 62
5
  6
CONTINUOUS
 10
519.3675825419
 20
-614.3774411202
  7
STANDARD
 40
10.0
  1
[
 41
1.0
 72
0
  0
TEXT
  8
0
 62
5
  6
CONTINUOUS
 10
523.2337535456
 20
-614.3774411202
  7
STANDARD
 40
10.0
  1
1.96
 41
1.0
 72
0
  0
TEXT
  8
0
 62
5
  6
CONTINUOUS
 10
550.4084747352
 20
-614.3774411202
  7
STANDARD
 40
10.0
  1
]
 41
1.0
 72
0
  0
LINE
  8
0
 62
2
  6
CONTINUOUS
 10
467.0799128127
 20
-473.3044566586
 11
467.0799128127
 21
-602.8774411202
  0
LINE
  8
0
 62
2
  6
CONTINUOUS
 10
516.8799128127
 20
-515.3044566586
 11
516.8799128127
 21
-602.8774411202
  0
LINE
  8
0
 62
2
  6
CONTINUOUS
 10
467.0799128127
 20
-601.8774411202
 11
491.9799128127
 21
-601.8774411202
  0
LINE
  8
0
 62
2
  6
CONTINUOUS
 10
516.8799128127
 20
-601.8774411202
 11
491.9799128127
 21
-601.8774411202
  0
LINE
  8
0
 62
2
  6
CONTINUOUS
 10
491.9799128127
 20
-601.8774411202
 11
554.2746457389
 21
-601.8774411202
  0
INSERT
  8
0
 62
2
  6
CONTINUOUS
  2
_FILLED
 10
467.0799128127
 20
-601.8774411202
 41
15.0
 42
15.0
 43
15.0
 50
180.0
  0
INSERT
  8
0
 62
2
  6
CONTINUOUS
  2
_FILLED
 10
516.8799128127
 20
-601.8774411202
 41
15.0
 42
15.0
 43
15.0
  0
ENDBLK
  8
0
  6
BYBLOCK
 62
0
  0
BLOCK
  8
0
 62
2
  6
CONTINUOUS
  2
*D8
 70
65
 10
0.0
 20
0.0
  0
TEXT
  8
0
 62
5
  6
CONTINUOUS
 10
-136.2287328688
 20
959.3045117429
  7
STANDARD
 40
10.0
  1
64
 50
90.0
 41
1.0
 72
1
 11
-136.2287328688
 21
967.0740284715
  0
TEXT
  8
0
 62
5
  6
CONTINUOUS
 10
-121.2287328688
 20
959.3045117429
  7
STANDARD
 40
10.0
  1
[
 50
90.0
 41
1.0
 72
1
 11
-121.2287328688
 21
961.2375972447
  0
TEXT
  8
0
 62
5
  6
CONTINUOUS
 10
-121.2287328688
 20
963.1706827466
  7
STANDARD
 40
10.0
  1
2.52
 50
90.0
 41
1.0
 72
1
 11
-121.2287328688
 21
976.7580433414
  0
TEXT
  8
0
 62
5
  6
CONTINUOUS
 10
-121.2287328688
 20
990.3454039362
  7
STANDARD
 40
10.0
  1
]
 50
90.0
 41
1.0
 72
1
 11
-121.2287328688
 21
992.278489438
  0
LINE
  8
0
 62
2
  6
CONTINUOUS
 10
-92.7825871873
 20
1008.7580433414
 11
-134.7287328688
 21
1008.7580433414
  0
LINE
  8
0
 62
2
  6
CONTINUOUS
 10
-44.6825871873
 20
944.7580433414
 11
-134.7287328688
 21
944.7580433414
  0
LINE
  8
0
 62
2
  6
CONTINUOUS
 10
-133.7287328688
 20
1008.7580433414
 11
-133.7287328688
 21
976.7580433414
  0
LINE
  8
0
 62
2
  6
CONTINUOUS
 10
-133.7287328688
 20
944.7580433414
 11
-133.7287328688
 21
976.7580433414
  0
INSERT
  8
0
 62
2
  6
CONTINUOUS
  2
_FILLED
 10
-133.7287328688
 20
1008.7580433414
 41
15.0
 42
15.0
 43
15.0
 50
90.0
  0
INSERT
  8
0
 62
2
  6
CONTINUOUS
  2
_FILLED
 10
-133.7287328688
 20
944.7580433414
 41
15.0
 42
15.0
 43
15.0
 50
270.0
  0
ENDBLK
  8
0
  6
BYBLOCK
 62
0
  0
BLOCK
  8
0
 62
2
  6
CONTINUOUS
  2
*D9
 70
65
 10
0.0
 20
0.0
  0
TEXT
  8
0
 62
5
  6
CONTINUOUS
 10
-136.2287328688
 20
743.4197533786
  7
STANDARD
 40
10.0
  1
360
 50
90.0
 41
1.0
 72
1
 11
-136.2287328688
 21
755.0740284715
  0
TEXT
  8
0
 62
5
  6
CONTINUOUS
 10
-121.2287328688
 20
743.4197533786
  7
STANDARD
 40
10.0
  1
[
 50
90.0
 41
1.0
 72
1
 11
-121.2287328688
 21
745.3528388804
  0
TEXT
  8
0
 62
5
  6
CONTINUOUS
 10
-121.2287328688
 20
747.2859243823
  7
STANDARD
 40
10.0
  1
14.17
 50
90.0
 41
1.0
 72
1
 11
-121.2287328688
 21
764.7580433414
  0
TEXT
  8
0
 62
5
  6
CONTINUOUS
 10
-121.2287328688
 20
782.2301623005
  7
STANDARD
 40
10.0
  1
]
 50
90.0
 41
1.0
 72
1
 11
-121.2287328688
 21
784.1632478024
  0
LINE
  8
0
 62
2
  6
CONTINUOUS
 10
-44.6825871873
 20
944.7580433414
 11
-134.7287328688
 21
944.7580433414
  0
LINE
  8
0
 62
2
  6
CONTINUOUS
 10
-44.6825871873
 20
584.7580433414
 11
-134.7287328688
 21
584.7580433414
  0
LINE
  8
0
 62
2
  6
CONTINUOUS
 10
-133.7287328688
 20
944.7580433414
 11
-133.7287328688
 21
764.7580433414
  0
LINE
  8
0
 62
2
  6
CONTINUOUS
 10
-133.7287328688
 20
584.7580433414
 11
-133.7287328688
 21
764.7580433414
  0
INSERT
  8
0
 62
2
  6
CONTINUOUS
  2
_FILLED
 10
-133.7287328688
 20
944.7580433414
 41
15.0
 42
15.0
 43
15.0
 50
90.0
  0
INSERT
  8
0
 62
2
  6
CONTINUOUS
  2
_FILLED
 10
-133.7287328688
 20
584.7580433414
 41
15.0
 42
15.0
 43
15.0
 50
270.0
  0
ENDBLK
  8
0
  6
BYBLOCK
 62
0
  0
BLOCK
  8
0
 62
2
  6
CONTINUOUS
  2
*D10
 70
65
 10
0.0
 20
0.0
  0
TEXT
  8
0
 62
5
  6
CONTINUOUS
 10
-136.2287328688
 20
344.4197533786
  7
STANDARD
 40
10.0
  1
438
 50
90.0
 41
1.0
 72
1
 11
-136.2287328688
 21
356.0740284715
  0
TEXT
  8
0
 62
5
  6
CONTINUOUS
 10
-121.2287328688
 20
344.4197533786
  7
STANDARD
 40
10.0
  1
[
 50
90.0
 41
1.0
 72
1
 11
-121.2287328688
 21
346.3528388804
  0
TEXT
  8
0
 62
5
  6
CONTINUOUS
 10
-121.2287328688
 20
348.2859243823
  7
STANDARD
 40
10.0
  1
17.24
 50
90.0
 41
1.0
 72
1
 11
-121.2287328688
 21
365.7580433414
  0
TEXT
  8
0
 62
5
  6
CONTINUOUS
 10
-121.2287328688
 20
383.2301623005
  7
STANDARD
 40
10.0
  1
]
 50
90.0
 41
1.0
 72
1
 11
-121.2287328688
 21
385.1632478024
  0
LINE
  8
0
 62
2
  6
CONTINUOUS
 10
-44.6825871873
 20
584.7580433414
 11
-134.7287328688
 21
584.7580433414
  0
LINE
  8
0
 62
2
  6
CONTINUOUS
 10
252.0174128127
 20
146.7580433414
 11
-134.7287328688
 21
146.7580433414
  0
LINE
  8
0
 62
2
  6
CONTINUOUS
 10
-133.7287328688
 20
584.7580433414
 11
-133.7287328688
 21
365.7580433414
  0
LINE
  8
0
 62
2
  6
CONTINUOUS
 10
-133.7287328688
 20
146.7580433414
 11
-133.7287328688
 21
365.7580433414
  0
INSERT
  8
0
 62
2
  6
CONTINUOUS
  2
_FILLED
 10
-133.7287328688
 20
584.7580433414
 41
15.0
 42
15.0
 43
15.0
 50
90.0
  0
INSERT
  8
0
 62
2
  6
CONTINUOUS
  2
_FILLED
 10
-133.7287328688
 20
146.7580433414
 41
15.0
 42
15.0
 43
15.0
 50
270.0
  0
ENDBLK
  8
0
  6
BYBLOCK
 62
0
  0
BLOCK
  8
0
 62
2
  6
CONTINUOUS
  2
*D11
 70
65
 10
0.0
 20
0.0
  0
TEXT
  8
0
 62
5
  6
CONTINUOUS
 10
-136.2287328688
 20
-184.5802466214
  7
STANDARD
 40
10.0
  1
620
 50
90.0
 41
1.0
 72
1
 11
-136.2287328688
 21
-172.9259715285
  0
TEXT
  8
0
 62
5
  6
CONTINUOUS
 10
-121.2287328688
 20
-184.5802466214
  7
STANDARD
 40
10.0
  1
[
 50
90.0
 41
1.0
 72
1
 11
-121.2287328688
 21
-182.6471611196
  0
TEXT
  8
0
 62
5
  6
CONTINUOUS
 10
-121.2287328688
 20
-180.7140756177
  7
STANDARD
 40
10.0
  1
24.41
 50
90.0
 41
1.0
 72
1
 11
-121.2287328688
 21
-163.2419566586
  0
TEXT
  8
0
 62
5
  6
CONTINUOUS
 10
-121.2287328688
 20
-145.7698376995
  7
STANDARD
 40
10.0
  1
]
 50
90.0
 41
1.0
 72
1
 11
-121.2287328688
 21
-143.8367521976
  0
LINE
  8
0
 62
2
  6
CONTINUOUS
 10
252.0174128127
 20
146.7580433414
 11
-134.7287328688
 21
146.7580433414
  0
LINE
  8
0
 62
2
  6
CONTINUOUS
 10
252.0174128127
 20
-473.2419566586
 11
-134.7287328688
 21
-473.2419566586
  0
LINE
  8
0
 62
2
  6
CONTINUOUS
 10
-133.7287328688
 20
146.7580433414
 11
-133.7287328688
 21
-163.2419566586
  0
LINE
  8
0
 62
2
  6
CONTINUOUS
 10
-133.7287328688
 20
-473.2419566586
 11
-133.7287328688
 21
-163.2419566586
  0
INSERT
  8
0
 62
2
  6
CONTINUOUS
  2
_FILLED
 10
-133.7287328688
 20
146.7580433414
 41
15.0
 42
15.0
 43
15.0
 50
90.0
  0
INSERT
  8
0
 62
2
  6
CONTINUOUS
  2
_FILLED
 10
-133.7287328688
 20
-473.2419566586
 41
15.0
 42
15.0
 43
15.0
 50
270.0
  0
ENDBLK
  8
0
  6
BYBLOCK
 62
0
  0
BLOCK
  8
0
 62
2
  6
CONTINUOUS
  2
*D12
 70
65
 10
0.0
 20
0.0
  0
TEXT
  8
0
 62
5
  6
CONTINUOUS
 10
-131.2932680263
 20
-556.2509041585
  7
STANDARD
 40
10.0
  1
27,8
 41
1.0
 72
2
 11
-104.1185468367
 21
-556.2509041585
  0
TEXT
  8
0
 62
5
  6
CONTINUOUS
 10
-131.2932680263
 20
-571.2509041585
  7
STANDARD
 40
10.0
  1
[
 41
1.0
 72
2
 11
-127.4270970226
 21
-571.2509041585
  0
TEXT
  8
0
 62
5
  6
CONTINUOUS
 10
-127.4270970226
 20
-571.2509041585
  7
STANDARD
 40
10.0
  1
1.09
 41
1.0
 72
2
 11
-100.252375833
 21
-571.2509041585
  0
TEXT
  8
0
 62
5
  6
CONTINUOUS
 10
-100.252375833
 20
-571.2509041585
  7
STANDARD
 40
10.0
  1
]
 41
1.0
 72
2
 11
-96.3862048293
 21
-571.2509041585
  0
LINE
  8
0
 62
2
  6
CONTINUOUS
 10
-92.7200871873
 20
-515.3044566586
 11
-92.7200871873
 21
-559.7509041585
  0
LINE
  8
0
 62
2
  6
CONTINUOUS
 10
-64.9200871873
 20
-455.3044566586
 11
-64.9200871873
 21
-559.7509041585
  0
LINE
  8
0
 62
2
  6
CONTINUOUS
 10
-92.7200871873
 20
-558.7509041585
 11
-131.2932680263
 21
-558.7509041585
  0
LINE
  8
0
 62
2
  6
CONTINUOUS
 10
-131.2932680263
 20
-558.7509041585
 11
-78.8200871873
 21
-558.7509041585
  0
LINE
  8
0
 62
2
  6
CONTINUOUS
 10
-64.9200871873
 20
-558.7509041585
 11
-59.9200871873
 21
-558.7509041585
  0
LINE
  8
0
 62
2
  6
CONTINUOUS
 10
-59.9200871873
 20
-558.7509041585
 11
-78.8200871873
 21
-558.7509041585
  0
INSERT
  8
0
 62
2
  6
CONTINUOUS
  2
_FILLED
 10
-92.7200871873
 20
-558.7509041585
 41
15.0
 42
15.0
 43
15.0
  0
INSERT
  8
0
 62
2
  6
CONTINUOUS
  2
_FILLED
 10
-64.9200871873
 20
-558.7509041585
 41
15.0
 42
15.0
 43
15.0
 50
180.0
  0
ENDBLK
  8
0
  6
BYBLOCK
 62
0
  0
BLOCK
  8
0
 62
2
  6
CONTINUOUS
  2
*D13
 70
65
 10
0.0
 20
0.0
  0
TEXT
  8
0
 62
5
  6
CONTINUOUS
 10
-1.0422061464
 20
-556.2509041585
  7
STANDARD
 40
10.0
  1
162,7
 41
1.0
 72
1
 11
16.4299128127
 21
-556.2509041585
  0
TEXT
  8
0
 62
5
  6
CONTINUOUS
 10
-1.0422061464
 20
-571.2509041585
  7
STANDARD
 40
10.0
  1
[
 41
1.0
 72
1
 11
0.8908793555
 21
-571.2509041585
  0
TEXT
  8
0
 62
5
  6
CONTINUOUS
 10
2.8239648573
 20
-571.2509041585
  7
STANDARD
 40
10.0
  1
6.41
 41
1.0
 72
1
 11
16.4113254521
 21
-571.2509041585
  0
TEXT
  8
0
 62
5
  6
CONTINUOUS
 10
29.9986860469
 20
-571.2509041585
  7
STANDARD
 40
10.0
  1
]
 41
1.0
 72
1
 11
31.9317715488
 21
-571.2509041585
  0
LINE
  8
0
 62
2
  6
CONTINUOUS
 10
97.7799128127
 20
-497.1044566586
 11
97.7799128127
 21
-559.7509041585
  0
LINE
  8
0
 62
2
  6
CONTINUOUS
 10
-64.9200871873
 20
-455.3044566586
 11
-64.9200871873
 21
-559.7509041585
  0
LINE
  8
0
 62
2
  6
CONTINUOUS
 10
97.7799128127
 20
-558.7509041585
 11
16.4299128127
 21
-558.7509041585
  0
LINE
  8
0
 62
2
  6
CONTINUOUS
 10
-64.9200871873
 20
-558.7509041585
 11
16.4299128127
 21
-558.7509041585
  0
INSERT
  8
0
 62
2
  6
CONTINUOUS
  2
_FILLED
 10
97.7799128127
 20
-558.7509041585
 41
15.0
 42
15.0
 43
15.0
  0
INSERT
  8
0
 62
2
  6
CONTINUOUS
  2
_FILLED
 10
-64.9200871873
 20
-558.7509041585
 41
15.0
 42
15.0
 43
15.0
 50
180.0
  0
ENDBLK
  8
0
  6
BYBLOCK
 62
0
  0
BLOCK
  8
0
 62
2
  6
CONTINUOUS
  2
*D14
 70
65
 10
0.0
 20
0.0
  0
TEXT
  8
0
 62
5
  6
CONTINUOUS
 10
194.6077938536
 20
-556.2509041585
  7
STANDARD
 40
10.0
  1
228,6
 41
1.0
 72
1
 11
212.0799128127
 21
-556.2509041585
  0
TEXT
  8
0
 62
5
  6
CONTINUOUS
 10
194.6077938536
 20
-571.2509041585
  7
STANDARD
 40
10.0
  1
[
 41
1.0
 72
1
 11
196.5408793555
 21
-571.2509041585
  0
TEXT
  8
0
 62
5
  6
CONTINUOUS
 10
198.4739648573
 20
-571.2509041585
  7
STANDARD
 40
10.0
  1
9.00
 41
1.0
 72
1
 11
212.0613254521
 21
-571.2509041585
  0
TEXT
  8
0
 62
5
  6
CONTINUOUS
 10
225.6486860469
 20
-571.2509041585
  7
STANDARD
 40
10.0
  1
]
 41
1.0
 72
1
 11
227.5817715488
 21
-571.2509041585
  0
LINE
  8
0
 62
2
  6
CONTINUOUS
 10
326.3799128127
 20
-497.1044566586
 11
326.3799128127
 21
-559.7509041585
  0
LINE
  8
0
 62
2
  6
CONTINUOUS
 10
97.7799128127
 20
-497.1044566586
 11
97.7799128127
 21
-559.7509041585
  0
LINE
  8
0
 62
2
  6
CONTINUOUS
 10
326.3799128127
 20
-558.7509041585
 11
212.0799128127
 21
-558.7509041585
  0
LINE
  8
0
 62
2
  6
CONTINUOUS
 10
97.7799128127
 20
-558.7509041585
 11
212.0799128127
 21
-558.7509041585
  0
INSERT
  8
0
 62
2
  6
CONTINUOUS
  2
_FILLED
 10
326.3799128127
 20
-558.7509041585
 41
15.0
 42
15.0
 43
15.0
  0
INSERT
  8
0
 62
2
  6
CONTINUOUS
  2
_FILLED
 10
97.7799128127
 20
-558.7509041585
 41
15.0
 42
15.0
 43
15.0
 50
180.0
  0
ENDBLK
  8
0
  6
BYBLOCK
 62
0
  0
BLOCK
  8
0
 62
2
  6
CONTINUOUS
  2
*D15
 70
65
 10
0.0
 20
0.0
  0
TEXT
  8
0
 62
5
  6
CONTINUOUS
 10
390.2577938536
 20
-556.2509041585
  7
STANDARD
 40
10.0
  1
162,7
 41
1.0
 72
1
 11
407.7299128127
 21
-556.2509041585
  0
TEXT
  8
0
 62
5
  6
CONTINUOUS
 10
390.2577938536
 20
-571.2509041585
  7
STANDARD
 40
10.0
  1
[
 41
1.0
 72
1
 11
392.1908793555
 21
-571.2509041585
  0
TEXT
  8
0
 62
5
  6
CONTINUOUS
 10
394.1239648573
 20
-571.2509041585
  7
STANDARD
 40
10.0
  1
6.41
 41
1.0
 72
1
 11
407.7113254521
 21
-571.2509041585
  0
TEXT
  8
0
 62
5
  6
CONTINUOUS
 10
421.2986860469
 20
-571.2509041585
  7
STANDARD
 40
10.0
  1
]
 41
1.0
 72
1
 11
423.2317715488
 21
-571.2509041585
  0
LINE
  8
0
 62
2
  6
CONTINUOUS
 10
326.3799128127
 20
-497.1044566586
 11
326.3799128127
 21
-559.7509041585
  0
LINE
  8
0
 62
2
  6
CONTINUOUS
 10
489.0799128127
 20
-455.3044566586
 11
489.0799128127
 21
-559.7509041585
  0
LINE
  8
0
 62
2
  6
CONTINUOUS
 10
326.3799128127
 20
-558.7509041585
 11
407.7299128127
 21
-558.7509041585
  0
LINE
  8
0
 62
2
  6
CONTINUOUS
 10
489.0799128127
 20
-558.7509041585
 11
407.7299128127
 21
-558.7509041585
  0
INSERT
  8
0
 62
2
  6
CONTINUOUS
  2
_FILLED
 10
326.3799128127
 20
-558.7509041585
 41
15.0
 42
15.0
 43
15.0
 50
180.0
  0
INSERT
  8
0
 62
2
  6
CONTINUOUS
  2
_FILLED
 10
489.0799128127
 20
-558.7509041585
 41
15.0
 42
15.0
 43
15.0
  0
ENDBLK
  8
0
  6
BYBLOCK
 62
0
  0
BLOCK
  8
0
 62
2
  6
CONTINUOUS
  2
*D16
 70
65
 10
0.0
 20
0.0
  0
TEXT
  8
0
 62
5
  6
CONTINUOUS
 10
545.3832514951
 20
1012.0925445364
  7
STANDARD
 40
10.0
  1
18,2
 50
90.0
 41
1.0
 72
0
  0
TEXT
  8
0
 62
5
  6
CONTINUOUS
 10
560.3832514951
 20
1012.0925445364
  7
STANDARD
 40
10.0
  1
[
 50
90.0
 41
1.0
 72
0
  0
TEXT
  8
0
 62
5
  6
CONTINUOUS
 10
560.3832514951
 20
1015.9587155401
  7
STANDARD
 40
10.0
  1
.72
 50
90.0
 41
1.0
 72
0
  0
TEXT
  8
0
 62
5
  6
CONTINUOUS
 10
560.3832514951
 20
1035.3639200011
  7
STANDARD
 40
10.0
  1
]
 50
90.0
 41
1.0
 72
0
  0
LINE
  8
0
 62
2
  6
CONTINUOUS
 10
516.9424128127
 20
1008.7580433414
 11
548.8832514951
 21
1008.7580433414
  0
LINE
  8
0
 62
2
  6
CONTINUOUS
 10
326.4424128127
 20
990.5580433414
 11
548.8832514951
 21
990.5580433414
  0
LINE
  8
0
 62
2
  6
CONTINUOUS
 10
547.8832514951
 20
1008.7580433414
 11
547.8832514951
 21
1039.267265726
  0
LINE
  8
0
 62
2
  6
CONTINUOUS
 10
547.8832514951
 20
1039.267265726
 11
547.8832514951
 21
999.6580433414
  0
LINE
  8
0
 62
2
  6
CONTINUOUS
 10
547.8832514951
 20
990.5580433414
 11
547.8832514951
 21
985.5580433414
  0
LINE
  8
0
 62
2
  6
CONTINUOUS
 10
547.8832514951
 20
985.5580433414
 11
547.8832514951
 21
999.6580433414
  0
INSERT
  8
0
 62
2
  6
CONTINUOUS
  2
_FILLED
 10
547.8832514951
 20
1008.7580433414
 41
15.0
 42
15.0
 43
15.0
 50
270.0
  0
INSERT
  8
0
 62
2
  6
CONTINUOUS
  2
_FILLED
 10
547.8832514951
 20
990.5580433414
 41
15.0
 42
15.0
 43
15.0
 50
90.0
  0
ENDBLK
  8
0
  6
BYBLOCK
 62
0
  0
BLOCK
  8
0
 62
2
  6
CONTINUOUS
  2
*D17
 70
65
 10
0.0
 20
0.0
  0
TEXT
  8
0
 62
5
  6
CONTINUOUS
 10
577.2186900885
 20
996.7155037032
  7
STANDARD
 40
10.0
  1
45,8
 50
90.0
 41
1.0
 72
0
  0
TEXT
  8
0
 62
5
  6
CONTINUOUS
 10
592.2186900885
 20
996.7155037032
  7
STANDARD
 40
10.0
  1
[
 50
90.0
 41
1.0
 72
0
  0
TEXT
  8
0
 62
5
  6
CONTINUOUS
 10
592.2186900885
 20
1000.5816747069
  7
STANDARD
 40
10.0
  1
1.80
 50
90.0
 41
1.0
 72
0
  0
TEXT
  8
0
 62
5
  6
CONTINUOUS
 10
592.2186900885
 20
1027.7563958965
  7
STANDARD
 40
10.0
  1
]
 50
90.0
 41
1.0
 72
0
  0
LINE
  8
0
 62
2
  6
CONTINUOUS
 10
489.1424128127
 20
944.7580433414
 11
580.7186900885
 21
944.7580433414
  0
LINE
  8
0
 62
2
  6
CONTINUOUS
 10
326.4424128127
 20
990.5580433414
 11
580.7186900885
 21
990.5580433414
  0
LINE
  8
0
 62
2
  6
CONTINUOUS
 10
579.7186900885
 20
944.7580433414
 11
579.7186900885
 21
967.6580433414
  0
LINE
  8
0
 62
2
  6
CONTINUOUS
 10
579.7186900885
 20
990.5580433414
 11
579.7186900885
 21
967.6580433414
  0
LINE
  8
0
 62
2
  6
CONTINUOUS
 10
579.7186900885
 20
967.6580433414
 11
579.7186900885
 21
1031.6225669002
  0
INSERT
  8
0
 62
2
  6
CONTINUOUS
  2
_FILLED
 10
579.7186900885
 20
944.7580433414
 41
15.0
 42
15.0
 43
15.0
 50
270.0
  0
INSERT
  8
0
 62
2
  6
CONTINUOUS
  2
_FILLED
 10
579.7186900885
 20
990.5580433414
 41
15.0
 42
15.0
 43
15.0
 50
90.0
  0
ENDBLK
  8
0
  6
BYBLOCK
 62
0
  0
BLOCK
  8
0
 62
2
  6
CONTINUOUS
  2
*D18
 70
65
 10
0.0
 20
0.0
  0
TEXT
  8
0
 62
5
  6
CONTINUOUS
 10
577.2186900885
 20
808.2359243823
  7
STANDARD
 40
10.0
  1
238,1
 50
90.0
 41
1.0
 72
1
 11
577.2186900885
 21
825.7080433414
  0
TEXT
  8
0
 62
5
  6
CONTINUOUS
 10
592.2186900885
 20
808.2359243823
  7
STANDARD
 40
10.0
  1
[
 50
90.0
 41
1.0
 72
1
 11
592.2186900885
 21
810.1690098841
  0
TEXT
  8
0
 62
5
  6
CONTINUOUS
 10
592.2186900885
 20
812.102095386
  7
STANDARD
 40
10.0
  1
9.37
 50
90.0
 41
1.0
 72
1
 11
592.2186900885
 21
825.6894559808
  0
TEXT
  8
0
 62
5
  6
CONTINUOUS
 10
592.2186900885
 20
839.2768165756
  7
STANDARD
 40
10.0
  1
]
 50
90.0
 41
1.0
 72
1
 11
592.2186900885
 21
841.2099020774
  0
LINE
  8
0
 62
2
  6
CONTINUOUS
 10
489.1424128127
 20
944.7580433414
 11
580.7186900885
 21
944.7580433414
  0
LINE
  8
0
 62
2
  6
CONTINUOUS
 10
489.1424128127
 20
706.6580433414
 11
580.7186900885
 21
706.6580433414
  0
LINE
  8
0
 62
2
  6
CONTINUOUS
 10
579.7186900885
 20
944.7580433414
 11
579.7186900885
 21
825.7080433414
  0
LINE
  8
0
 62
2
  6
CONTINUOUS
 10
579.7186900885
 20
706.6580433414
 11
579.7186900885
 21
825.7080433414
  0
INSERT
  8
0
 62
2
  6
CONTINUOUS
  2
_FILLED
 10
579.7186900885
 20
944.7580433414
 41
15.0
 42
15.0
 43
15.0
 50
90.0
  0
INSERT
  8
0
 62
2
  6
CONTINUOUS
  2
_FILLED
 10
579.7186900885
 20
706.6580433414
 41
15.0
 42
15.0
 43
15.0
 50
270.0
  0
ENDBLK
  8
0
  6
BYBLOCK
 62
0
  0
BLOCK
  8
0
 62
2
  6
CONTINUOUS
  2
*D19
 70
65
 10
0.0
 20
0.0
  0
TEXT
  8
0
 62
5
  6
CONTINUOUS
 10
577.2186900885
 20
574.8859243823
  7
STANDARD
 40
10.0
  1
228,6
 50
90.0
 41
1.0
 72
1
 11
577.2186900885
 21
592.3580433414
  0
TEXT
  8
0
 62
5
  6
CONTINUOUS
 10
592.2186900885
 20
574.8859243823
  7
STANDARD
 40
10.0
  1
[
 50
90.0
 41
1.0
 72
1
 11
592.2186900885
 21
576.8190098841
  0
TEXT
  8
0
 62
5
  6
CONTINUOUS
 10
592.2186900885
 20
578.752095386
  7
STANDARD
 40
10.0
  1
9.00
 50
90.0
 41
1.0
 72
1
 11
592.2186900885
 21
592.3394559808
  0
TEXT
  8
0
 62
5
  6
CONTINUOUS
 10
592.2186900885
 20
605.9268165756
  7
STANDARD
 40
10.0
  1
]
 50
90.0
 41
1.0
 72
1
 11
592.2186900885
 21
607.8599020774
  0
LINE
  8
0
 62
2
  6
CONTINUOUS
 10
489.1424128127
 20
706.6580433414
 11
580.7186900885
 21
706.6580433414
  0
LINE
  8
0
 62
2
  6
CONTINUOUS
 10
489.1424128127
 20
478.0580433414
 11
580.7186900885
 21
478.0580433414
  0
LINE
  8
0
 62
2
  6
CONTINUOUS
 10
579.7186900885
 20
706.6580433414
 11
579.7186900885
 21
592.3580433414
  0
LINE
  8
0
 62
2
  6
CONTINUOUS
 10
579.7186900885
 20
478.0580433414
 11
579.7186900885
 21
592.3580433414
  0
INSERT
  8
0
 62
2
  6
CONTINUOUS
  2
_FILLED
 10
579.7186900885
 20
706.6580433414
 41
15.0
 42
15.0
 43
15.0
 50
90.0
  0
INSERT
  8
0
 62
2
  6
CONTINUOUS
  2
_FILLED
 10
579.7186900885
 20
478.0580433414
 41
15.0
 42
15.0
 43
15.0
 50
270.0
  0
ENDBLK
  8
0
  6
BYBLOCK
 62
0
  0
BLOCK
  8
0
 62
2
  6
CONTINUOUS
  2
*D20
 70
65
 10
0.0
 20
0.0
  0
TEXT
  8
0
 62
5
  6
CONTINUOUS
 10
577.2186900885
 20
320.4197533786
  7
STANDARD
 40
10.0
  1
272,6
 50
90.0
 41
1.0
 72
1
 11
577.2186900885
 21
337.8918723377
  0
TEXT
  8
0
 62
5
  6
CONTINUOUS
 10
592.2186900885
 20
320.4197533786
  7
STANDARD
 40
10.0
  1
[
 50
90.0
 41
1.0
 72
1
 11
592.2186900885
 21
322.3528388804
  0
TEXT
  8
0
 62
5
  6
CONTINUOUS
 10
592.2186900885
 20
324.2859243823
  7
STANDARD
 40
10.0
  1
10.73
 50
90.0
 41
1.0
 72
1
 11
592.2186900885
 21
341.7580433414
  0
TEXT
  8
0
 62
5
  6
CONTINUOUS
 10
592.2186900885
 20
359.2301623005
  7
STANDARD
 40
10.0
  1
]
 50
90.0
 41
1.0
 72
1
 11
592.2186900885
 21
361.1632478024
  0
LINE
  8
0
 62
2
  6
CONTINUOUS
 10
489.1424128127
 20
478.0580433414
 11
580.7186900885
 21
478.0580433414
  0
LINE
  8
0
 62
2
  6
CONTINUOUS
 10
489.1424128127
 20
205.4580433414
 11
580.7186900885
 21
205.4580433414
  0
LINE
  8
0
 62
2
  6
CONTINUOUS
 10
579.7186900885
 20
478.0580433414
 11
579.7186900885
 21
341.7580433414
  0
LINE
  8
0
 62
2
  6
CONTINUOUS
 10
579.7186900885
 20
205.4580433414
 11
579.7186900885
 21
341.7580433414
  0
INSERT
  8
0
 62
2
  6
CONTINUOUS
  2
_FILLED
 10
579.7186900885
 20
478.0580433414
 41
15.0
 42
15.0
 43
15.0
 50
90.0
  0
INSERT
  8
0
 62
2
  6
CONTINUOUS
  2
_FILLED
 10
579.7186900885
 20
205.4580433414
 41
15.0
 42
15.0
 43
15.0
 50
270.0
  0
ENDBLK
  8
0
  6
BYBLOCK
 62
0
  0
BLOCK
  8
0
 62
2
  6
CONTINUOUS
  2
*D21
 70
65
 10
0.0
 20
0.0
  0
TEXT
  8
0
 62
5
  6
CONTINUOUS
 10
577.2186900885
 20
91.0045117429
  7
STANDARD
 40
10.0
  1
194
 50
90.0
 41
1.0
 72
1
 11
577.2186900885
 21
102.6587868358
  0
TEXT
  8
0
 62
5
  6
CONTINUOUS
 10
592.2186900885
 20
91.0045117429
  7
STANDARD
 40
10.0
  1
[
 50
90.0
 41
1.0
 72
1
 11
592.2186900885
 21
92.9375972447
  0
TEXT
  8
0
 62
5
  6
CONTINUOUS
 10
592.2186900885
 20
94.8706827466
  7
STANDARD
 40
10.0
  1
7.64
 50
90.0
 41
1.0
 72
1
 11
592.2186900885
 21
108.4580433414
  0
TEXT
  8
0
 62
5
  6
CONTINUOUS
 10
592.2186900885
 20
122.0454039362
  7
STANDARD
 40
10.0
  1
]
 50
90.0
 41
1.0
 72
1
 11
592.2186900885
 21
123.978489438
  0
LINE
  8
0
 62
2
  6
CONTINUOUS
 10
489.1424128127
 20
205.4580433414
 11
580.7186900885
 21
205.4580433414
  0
LINE
  8
0
 62
2
  6
CONTINUOUS
 10
489.1424128127
 20
11.4580433414
 11
580.7186900885
 21
11.4580433414
  0
LINE
  8
0
 62
2
  6
CONTINUOUS
 10
579.7186900885
 20
205.4580433414
 11
579.7186900885
 21
108.4580433414
  0
LINE
  8
0
 62
2
  6
CONTINUOUS
 10
579.7186900885
 20
11.4580433414
 11
579.7186900885
 21
108.4580433414
  0
INSERT
  8
0
 62
2
  6
CONTINUOUS
  2
_FILLED
 10
579.7186900885
 20
205.4580433414
 41
15.0
 42
15.0
 43
15.0
 50
90.0
  0
INSERT
  8
0
 62
2
  6
CONTINUOUS
  2
_FILLED
 10
579.7186900885
 20
11.4580433414
 41
15.0
 42
15.0
 43
15.0
 50
270.0
  0
ENDBLK
  8
0
  6
BYBLOCK
 62
0
  0
BLOCK
  8
0
 62
2
  6
CONTINUOUS
  2
*D22
 70
65
 10
0.0
 20
0.0
  0
TEXT
  8
0
 62
5
  6
CONTINUOUS
 10
577.2186900885
 20
-122.7140756177
  7
STANDARD
 40
10.0
  1
233,4
 50
90.0
 41
1.0
 72
1
 11
577.2186900885
 21
-105.2419566586
  0
TEXT
  8
0
 62
5
  6
CONTINUOUS
 10
592.2186900885
 20
-122.7140756177
  7
STANDARD
 40
10.0
  1
[
 50
90.0
 41
1.0
 72
1
 11
592.2186900885
 21
-120.7809901159
  0
TEXT
  8
0
 62
5
  6
CONTINUOUS
 10
592.2186900885
 20
-118.847904614
  7
STANDARD
 40
10.0
  1
9.19
 50
90.0
 41
1.0
 72
1
 11
592.2186900885
 21
-105.2605440192
  0
TEXT
  8
0
 62
5
  6
CONTINUOUS
 10
592.2186900885
 20
-91.6731834244
  7
STANDARD
 40
10.0
  1
]
 50
90.0
 41
1.0
 72
1
 11
592.2186900885
 21
-89.7400979226
  0
LINE
  8
0
 62
2
  6
CONTINUOUS
 10
489.1424128127
 20
11.4580433414
 11
580.7186900885
 21
11.4580433414
  0
LINE
  8
0
 62
2
  6
CONTINUOUS
 10
489.1424128127
 20
-221.9419566586
 11
580.7186900885
 21
-221.9419566586
  0
LINE
  8
0
 62
2
  6
CONTINUOUS
 10
579.7186900885
 20
11.4580433414
 11
579.7186900885
 21
-105.2419566586
  0
LINE
  8
0
 62
2
  6
CONTINUOUS
 10
579.7186900885
 20
-221.9419566586
 11
579.7186900885
 21
-105.2419566586
  0
INSERT
  8
0
 62
2
  6
CONTINUOUS
  2
_FILLED
 10
579.7186900885
 20
11.4580433414
 41
15.0
 42
15.0
 43
15.0
 50
90.0
  0
INSERT
  8
0
 62
2
  6
CONTINUOUS
  2
_FILLED
 10
579.7186900885
 20
-221.9419566586
 41
15.0
 42
15.0
 43
15.0
 50
270.0
  0
ENDBLK
  8
0
  6
BYBLOCK
 62
0
  0
BLOCK
  8
0
 62
2
  6
CONTINUOUS
  2
*D23
 70
65
 10
0.0
 20
0.0
  0
TEXT
  8
0
 62
5
  6
CONTINUOUS
 10
577.2186900885
 20
-356.0640756177
  7
STANDARD
 40
10.0
  1
233,3
 50
90.0
 41
1.0
 72
1
 11
577.2186900885
 21
-338.5919566586
  0
TEXT
  8
0
 62
5
  6
CONTINUOUS
 10
592.2186900885
 20
-356.0640756177
  7
STANDARD
 40
10.0
  1
[
 50
90.0
 41
1.0
 72
1
 11
592.2186900885
 21
-354.1309901159
  0
TEXT
  8
0
 62
5
  6
CONTINUOUS
 10
592.2186900885
 20
-352.197904614
  7
STANDARD
 40
10.0
  1
9.19
 50
90.0
 41
1.0
 72
1
 11
592.2186900885
 21
-338.6105440192
  0
TEXT
  8
0
 62
5
  6
CONTINUOUS
 10
592.2186900885
 20
-325.0231834244
  7
STANDARD
 40
10.0
  1
]
 50
90.0
 41
1.0
 72
1
 11
592.2186900885
 21
-323.0900979226
  0
LINE
  8
0
 62
2
  6
CONTINUOUS
 10
489.1424128127
 20
-221.9419566586
 11
580.7186900885
 21
-221.9419566586
  0
LINE
  8
0
 62
2
  6
CONTINUOUS
 10
489.1424128127
 20
-455.2419566586
 11
580.7186900885
 21
-455.2419566586
  0
LINE
  8
0
 62
2
  6
CONTINUOUS
 10
579.7186900885
 20
-221.9419566586
 11
579.7186900885
 21
-338.5919566586
  0
LINE
  8
0
 62
2
  6
CONTINUOUS
 10
579.7186900885
 20
-455.2419566586
 11
579.7186900885
 21
-338.5919566586
  0
INSERT
  8
0
 62
2
  6
CONTINUOUS
  2
_FILLED
 10
579.7186900885
 20
-221.9419566586
 41
15.0
 42
15.0
 43
15.0
 50
90.0
  0
INSERT
  8
0
 62
2
  6
CONTINUOUS
  2
_FILLED
 10
579.7186900885
 20
-455.2419566586
 41
15.0
 42
15.0
 43
15.0
 50
270.0
  0
ENDBLK
  8
0
  6
BYBLOCK
 62
0
  0
BLOCK
  8
0
 62
2
  6
CONTINUOUS
  2
*D24
 70
65
 10
0.0
 20
0.0
  0
TEXT
  8
0
 62
5
  6
CONTINUOUS
 10
577.2186900885
 20
-532.8240792556
  7
STANDARD
 40
10.0
  1
41,8
 50
90.0
 41
1.0
 72
2
 11
577.2186900885
 21
-505.649358066
  0
TEXT
  8
0
 62
5
  6
CONTINUOUS
 10
592.2186900885
 20
-532.8240792556
  7
STANDARD
 40
10.0
  1
[
 50
90.0
 41
1.0
 72
2
 11
592.2186900885
 21
-528.9579082519
  0
TEXT
  8
0
 62
5
  6
CONTINUOUS
 10
592.2186900885
 20
-528.9579082519
  7
STANDARD
 40
10.0
  1
1.65
 50
90.0
 41
1.0
 72
2
 11
592.2186900885
 21
-501.7831870623
  0
TEXT
  8
0
 62
5
  6
CONTINUOUS
 10
592.2186900885
 20
-501.7831870623
  7
STANDARD
 40
10.0
  1
]
 50
90.0
 41
1.0
 72
2
 11
592.2186900885
 21
-497.9170160586
  0
LINE
  8
0
 62
2
  6
CONTINUOUS
 10
326.4424128127
 20
-497.0419566586
 11
580.7186900885
 21
-497.0419566586
  0
LINE
  8
0
 62
2
  6
CONTINUOUS
 10
489.1424128127
 20
-455.2419566586
 11
580.7186900885
 21
-455.2419566586
  0
LINE
  8
0
 62
2
  6
CONTINUOUS
 10
579.7186900885
 20
-497.0419566586
 11
579.7186900885
 21
-476.1419566586
  0
LINE
  8
0
 62
2
  6
CONTINUOUS
 10
579.7186900885
 20
-476.1419566586
 11
579.7186900885
 21
-532.8240792556
  0
LINE
  8
0
 62
2
  6
CONTINUOUS
 10
579.7186900885
 20
-455.2419566586
 11
579.7186900885
 21
-476.1419566586
  0
INSERT
  8
0
 62
2
  6
CONTINUOUS
  2
_FILLED
 10
579.7186900885
 20
-497.0419566586
 41
15.0
 42
15.0
 43
15.0
 50
270.0
  0
INSERT
  8
0
 62
2
  6
CONTINUOUS
  2
_FILLED
 10
579.7186900885
 20
-455.2419566586
 41
15.0
 42
15.0
 43
15.0
 50
90.0
  0
ENDBLK
  8
0
  6
BYBLOCK
 62
0
  0
BLOCK
  8
0
 62
2
  6
CONTINUOUS
  2
*D25
 70
65
 10
0.0
 20
0.0
  0
TEXT
  8
0
 62
5
  6
CONTINUOUS
 10
404.8361913514
 20
937.1549003551
  7
STANDARD
 40
10.0
  1
(x18) 
 41
1.0
 72
2
 11
440.5239236935
 21
937.1549003551
  0
TEXT
  8
0
 62
5
  6
CONTINUOUS
 10
440.5239236935
 20
937.1549003551
  7
TEXTSTYLE_1
 40
10.0
  1
n
 41
1.0
 72
2
 11
453.8572570268
 21
937.1549003551
  0
TEXT
  8
0
 62
5
  6
CONTINUOUS
 10
453.8572570268
 20
937.1549003551
  7
STANDARD
 40
10.0
  1
7
 41
1.0
 72
2
 11
461.6267737554
 21
937.1549003551
  0
TEXT
  8
0
 62
5
  6
CONTINUOUS
 10
453.8572570268
 20
922.1549003551
  7
STANDARD
 40
10.0
  1
[
 41
1.0
 72
2
 11
457.7234280305
 21
922.1549003551
  0
TEXT
  8
0
 62
5
  6
CONTINUOUS
 10
457.7234280305
 20
922.1549003551
  7
STANDARD
 40
10.0
  1
.28
 41
1.0
 72
2
 11
477.1286324915
 21
922.1549003551
  0
TEXT
  8
0
 62
5
  6
CONTINUOUS
 10
477.1286324915
 20
922.1549003551
  7
STANDARD
 40
10.0
  1
]
 41
1.0
 72
2
 11
480.9948034952
 21
922.1549003551
  0
LINE
  8
0
 62
2
  6
CONTINUOUS
 10
487.7679132894
 20
941.5132540954
 11
484.9948034952
 21
934.6549003551
  0
LINE
  8
0
 62
2
  6
CONTINUOUS
 10
484.9948034952
 20
934.6549003551
 11
402.3361913514
 21
934.6549003551
  0
LINE
  8
0
 62
2
  6
CONTINUOUS
 10
402.3361913514
 20
934.6549003551
 11
484.9948034952
 21
934.6549003551
  0
INSERT
  8
0
 62
2
  6
CONTINUOUS
  2
_FILLED
 10
487.7679132894
 20
941.5132540954
 41
15.0
 42
15.0
 43
15.0
 50
67.9845247462
  0
ENDBLK
  8
0
  6
BYBLOCK
 62
0
  0
ENDSEC
  0
SECTION
  2
ENTITIES
  0
DIMENSION
  8
0
 62
2
  6
CONTINUOUS
  2
*D0
 10
-92.7200871873
 20
1092.9488963134
 11
212.0799128127
 21
1092.9488963134
 70
128
 13
516.8799128127
 23
1008.7580433414
 14
-92.7200871873
 24
1008.7580433414
 50
180.0
  0
DIMENSION
  8
0
 62
2
  6
CONTINUOUS
  2
*D1
 10
-181.4369176761
 20
-515.2419566586
 11
-181.4369176761
 21
246.7580433414
 70
128
 13
-92.7200871873
 23
1008.7580433414
 14
-92.7200871873
 24
-515.2419566586
 50
270.0
  0
DIMENSION
  8
0
 62
2
  6
CONTINUOUS
  2
*D2
 10
-44.6200871873
 20
1047.4483206555
 11
-110.5757086799
 21
1047.4483206555
 70
128
 13
-92.7200871873
 23
1008.7580433414
 14
-44.6200871873
 24
944.7580433414
  0
DIMENSION
  8
0
 62
2
  6
CONTINUOUS
  2
*D3
 10
-44.6200871873
 20
1047.4483206555
 11
108.1799128127
 21
1047.4483206555
 70
128
 13
260.9799128127
 23
944.7580433414
 14
-44.6200871873
 24
944.7580433414
 50
180.0
  0
DIMENSION
  8
0
 62
2
  6
CONTINUOUS
  2
*D4
 10
516.8799128127
 20
1047.4483206555
 11
388.9299128127
 21
1047.4483206555
 70
128
 13
260.9799128127
 23
944.7580433414
 14
516.8799128127
 24
1008.7580433414
  0
DIMENSION
  8
0
 62
2
  6
CONTINUOUS
  2
*D5
 10
252.0799128127
 20
-601.8774411202
 11
79.6799128127
 21
-601.8774411202
 70
128
 13
-92.7200871873
 23
-515.2419566586
 14
252.0799128127
 24
-473.2419566586
  0
DIMENSION
  8
0
 62
2
  6
CONTINUOUS
  2
*D6
 10
467.0799128127
 20
-601.8774411202
 11
359.5799128127
 21
-601.8774411202
 70
128
 13
252.0799128127
 23
-473.2419566586
 14
467.0799128127
 24
-473.2419566586
  0
DIMENSION
  8
0
 62
2
  6
CONTINUOUS
  2
*D7
 10
516.8799128127
 20
-601.8774411202
 11
536.8211141404
 21
-601.8774411202
 70
128
 13
467.0799128127
 23
-473.2419566586
 14
516.8799128127
 24
-515.2419566586
  0
DIMENSION
  8
0
 62
2
  6
CONTINUOUS
  2
*D8
 10
-133.7287328688
 20
944.7580433414
 11
-133.7287328688
 21
976.7580433414
 70
128
 13
-92.7200871873
 23
1008.7580433414
 14
-44.6200871873
 24
944.7580433414
 50
270.0
  0
DIMENSION
  8
0
 62
2
  6
CONTINUOUS
  2
*D9
 10
-133.7287328688
 20
584.7580433414
 11
-133.7287328688
 21
764.7580433414
 70
128
 13
-44.6200871873
 23
944.7580433414
 14
-44.6200871873
 24
584.7580433414
 50
270.0
  0
DIMENSION
  8
0
 62
2
  6
CONTINUOUS
  2
*D10
 10
-133.7287328688
 20
146.7580433414
 11
-133.7287328688
 21
365.7580433414
 70
128
 13
-44.6200871873
 23
584.7580433414
 14
252.0799128127
 24
146.7580433414
 50
270.0
  0
DIMENSION
  8
0
 62
2
  6
CONTINUOUS
  2
*D11
 10
-133.7287328688
 20
-473.2419566586
 11
-133.7287328688
 21
-163.2419566586
 70
128
 13
252.0799128127
 23
146.7580433414
 14
252.0799128127
 24
-473.2419566586
 50
270.0
  0
DIMENSION
  8
0
 62
2
  6
CONTINUOUS
  2
*D12
 10
-64.9200871873
 20
-558.7509041585
 11
-113.8397364278
 21
-558.7509041585
 70
128
 13
-92.7200871873
 23
-515.2419566586
 14
-64.9200871873
 24
-455.2419566586
  0
DIMENSION
  8
0
 62
2
  6
CONTINUOUS
  2
*D13
 10
-64.9200871873
 20
-558.7509041585
 11
16.4299128127
 21
-558.7509041585
 70
128
 13
97.7799128127
 23
-497.0419566586
 14
-64.9200871873
 24
-455.2419566586
 50
180.0
  0
DIMENSION
  8
0
 62
2
  6
CONTINUOUS
  2
*D14
 10
97.7799128127
 20
-558.7509041585
 11
212.0799128127
 21
-558.7509041585
 70
128
 13
326.3799128127
 23
-497.0419566586
 14
97.7799128127
 24
-497.0419566586
 50
180.0
  0
DIMENSION
  8
0
 62
2
  6
CONTINUOUS
  2
*D15
 10
489.0799128127
 20
-558.7509041585
 11
407.7299128127
 21
-558.7509041585
 70
128
 13
326.3799128127
 23
-497.0419566586
 14
489.0799128127
 24
-455.2419566586
  0
DIMENSION
  8
0
 62
2
  6
CONTINUOUS
  2
*D16
 10
547.8832514951
 20
990.5580433414
 11
547.8832514951
 21
1025.6799051312
 70
128
 13
516.8799128127
 23
1008.7580433414
 14
326.3799128127
 24
990.5580433414
 50
270.0
  0
DIMENSION
  8
0
 62
2
  6
CONTINUOUS
  2
*D17
 10
579.7186900885
 20
990.5580433414
 11
579.7186900885
 21
1014.1690353017
 70
128
 13
489.0799128127
 23
944.7580433414
 14
326.3799128127
 24
990.5580433414
 50
90.0
  0
DIMENSION
  8
0
 62
2
  6
CONTINUOUS
  2
*D18
 10
579.7186900885
 20
706.6580433414
 11
579.7186900885
 21
825.7080433414
 70
128
 13
489.0799128127
 23
944.7580433414
 14
489.0799128127
 24
706.6580433414
 50
270.0
  0
DIMENSION
  8
0
 62
2
  6
CONTINUOUS
  2
*D19
 10
579.7186900885
 20
478.0580433414
 11
579.7186900885
 21
592.3580433414
 70
128
 13
489.0799128127
 23
706.6580433414
 14
489.0799128127
 24
478.0580433414
 50
270.0
  0
DIMENSION
  8
0
 62
2
  6
CONTINUOUS
  2
*D20
 10
579.7186900885
 20
205.4580433414
 11
579.7186900885
 21
341.7580433414
 70
128
 13
489.0799128127
 23
478.0580433414
 14
489.0799128127
 24
205.4580433414
 50
270.0
  0
DIMENSION
  8
0
 62
2
  6
CONTINUOUS
  2
*D21
 10
579.7186900885
 20
11.4580433414
 11
579.7186900885
 21
108.4580433414
 70
128
 13
489.0799128127
 23
205.4580433414
 14
489.0799128127
 24
11.4580433414
 50
270.0
  0
DIMENSION
  8
0
 62
2
  6
CONTINUOUS
  2
*D22
 10
579.7186900885
 20
-221.9419566586
 11
579.7186900885
 21
-105.2419566586
 70
128
 13
489.0799128127
 23
11.4580433414
 14
489.0799128127
 24
-221.9419566586
 50
270.0
  0
DIMENSION
  8
0
 62
2
  6
CONTINUOUS
  2
*D23
 10
579.7186900885
 20
-455.2419566586
 11
579.7186900885
 21
-338.5919566586
 70
128
 13
489.0799128127
 23
-221.9419566586
 14
489.0799128127
 24
-455.2419566586
 50
270.0
  0
DIMENSION
  8
0
 62
2
  6
CONTINUOUS
  2
*D24
 10
579.7186900885
 20
-455.2419566586
 11
579.7186900885
 21
-515.3705476571
 70
128
 13
326.3799128127
 23
-497.0419566586
 14
489.0799128127
 24
-455.2419566586
 50
90.0
  0
DIMENSION
  8
0
 62
2
  6
CONTINUOUS
  2
*D25
 10
487.7679132894
 20
941.5132540954
 11
442.9154974233
 21
934.6549003551
 70
131
 15
490.391912336
 25
948.0028325874
1001
ACAD
1000
DSTYLE
1002
{
1070
73
1070
1
1070
74
1070
1
1002
}
  0
TEXT
  8
0
 62
5
  6
CONTINUOUS
 10
-76.637080977
 20
-112.6764337688
  7
STANDARD
 40
10.0
  1
NOTES:
 41
1.0
 72
0
  0
TEXT
  8
0
 62
5
  6
CONTINUOUS
 10
-76.637080977
 20
-127.6764337688
  7
STANDARD
 40
10.0
  1
DIMENSIONS IN MM[INCH]
 41
1.0
 72
0
  0
TEXT
  8
0
 62
5
  6
CONTINUOUS
 10
-76.637080977
 20
-142.6764337688
  7
STANDARD
 40
10.0
  1
CUTOUT AREAS MARKED IN HATCHING LINES
 41
1.0
 72
0
  0
TEXT
  8
0
 62
5
  6
CONTINUOUS
 10
156.651287666
 20
-535.3890255644
  7
STANDARD
 40
10.0
  1
SCALE  
 41
1.0
 72
2
 11
210.1085367366
 21
-535.3890255644
  0
TEXT
  8
0
 62
5
  6
CONTINUOUS
 10
210.1085367366
 20
-535.3890255644
  7
STANDARD
 40
10.0
  1
1.000
 41
1.0
 72
2
 11
245.0527746548
 21
-535.3890255644
  0
LINE
  8
0
 62
7
  6
CONTINUOUS
 10
-44.6200871873
 20
944.7580433414
 11
-44.6200871873
 21
584.7580433414
  0
LINE
  8
0
 62
2
  6
CONTINUOUS
 10
-44.6200871873
 20
944.3336362203
 11
-44.1956800662
 21
944.7580433414
  0
LINE
  8
0
 62
2
  6
CONTINUOUS
 10
-44.6200871873
 20
933.0199277213
 11
-32.8819715672
 21
944.7580433414
  0
LINE
  8
0
 62
2
  6
CONTINUOUS
 10
-44.6200871873
 20
921.7062192224
 11
-21.5682630683
 21
944.7580433414
  0
LINE
  8
0
 62
2
  6
CONTINUOUS
 10
-44.6200871873
 20
910.3925107234
 11
-10.2545545693
 21
944.7580433414
  0
LINE
  8
0
 62
2
  6
CONTINUOUS
 10
-44.6200871873
 20
899.0788022244
 11
1.0591539297
 21
944.7580433414
  0
LINE
  8
0
 62
2
  6
CONTINUOUS
 10
-44.6200871873
 20
887.7650937254
 11
12.3728624287
 21
944.7580433414
  0
LINE
  8
0
 62
2
  6
CONTINUOUS
 10
-44.6200871873
 20
876.4513852264
 11
23.6865709277
 21
944.7580433414
  0
LINE
  8
0
 62
2
  6
CONTINUOUS
 10
-44.6200871873
 20
865.1376767274
 11
35.0002794267
 21
944.7580433414
  0
LINE
  8
0
 62
2
  6
CONTINUOUS
 10
-44.6200871873
 20
853.8239682285
 11
46.3139879257
 21
944.7580433414
  0
LINE
  8
0
 62
2
  6
CONTINUOUS
 10
-44.6200871873
 20
842.5102597295
 11
57.6276964246
 21
944.7580433414
  0
LINE
  8
0
 62
2
  6
CONTINUOUS
 10
-44.6200871873
 20
831.1965512305
 11
68.9414049236
 21
944.7580433414
  0
LINE
  8
0
 62
2
  6
CONTINUOUS
 10
-44.6200871873
 20
819.8828427315
 11
80.2551134226
 21
944.7580433414
  0
LINE
  8
0
 62
2
  6
CONTINUOUS
 10
-44.6200871873
 20
808.5691342325
 11
91.5688219216
 21
944.7580433414
  0
LINE
  8
0
 62
2
  6
CONTINUOUS
 10
-44.6200871873
 20
797.2554257335
 11
102.8825304206
 21
944.7580433414
  0
LINE
  8
0
 62
2
  6
CONTINUOUS
 10
-44.6200871873
 20
785.9417172345
 11
114.1962389196
 21
944.7580433414
  0
LINE
  8
0
 62
2
  6
CONTINUOUS
 10
-44.6200871873
 20
774.6280087356
 11
125.5099474185
 21
944.7580433414
  0
LINE
  8
0
 62
2
  6
CONTINUOUS
 10
-44.6200871873
 20
763.3143002366
 11
136.8236559175
 21
944.7580433414
  0
LINE
  8
0
 62
2
  6
CONTINUOUS
 10
-44.6200871873
 20
752.0005917376
 11
148.1373644165
 21
944.7580433414
  0
LINE
  8
0
 62
2
  6
CONTINUOUS
 10
-44.6200871873
 20
740.6868832386
 11
159.4510729155
 21
944.7580433414
  0
LINE
  8
0
 62
2
  6
CONTINUOUS
 10
-44.6200871873
 20
729.3731747396
 11
170.7647814145
 21
944.7580433414
  0
LINE
  8
0
 62
2
  6
CONTINUOUS
 10
-44.6200871873
 20
718.0594662406
 11
182.0784899135
 21
944.7580433414
  0
LINE
  8
0
 62
2
  6
CONTINUOUS
 10
-44.6200871873
 20
706.7457577416
 11
193.3921984125
 21
944.7580433414
  0
LINE
  8
0
 62
2
  6
CONTINUOUS
 10
-44.6200871873
 20
695.4320492427
 11
204.7059069114
 21
944.7580433414
  0
LINE
  8
0
 62
2
  6
CONTINUOUS
 10
-44.6200871873
 20
684.1183407437
 11
216.0196154104
 21
944.7580433414
  0
LINE
  8
0
 62
2
  6
CONTINUOUS
 10
-44.6200871873
 20
672.8046322447
 11
227.3333239094
 21
944.7580433414
  0
LINE
  8
0
 62
2
  6
CONTINUOUS
 10
-44.6200871873
 20
661.4909237457
 11
238.6470324084
 21
944.7580433414
  0
LINE
  8
0
 62
2
  6
CONTINUOUS
 10
-44.6200871873
 20
650.1772152467
 11
249.9607409074
 21
944.7580433414
  0
LINE
  8
0
 62
2
  6
CONTINUOUS
 10
-44.6200871873
 20
638.8635067477
 11
260.9799128127
 21
944.4635067477
  0
LINE
  8
0
 62
2
  6
CONTINUOUS
 10
-44.6200871873
 20
627.5497982488
 11
260.9799128127
 21
933.1497982488
  0
LINE
  8
0
 62
2
  6
CONTINUOUS
 10
-44.6200871873
 20
616.2360897498
 11
260.9799128127
 21
921.8360897498
  0
LINE
  8
0
 62
2
  6
CONTINUOUS
 10
-44.6200871873
 20
604.9223812508
 11
260.9799128127
 21
910.5223812508
  0
LINE
  8
0
 62
2
  6
CONTINUOUS
 10
-44.6200871873
 20
593.6086727518
 11
260.9799128127
 21
899.2086727518
  0
LINE
  8
0
 62
2
  6
CONTINUOUS
 10
-42.1570080987
 20
584.7580433414
 11
260.9799128127
 21
887.8949642528
  0
LINE
  8
0
 62
2
  6
CONTINUOUS
 10
-30.8432995997
 20
584.7580433414
 11
260.9799128127
 21
876.5812557538
  0
LINE
  8
0
 62
2
  6
CONTINUOUS
 10
-19.5295911007
 20
584.7580433414
 11
260.9799128127
 21
865.2675472548
  0
LINE
  8
0
 62
2
  6
CONTINUOUS
 10
-8.2158826018
 20
584.7580433414
 11
260.9799128127
 21
853.9538387559
  0
LINE
  8
0
 62
2
  6
CONTINUOUS
 10
3.0978258972
 20
584.7580433414
 11
260.9799128127
 21
842.6401302569
  0
LINE
  8
0
 62
2
  6
CONTINUOUS
 10
14.4115343962
 20
584.7580433414
 11
260.9799128127
 21
831.3264217579
  0
LINE
  8
0
 62
2
  6
CONTINUOUS
 10
25.7252428952
 20
584.7580433414
 11
260.9799128127
 21
820.0127132589
  0
LINE
  8
0
 62
2
  6
CONTINUOUS
 10
37.0389513942
 20
584.7580433414
 11
260.9799128127
 21
808.6990047599
  0
LINE
  8
0
 62
2
  6
CONTINUOUS
 10
48.3526598932
 20
584.7580433414
 11
260.9799128127
 21
797.3852962609
  0
LINE
  8
0
 62
2
  6
CONTINUOUS
 10
59.6663683921
 20
584.7580433414
 11
260.9799128127
 21
786.071587762
  0
LINE
  8
0
 62
2
  6
CONTINUOUS
 10
70.9800768911
 20
584.7580433414
 11
260.9799128127
 21
774.757879263
  0
LINE
  8
0
 62
2
  6
CONTINUOUS
 10
82.2937853901
 20
584.7580433414
 11
260.9799128127
 21
763.444170764
  0
LINE
  8
0
 62
2
  6
CONTINUOUS
 10
93.6074938891
 20
584.7580433414
 11
260.9799128127
 21
752.130462265
  0
LINE
  8
0
 62
2
  6
CONTINUOUS
 10
104.9212023881
 20
584.7580433414
 11
260.9799128127
 21
740.816753766
  0
LINE
  8
0
 62
2
  6
CONTINUOUS
 10
116.2349108871
 20
584.7580433414
 11
260.9799128127
 21
729.503045267
  0
LINE
  8
0
 62
2
  6
CONTINUOUS
 10
127.5486193861
 20
584.7580433414
 11
260.9799128127
 21
718.189336768
  0
LINE
  8
0
 62
2
  6
CONTINUOUS
 10
138.862327885
 20
584.7580433414
 11
260.9799128127
 21
706.8756282691
  0
LINE
  8
0
 62
2
  6
CONTINUOUS
 10
150.176036384
 20
584.7580433414
 11
260.9799128127
 21
695.5619197701
  0
LINE
  8
0
 62
2
  6
CONTINUOUS
 10
161.489744883
 20
584.7580433414
 11
260.9799128127
 21
684.2482112711
  0
LINE
  8
0
 62
2
  6
CONTINUOUS
 10
172.803453382
 20
584.7580433414
 11
260.9799128127
 21
672.9345027721
  0
LINE
  8
0
 62
2
  6
CONTINUOUS
 10
184.117161881
 20
584.7580433414
 11
260.9799128127
 21
661.6207942731
  0
LINE
  8
0
 62
2
  6
CONTINUOUS
 10
195.43087038
 20
584.7580433414
 11
260.9799128127
 21
650.3070857741
  0
LINE
  8
0
 62
2
  6
CONTINUOUS
 10
206.7445788789
 20
584.7580433414
 11
260.9799128127
 21
638.9933772752
  0
LINE
  8
0
 62
2
  6
CONTINUOUS
 10
218.0582873779
 20
584.7580433414
 11
260.9799128127
 21
627.6796687762
  0
LINE
  8
0
 62
2
  6
CONTINUOUS
 10
229.3719958769
 20
584.7580433414
 11
260.9799128127
 21
616.3659602772
  0
LINE
  8
0
 62
7
  6
CONTINUOUS
 10
252.0799128127
 20
-473.2419566586
 11
467.0799128127
 21
-473.2419566586
  0
LINE
  8
0
 62
2
  6
CONTINUOUS
 10
240.6857043759
 20
584.7580433414
 11
260.9799128127
 21
605.0522517782
  0
LINE
  8
0
 62
2
  6
CONTINUOUS
 10
251.9994128749
 20
584.7580433414
 11
260.9799128127
 21
593.7385432792
  0
LINE
  8
0
 62
7
  6
CONTINUOUS
 10
252.0799128127
 20
146.7580433414
 11
467.0799128127
 21
146.7580433414
  0
LINE
  8
0
 62
7
  6
CONTINUOUS
 10
252.0799128127
 20
146.7580433414
 11
252.0799128127
 21
-473.2419566586
  0
LINE
  8
0
 62
7
  6
CONTINUOUS
 10
260.9799128127
 20
584.7580433414
 11
260.9799128127
 21
944.7580433414
  0
LINE
  8
0
 62
2
  6
CONTINUOUS
 10
252.0799128127
 20
143.6039118188
 11
255.2340443353
 21
146.7580433414
  0
LINE
  8
0
 62
2
  6
CONTINUOUS
 10
252.0799128127
 20
132.2902033198
 11
266.5477528343
 21
146.7580433414
  0
LINE
  8
0
 62
2
  6
CONTINUOUS
 10
252.0799128127
 20
120.9764948208
 11
277.8614613333
 21
146.7580433414
  0
LINE
  8
0
 62
2
  6
CONTINUOUS
 10
252.0799128127
 20
109.6627863219
 11
289.1751698322
 21
146.7580433414
  0
LINE
  8
0
 62
2
  6
CONTINUOUS
 10
252.0799128127
 20
98.3490778229
 11
300.4888783312
 21
146.7580433414
  0
LINE
  8
0
 62
2
  6
CONTINUOUS
 10
252.0799128127
 20
87.0353693239
 11
311.8025868302
 21
146.7580433414
  0
LINE
  8
0
 62
2
  6
CONTINUOUS
 10
252.0799128127
 20
75.7216608249
 11
323.1162953292
 21
146.7580433414
  0
LINE
  8
0
 62
2
  6
CONTINUOUS
 10
252.0799128127
 20
64.4079523259
 11
334.4300038282
 21
146.7580433414
  0
LINE
  8
0
 62
2
  6
CONTINUOUS
 10
252.0799128127
 20
53.0942438269
 11
345.7437123272
 21
146.7580433414
  0
LINE
  8
0
 62
2
  6
CONTINUOUS
 10
252.0799128127
 20
41.7805353279
 11
357.0574208262
 21
146.7580433414
  0
LINE
  8
0
 62
2
  6
CONTINUOUS
 10
252.0799128127
 20
30.466826829
 11
368.3711293251
 21
146.7580433414
  0
LINE
  8
0
 62
2
  6
CONTINUOUS
 10
252.0799128127
 20
19.15311833
 11
379.6848378241
 21
146.7580433414
  0
LINE
  8
0
 62
2
  6
CONTINUOUS
 10
252.0799128127
 20
7.839409831
 11
390.9985463231
 21
146.7580433414
  0
LINE
  8
0
 62
2
  6
CONTINUOUS
 10
252.0799128127
 20
-3.474298668
 11
402.3122548221
 21
146.7580433414
  0
LINE
  8
0
 62
2
  6
CONTINUOUS
 10
252.0799128127
 20
-14.788007167
 11
413.6259633211
 21
146.7580433414
  0
LINE
  8
0
 62
2
  6
CONTINUOUS
 10
252.0799128127
 20
-26.101715666
 11
424.9396718201
 21
146.7580433414
  0
LINE
  8
0
 62
2
  6
CONTINUOUS
 10
252.0799128127
 20
-37.4154241649
 11
436.2533803191
 21
146.7580433414
  0
LINE
  8
0
 62
2
  6
CONTINUOUS
 10
252.0799128127
 20
-48.7291326639
 11
447.567088818
 21
146.7580433414
  0
LINE
  8
0
 62
2
  6
CONTINUOUS
 10
252.0799128127
 20
-60.0428411629
 11
458.880797317
 21
146.7580433414
  0
LINE
  8
0
 62
2
  6
CONTINUOUS
 10
252.0799128127
 20
-71.3565496619
 11
467.0799128127
 21
143.6434503381
  0
LINE
  8
0
 62
7
  6
CONTINUOUS
 10
467.0799128127
 20
-473.2419566586
 11
467.0799128127
 21
146.7580433414
  0
LINE
  8
0
 62
2
  6
CONTINUOUS
 10
252.0799128127
 20
-82.6702581609
 11
467.0799128127
 21
132.3297418391
  0
LINE
  8
0
 62
2
  6
CONTINUOUS
 10
252.0799128127
 20
-93.9839666599
 11
467.0799128127
 21
121.0160333401
  0
LINE
  8
0
 62
2
  6
CONTINUOUS
 10
252.0799128127
 20
-105.2976751589
 11
467.0799128127
 21
109.7023248411
  0
LINE
  8
0
 62
2
  6
CONTINUOUS
 10
252.0799128127
 20
-116.6113836578
 11
467.0799128127
 21
98.3886163422
  0
LINE
  8
0
 62
2
  6
CONTINUOUS
 10
252.0799128127
 20
-127.9250921568
 11
467.0799128127
 21
87.0749078432
  0
LINE
  8
0
 62
2
  6
CONTINUOUS
 10
252.0799128127
 20
-139.2388006558
 11
467.0799128127
 21
75.7611993442
  0
LINE
  8
0
 62
2
  6
CONTINUOUS
 10
252.0799128127
 20
-150.5525091548
 11
467.0799128127
 21
64.4474908452
  0
LINE
  8
0
 62
2
  6
CONTINUOUS
 10
252.0799128127
 20
-161.8662176538
 11
467.0799128127
 21
53.1337823462
  0
LINE
  8
0
 62
2
  6
CONTINUOUS
 10
252.0799128127
 20
-173.1799261528
 11
467.0799128127
 21
41.8200738472
  0
LINE
  8
0
 62
2
  6
CONTINUOUS
 10
252.0799128127
 20
-184.4936346518
 11
467.0799128127
 21
30.5063653482
  0
LINE
  8
0
 62
2
  6
CONTINUOUS
 10
252.0799128127
 20
-195.8073431507
 11
467.0799128127
 21
19.1926568493
  0
LINE
  8
0
 62
2
  6
CONTINUOUS
 10
252.0799128127
 20
-207.1210516497
 11
467.0799128127
 21
7.8789483503
  0
LINE
  8
0
 62
2
  6
CONTINUOUS
 10
252.0799128127
 20
-218.4347601487
 11
467.0799128127
 21
-3.4347601487
  0
LINE
  8
0
 62
2
  6
CONTINUOUS
 10
252.0799128127
 20
-229.7484686477
 11
467.0799128127
 21
-14.7484686477
  0
LINE
  8
0
 62
2
  6
CONTINUOUS
 10
252.0799128127
 20
-241.0621771467
 11
467.0799128127
 21
-26.0621771467
  0
LINE
  8
0
 62
2
  6
CONTINUOUS
 10
252.0799128127
 20
-252.3758856457
 11
467.0799128127
 21
-37.3758856457
  0
LINE
  8
0
 62
2
  6
CONTINUOUS
 10
252.0799128127
 20
-263.6895941446
 11
467.0799128127
 21
-48.6895941446
  0
LINE
  8
0
 62
2
  6
CONTINUOUS
 10
252.0799128127
 20
-275.0033026436
 11
467.0799128127
 21
-60.0033026436
  0
LINE
  8
0
 62
2
  6
CONTINUOUS
 10
252.0799128127
 20
-286.3170111426
 11
467.0799128127
 21
-71.3170111426
  0
LINE
  8
0
 62
2
  6
CONTINUOUS
 10
252.0799128127
 20
-297.6307196416
 11
467.0799128127
 21
-82.6307196416
  0
LINE
  8
0
 62
2
  6
CONTINUOUS
 10
252.0799128127
 20
-308.9444281406
 11
467.0799128127
 21
-93.9444281406
  0
LINE
  8
0
 62
2
  6
CONTINUOUS
 10
252.0799128127
 20
-320.2581366396
 11
467.0799128127
 21
-105.2581366396
  0
LINE
  8
0
 62
2
  6
CONTINUOUS
 10
252.0799128127
 20
-331.5718451386
 11
467.0799128127
 21
-116.5718451386
  0
LINE
  8
0
 62
2
  6
CONTINUOUS
 10
252.0799128127
 20
-342.8855536375
 11
467.0799128127
 21
-127.8855536375
  0
LINE
  8
0
 62
2
  6
CONTINUOUS
 10
252.0799128127
 20
-354.1992621365
 11
467.0799128127
 21
-139.1992621365
  0
LINE
  8
0
 62
2
  6
CONTINUOUS
 10
252.0799128127
 20
-365.5129706355
 11
467.0799128127
 21
-150.5129706355
  0
LINE
  8
0
 62
2
  6
CONTINUOUS
 10
252.0799128127
 20
-376.8266791345
 11
467.0799128127
 21
-161.8266791345
  0
LINE
  8
0
 62
2
  6
CONTINUOUS
 10
252.0799128127
 20
-388.1403876335
 11
467.0799128127
 21
-173.1403876335
  0
LINE
  8
0
 62
2
  6
CONTINUOUS
 10
252.0799128127
 20
-399.4540961325
 11
467.0799128127
 21
-184.4540961325
  0
LINE
  8
0
 62
2
  6
CONTINUOUS
 10
252.0799128127
 20
-410.7678046314
 11
467.0799128127
 21
-195.7678046314
  0
LINE
  8
0
 62
2
  6
CONTINUOUS
 10
252.0799128127
 20
-422.0815131304
 11
467.0799128127
 21
-207.0815131304
  0
LINE
  8
0
 62
2
  6
CONTINUOUS
 10
252.0799128127
 20
-433.3952216294
 11
467.0799128127
 21
-218.3952216294
  0
LINE
  8
0
 62
2
  6
CONTINUOUS
 10
252.0799128127
 20
-444.7089301284
 11
467.0799128127
 21
-229.7089301284
  0
LINE
  8
0
 62
2
  6
CONTINUOUS
 10
252.0799128127
 20
-456.0226386274
 11
467.0799128127
 21
-241.0226386274
  0
LINE
  8
0
 62
2
  6
CONTINUOUS
 10
252.0799128127
 20
-467.3363471264
 11
467.0799128127
 21
-252.3363471264
  0
LINE
  8
0
 62
2
  6
CONTINUOUS
 10
257.4880117795
 20
-473.2419566586
 11
467.0799128127
 21
-263.6500556254
  0
LINE
  8
0
 62
2
  6
CONTINUOUS
 10
268.8017202784
 20
-473.2419566586
 11
467.0799128127
 21
-274.9637641243
  0
LINE
  8
0
 62
2
  6
CONTINUOUS
 10
280.1154287774
 20
-473.2419566586
 11
467.0799128127
 21
-286.2774726233
  0
LINE
  8
0
 62
2
  6
CONTINUOUS
 10
291.4291372764
 20
-473.2419566586
 11
467.0799128127
 21
-297.5911811223
  0
LINE
  8
0
 62
2
  6
CONTINUOUS
 10
302.7428457754
 20
-473.2419566586
 11
467.0799128127
 21
-308.9048896213
  0
LINE
  8
0
 62
2
  6
CONTINUOUS
 10
314.0565542744
 20
-473.2419566586
 11
467.0799128127
 21
-320.2185981203
  0
LINE
  8
0
 62
2
  6
CONTINUOUS
 10
325.3702627734
 20
-473.2419566586
 11
467.0799128127
 21
-331.5323066193
  0
LINE
  8
0
 62
2
  6
CONTINUOUS
 10
336.6839712723
 20
-473.2419566586
 11
467.0799128127
 21
-342.8460151182
  0
LINE
  8
0
 62
2
  6
CONTINUOUS
 10
347.9976797713
 20
-473.2419566586
 11
467.0799128127
 21
-354.1597236172
  0
LINE
  8
0
 62
2
  6
CONTINUOUS
 10
359.3113882703
 20
-473.2419566586
 11
467.0799128127
 21
-365.4734321162
  0
LINE
  8
0
 62
2
  6
CONTINUOUS
 10
370.6250967693
 20
-473.2419566586
 11
467.0799128127
 21
-376.7871406152
  0
LINE
  8
0
 62
2
  6
CONTINUOUS
 10
381.9388052683
 20
-473.2419566586
 11
467.0799128127
 21
-388.1008491142
  0
LINE
  8
0
 62
2
  6
CONTINUOUS
 10
393.2525137673
 20
-473.2419566586
 11
467.0799128127
 21
-399.4145576132
  0
LINE
  8
0
 62
2
  6
CONTINUOUS
 10
404.5662222663
 20
-473.2419566586
 11
467.0799128127
 21
-410.7282661122
  0
LINE
  8
0
 62
2
  6
CONTINUOUS
 10
415.8799307652
 20
-473.2419566586
 11
467.0799128127
 21
-422.0419746111
  0
LINE
  8
0
 62
2
  6
CONTINUOUS
 10
427.1936392642
 20
-473.2419566586
 11
467.0799128127
 21
-433.3556831101
  0
LINE
  8
0
 62
2
  6
CONTINUOUS
 10
438.5073477632
 20
-473.2419566586
 11
467.0799128127
 21
-444.6693916091
  0
LINE
  8
0
 62
2
  6
CONTINUOUS
 10
449.8210562622
 20
-473.2419566586
 11
467.0799128127
 21
-455.9831001081
  0
LINE
  8
0
 62
2
  6
CONTINUOUS
 10
461.1347647612
 20
-473.2419566586
 11
467.0799128127
 21
-467.2968086071
  0
LINE
  8
0
 62
7
  6
CONTINUOUS
 10
-44.6200871873
 20
584.7580433414
 11
260.9799128127
 21
584.7580433414
  0
LINE
  8
0
 62
7
  6
CONTINUOUS
 10
260.9799128127
 20
944.7580433414
 11
-44.6200871873
 21
944.7580433414
  0
LINE
  8
0
 62
7
  6
CONTINUOUS
 10
-92.7200871873
 20
-515.2419566586
 11
516.8799128127
 21
-515.2419566586
  0
LINE
  8
0
 62
7
  6
CONTINUOUS
 10
252.0799128127
 20
-473.2419566586
 11
467.0799128127
 21
-473.2419566586
  0
LINE
  8
0
 62
7
  6
CONTINUOUS
 10
-92.7200871873
 20
1008.7580433414
 11
-92.7200871873
 21
-515.2419566586
  0
LINE
  8
0
 62
7
  6
CONTINUOUS
 10
-44.6200871873
 20
944.7580433414
 11
-44.6200871873
 21
584.7580433414
  0
LINE
  8
0
 62
7
  6
CONTINUOUS
 10
252.0799128127
 20
146.7580433414
 11
467.0799128127
 21
146.7580433414
  0
LINE
  8
0
 62
7
  6
CONTINUOUS
 10
252.0799128127
 20
146.7580433414
 11
252.0799128127
 21
-473.2419566586
  0
LINE
  8
0
 62
7
  6
CONTINUOUS
 10
260.9799128127
 20
584.7580433414
 11
260.9799128127
 21
944.7580433414
  0
LINE
  8
0
 62
7
  6
CONTINUOUS
 10
467.0799128127
 20
-473.2419566586
 11
467.0799128127
 21
146.7580433414
  0
LINE
  8
0
 62
7
  6
CONTINUOUS
 10
516.8799128127
 20
-515.2419566586
 11
516.8799128127
 21
1008.7580433414
  0
LINE
  8
0
 62
7
  6
CONTINUOUS
 10
-44.6200871873
 20
584.7580433414
 11
260.9799128127
 21
584.7580433414
  0
LINE
  8
0
 62
7
  6
CONTINUOUS
 10
260.9799128127
 20
944.7580433414
 11
-44.6200871873
 21
944.7580433414
  0
LINE
  8
0
 62
7
  6
CONTINUOUS
 10
516.8799128127
 20
1008.7580433414
 11
-92.7200871873
 21
1008.7580433414
  0
CIRCLE
  8
0
 62
7
  6
CONTINUOUS
 10
326.3799128127
 20
990.5580433414
 40
3.5
  0
CIRCLE
  8
0
 62
7
  6
CONTINUOUS
 10
489.0799128127
 20
706.6580433414
 40
3.5
  0
CIRCLE
  8
0
 62
7
  6
CONTINUOUS
 10
489.0799128127
 20
478.0580433414
 40
3.5
  0
CIRCLE
  8
0
 62
7
  6
CONTINUOUS
 10
489.0799128127
 20
205.4580433414
 40
3.5
  0
CIRCLE
  8
0
 62
7
  6
CONTINUOUS
 10
489.0799128127
 20
11.4580433414
 40
3.5
  0
CIRCLE
  8
0
 62
7
  6
CONTINUOUS
 10
489.0799128127
 20
-221.9419566586
 40
3.5
  0
CIRCLE
  8
0
 62
7
  6
CONTINUOUS
 10
489.0799128127
 20
944.7580433414
 40
3.5
  0
CIRCLE
  8
0
 62
7
  6
CONTINUOUS
 10
97.7799128127
 20
990.5580433414
 40
3.5
  0
CIRCLE
  8
0
 62
7
  6
CONTINUOUS
 10
-64.9200871873
 20
706.6580433414
 40
3.5
  0
CIRCLE
  8
0
 62
7
  6
CONTINUOUS
 10
-64.9200871873
 20
478.0580433414
 40
3.5
  0
CIRCLE
  8
0
 62
7
  6
CONTINUOUS
 10
-64.9200871873
 20
205.4580433414
 40
3.5
  0
CIRCLE
  8
0
 62
7
  6
CONTINUOUS
 10
-64.9200871873
 20
11.4580433414
 40
3.5
  0
CIRCLE
  8
0
 62
7
  6
CONTINUOUS
 10
-64.9200871873
 20
-221.9419566586
 40
3.5
  0
CIRCLE
  8
0
 62
7
  6
CONTINUOUS
 10
326.3799128127
 20
-497.0419566586
 40
3.5
  0
CIRCLE
  8
0
 62
7
  6
CONTINUOUS
 10
97.7799128127
 20
-497.0419566586
 40
3.5
  0
CIRCLE
  8
0
 62
7
  6
CONTINUOUS
 10
489.0799128127
 20
-455.2419566586
 40
3.5
  0
CIRCLE
  8
0
 62
7
  6
CONTINUOUS
 10
-64.9200871873
 20
944.7580433414
 40
3.5
  0
CIRCLE
  8
0
 62
7
  6
CONTINUOUS
 10
-64.9200871873
 20
-455.2419566586
 40
3.5
  0
ENDSEC
  0
EOF
