  0
SECTION
  2
HEADER
  9
$ACADVER
  1
AC1009
  9
$DWGCODEPAGE
  3
ansi_1252
  9
$INSBASE
 10
0.0
 20
0.0
 30
0.0
  9
$EXTMIN
 10
81.54351413624369
 20
97.4888115104282
 30
0.0
  9
$EXTMAX
 10
1436.424295602861
 20
2047.488811510428
 30
0.0
  9
$LIMMIN
 10
0.0
 20
0.0
  9
$LIMMAX
 10
594.0
 20
420.0
  9
$ORTHOMODE
 70
     1
  9
$REGENMODE
 70
     1
  9
$FILLMODE
 70
     1
  9
$QTEXTMODE
 70
     0
  9
$MIRRTEXT
 70
     1
  9
$DRAGMODE
 70
     2
  9
$LTSCALE
 40
32.67
  9
$OSMODE
 70
 15359
  9
$ATTMODE
 70
     1
  9
$TEXTSIZE
 40
0.2
  9
$TRACEWID
 40
0.05
  9
$TEXTSTYLE
  7
STANDARD
  9
$CLAYER
  8
DIMENSIONS
  9
$CELTYPE
  6
BYBLOCK
  9
$CECOLOR
 62
   256
  9
$DIMSCALE
 40
1.0
  9
$DIMASZ
 40
5.0
  9
$DIMEXO
 40
1.5
  9
$DIMDLI
 40
1.0
  9
$DIMRND
 40
0.0
  9
$DIMDLE
 40
0.0
  9
$DIMEXE
 40
0.18
  9
$DIMTP
 40
0.0
  9
$DIMTM
 40
0.0
  9
$DIMTXT
 40
5.0
  9
$DIMCEN
 40
2.5
  9
$DIMTSZ
 40
0.0
  9
$DIMTOL
 70
     0
  9
$DIMLIM
 70
     0
  9
$DIMTIH
 70
     0
  9
$DIMTOH
 70
     0
  9
$DIMSE1
 70
     0
  9
$DIMSE2
 70
     0
  9
$DIMTAD
 70
     1
  9
$DIMZIN
 70
     8
  9
$DIMBLK
  1

  9
$DIMASO
 70
     1
  9
$DIMSHO
 70
     1
  9
$DIMPOST
  1

  9
$DIMAPOST
  1

  9
$DIMALT
 70
     1
  9
$DIMALTD
 70
     2
  9
$DIMALTF
 40
0.03937
  9
$DIMLFAC
 40
1.0
  9
$DIMTOFL
 70
     0
  9
$DIMTVP
 40
0.0
  9
$DIMTIX
 70
     0
  9
$DIMSOXD
 70
     0
  9
$DIMSAH
 70
     0
  9
$DIMBLK1
  1

  9
$DIMBLK2
  1

  9
$DIMSTYLE
  2
DUAL-DIM
  9
$DIMCLRD
 70
     0
  9
$DIMCLRE
 70
     0
  9
$DIMCLRT
 70
     5
  9
$DIMTFAC
 40
1.0
  9
$DIMGAP
 40
1.0
  9
$LUNITS
 70
     2
  9
$LUPREC
 70
     4
  9
$SKETCHINC
 40
0.1
  9
$FILLETRAD
 40
15.0
  9
$AUNITS
 70
     0
  9
$AUPREC
 70
     0
  9
$MENU
  1
.
  9
$ELEVATION
 40
0.0
  9
$PELEVATION
 40
0.0
  9
$THICKNESS
 40
0.0
  9
$LIMCHECK
 70
     0
  9
$CHAMFERA
 40
0.0
  9
$CHAMFERB
 40
0.0
  9
$SKPOLY
 70
     0
  9
$TDCREATE
 40
2457428.354677859
  9
$TDUPDATE
 40
2458778.626477419
  9
$TDINDWG
 40
0.1365919213
  9
$TDUSRTIMER
 40
0.0003041319
  9
$USRTIMER
 70
     1
  9
$ANGBASE
 50
0.0
  9
$ANGDIR
 70
     0
  9
$PDMODE
 70
     3
  9
$PDSIZE
 40
0.3125
  9
$PLINEWID
 40
0.0
  9
$COORDS
 70
     1
  9
$SPLFRAME
 70
     0
  9
$SPLINETYPE
 70
     6
  9
$SPLINESEGS
 70
     8
  9
$ATTDIA
 70
     0
  9
$ATTREQ
 70
     1
  9
$HANDLING
 70
     1
  9
$HANDSEED
  5
4603
  9
$SURFTAB1
 70
     6
  9
$SURFTAB2
 70
     6
  9
$SURFTYPE
 70
     6
  9
$SURFU
 70
     6
  9
$SURFV
 70
     6
  9
$UCSNAME
  2

  9
$UCSORG
 10
0.0
 20
0.0
 30
0.0
  9
$UCSXDIR
 10
1.0
 20
0.0
 30
0.0
  9
$UCSYDIR
 10
0.0
 20
1.0
 30
0.0
  9
$PUCSNAME
  2

  9
$PUCSORG
 10
0.0
 20
0.0
 30
0.0
  9
$PUCSXDIR
 10
1.0
 20
0.0
 30
0.0
  9
$PUCSYDIR
 10
0.0
 20
1.0
 30
0.0
  9
$USERI1
 70
     0
  9
$USERI2
 70
     0
  9
$USERI3
 70
     0
  9
$USERI4
 70
     0
  9
$USERI5
 70
     0
  9
$USERR1
 40
0.0
  9
$USERR2
 40
0.0
  9
$USERR3
 40
0.0
  9
$USERR4
 40
0.0
  9
$USERR5
 40
0.0
  9
$WORLDVIEW
 70
     1
  9
$SHADEDGE
 70
     3
  9
$SHADEDIF
 70
    70
  9
$TILEMODE
 70
     1
  9
$MAXACTVP
 70
    64
  9
$PLIMCHECK
 70
     0
  9
$PEXTMIN
 10
1.05
 20
0.6999999999999997
 30
0.0
  9
$PEXTMAX
 10
9.45
 20
6.300000000000001
 30
0.0
  9
$PLIMMIN
 10
0.0
 20
0.0
  9
$PLIMMAX
 10
0.0
 20
0.0
  9
$UNITMODE
 70
     0
  9
$VISRETAIN
 70
     1
  9
$PLINEGEN
 70
     0
  9
$PSLTSCALE
 70
     1
  0
ENDSEC
  0
SECTION
  2
TABLES
  0
TABLE
  2
VPORT
 70
     1
  0
VPORT
  2
*ACTIVE
 70
     0
 10
0.0
 20
0.0
 11
1.0
 21
1.0
 12
758.9839048695524
 22
1072.488811510428
 13
0.0
 23
0.0
 14
0.5
 24
0.5
 15
0.5
 25
0.5
 16
0.0
 26
0.0
 36
1.0
 17
0.0
 27
0.0
 37
0.0
 40
1989.0
 41
1.929555895865237
 42
50.0
 43
0.0
 44
0.0
 50
0.0
 51
0.0
 71
    16
 72
   100
 73
     1
 74
     3
 75
     0
 76
     0
 77
     0
 78
     0
  0
ENDTAB
  0
TABLE
  2
LTYPE
 70
     7
  0
LTYPE
  2
CONTINUOUS
 70
     0
  3
Solid line
 72
    65
 73
     0
 40
0.0
  0
LTYPE
  2
CENTER
 70
     0
  3
____ _ ____ _ ____ _ ____ _ ____ _ ____ _ ____
 72
    65
 73
     4
 40
0.6
 49
0.375
 49
-0.075
 49
0.075
 49
-0.075
  0
LTYPE
  2
HIDDEN
 70
     0
  3
- - - - - - - - - - - - - - - - - - - -
 72
    65
 73
     2
 40
0.2
 49
0.1
 49
-0.1
  0
LTYPE
  2
PHANTOM
 70
     0
  3
_____ _ _ _____ _ _ _____ _ _ _____
 72
    65
 73
     6
 40
0.8
 49
0.45
 49
-0.05
 49
0.1
 49
-0.05
 49
0.1
 49
-0.05
  0
LTYPE
  2
DOT
 70
     0
  3
. . . . . . . . . . . . . . . . . . . .
 72
    65
 73
     2
 40
0.2
 49
0.1
 49
-0.1
  0
LTYPE
  2
DASHED
 70
     0
  3
- - - - - - - - - - - - - - - - - - - -
 72
    65
 73
     2
 40
0.2
 49
0.1
 49
-0.1
  0
LTYPE
  2
STRICHPUNKT
 70
     0
  3
__ . __ . __ . __ . __ . __ . __ . __ . __ . __
 72
    65
 73
     4
 40
1.0
 49
0.5
 49
-0.25
 49
0.0
 49
-0.25
  0
ENDTAB
  0
TABLE
  2
LAYER
 70
    22
  0
LAYER
  2
0
 70
     0
 62
     7
  6
CONTINUOUS
  0
LAYER
  2
DEFAULT_1
 70
     0
 62
     7
  6
CENTER
  0
LAYER
  2
DEFAULT_2
 70
     0
 62
     7
  6
HIDDEN
  0
LAYER
  2
DEFAULT_3
 70
     0
 62
     7
  6
PHANTOM
  0
LAYER
  2
01___PRT_ALL_DTM_PLN
 70
     0
 62
     7
  6
CONTINUOUS
  0
LAYER
  2
01___PRT_DEF_DTM_PLN
 70
     0
 62
     7
  6
CONTINUOUS
  0
LAYER
  2
02___PRT_ALL_AXES
 70
     0
 62
     7
  6
CONTINUOUS
  0
LAYER
  2
03___PRT_ALL_CURVES
 70
     0
 62
     7
  6
CONTINUOUS
  0
LAYER
  2
04___PRT_ALL_DTM_PNT
 70
     0
 62
     7
  6
CONTINUOUS
  0
LAYER
  2
05___PRT_ALL_DTM_CSYS
 70
     0
 62
     7
  6
CONTINUOUS
  0
LAYER
  2
05___PRT_DEF_DTM_CSYS
 70
     0
 62
     7
  6
CONTINUOUS
  0
LAYER
  2
06___PRT_ALL_SURFS
 70
     0
 62
     7
  6
CONTINUOUS
  0
LAYER
  2
DEFPOINTS
 70
     0
 62
     7
  6
CONTINUOUS
  0
LAYER
  2
DIMENSIONS
 70
     0
 62
     2
  6
CONTINUOUS
  0
LAYER
  2
AM_5
 70
     0
 62
     3
  6
CONTINUOUS
  0
LAYER
  2
CUTOUT
 70
     0
 62
     7
  6
CONTINUOUS
  0
LAYER
  2
EXTERNAL_OUTFIT
 70
     0
 62
     7
  6
CENTER
  0
LAYER
  2
OUTLINES
 70
     0
 62
     4
  6
CONTINUOUS
  0
LAYER
  2
3
 70
     0
 62
     4
  6
CONTINUOUS
  0
LAYER
  2
CENTERS
 70
     0
 62
     3
  6
CENTER
  0
LAYER
  2
TEXT
 70
     0
 62
   171
  6
CONTINUOUS
  0
LAYER
  2
OC-5725_30_40
 70
     0
 62
     4
  6
CONTINUOUS
  0
ENDTAB
  0
TABLE
  2
STYLE
 70
     3
  0
STYLE
  2
STANDARD
 70
     0
 40
0.0
 41
1.0
 50
0.0
 71
     0
 42
0.2
  3
arial.ttf
  4

  0
STYLE
  2
TEXTSTYLE_1
 70
     0
 40
0.0
 41
0.8
 50
0.0
 71
     0
 42
0.2
  3
gdt
  4

  0
STYLE
  2
TEXTSTYLE_2
 70
     0
 40
0.0
 41
1.0
 50
0.0
 71
     0
 42
0.2
  3
arial.ttf
  4

  0
ENDTAB
  0
TABLE
  2
VIEW
 70
     0
  0
ENDTAB
  0
TABLE
  2
UCS
 70
     0
  0
ENDTAB
  0
TABLE
  2
APPID
 70
    17
  0
APPID
  2
ACAD
 70
     0
  0
APPID
  2
ACAECLAYERSTANDARD
 70
     0
  0
APPID
  2
ACAD_DSTYLE_DIMRADIAL_EXTE
 70
     0
  0
APPID
  2
ACAD_DSTYLE_DIMJOGGED_JOGA
 70
     0
  0
APPID
  2
ACAD_DSTYLE_DIMJAG
 70
     0
  0
APPID
  2
ACAD_DSTYLE_DIMBREAK
 70
     0
  0
APPID
  2
ACAD_PSEXT
 70
     0
  0
APPID
  2
ACAD_DSTYLE_DIMINSPECT
 70
     0
  0
APPID
  2
ACAD_DSTYLE_DIMRADIAL_EXT0
 70
     0
  0
APPID
  2
ACAD_DSTYLE_DIMJOGGED_JOG0
 70
     0
  0
APPID
  2
PLOTTRANSPARENCY
 70
     0
  0
APPID
  2
ACAD_DSTYLE_DIMRADIAL_EXT1
 70
     0
  0
APPID
  2
ACADANNOTATIVE
 70
     0
  0
APPID
  2
ACAD_NAV_VCDISPLAY
 70
     0
  0
APPID
  2
ACAD_MLEADERVER
 70
     0
  0
APPID
  2
ACAD_DSTYLE_DIMRADIAL_EXT2
 70
     0
  0
APPID
  2
ACAD_DSTYLE_DIMRADIAL_EXT3
 70
     0
  0
ENDTAB
  0
TABLE
  2
DIMSTYLE
 70
     6
  0
DIMSTYLE
  2
STANDARD
 70
     0
  3

  4

  5

  6

  7

 40
1.0
 41
0.18
 42
0.0625
 43
0.38
 44
0.18
 45
0.0
 46
0.0
 47
0.0
 48
0.0
140
0.18
141
0.09
142
0.0
143
25.4
144
1.0
145
0.0
146
1.0
147
0.09
 71
     0
 72
     0
 73
     1
 74
     1
 75
     0
 76
     0
 77
     0
 78
     0
170
     0
171
     2
172
     0
173
     0
174
     0
175
     0
176
     0
177
     0
178
     0
  0
DIMSTYLE
  2
DUAL-DIM
 70
     0
  3

  4

  5

  6

  7

 40
1.0
 41
5.0
 42
1.5
 43
1.0
 44
0.18
 45
0.0
 46
0.0
 47
0.0
 48
0.0
140
5.0
141
2.5
142
0.0
143
0.03937
144
1.0
145
0.0
146
1.0
147
1.0
 71
     0
 72
     0
 73
     0
 74
     0
 75
     0
 76
     0
 77
     1
 78
     8
170
     1
171
     2
172
     0
173
     0
174
     0
175
     0
176
     0
177
     0
178
     5
  0
DIMSTYLE
  2
AM_ISO
 70
     0
  3

  4
"
  5

  6

  7

 40
1.0
 41
3.5
 42
1.0
 43
10.0
 44
1.0
 45
0.0
 46
0.0
 47
0.1
 48
0.1
140
3.5
141
0.0
142
0.0
143
0.0393701
144
1.0
145
0.0
146
0.71
147
1.5
 71
     0
 72
     0
 73
     0
 74
     0
 75
     0
 76
     0
 77
     1
 78
     8
170
     0
171
     2
172
     1
173
     0
174
     0
175
     0
176
   256
177
   256
178
     2
  0
DIMSTYLE
  2
AM_ISO$3
 70
     0
  3

  4
"
  5

  6

  7

 40
1.0
 41
3.5
 42
1.0
 43
10.0
 44
1.0
 45
0.0
 46
0.0
 47
0.1
 48
0.1
140
3.5
141
0.0
142
0.0
143
0.0393701
144
1.0
145
0.0
146
0.71
147
1.5
 71
     0
 72
     0
 73
     0
 74
     1
 75
     0
 76
     0
 77
     1
 78
     8
170
     0
171
     2
172
     0
173
     0
174
     0
175
     0
176
   256
177
   256
178
     2
  0
DIMSTYLE
  2
AM_ISO$0
 70
     0
  3

  4
"
  5

  6

  7

 40
1.0
 41
3.5
 42
1.0
 43
10.0
 44
1.0
 45
0.0
 46
0.0
 47
0.1
 48
0.1
140
3.5
141
0.0
142
0.0
143
0.0393701
144
1.0
145
0.0
146
0.71
147
1.5
 71
     0
 72
     0
 73
     0
 74
     0
 75
     0
 76
     0
 77
     1
 78
     8
170
     0
171
     2
172
     1
173
     0
174
     0
175
     0
176
   256
177
   256
178
     2
  0
DIMSTYLE
  2
DIMS_1000_W_
 70
     0
  3
<> mm
  4
<>"
  5

  6

  7

 40
1.0
 41
5.0
 42
0.5
 43
7.0
 44
0.5
 45
0.0
 46
0.0
 47
0.0
 48
0.0
140
7.0
141
5.0
142
0.0
143
0.0394
144
1.0
145
0.0
146
0.7142857142857143
147
0.5
 71
     0
 72
     0
 73
     0
 74
     0
 75
     0
 76
     0
 77
     1
 78
     8
170
     1
171
     2
172
     0
173
     0
174
     0
175
     0
176
   256
177
   256
178
     6
  0
ENDTAB
  0
ENDSEC
  0
SECTION
  2
BLOCKS
  0
BLOCK
  8
0
  2
$MODEL_SPACE
 70
     0
 10
0.0
 20
0.0
 30
0.0
  3
$MODEL_SPACE
  1

  0
ENDBLK
  5
110
  8
0
  0
BLOCK
 67
     1
  8
0
  2
$PAPER_SPACE
 70
     0
 10
0.0
 20
0.0
 30
0.0
  3
$PAPER_SPACE
  1

  0
ENDBLK
  5
112
 67
     1
  8
0
  0
BLOCK
  8
0
  2
_FILLED
 70
     0
 10
0.0
 20
0.0
 30
0.0
  3
_FILLED
  1

  0
SOLID
  5
3D
  8
0
  6
BYBLOCK
 62
     0
 10
0.0
 20
0.0
 30
0.0
 11
-1.0
 21
0.2
 31
0.0
 12
-1.0
 22
-0.2
 32
0.0
 13
-1.0
 23
-0.2
 33
0.0
  0
ENDBLK
  5
3E
  8
0
  6
BYBLOCK
 62
     0
  0
BLOCK
  8
0
  2
*D1
 70
     1
 10
0.0
 20
0.0
 30
0.0
  3
*D1
  1

  0
LINE
  5
363F
  8
DIMENSIONS
  6
BYBLOCK
 62
     0
 10
166.1742888745337
 20
1999.199947470358
 30
0.0
 11
133.9339242955317
 21
1999.199947470358
 31
0.0
  0
LINE
  5
3640
  8
DIMENSIONS
  6
BYBLOCK
 62
     0
 10
166.1742888745337
 20
649.1999474703578
 30
0.0
 11
133.9339242955317
 21
649.1999474703578
 31
0.0
  0
LINE
  5
3641
  8
DIMENSIONS
  6
BYBLOCK
 62
     0
 10
134.1139242955317
 20
1994.199947470358
 30
0.0
 11
134.1139242955317
 21
654.1999474703578
 31
0.0
  0
SOLID
  5
3642
  8
DIMENSIONS
 62
     0
 10
134.947257628865
 20
1994.199947470358
 30
0.0
 11
133.2805909621983
 21
1994.199947470358
 31
0.0
 12
134.1139242955317
 22
1999.199947470358
 32
0.0
 13
134.1139242955317
 23
1999.199947470358
 33
0.0
  0
SOLID
  5
3643
  8
DIMENSIONS
 62
     0
 10
133.2805909621983
 20
654.1999474703578
 30
0.0
 11
134.947257628865
 21
654.1999474703578
 31
0.0
 12
134.1139242955317
 22
649.1999474703578
 32
0.0
 13
134.1139242955317
 23
649.1999474703578
 33
0.0
  0
TEXT
  5
3644
  8
DIMENSIONS
  6
CONTINUOUS
 62
     5
 10
131.7189242955315
 20
1304.647447470358
 30
0.0
 40
5.0
  1
1350 [53.15]
 50
90.0
  0
POINT
  5
3645
  8
DEFPOINTS
 62
     0
 10
167.6742888745337
 20
1999.199947470358
 30
0.0
  0
POINT
  5
3646
  8
DEFPOINTS
 62
     0
 10
167.6742888745337
 20
649.1999474703578
 30
0.0
  0
POINT
  5
3647
  8
DEFPOINTS
 62
     0
 10
134.1139242955317
 20
649.1999474703578
 30
0.0
  0
ENDBLK
  5
363E
  8
0
  0
BLOCK
  8
0
  2
*D2
 70
     1
 10
0.0
 20
0.0
 30
0.0
  3
*D2
  1

  0
LINE
  5
364E
  8
DIMENSIONS
  6
BYBLOCK
 62
     0
 10
167.6742888745337
 20
2000.699947470358
 30
0.0
 11
167.6742888745337
 21
2038.207615583009
 31
0.0
  0
LINE
  5
364F
  8
DIMENSIONS
  6
BYBLOCK
 62
     0
 10
562.6742888745337
 20
2000.699947470358
 30
0.0
 11
562.6742888745337
 21
2038.207615583009
 31
0.0
  0
LINE
  5
3650
  8
DIMENSIONS
  6
BYBLOCK
 62
     0
 10
172.6742888745337
 20
2038.027615583009
 30
0.0
 11
557.6742888745337
 21
2038.027615583009
 31
0.0
  0
SOLID
  5
3651
  8
DIMENSIONS
 62
     0
 10
172.6742888745337
 20
2038.860948916342
 30
0.0
 11
172.6742888745337
 21
2037.194282249676
 31
0.0
 12
167.6742888745337
 22
2038.027615583009
 32
0.0
 13
167.6742888745337
 23
2038.027615583009
 33
0.0
  0
SOLID
  5
3652
  8
DIMENSIONS
 62
     0
 10
557.6742888745337
 20
2037.194282249676
 30
0.0
 11
557.6742888745337
 21
2038.860948916342
 31
0.0
 12
562.6742888745337
 22
2038.027615583009
 32
0.0
 13
562.6742888745337
 23
2038.027615583009
 33
0.0
  0
TEXT
  5
3653
  8
DIMENSIONS
  6
CONTINUOUS
 62
     5
 10
347.7942888745337
 20
2040.422615583009
 30
0.0
 40
5.0
  1
395 [15.55]
  0
POINT
  5
3654
  8
DEFPOINTS
 62
     0
 10
167.6742888745337
 20
1999.199947470358
 30
0.0
  0
POINT
  5
3655
  8
DEFPOINTS
 62
     0
 10
562.6742888745337
 20
1999.199947470358
 30
0.0
  0
POINT
  5
3656
  8
DEFPOINTS
 62
     0
 10
562.6742888745337
 20
2038.027615583009
 30
0.0
  0
ENDBLK
  5
364D
  8
0
  0
BLOCK
  8
0
  2
*D3
 70
     1
 10
0.0
 20
0.0
 30
0.0
  3
*D3
  1

  0
LINE
  5
3690
  8
DIMENSIONS
  6
BYBLOCK
 62
     0
 10
564.1742888745337
 20
1999.199947470358
 30
0.0
 11
592.9775455485664
 21
1999.199947470358
 31
0.0
  0
LINE
  5
3691
  8
DIMENSIONS
  6
BYBLOCK
 62
     0
 10
514.1742888745337
 20
1969.199947470358
 30
0.0
 11
592.9775455485664
 21
1969.199947470358
 31
0.0
  0
LINE
  5
3692
  8
DIMENSIONS
  6
BYBLOCK
 62
     0
 10
592.7975455485664
 20
1994.199947470358
 30
0.0
 11
592.7975455485664
 21
1974.199947470358
 31
0.0
  0
SOLID
  5
3693
  8
DIMENSIONS
 62
     0
 10
593.6308788818998
 20
1994.199947470358
 30
0.0
 11
591.964212215233
 21
1994.199947470358
 31
0.0
 12
592.7975455485664
 22
1999.199947470358
 32
0.0
 13
592.7975455485664
 23
1999.199947470358
 33
0.0
  0
SOLID
  5
3694
  8
DIMENSIONS
 62
     0
 10
591.964212215233
 20
1974.199947470358
 30
0.0
 11
593.6308788818998
 21
1974.199947470358
 31
0.0
 12
592.7975455485664
 22
1969.199947470358
 32
0.0
 13
592.7975455485664
 23
1969.199947470358
 33
0.0
  0
TEXT
  5
3695
  8
DIMENSIONS
  6
CONTINUOUS
 62
     5
 10
590.4025455485664
 20
1970.699947470358
 30
0.0
 40
5.0
  1
30 [1.18]
 50
90.0
  0
POINT
  5
3696
  8
DEFPOINTS
 62
     0
 10
562.6742888745337
 20
1999.199947470358
 30
0.0
  0
POINT
  5
3697
  8
DEFPOINTS
 62
     0
 10
512.6742888745337
 20
1969.199947470358
 30
0.0
  0
POINT
  5
3698
  8
DEFPOINTS
 62
     0
 10
592.7975455485664
 20
1969.199947470358
 30
0.0
  0
ENDBLK
  5
368F
  8
0
  0
BLOCK
  8
0
  2
*D4
 70
     1
 10
0.0
 20
0.0
 30
0.0
  3
*D4
  1

  0
LINE
  5
369F
  8
DIMENSIONS
  6
BYBLOCK
 62
     0
 10
514.1742888745337
 20
1969.199947470358
 30
0.0
 11
593.1609009514342
 21
1969.199947470358
 31
0.0
  0
LINE
  5
36A0
  8
DIMENSIONS
  6
BYBLOCK
 62
     0
 10
514.1742888745337
 20
1679.199947470358
 30
0.0
 11
593.1609009514342
 21
1679.199947470358
 31
0.0
  0
LINE
  5
36A1
  8
DIMENSIONS
  6
BYBLOCK
 62
     0
 10
592.9809009514343
 20
1964.199947470358
 30
0.0
 11
592.9809009514343
 21
1684.199947470358
 31
0.0
  0
SOLID
  5
36A2
  8
DIMENSIONS
 62
     0
 10
593.8142342847676
 20
1964.199947470358
 30
0.0
 11
592.1475676181009
 21
1964.199947470358
 31
0.0
 12
592.9809009514343
 22
1969.199947470358
 32
0.0
 13
592.9809009514343
 23
1969.199947470358
 33
0.0
  0
SOLID
  5
36A3
  8
DIMENSIONS
 62
     0
 10
592.1475676181009
 20
1684.199947470358
 30
0.0
 11
593.8142342847676
 21
1684.199947470358
 31
0.0
 12
592.9809009514343
 22
1679.199947470358
 32
0.0
 13
592.9809009514343
 23
1679.199947470358
 33
0.0
  0
TEXT
  5
36A4
  8
DIMENSIONS
  6
CONTINUOUS
 62
     5
 10
590.585900951434
 20
1806.864947470358
 30
0.0
 40
5.0
  1
290 [11.42]
 50
90.0
  0
POINT
  5
36A5
  8
DEFPOINTS
 62
     0
 10
512.6742888745337
 20
1969.199947470358
 30
0.0
  0
POINT
  5
36A6
  8
DEFPOINTS
 62
     0
 10
512.6742888745337
 20
1679.199947470358
 30
0.0
  0
POINT
  5
36A7
  8
DEFPOINTS
 62
     0
 10
592.9809009514343
 20
1679.199947470358
 30
0.0
  0
ENDBLK
  5
369E
  8
0
  0
BLOCK
  8
0
  2
*D5
 70
     1
 10
0.0
 20
0.0
 30
0.0
  3
*D5
  1

  0
LINE
  5
36AE
  8
DIMENSIONS
  6
BYBLOCK
 62
     0
 10
514.1742888745337
 20
1679.199947470358
 30
0.0
 11
593.3409009514343
 21
1679.199947470358
 31
0.0
  0
LINE
  5
36AF
  8
DIMENSIONS
  6
BYBLOCK
 62
     0
 10
514.1742888745337
 20
1544.199947470358
 30
0.0
 11
593.3409009514343
 21
1544.199947470358
 31
0.0
  0
LINE
  5
36B0
  8
DIMENSIONS
  6
BYBLOCK
 62
     0
 10
593.1609009514343
 20
1674.199947470358
 30
0.0
 11
593.1609009514343
 21
1549.199947470358
 31
0.0
  0
SOLID
  5
36B1
  8
DIMENSIONS
 62
     0
 10
593.9942342847677
 20
1674.199947470358
 30
0.0
 11
592.3275676181009
 21
1674.199947470358
 31
0.0
 12
593.1609009514343
 22
1679.199947470358
 32
0.0
 13
593.1609009514343
 23
1679.199947470358
 33
0.0
  0
SOLID
  5
36B2
  8
DIMENSIONS
 62
     0
 10
592.3275676181009
 20
1549.199947470358
 30
0.0
 11
593.9942342847677
 21
1549.199947470358
 31
0.0
 12
593.1609009514343
 22
1544.199947470358
 32
0.0
 13
593.1609009514343
 23
1544.199947470358
 33
0.0
  0
TEXT
  5
36B3
  8
DIMENSIONS
  6
CONTINUOUS
 62
     5
 10
590.7659009514339
 20
1596.027447470358
 30
0.0
 40
5.0
  1
135 [5.31]
 50
90.0
  0
POINT
  5
36B4
  8
DEFPOINTS
 62
     0
 10
512.6742888745337
 20
1679.199947470358
 30
0.0
  0
POINT
  5
36B5
  8
DEFPOINTS
 62
     0
 10
512.6742888745337
 20
1544.199947470358
 30
0.0
  0
POINT
  5
36B6
  8
DEFPOINTS
 62
     0
 10
593.1609009514343
 20
1544.199947470358
 30
0.0
  0
ENDBLK
  5
36AD
  8
0
  0
BLOCK
  8
0
  2
*D6
 70
     1
 10
0.0
 20
0.0
 30
0.0
  3
*D6
  1

  0
LINE
  5
36BD
  8
DIMENSIONS
  6
BYBLOCK
 62
     0
 10
514.1742888745337
 20
1544.199947470358
 30
0.0
 11
593.5209009514343
 21
1544.199947470358
 31
0.0
  0
LINE
  5
36BE
  8
DIMENSIONS
  6
BYBLOCK
 62
     0
 10
514.1742888745337
 20
1259.199947470358
 30
0.0
 11
593.5209009514343
 21
1259.199947470358
 31
0.0
  0
LINE
  5
36BF
  8
DIMENSIONS
  6
BYBLOCK
 62
     0
 10
593.3409009514344
 20
1539.199947470358
 30
0.0
 11
593.3409009514344
 21
1264.199947470358
 31
0.0
  0
SOLID
  5
36C0
  8
DIMENSIONS
 62
     0
 10
594.1742342847677
 20
1539.199947470358
 30
0.0
 11
592.507567618101
 21
1539.199947470358
 31
0.0
 12
593.3409009514344
 22
1544.199947470358
 32
0.0
 13
593.3409009514344
 23
1544.199947470358
 33
0.0
  0
SOLID
  5
36C1
  8
DIMENSIONS
 62
     0
 10
592.507567618101
 20
1264.199947470358
 30
0.0
 11
594.1742342847677
 21
1264.199947470358
 31
0.0
 12
593.3409009514344
 22
1259.199947470358
 32
0.0
 13
593.3409009514344
 23
1259.199947470358
 33
0.0
  0
TEXT
  5
36C2
  8
DIMENSIONS
  6
CONTINUOUS
 62
     5
 10
590.9459009514342
 20
1384.364947470358
 30
0.0
 40
5.0
  1
285 [11.22]
 50
90.0
  0
POINT
  5
36C3
  8
DEFPOINTS
 62
     0
 10
512.6742888745337
 20
1544.199947470358
 30
0.0
  0
POINT
  5
36C4
  8
DEFPOINTS
 62
     0
 10
512.6742888745337
 20
1259.199947470358
 30
0.0
  0
POINT
  5
36C5
  8
DEFPOINTS
 62
     0
 10
593.3409009514344
 20
1259.199947470358
 30
0.0
  0
ENDBLK
  5
36BC
  8
0
  0
BLOCK
  8
0
  2
*D7
 70
     1
 10
0.0
 20
0.0
 30
0.0
  3
*D7
  1

  0
LINE
  5
36DC
  8
DIMENSIONS
  6
BYBLOCK
 10
342.5862666949176
 20
1571.968926540532
 30
0.0
 11
352.2962666949176
 21
1571.968926540532
 31
0.0
  0
LINE
  5
36DD
  8
DIMENSIONS
  6
BYBLOCK
 10
352.2962666949176
 20
1571.968926540532
 30
0.0
 11
361.0664542152566
 21
1559.867900752809
 31
0.0
  0
TEXT
  5
36DE
  8
DIMENSIONS
  6
CONTINUOUS
 62
     5
 10
342.3062666949176
 20
1573.258926540532
 30
0.0
 40
5.0
  1
Ø7
  0
SOLID
  5
36DF
  8
DIMENSIONS
 10
360.5941247750524
 20
1559.525581197869
 30
0.0
 11
361.5387836554609
 21
1560.210220307748
 31
0.0
 12
363.1203715448951
 22
1557.033924111583
 32
0.0
 13
363.1203715448951
 23
1557.033924111583
 33
0.0
  0
POINT
  5
36E0
  8
DEFPOINTS
 62
     0
 10
363.1203715448951
 20
1557.033924111583
 30
0.0
  0
POINT
  5
36E1
  8
DEFPOINTS
 62
     0
 10
367.2282062041722
 20
1551.365970829132
 30
0.0
  0
ENDBLK
  5
36DB
  8
0
  0
BLOCK
  8
0
  2
*D8
 70
     1
 10
0.0
 20
0.0
 30
0.0
  3
*D8
  1

  0
LINE
  5
36EA
  8
DIMENSIONS
  6
BYBLOCK
 62
     0
 10
167.6742888745337
 20
2000.699947470358
 30
0.0
 11
167.6742888745337
 21
2013.114105116885
 31
0.0
  0
LINE
  5
36EB
  8
DIMENSIONS
  6
BYBLOCK
 62
     0
 10
195.1742888745337
 20
1975.699947470358
 30
0.0
 11
195.1742888745337
 21
2013.114105116885
 31
0.0
  0
LINE
  5
36EC
  8
DIMENSIONS
  6
BYBLOCK
 62
     0
 10
172.6742888745337
 20
2012.934105116885
 30
0.0
 11
190.1742888745337
 21
2012.934105116885
 31
0.0
  0
SOLID
  5
36ED
  8
DIMENSIONS
 62
     0
 10
172.6742888745337
 20
2013.767438450219
 30
0.0
 11
172.6742888745337
 21
2012.100771783552
 31
0.0
 12
167.6742888745337
 22
2012.934105116885
 32
0.0
 13
167.6742888745337
 23
2012.934105116885
 33
0.0
  0
SOLID
  5
36EE
  8
DIMENSIONS
 62
     0
 10
190.1742888745337
 20
2012.100771783552
 30
0.0
 11
190.1742888745337
 21
2013.767438450219
 31
0.0
 12
195.1742888745337
 22
2012.934105116885
 32
0.0
 13
195.1742888745337
 23
2012.934105116885
 33
0.0
  0
TEXT
  5
36EF
  8
DIMENSIONS
  6
CONTINUOUS
 62
     5
 10
132.5259280782368
 20
2015.682547271457
 30
0.0
 40
5.0
  1
27.5 [1.08]
  0
POINT
  5
36F0
  8
DEFPOINTS
 62
     0
 10
167.6742888745337
 20
1999.199947470358
 30
0.0
  0
POINT
  5
36F1
  8
DEFPOINTS
 62
     0
 10
195.1742888745337
 20
1974.199947470358
 30
0.0
  0
POINT
  5
36F2
  8
DEFPOINTS
 62
     0
 10
195.1742888745337
 20
2012.934105116885
 30
0.0
  0
ENDBLK
  5
36E9
  8
0
  0
BLOCK
  8
0
  2
*D9
 70
     1
 10
0.0
 20
0.0
 30
0.0
  3
*D9
  1

  0
LINE
  5
36F9
  8
DIMENSIONS
  6
BYBLOCK
 62
     0
 10
195.1742888745337
 20
1975.699947470358
 30
0.0
 11
195.1742888745337
 21
2013.114105116885
 31
0.0
  0
LINE
  5
36FA
  8
DIMENSIONS
  6
BYBLOCK
 62
     0
 10
365.1742888745337
 20
1980.699947470358
 30
0.0
 11
365.1742888745337
 21
2013.114105116885
 31
0.0
  0
LINE
  5
36FB
  8
DIMENSIONS
  6
BYBLOCK
 62
     0
 10
200.1742888745337
 20
2012.934105116885
 30
0.0
 11
360.1742888745337
 21
2012.934105116885
 31
0.0
  0
SOLID
  5
36FC
  8
DIMENSIONS
 62
     0
 10
200.1742888745337
 20
2013.767438450219
 30
0.0
 11
200.1742888745337
 21
2012.100771783552
 31
0.0
 12
195.1742888745337
 22
2012.934105116885
 32
0.0
 13
195.1742888745337
 23
2012.934105116885
 33
0.0
  0
SOLID
  5
36FD
  8
DIMENSIONS
 62
     0
 10
360.1742888745337
 20
2012.100771783552
 30
0.0
 11
360.1742888745337
 21
2013.767438450219
 31
0.0
 12
365.1742888745337
 22
2012.934105116885
 32
0.0
 13
365.1742888745337
 23
2012.934105116885
 33
0.0
  0
TEXT
  5
36FE
  8
DIMENSIONS
  6
CONTINUOUS
 62
     5
 10
264.5017888745336
 20
2015.329105116886
 30
0.0
 40
5.0
  1
170 [6.69]
  0
POINT
  5
36FF
  8
DEFPOINTS
 62
     0
 10
195.1742888745337
 20
1974.199947470358
 30
0.0
  0
POINT
  5
3700
  8
DEFPOINTS
 62
     0
 10
365.1742888745337
 20
1979.199947470358
 30
0.0
  0
POINT
  5
3701
  8
DEFPOINTS
 62
     0
 10
365.1742888745337
 20
2012.934105116885
 30
0.0
  0
ENDBLK
  5
36F8
  8
0
  0
BLOCK
  8
0
  2
*D10
 70
     1
 10
0.0
 20
0.0
 30
0.0
  3
*D10
  1

  0
LINE
  5
3708
  8
DIMENSIONS
  6
BYBLOCK
 62
     0
 10
512.6742888745337
 20
1970.699947470358
 30
0.0
 11
512.6742888745337
 21
2012.934105116885
 31
0.0
  0
LINE
  5
3709
  8
DIMENSIONS
  6
BYBLOCK
 62
     0
 10
562.6742888745337
 20
2000.699947470358
 30
0.0
 11
562.6742888745337
 21
2012.934105116885
 31
0.0
  0
LINE
  5
370A
  8
DIMENSIONS
  6
BYBLOCK
 62
     0
 10
517.6742888745337
 20
2012.754105116885
 30
0.0
 11
557.6742888745337
 21
2012.754105116885
 31
0.0
  0
SOLID
  5
370B
  8
DIMENSIONS
 62
     0
 10
517.6742888745337
 20
2013.587438450219
 30
0.0
 11
517.6742888745337
 21
2011.920771783552
 31
0.0
 12
512.6742888745337
 22
2012.754105116885
 32
0.0
 13
512.6742888745337
 23
2012.754105116885
 33
0.0
  0
SOLID
  5
370C
  8
DIMENSIONS
 62
     0
 10
557.6742888745337
 20
2011.920771783552
 30
0.0
 11
557.6742888745337
 21
2013.587438450219
 31
0.0
 12
562.6742888745337
 22
2012.754105116885
 32
0.0
 13
562.6742888745337
 23
2012.754105116885
 33
0.0
  0
TEXT
  5
370D
  8
DIMENSIONS
  6
CONTINUOUS
 62
     5
 10
524.1767888745337
 20
2015.149105116885
 30
0.0
 40
5.0
  1
50 [1.97]
  0
POINT
  5
370E
  8
DEFPOINTS
 62
     0
 10
512.6742888745337
 20
1969.199947470358
 30
0.0
  0
POINT
  5
370F
  8
DEFPOINTS
 62
     0
 10
562.6742888745337
 20
1999.199947470358
 30
0.0
  0
POINT
  5
3710
  8
DEFPOINTS
 62
     0
 10
562.6742888745337
 20
2012.754105116885
 30
0.0
  0
ENDBLK
  5
3707
  8
0
  0
BLOCK
  8
0
  2
*D11
 70
     1
 10
0.0
 20
0.0
 30
0.0
  3
*D11
  1

  0
LINE
  5
3718
  8
DIMENSIONS
  6
BYBLOCK
 62
     0
 10
166.1742888745337
 20
1999.199947470358
 30
0.0
 11
148.3086746452446
 21
1999.199947470358
 31
0.0
  0
LINE
  5
3719
  8
DIMENSIONS
  6
BYBLOCK
 62
     0
 10
193.6742888745337
 20
1974.199947470358
 30
0.0
 11
148.3086746452446
 21
1974.199947470358
 31
0.0
  0
LINE
  5
371A
  8
DIMENSIONS
  6
BYBLOCK
 62
     0
 10
148.4886746452446
 20
1994.199947470358
 30
0.0
 11
148.4886746452446
 21
1979.199947470358
 31
0.0
  0
SOLID
  5
371B
  8
DIMENSIONS
 62
     0
 10
149.3220079785779
 20
1994.199947470358
 30
0.0
 11
147.6553413119113
 21
1994.199947470358
 31
0.0
 12
148.4886746452446
 22
1999.199947470358
 32
0.0
 13
148.4886746452446
 23
1999.199947470358
 33
0.0
  0
SOLID
  5
371C
  8
DIMENSIONS
 62
     0
 10
147.6553413119113
 20
1979.199947470358
 30
0.0
 11
149.3220079785779
 21
1979.199947470358
 31
0.0
 12
148.4886746452446
 22
1974.199947470358
 32
0.0
 13
148.4886746452446
 23
1974.199947470358
 33
0.0
  0
TEXT
  5
371D
  8
DIMENSIONS
  6
CONTINUOUS
 62
     5
 10
145.4095295396723
 20
1972.398489951154
 30
0.0
 40
5.0
  1
25 [0.98]
 50
90.0
  0
POINT
  5
371E
  8
DEFPOINTS
 62
     0
 10
167.6742888745337
 20
1999.199947470358
 30
0.0
  0
POINT
  5
371F
  8
DEFPOINTS
 62
     0
 10
195.1742888745337
 20
1974.199947470358
 30
0.0
  0
POINT
  5
3720
  8
DEFPOINTS
 62
     0
 10
148.4886746452446
 20
1974.199947470358
 30
0.0
  0
ENDBLK
  5
3717
  8
0
  0
BLOCK
  8
0
  2
*D12
 70
     1
 10
0.0
 20
0.0
 30
0.0
  3
*D12
  1

  0
LINE
  5
3727
  8
DIMENSIONS
  6
BYBLOCK
 62
     0
 10
193.6742888745337
 20
1974.199947470358
 30
0.0
 11
148.3086746452446
 21
1974.199947470358
 31
0.0
  0
LINE
  5
3728
  8
DIMENSIONS
  6
BYBLOCK
 62
     0
 10
193.6742888745337
 20
1699.199947470358
 30
0.0
 11
148.3086746452446
 21
1699.199947470358
 31
0.0
  0
LINE
  5
3729
  8
DIMENSIONS
  6
BYBLOCK
 62
     0
 10
148.4886746452446
 20
1969.199947470358
 30
0.0
 11
148.4886746452446
 21
1704.199947470358
 31
0.0
  0
SOLID
  5
372A
  8
DIMENSIONS
 62
     0
 10
149.3220079785779
 20
1969.199947470358
 30
0.0
 11
147.6553413119113
 21
1969.199947470358
 31
0.0
 12
148.4886746452446
 22
1974.199947470358
 32
0.0
 13
148.4886746452446
 23
1974.199947470358
 33
0.0
  0
SOLID
  5
372B
  8
DIMENSIONS
 62
     0
 10
147.6553413119112
 20
1704.199947470358
 30
0.0
 11
149.3220079785779
 21
1704.199947470358
 31
0.0
 12
148.4886746452446
 22
1699.199947470358
 32
0.0
 13
148.4886746452446
 23
1699.199947470358
 33
0.0
  0
TEXT
  5
372C
  8
DIMENSIONS
  6
CONTINUOUS
 62
     5
 10
146.0936746452444
 20
1819.364947470358
 30
0.0
 40
5.0
  1
275 [10.83]
 50
90.0
  0
POINT
  5
372D
  8
DEFPOINTS
 62
     0
 10
195.1742888745337
 20
1974.199947470358
 30
0.0
  0
POINT
  5
372E
  8
DEFPOINTS
 62
     0
 10
195.1742888745337
 20
1699.199947470358
 30
0.0
  0
POINT
  5
372F
  8
DEFPOINTS
 62
     0
 10
148.4886746452446
 20
1699.199947470358
 30
0.0
  0
ENDBLK
  5
3726
  8
0
  0
BLOCK
  8
0
  2
*D13
 70
     1
 10
0.0
 20
0.0
 30
0.0
  3
*D13
  1

  0
LINE
  5
3736
  8
DIMENSIONS
  6
BYBLOCK
 62
     0
 10
740.3549576630467
 20
2000.699947470358
 30
0.0
 11
740.3549576630467
 21
2038.207615583009
 31
0.0
  0
LINE
  5
3737
  8
DIMENSIONS
  6
BYBLOCK
 62
     0
 10
1135.354957663047
 20
2000.699947470358
 30
0.0
 11
1135.354957663047
 21
2038.207615583009
 31
0.0
  0
LINE
  5
3738
  8
DIMENSIONS
  6
BYBLOCK
 62
     0
 10
745.3549576630467
 20
2038.027615583009
 30
0.0
 11
1130.354957663047
 21
2038.027615583009
 31
0.0
  0
SOLID
  5
3739
  8
DIMENSIONS
 62
     0
 10
745.3549576630467
 20
2038.860948916342
 30
0.0
 11
745.3549576630467
 21
2037.194282249676
 31
0.0
 12
740.3549576630467
 22
2038.027615583009
 32
0.0
 13
740.3549576630467
 23
2038.027615583009
 33
0.0
  0
SOLID
  5
373A
  8
DIMENSIONS
 62
     0
 10
1130.354957663047
 20
2037.194282249676
 30
0.0
 11
1130.354957663047
 21
2038.860948916342
 31
0.0
 12
1135.354957663047
 22
2038.027615583009
 32
0.0
 13
1135.354957663047
 23
2038.027615583009
 33
0.0
  0
TEXT
  5
373B
  8
DIMENSIONS
  6
CONTINUOUS
 62
     5
 10
920.4749576630467
 20
2040.422615583009
 30
0.0
 40
5.0
  1
395 [15.55]
  0
POINT
  5
373C
  8
DEFPOINTS
 62
     0
 10
740.3549576630467
 20
1999.199947470358
 30
0.0
  0
POINT
  5
373D
  8
DEFPOINTS
 62
     0
 10
1135.354957663047
 20
1999.199947470358
 30
0.0
  0
POINT
  5
373E
  8
DEFPOINTS
 62
     0
 10
1135.354957663047
 20
2038.027615583009
 30
0.0
  0
ENDBLK
  5
3735
  8
0
  0
BLOCK
  8
0
  2
*D14
 70
     1
 10
0.0
 20
0.0
 30
0.0
  3
*D14
  1

  0
LINE
  5
3754
  8
DIMENSIONS
  6
BYBLOCK
 62
     0
 10
193.6742888745337
 20
1699.199947470358
 30
0.0
 11
148.3086746452446
 21
1699.199947470358
 31
0.0
  0
LINE
  5
3755
  8
DIMENSIONS
  6
BYBLOCK
 62
     0
 10
193.6742888745337
 20
1554.199947470358
 30
0.0
 11
148.3086746452446
 21
1554.199947470358
 31
0.0
  0
LINE
  5
3756
  8
DIMENSIONS
  6
BYBLOCK
 62
     0
 10
148.4886746452446
 20
1694.199947470358
 30
0.0
 11
148.4886746452446
 21
1559.199947470358
 31
0.0
  0
SOLID
  5
3757
  8
DIMENSIONS
 62
     0
 10
149.3220079785779
 20
1694.199947470358
 30
0.0
 11
147.6553413119112
 21
1694.199947470358
 31
0.0
 12
148.4886746452446
 22
1699.199947470358
 32
0.0
 13
148.4886746452446
 23
1699.199947470358
 33
0.0
  0
SOLID
  5
3758
  8
DIMENSIONS
 62
     0
 10
147.6553413119112
 20
1559.199947470358
 30
0.0
 11
149.3220079785779
 21
1559.199947470358
 31
0.0
 12
148.4886746452446
 22
1554.199947470358
 32
0.0
 13
148.4886746452446
 23
1554.199947470358
 33
0.0
  0
TEXT
  5
3759
  8
DIMENSIONS
  6
CONTINUOUS
 62
     5
 10
146.0936746452444
 20
1611.027447470358
 30
0.0
 40
5.0
  1
145 [5.71]
 50
90.0
  0
POINT
  5
375A
  8
DEFPOINTS
 62
     0
 10
195.1742888745337
 20
1699.199947470358
 30
0.0
  0
POINT
  5
375B
  8
DEFPOINTS
 62
     0
 10
195.1742888745337
 20
1554.199947470358
 30
0.0
  0
POINT
  5
375C
  8
DEFPOINTS
 62
     0
 10
148.4886746452446
 20
1554.199947470358
 30
0.0
  0
ENDBLK
  5
3753
  8
0
  0
BLOCK
  8
0
  2
*D15
 70
     1
 10
0.0
 20
0.0
 30
0.0
  3
*D15
  1

  0
LINE
  5
3763
  8
DIMENSIONS
  6
BYBLOCK
 62
     0
 10
193.6742888745337
 20
1554.199947470358
 30
0.0
 11
148.3086746452446
 21
1554.199947470358
 31
0.0
  0
LINE
  5
3764
  8
DIMENSIONS
  6
BYBLOCK
 62
     0
 10
193.6742888745337
 20
1259.199947470358
 30
0.0
 11
148.3086746452445
 21
1259.199947470358
 31
0.0
  0
LINE
  5
3765
  8
DIMENSIONS
  6
BYBLOCK
 62
     0
 10
148.4886746452446
 20
1549.199947470358
 30
0.0
 11
148.4886746452445
 21
1264.199947470358
 31
0.0
  0
SOLID
  5
3766
  8
DIMENSIONS
 62
     0
 10
149.3220079785779
 20
1549.199947470358
 30
0.0
 11
147.6553413119112
 21
1549.199947470358
 31
0.0
 12
148.4886746452446
 22
1554.199947470358
 32
0.0
 13
148.4886746452446
 23
1554.199947470358
 33
0.0
  0
SOLID
  5
3767
  8
DIMENSIONS
 62
     0
 10
147.6553413119112
 20
1264.199947470358
 30
0.0
 11
149.3220079785779
 21
1264.199947470358
 31
0.0
 12
148.4886746452445
 22
1259.199947470358
 32
0.0
 13
148.4886746452445
 23
1259.199947470358
 33
0.0
  0
TEXT
  5
3768
  8
DIMENSIONS
  6
CONTINUOUS
 62
     5
 10
146.0936746452444
 20
1389.364947470358
 30
0.0
 40
5.0
  1
295 [11.61]
 50
90.0
  0
POINT
  5
3769
  8
DEFPOINTS
 62
     0
 10
195.1742888745337
 20
1554.199947470358
 30
0.0
  0
POINT
  5
376A
  8
DEFPOINTS
 62
     0
 10
195.1742888745337
 20
1259.199947470358
 30
0.0
  0
POINT
  5
376B
  8
DEFPOINTS
 62
     0
 10
148.4886746452445
 20
1259.199947470358
 30
0.0
  0
ENDBLK
  5
3762
  8
0
  0
BLOCK
  8
0
  2
*D16
 70
     1
 10
0.0
 20
0.0
 30
0.0
  3
*D16
  1

  0
LINE
  5
37E5
  8
DIMENSIONS
  6
BYBLOCK
 62
     0
 10
755.3549576630467
 20
2002.555945912821
 30
0.0
 11
755.3549576630467
 21
2012.934105116885
 31
0.0
  0
LINE
  5
37E6
  8
DIMENSIONS
  6
BYBLOCK
 62
     0
 10
1120.354957663047
 20
2002.555945912821
 30
0.0
 11
1120.354957663047
 21
2012.934105116885
 31
0.0
  0
LINE
  5
37E7
  8
DIMENSIONS
  6
BYBLOCK
 62
     0
 10
760.3549576630467
 20
2012.754105116885
 30
0.0
 11
1115.354957663047
 21
2012.754105116885
 31
0.0
  0
SOLID
  5
37E8
  8
DIMENSIONS
 62
     0
 10
760.3549576630467
 20
2013.587438450219
 30
0.0
 11
760.3549576630467
 21
2011.920771783552
 31
0.0
 12
755.3549576630467
 22
2012.754105116885
 32
0.0
 13
755.3549576630467
 23
2012.754105116885
 33
0.0
  0
SOLID
  5
37E9
  8
DIMENSIONS
 62
     0
 10
1115.354957663047
 20
2011.920771783552
 30
0.0
 11
1115.354957663047
 21
2013.587438450219
 31
0.0
 12
1120.354957663047
 22
2012.754105116885
 32
0.0
 13
1120.354957663047
 23
2012.754105116885
 33
0.0
  0
TEXT
  5
37EA
  8
DIMENSIONS
  6
CONTINUOUS
 62
     5
 10
920.4749576630467
 20
2015.149105116885
 30
0.0
 40
5.0
  1
365 [14.37]
  0
POINT
  5
37EB
  8
DEFPOINTS
 62
     0
 10
755.3549576630467
 20
2001.055945912821
 30
0.0
  0
POINT
  5
37EC
  8
DEFPOINTS
 62
     0
 10
1120.354957663047
 20
2001.055945912821
 30
0.0
  0
POINT
  5
37ED
  8
DEFPOINTS
 62
     0
 10
1120.354957663047
 20
2012.754105116885
 30
0.0
  0
ENDBLK
  5
37E4
  8
0
  0
BLOCK
  8
0
  2
*D17
 70
     1
 10
0.0
 20
0.0
 30
0.0
  3
*D17
  1

  0
LINE
  5
37F4
  8
DIMENSIONS
  6
BYBLOCK
 62
     0
 10
738.8549576630467
 20
1999.199947470358
 30
0.0
 11
706.6145930840447
 21
1999.199947470358
 31
0.0
  0
LINE
  5
37F5
  8
DIMENSIONS
  6
BYBLOCK
 62
     0
 10
738.8549576630467
 20
649.1999474703578
 30
0.0
 11
706.6145930840446
 21
649.1999474703578
 31
0.0
  0
LINE
  5
37F6
  8
DIMENSIONS
  6
BYBLOCK
 62
     0
 10
706.7945930840447
 20
1994.199947470358
 30
0.0
 11
706.7945930840445
 21
654.1999474703578
 31
0.0
  0
SOLID
  5
37F7
  8
DIMENSIONS
 62
     0
 10
707.627926417378
 20
1994.199947470358
 30
0.0
 11
705.9612597507113
 21
1994.199947470358
 31
0.0
 12
706.7945930840447
 22
1999.199947470358
 32
0.0
 13
706.7945930840447
 23
1999.199947470358
 33
0.0
  0
SOLID
  5
37F8
  8
DIMENSIONS
 62
     0
 10
705.9612597507112
 20
654.1999474703578
 30
0.0
 11
707.6279264173779
 21
654.1999474703578
 31
0.0
 12
706.7945930840445
 22
649.1999474703578
 32
0.0
 13
706.7945930840445
 23
649.1999474703578
 33
0.0
  0
TEXT
  5
37F9
  8
DIMENSIONS
  6
CONTINUOUS
 62
     5
 10
704.3995930840445
 20
1304.647447470358
 30
0.0
 40
5.0
  1
1350 [53.15]
 50
90.0
  0
POINT
  5
37FA
  8
DEFPOINTS
 62
     0
 10
740.3549576630467
 20
1999.199947470358
 30
0.0
  0
POINT
  5
37FB
  8
DEFPOINTS
 62
     0
 10
740.3549576630467
 20
649.1999474703578
 30
0.0
  0
POINT
  5
37FC
  8
DEFPOINTS
 62
     0
 10
706.7945930840445
 20
649.1999474703578
 30
0.0
  0
ENDBLK
  5
37F3
  8
0
  0
BLOCK
  8
0
  2
*D18
 70
     1
 10
0.0
 20
0.0
 30
0.0
  3
*D18
  1

  0
LINE
  5
3803
  8
DIMENSIONS
  6
BYBLOCK
 62
     0
 10
738.8549576630467
 20
1999.199947470358
 30
0.0
 11
721.6867697492731
 21
1999.199947470358
 31
0.0
  0
LINE
  5
3804
  8
DIMENSIONS
  6
BYBLOCK
 62
     0
 10
736.2708637061598
 20
1979.199947470358
 30
0.0
 11
721.6867697492731
 21
1979.199947470358
 31
0.0
  0
LINE
  5
3805
  8
DIMENSIONS
  6
BYBLOCK
 62
     0
 10
721.8667697492731
 20
1994.199947470358
 30
0.0
 11
721.8667697492731
 21
1984.199947470358
 31
0.0
  0
SOLID
  5
3806
  8
DIMENSIONS
 62
     0
 10
722.7001030826065
 20
1994.199947470358
 30
0.0
 11
721.0334364159397
 21
1994.199947470358
 31
0.0
 12
721.8667697492731
 22
1999.199947470358
 32
0.0
 13
721.8667697492731
 23
1999.199947470358
 33
0.0
  0
SOLID
  5
3807
  8
DIMENSIONS
 62
     0
 10
721.0334364159397
 20
1984.199947470358
 30
0.0
 11
722.7001030826065
 21
1984.199947470358
 31
0.0
 12
721.8667697492731
 22
1979.199947470358
 32
0.0
 13
721.8667697492731
 23
1979.199947470358
 33
0.0
  0
TEXT
  5
3808
  8
DIMENSIONS
  6
CONTINUOUS
 62
     5
 10
718.7891623334128
 20
1971.421427266842
 30
0.0
 40
5.0
  1
20 [0.79]
 50
90.0
  0
POINT
  5
3809
  8
DEFPOINTS
 62
     0
 10
740.3549576630467
 20
1999.199947470358
 30
0.0
  0
POINT
  5
380A
  8
DEFPOINTS
 62
     0
 10
737.7708637061598
 20
1979.199947470358
 30
0.0
  0
POINT
  5
380B
  8
DEFPOINTS
 62
     0
 10
721.8667697492731
 20
1979.199947470358
 30
0.0
  0
ENDBLK
  5
3802
  8
0
  0
BLOCK
  8
0
  2
*D19
 70
     1
 10
0.0
 20
0.0
 30
0.0
  3
*D19
  1

  0
LINE
  5
3812
  8
DIMENSIONS
  6
BYBLOCK
 62
     0
 10
736.2708637061598
 20
1979.199947470358
 30
0.0
 11
721.6867697492731
 21
1979.199947470358
 31
0.0
  0
LINE
  5
3813
  8
DIMENSIONS
  6
BYBLOCK
 62
     0
 10
753.8549576630467
 20
664.1999474703578
 30
0.0
 11
721.686769749273
 21
664.1999474703578
 31
0.0
  0
LINE
  5
3814
  8
DIMENSIONS
  6
BYBLOCK
 62
     0
 10
721.8667697492731
 20
1974.199947470358
 30
0.0
 11
721.866769749273
 21
669.1999474703578
 31
0.0
  0
SOLID
  5
3815
  8
DIMENSIONS
 62
     0
 10
722.7001030826065
 20
1974.199947470358
 30
0.0
 11
721.0334364159397
 21
1974.199947470358
 31
0.0
 12
721.8667697492731
 22
1979.199947470358
 32
0.0
 13
721.8667697492731
 23
1979.199947470358
 33
0.0
  0
SOLID
  5
3816
  8
DIMENSIONS
 62
     0
 10
721.0334364159396
 20
669.1999474703578
 30
0.0
 11
722.7001030826063
 21
669.1999474703578
 31
0.0
 12
721.866769749273
 22
664.1999474703578
 32
0.0
 13
721.866769749273
 23
664.1999474703578
 33
0.0
  0
TEXT
  5
3817
  8
DIMENSIONS
  6
CONTINUOUS
 62
     5
 10
719.4717697492729
 20
1302.147447470358
 30
0.0
 40
5.0
  1
1315 [51.77]
 50
90.0
  0
POINT
  5
3818
  8
DEFPOINTS
 62
     0
 10
737.7708637061598
 20
1979.199947470358
 30
0.0
  0
POINT
  5
3819
  8
DEFPOINTS
 62
     0
 10
755.3549576630467
 20
664.1999474703578
 30
0.0
  0
POINT
  5
381A
  8
DEFPOINTS
 62
     0
 10
721.866769749273
 20
664.1999474703578
 30
0.0
  0
ENDBLK
  5
3811
  8
0
  0
BLOCK
  8
0
  2
*D20
 70
     1
 10
0.0
 20
0.0
 30
0.0
  3
*D20
  1

  0
LINE
  5
3861
  8
DIMENSIONS
  6
BYBLOCK
 62
     0
 10
753.8549576630467
 20
664.1999474703578
 30
0.0
 11
721.6996182350464
 21
664.1999474703578
 31
0.0
  0
LINE
  5
3862
  8
DIMENSIONS
  6
BYBLOCK
 62
     0
 10
753.8549576630467
 20
649.1999474703578
 30
0.0
 11
721.6996182350464
 21
649.1999474703578
 31
0.0
  0
LINE
  5
3863
  8
DIMENSIONS
  6
BYBLOCK
 62
     0
 10
721.8796182350463
 20
659.1999474703578
 30
0.0
 11
721.8796182350463
 21
654.1999474703578
 31
0.0
  0
SOLID
  5
3864
  8
DIMENSIONS
 62
     0
 10
722.7129515683797
 20
659.1999474703578
 30
0.0
 11
721.046284901713
 21
659.1999474703578
 31
0.0
 12
721.8796182350463
 22
664.1999474703578
 32
0.0
 13
721.8796182350463
 23
664.1999474703578
 33
0.0
  0
SOLID
  5
3865
  8
DIMENSIONS
 62
     0
 10
721.046284901713
 20
654.1999474703578
 30
0.0
 11
722.7129515683797
 21
654.1999474703578
 31
0.0
 12
721.8796182350463
 22
649.1999474703578
 32
0.0
 13
721.8796182350463
 23
649.1999474703578
 33
0.0
  0
TEXT
  5
3866
  8
DIMENSIONS
  6
CONTINUOUS
 62
     5
 10
717.914250326188
 20
649.7687963808794
 30
0.0
 40
5.0
  1
15 [0.59]
 50
90.0
  0
POINT
  5
3867
  8
DEFPOINTS
 62
     0
 10
755.3549576630467
 20
664.1999474703578
 30
0.0
  0
POINT
  5
3868
  8
DEFPOINTS
 62
     0
 10
755.3549576630467
 20
649.1999474703578
 30
0.0
  0
POINT
  5
3869
  8
DEFPOINTS
 62
     0
 10
721.8796182350463
 20
649.1999474703578
 30
0.0
  0
ENDBLK
  5
3860
  8
0
  0
BLOCK
  8
0
  2
*D21
 70
     1
 10
0.0
 20
0.0
 30
0.0
  3
*D21
  1

  0
LINE
  5
3A49
  8
DIMENSIONS
  6
BYBLOCK
 62
     0
 10
123.9459240616767
 20
766.4684177365002
 30
0.0
 11
123.9459240616767
 21
799.8764834775799
 31
0.0
  0
LINE
  5
3A4A
  8
DIMENSIONS
  6
BYBLOCK
 62
     0
 10
373.9459240616767
 20
766.4684177365002
 30
0.0
 11
373.9459240616767
 21
799.8764834775799
 31
0.0
  0
LINE
  5
3A4B
  8
DIMENSIONS
  6
BYBLOCK
 62
     0
 10
128.9459240616767
 20
799.6964834775799
 30
0.0
 11
368.9459240616767
 21
799.6964834775799
 31
0.0
  0
SOLID
  5
3A4C
  8
DIMENSIONS
 62
     0
 10
128.9459240616767
 20
800.5298168109133
 30
0.0
 11
128.9459240616767
 21
798.8631501442466
 31
0.0
 12
123.9459240616767
 22
799.6964834775799
 32
0.0
 13
123.9459240616767
 23
799.6964834775799
 33
0.0
  0
SOLID
  5
3A4D
  8
DIMENSIONS
 62
     0
 10
368.9459240616767
 20
798.8631501442466
 30
0.0
 11
368.9459240616767
 21
800.5298168109133
 31
0.0
 12
373.9459240616767
 22
799.6964834775799
 32
0.0
 13
373.9459240616767
 23
799.6964834775799
 33
0.0
  0
TEXT
  5
3A4E
  8
DIMENSIONS
  6
CONTINUOUS
 62
     5
 10
233.5509240616767
 20
802.0914834775799
 30
0.0
 40
5.0
  1
250 [9.84]
  0
POINT
  5
3A4F
  8
DEFPOINTS
 62
     0
 10
123.9459240616767
 20
764.9684177365002
 30
0.0
  0
POINT
  5
3A50
  8
DEFPOINTS
 62
     0
 10
373.9459240616767
 20
764.9684177365002
 30
0.0
  0
POINT
  5
3A51
  8
DEFPOINTS
 62
     0
 10
373.9459240616767
 20
799.6964834775799
 30
0.0
  0
ENDBLK
  5
3A48
  8
0
  0
BLOCK
  8
0
  2
*D22
 70
     1
 10
0.0
 20
0.0
 30
0.0
  3
*D22
  1

  0
LINE
  5
3A58
  8
DIMENSIONS
  6
BYBLOCK
 62
     0
 10
138.9459240616767
 20
746.4684177365002
 30
0.0
 11
138.9459240616767
 21
786.6244695133587
 31
0.0
  0
LINE
  5
3A59
  8
DIMENSIONS
  6
BYBLOCK
 62
     0
 10
358.9459240616767
 20
746.4684177365002
 30
0.0
 11
358.9459240616767
 21
786.6244695133587
 31
0.0
  0
LINE
  5
3A5A
  8
DIMENSIONS
  6
BYBLOCK
 62
     0
 10
143.9459240616767
 20
786.4444695133587
 30
0.0
 11
353.9459240616767
 21
786.4444695133587
 31
0.0
  0
SOLID
  5
3A5B
  8
DIMENSIONS
 62
     0
 10
143.9459240616767
 20
787.2778028466921
 30
0.0
 11
143.9459240616767
 21
785.6111361800254
 31
0.0
 12
138.9459240616767
 22
786.4444695133587
 32
0.0
 13
138.9459240616767
 23
786.4444695133587
 33
0.0
  0
SOLID
  5
3A5C
  8
DIMENSIONS
 62
     0
 10
353.9459240616767
 20
785.6111361800254
 30
0.0
 11
353.9459240616767
 21
787.2778028466921
 31
0.0
 12
358.9459240616767
 22
786.4444695133587
 32
0.0
 13
358.9459240616767
 23
786.4444695133587
 33
0.0
  0
TEXT
  5
3A5D
  8
DIMENSIONS
  6
CONTINUOUS
 62
     5
 10
233.5509240616767
 20
788.8394695133587
 30
0.0
 40
5.0
  1
220 [8.66]
  0
POINT
  5
3A5E
  8
DEFPOINTS
 62
     0
 10
138.9459240616767
 20
744.9684177365002
 30
0.0
  0
POINT
  5
3A5F
  8
DEFPOINTS
 62
     0
 10
358.9459240616767
 20
744.9684177365002
 30
0.0
  0
POINT
  5
3A60
  8
DEFPOINTS
 62
     0
 10
358.9459240616767
 20
786.4444695133587
 30
0.0
  0
ENDBLK
  5
3A57
  8
0
  0
BLOCK
  8
0
  2
*D23
 70
     1
 10
0.0
 20
0.0
 30
0.0
  3
*D23
  1

  0
LINE
  5
3A67
  8
DIMENSIONS
  6
BYBLOCK
 62
     0
 10
146.4459240616767
 20
743.9684177365002
 30
0.0
 11
146.4459240616767
 21
775.7778701888302
 31
0.0
  0
LINE
  5
3A68
  8
DIMENSIONS
  6
BYBLOCK
 62
     0
 10
351.4459240616767
 20
743.9684177365002
 30
0.0
 11
351.4459240616767
 21
775.7778701888302
 31
0.0
  0
LINE
  5
3A69
  8
DIMENSIONS
  6
BYBLOCK
 62
     0
 10
151.4459240616767
 20
775.5978701888303
 30
0.0
 11
346.4459240616767
 21
775.5978701888303
 31
0.0
  0
SOLID
  5
3A6A
  8
DIMENSIONS
 62
     0
 10
151.4459240616767
 20
776.4312035221636
 30
0.0
 11
151.4459240616767
 21
774.7645368554969
 31
0.0
 12
146.4459240616767
 22
775.5978701888303
 32
0.0
 13
146.4459240616767
 23
775.5978701888303
 33
0.0
  0
SOLID
  5
3A6B
  8
DIMENSIONS
 62
     0
 10
346.4459240616767
 20
774.7645368554969
 30
0.0
 11
346.4459240616767
 21
776.4312035221636
 31
0.0
 12
351.4459240616767
 22
775.5978701888303
 32
0.0
 13
351.4459240616767
 23
775.5978701888303
 33
0.0
  0
TEXT
  5
3A6C
  8
DIMENSIONS
  6
CONTINUOUS
 62
     5
 10
233.5509240616767
 20
777.9928701888302
 30
0.0
 40
5.0
  1
205 [8.07]
  0
POINT
  5
3A6D
  8
DEFPOINTS
 62
     0
 10
146.4459240616767
 20
742.4684177365002
 30
0.0
  0
POINT
  5
3A6E
  8
DEFPOINTS
 62
     0
 10
351.4459240616767
 20
742.4684177365002
 30
0.0
  0
POINT
  5
3A6F
  8
DEFPOINTS
 62
     0
 10
351.4459240616767
 20
775.5978701888303
 30
0.0
  0
ENDBLK
  5
3A66
  8
0
  0
BLOCK
  8
0
  2
*D24
 70
     1
 10
0.0
 20
0.0
 30
0.0
  3
*D24
  1

  0
LINE
  5
3A90
  8
DIMENSIONS
  6
BYBLOCK
 62
     0
 10
122.4459240616767
 20
764.9684177365002
 30
0.0
 11
111.6711756304719
 21
764.9684177365002
 31
0.0
  0
LINE
  5
3A91
  8
DIMENSIONS
  6
BYBLOCK
 62
     0
 10
137.4459240616767
 20
744.9684177365002
 30
0.0
 11
111.6711756304719
 21
744.9684177365002
 31
0.0
  0
LINE
  5
3A92
  8
DIMENSIONS
  6
BYBLOCK
 62
     0
 10
111.8511756304719
 20
759.9684177365002
 30
0.0
 11
111.8511756304719
 21
749.9684177365002
 31
0.0
  0
SOLID
  5
3A93
  8
DIMENSIONS
 62
     0
 10
112.6845089638052
 20
759.9684177365002
 30
0.0
 11
111.0178422971386
 21
759.9684177365002
 31
0.0
 12
111.8511756304719
 22
764.9684177365002
 32
0.0
 13
111.8511756304719
 23
764.9684177365002
 33
0.0
  0
SOLID
  5
3A94
  8
DIMENSIONS
 62
     0
 10
111.0178422971386
 20
749.9684177365002
 30
0.0
 11
112.6845089638052
 21
749.9684177365002
 31
0.0
 12
111.8511756304719
 22
744.9684177365002
 32
0.0
 13
111.8511756304719
 23
744.9684177365002
 33
0.0
  0
TEXT
  5
3A95
  8
DIMENSIONS
  6
CONTINUOUS
 62
     5
 10
108.6343301159366
 20
737.4923394991182
 30
0.0
 40
5.0
  1
20 [0.79]
 50
90.0
  0
POINT
  5
3A96
  8
DEFPOINTS
 62
     0
 10
123.9459240616767
 20
764.9684177365002
 30
0.0
  0
POINT
  5
3A97
  8
DEFPOINTS
 62
     0
 10
138.9459240616767
 20
744.9684177365002
 30
0.0
  0
POINT
  5
3A98
  8
DEFPOINTS
 62
     0
 10
111.8511756304719
 20
744.9684177365002
 30
0.0
  0
ENDBLK
  5
3A8F
  8
0
  0
BLOCK
  8
0
  2
*D25
 70
     1
 10
0.0
 20
0.0
 30
0.0
  3
*D25
  1

  0
LINE
  5
3A9F
  8
DIMENSIONS
  6
BYBLOCK
 62
     0
 10
137.4459240616767
 20
744.9684177365002
 30
0.0
 11
111.6711756304719
 21
744.9684177365002
 31
0.0
  0
LINE
  5
3AA0
  8
DIMENSIONS
  6
BYBLOCK
 62
     0
 10
137.4459240616767
 20
629.9684177365002
 30
0.0
 11
111.6711756304719
 21
629.9684177365002
 31
0.0
  0
LINE
  5
3AA1
  8
DIMENSIONS
  6
BYBLOCK
 62
     0
 10
111.8511756304719
 20
739.9684177365002
 30
0.0
 11
111.8511756304719
 21
634.9684177365002
 31
0.0
  0
SOLID
  5
3AA2
  8
DIMENSIONS
 62
     0
 10
112.6845089638052
 20
739.9684177365002
 30
0.0
 11
111.0178422971386
 21
739.9684177365002
 31
0.0
 12
111.8511756304719
 22
744.9684177365002
 32
0.0
 13
111.8511756304719
 23
744.9684177365002
 33
0.0
  0
SOLID
  5
3AA3
  8
DIMENSIONS
 62
     0
 10
111.0178422971386
 20
634.9684177365002
 30
0.0
 11
112.6845089638052
 21
634.9684177365002
 31
0.0
 12
111.8511756304719
 22
629.9684177365002
 32
0.0
 13
111.8511756304719
 23
629.9684177365002
 33
0.0
  0
TEXT
  5
3AA4
  8
DIMENSIONS
  6
CONTINUOUS
 62
     5
 10
109.4561756304719
 20
671.7959177365002
 30
0.0
 40
5.0
  1
115 [4.53]
 50
90.0
  0
POINT
  5
3AA5
  8
DEFPOINTS
 62
     0
 10
138.9459240616767
 20
744.9684177365002
 30
0.0
  0
POINT
  5
3AA6
  8
DEFPOINTS
 62
     0
 10
138.9459240616767
 20
629.9684177365002
 30
0.0
  0
POINT
  5
3AA7
  8
DEFPOINTS
 62
     0
 10
111.8511756304719
 20
629.9684177365002
 30
0.0
  0
ENDBLK
  5
3A9E
  8
0
  0
BLOCK
  8
0
  2
*D26
 70
     1
 10
0.0
 20
0.0
 30
0.0
  3
*D26
  1

  0
LINE
  5
3AAE
  8
DIMENSIONS
  6
BYBLOCK
 62
     0
 10
137.4459240616767
 20
629.9684177365002
 30
0.0
 11
111.6711756304719
 21
629.9684177365002
 31
0.0
  0
LINE
  5
3AAF
  8
DIMENSIONS
  6
BYBLOCK
 62
     0
 10
137.4459240616767
 20
452.9684177365002
 30
0.0
 11
111.6711756304719
 21
452.9684177365002
 31
0.0
  0
LINE
  5
3AB0
  8
DIMENSIONS
  6
BYBLOCK
 62
     0
 10
111.8511756304719
 20
624.9684177365002
 30
0.0
 11
111.8511756304719
 21
457.9684177365002
 31
0.0
  0
SOLID
  5
3AB1
  8
DIMENSIONS
 62
     0
 10
112.6845089638052
 20
624.9684177365002
 30
0.0
 11
111.0178422971386
 21
624.9684177365002
 31
0.0
 12
111.8511756304719
 22
629.9684177365002
 32
0.0
 13
111.8511756304719
 23
629.9684177365002
 33
0.0
  0
SOLID
  5
3AB2
  8
DIMENSIONS
 62
     0
 10
111.0178422971385
 20
457.9684177365002
 30
0.0
 11
112.6845089638052
 21
457.9684177365002
 31
0.0
 12
111.8511756304719
 22
452.9684177365002
 32
0.0
 13
111.8511756304719
 23
452.9684177365002
 33
0.0
  0
TEXT
  5
3AB3
  8
DIMENSIONS
  6
CONTINUOUS
 62
     5
 10
109.4561756304719
 20
525.7959177365002
 30
0.0
 40
5.0
  1
177 [6.97]
 50
90.0
  0
POINT
  5
3AB4
  8
DEFPOINTS
 62
     0
 10
138.9459240616767
 20
629.9684177365002
 30
0.0
  0
POINT
  5
3AB5
  8
DEFPOINTS
 62
     0
 10
138.9459240616767
 20
452.9684177365002
 30
0.0
  0
POINT
  5
3AB6
  8
DEFPOINTS
 62
     0
 10
111.8511756304719
 20
452.9684177365002
 30
0.0
  0
ENDBLK
  5
3AAD
  8
0
  0
BLOCK
  8
0
  2
*D27
 70
     1
 10
0.0
 20
0.0
 30
0.0
  3
*D27
  1

  0
LINE
  5
3ABD
  8
DIMENSIONS
  6
BYBLOCK
 62
     0
 10
122.4459240616767
 20
764.9684177365002
 30
0.0
 11
97.30303926524219
 21
764.9684177365002
 31
0.0
  0
LINE
  5
3ABE
  8
DIMENSIONS
  6
BYBLOCK
 62
     0
 10
122.4459240616767
 20
164.9684177365002
 30
0.0
 11
97.30303926524215
 21
164.9684177365002
 31
0.0
  0
LINE
  5
3ABF
  8
DIMENSIONS
  6
BYBLOCK
 62
     0
 10
97.4830392652422
 20
759.9684177365002
 30
0.0
 11
97.48303926524216
 21
169.9684177365002
 31
0.0
  0
SOLID
  5
3AC0
  8
DIMENSIONS
 62
     0
 10
98.31637259857553
 20
759.9684177365002
 30
0.0
 11
96.64970593190887
 21
759.9684177365002
 31
0.0
 12
97.4830392652422
 22
764.9684177365002
 32
0.0
 13
97.4830392652422
 23
764.9684177365002
 33
0.0
  0
SOLID
  5
3AC1
  8
DIMENSIONS
 62
     0
 10
96.64970593190883
 20
169.9684177365002
 30
0.0
 11
98.31637259857548
 21
169.9684177365002
 31
0.0
 12
97.48303926524216
 22
164.9684177365002
 32
0.0
 13
97.48303926524216
 23
164.9684177365002
 33
0.0
  0
TEXT
  5
3AC2
  8
DIMENSIONS
  6
CONTINUOUS
 62
     5
 10
95.08803926524217
 20
447.6059177365002
 30
0.0
 40
5.0
  1
600 [23.62]
 50
90.0
  0
POINT
  5
3AC3
  8
DEFPOINTS
 62
     0
 10
123.9459240616767
 20
764.9684177365002
 30
0.0
  0
POINT
  5
3AC4
  8
DEFPOINTS
 62
     0
 10
123.9459240616767
 20
164.9684177365002
 30
0.0
  0
POINT
  5
3AC5
  8
DEFPOINTS
 62
     0
 10
97.48303926524216
 20
164.9684177365002
 30
0.0
  0
ENDBLK
  5
3ABC
  8
0
  0
BLOCK
  8
0
  2
*D28
 70
     1
 10
0.0
 20
0.0
 30
0.0
  3
*D28
  1

  0
LINE
  5
3ACC
  8
DIMENSIONS
  6
BYBLOCK
 62
     0
 10
375.4459240616767
 20
764.9684177365002
 30
0.0
 11
386.4006724928815
 21
764.9684177365002
 31
0.0
  0
LINE
  5
3ACD
  8
DIMENSIONS
  6
BYBLOCK
 62
     0
 10
352.9459240616767
 20
742.4684177365002
 30
0.0
 11
386.4006724928815
 21
742.4684177365002
 31
0.0
  0
LINE
  5
3ACE
  8
DIMENSIONS
  6
BYBLOCK
 62
     0
 10
386.2206724928815
 20
759.9684177365002
 30
0.0
 11
386.2206724928815
 21
747.4684177365002
 31
0.0
  0
SOLID
  5
3ACF
  8
DIMENSIONS
 62
     0
 10
387.0540058262148
 20
759.9684177365002
 30
0.0
 11
385.3873391595482
 21
759.9684177365002
 31
0.0
 12
386.2206724928815
 22
764.9684177365002
 32
0.0
 13
386.2206724928815
 23
764.9684177365002
 33
0.0
  0
SOLID
  5
3AD0
  8
DIMENSIONS
 62
     0
 10
385.3873391595482
 20
747.4684177365002
 30
0.0
 11
387.0540058262148
 21
747.4684177365002
 31
0.0
 12
386.2206724928815
 22
742.4684177365002
 32
0.0
 13
386.2206724928815
 23
742.4684177365002
 33
0.0
  0
TEXT
  5
3AD1
  8
DIMENSIONS
  6
CONTINUOUS
 62
     5
 10
394.3728313293742
 20
737.1466462401806
 30
0.0
 40
5.0
  1
22.5 [0.89]
 50
90.0
  0
POINT
  5
3AD2
  8
DEFPOINTS
 62
     0
 10
373.9459240616767
 20
764.9684177365002
 30
0.0
  0
POINT
  5
3AD3
  8
DEFPOINTS
 62
     0
 10
351.4459240616767
 20
742.4684177365002
 30
0.0
  0
POINT
  5
3AD4
  8
DEFPOINTS
 62
     0
 10
386.2206724928815
 20
742.4684177365002
 30
0.0
  0
ENDBLK
  5
3ACB
  8
0
  0
BLOCK
  8
0
  2
*D29
 70
     1
 10
0.0
 20
0.0
 30
0.0
  3
*D29
  1

  0
LINE
  5
3ADB
  8
DIMENSIONS
  6
BYBLOCK
 62
     0
 10
352.9459240616767
 20
742.4684177365002
 30
0.0
 11
386.4006724928815
 21
742.4684177365002
 31
0.0
  0
LINE
  5
3ADC
  8
DIMENSIONS
  6
BYBLOCK
 62
     0
 10
352.9459240616767
 20
472.4684177365002
 30
0.0
 11
386.4006724928815
 21
472.4684177365002
 31
0.0
  0
LINE
  5
3ADD
  8
DIMENSIONS
  6
BYBLOCK
 62
     0
 10
386.2206724928815
 20
737.4684177365002
 30
0.0
 11
386.2206724928815
 21
477.4684177365002
 31
0.0
  0
SOLID
  5
3ADE
  8
DIMENSIONS
 62
     0
 10
387.0540058262148
 20
737.4684177365002
 30
0.0
 11
385.3873391595482
 21
737.4684177365002
 31
0.0
 12
386.2206724928815
 22
742.4684177365002
 32
0.0
 13
386.2206724928815
 23
742.4684177365002
 33
0.0
  0
SOLID
  5
3ADF
  8
DIMENSIONS
 62
     0
 10
385.3873391595482
 20
477.4684177365002
 30
0.0
 11
387.0540058262148
 21
477.4684177365002
 31
0.0
 12
386.2206724928815
 22
472.4684177365002
 32
0.0
 13
386.2206724928815
 23
472.4684177365002
 33
0.0
  0
TEXT
  5
3AE0
  8
DIMENSIONS
  6
CONTINUOUS
 62
     5
 10
393.6306137930424
 20
589.9147301389153
 30
0.0
 40
5.0
  1
270 [10.63]
 50
90.0
  0
POINT
  5
3AE1
  8
DEFPOINTS
 62
     0
 10
351.4459240616767
 20
742.4684177365002
 30
0.0
  0
POINT
  5
3AE2
  8
DEFPOINTS
 62
     0
 10
351.4459240616767
 20
472.4684177365002
 30
0.0
  0
POINT
  5
3AE3
  8
DEFPOINTS
 62
     0
 10
386.2206724928815
 20
472.4684177365002
 30
0.0
  0
ENDBLK
  5
3ADA
  8
0
  0
BLOCK
  8
0
  2
*D30
 70
     1
 10
0.0
 20
0.0
 30
0.0
  3
*D30
  1

  0
LINE
  5
3AEE
  8
DIMENSIONS
  6
BYBLOCK
 62
     0
 10
143.4223925127121
 20
445.742683849421
 30
0.0
 11
146.0556092486153
 21
441.4922521511391
 31
0.0
  0
LINE
  5
3AEF
  8
DIMENSIONS
  6
BYBLOCK
 62
     0
 10
134.4694556106413
 20
460.1941516235794
 30
0.0
 11
131.8362388747381
 21
464.4445833218613
 31
0.0
  0
TEXT
  5
3AF0
  8
DIMENSIONS
  6
CONTINUOUS
 62
     5
 10
146.0929436634589
 20
452.5089693514943
 30
0.0
 40
5.0
  1
Ø7 [Ø0.28]
 50
301.7789385995003
  0
SOLID
  5
3AF1
  8
DIMENSIONS
 62
     0
 10
133.7610503275943
 20
459.7552821675956
 30
0.0
 11
135.1778608936883
 21
460.6330210795633
 31
0.0
 12
137.1026723465445
 22
455.9437199252976
 32
0.0
 13
137.1026723465445
 23
455.9437199252976
 33
0.0
  0
SOLID
  5
3AF2
  8
DIMENSIONS
 62
     0
 10
144.1307977957591
 20
446.1815533054049
 30
0.0
 11
142.7139872296651
 21
445.3038143934371
 31
0.0
 12
140.7891757768089
 22
449.9931155477029
 32
0.0
 13
140.7891757768089
 23
449.9931155477029
 33
0.0
  0
LINE
  5
3AF3
  8
DIMENSIONS
  6
BYBLOCK
 62
     0
 10
137.6959240616767
 20
452.9684177365002
 30
0.0
 11
140.1959240616767
 21
452.9684177365002
 31
0.0
  0
LINE
  5
3AF4
  8
DIMENSIONS
  6
BYBLOCK
 62
     0
 10
138.9459240616767
 20
451.7184177365002
 30
0.0
 11
138.9459240616767
 21
454.2184177365002
 31
0.0
  0
POINT
  5
3AF5
  8
DEFPOINTS
 62
     0
 10
140.7891757768089
 20
449.9931155477029
 30
0.0
  0
POINT
  5
3AF6
  8
DEFPOINTS
 62
     0
 10
137.1026723465445
 20
455.9437199252976
 30
0.0
  0
ENDBLK
  5
3AED
  8
0
  0
BLOCK
  8
0
  2
*D31
 70
     1
 10
0.0
 20
0.0
 30
0.0
  3
*D31
  1

  0
LINE
  5
3AFD
  8
DIMENSIONS
  6
BYBLOCK
 10
164.4425146893333
 20
424.0756242369305
 30
0.0
 11
156.8455146893333
 21
424.0756242369305
 31
0.0
  0
LINE
  5
3AFE
  8
DIMENSIONS
  6
BYBLOCK
 10
156.8455146893333
 20
424.0756242369305
 30
0.0
 11
142.6324274919411
 21
447.0178133589055
 31
0.0
  0
TEXT
  5
3AFF
  8
DIMENSIONS
  6
CONTINUOUS
 62
     2
 10
158.1495146893333
 20
425.7786242369305
 30
0.0
 40
3.5
  1
Ø7
  0
SOLID
  5
3B00
  8
DIMENSIONS
 10
143.128311190074
 20
447.3250219780942
 30
0.0
 11
142.1365437938082
 21
446.7106047397168
 31
0.0
 12
140.7891757768089
 22
449.9931155477029
 32
0.0
 13
140.7891757768089
 23
449.9931155477029
 33
0.0
  0
POINT
  5
3B01
  8
DEFPOINTS
 62
     0
 10
140.7891757768089
 20
449.9931155477029
 30
0.0
  0
POINT
  5
3B02
  8
DEFPOINTS
 62
     0
 10
137.1026723465445
 20
455.9437199252976
 30
0.0
  0
ENDBLK
  5
3AFC
  8
0
  0
BLOCK
  8
0
  2
*D32
 70
     1
 10
0.0
 20
0.0
 30
0.0
  3
*D32
  1

  0
LINE
  5
3B0D
  8
DIMENSIONS
  6
BYBLOCK
 62
     0
 10
146.3122844778817
 20
448.7273407248712
 30
0.0
 11
181.3284953739716
 21
428.5672564125338
 31
0.0
  0
TEXT
  5
3B0E
  8
DIMENSIONS
  6
CONTINUOUS
 62
     5
 10
152.5043135584082
 20
448.0182561982348
 30
0.0
 40
5.0
  1
Ø7 [Ø0.28]
 50
330.0694275147052
  0
SOLID
  5
3B0F
  8
DIMENSIONS
 62
     0
 10
146.728076341767
 20
449.4495329225384
 30
0.0
 11
145.8964926139965
 21
448.0051485272041
 31
0.0
 12
141.9791312918788
 22
451.2220919081824
 32
0.0
 13
141.9791312918788
 23
451.2220919081824
 33
0.0
  0
LINE
  5
3B10
  8
DIMENSIONS
  6
BYBLOCK
 62
     0
 10
137.6959240616767
 20
452.9684177365002
 30
0.0
 11
140.1959240616767
 21
452.9684177365002
 31
0.0
  0
LINE
  5
3B11
  8
DIMENSIONS
  6
BYBLOCK
 62
     0
 10
138.9459240616767
 20
451.7184177365002
 30
0.0
 11
138.9459240616767
 21
454.2184177365002
 31
0.0
  0
POINT
  5
3B12
  8
DEFPOINTS
 62
     0
 10
141.9791312918788
 20
451.2220919081824
 30
0.0
  0
POINT
  5
3B13
  8
DEFPOINTS
 62
     0
 10
135.9127168314746
 20
454.714743564818
 30
0.0
  0
ENDBLK
  5
3B0C
  8
0
  0
BLOCK
  8
0
  2
*D33
 70
     1
 10
0.0
 20
0.0
 30
0.0
  3
*D33
  1

  0
LINE
  5
3C91
  8
DIMENSIONS
  6
BYBLOCK
 62
     0
 10
458.7507439125419
 20
766.4684177365004
 30
0.0
 11
458.7507439125419
 21
786.6244695133588
 31
0.0
  0
LINE
  5
3C92
  8
DIMENSIONS
  6
BYBLOCK
 62
     0
 10
708.7507439125418
 20
766.4684177365004
 30
0.0
 11
708.7507439125418
 21
786.6244695133588
 31
0.0
  0
LINE
  5
3C93
  8
DIMENSIONS
  6
BYBLOCK
 62
     0
 10
463.7507439125419
 20
786.4444695133589
 30
0.0
 11
703.7507439125418
 21
786.4444695133589
 31
0.0
  0
SOLID
  5
3C94
  8
DIMENSIONS
 62
     0
 10
463.7507439125419
 20
787.2778028466922
 30
0.0
 11
463.7507439125419
 21
785.6111361800255
 31
0.0
 12
458.7507439125419
 22
786.4444695133589
 32
0.0
 13
458.7507439125419
 23
786.4444695133589
 33
0.0
  0
SOLID
  5
3C95
  8
DIMENSIONS
 62
     0
 10
703.7507439125418
 20
785.6111361800255
 30
0.0
 11
703.7507439125418
 21
787.2778028466922
 31
0.0
 12
708.7507439125418
 22
786.4444695133589
 32
0.0
 13
708.7507439125418
 23
786.4444695133589
 33
0.0
  0
TEXT
  5
3C96
  8
DIMENSIONS
  6
CONTINUOUS
 62
     5
 10
568.3557439125417
 20
788.8394695133588
 30
0.0
 40
5.0
  1
250 [9.84]
  0
POINT
  5
3C97
  8
DEFPOINTS
 62
     0
 10
458.7507439125419
 20
764.9684177365004
 30
0.0
  0
POINT
  5
3C98
  8
DEFPOINTS
 62
     0
 10
708.7507439125418
 20
764.9684177365004
 30
0.0
  0
POINT
  5
3C99
  8
DEFPOINTS
 62
     0
 10
708.7507439125418
 20
786.4444695133589
 30
0.0
  0
ENDBLK
  5
3C90
  8
0
  0
BLOCK
  8
0
  2
*D34
 70
     1
 10
0.0
 20
0.0
 30
0.0
  3
*D34
  1

  0
LINE
  5
3CA0
  8
DIMENSIONS
  6
BYBLOCK
 62
     0
 10
473.7507439125419
 20
751.4684177365004
 30
0.0
 11
473.7507439125419
 21
775.7778701888303
 31
0.0
  0
LINE
  5
3CA1
  8
DIMENSIONS
  6
BYBLOCK
 62
     0
 10
693.7507439125418
 20
751.4684177365004
 30
0.0
 11
693.7507439125418
 21
775.7778701888303
 31
0.0
  0
LINE
  5
3CA2
  8
DIMENSIONS
  6
BYBLOCK
 62
     0
 10
478.7507439125419
 20
775.5978701888304
 30
0.0
 11
688.7507439125418
 21
775.5978701888304
 31
0.0
  0
SOLID
  5
3CA3
  8
DIMENSIONS
 62
     0
 10
478.7507439125419
 20
776.4312035221637
 30
0.0
 11
478.7507439125419
 21
774.764536855497
 31
0.0
 12
473.7507439125419
 22
775.5978701888304
 32
0.0
 13
473.7507439125419
 23
775.5978701888304
 33
0.0
  0
SOLID
  5
3CA4
  8
DIMENSIONS
 62
     0
 10
688.7507439125418
 20
774.764536855497
 30
0.0
 11
688.7507439125418
 21
776.4312035221637
 31
0.0
 12
693.7507439125418
 22
775.5978701888304
 32
0.0
 13
693.7507439125418
 23
775.5978701888304
 33
0.0
  0
TEXT
  5
3CA5
  8
DIMENSIONS
  6
CONTINUOUS
 62
     5
 10
568.3557439125417
 20
777.9928701888304
 30
0.0
 40
5.0
  1
220 [8.66]
  0
POINT
  5
3CA6
  8
DEFPOINTS
 62
     0
 10
473.7507439125419
 20
749.9684177365004
 30
0.0
  0
POINT
  5
3CA7
  8
DEFPOINTS
 62
     0
 10
693.7507439125418
 20
749.9684177365004
 30
0.0
  0
POINT
  5
3CA8
  8
DEFPOINTS
 62
     0
 10
693.7507439125418
 20
775.5978701888304
 30
0.0
  0
ENDBLK
  5
3C9F
  8
0
  0
BLOCK
  8
0
  2
*D35
 70
     1
 10
0.0
 20
0.0
 30
0.0
  3
*D35
  1

  0
LINE
  5
3CAF
  8
DIMENSIONS
  6
BYBLOCK
 62
     0
 10
457.2507439125419
 20
764.9684177365004
 30
0.0
 11
446.4537310444902
 21
764.9684177365004
 31
0.0
  0
LINE
  5
3CB0
  8
DIMENSIONS
  6
BYBLOCK
 62
     0
 10
472.2507439125419
 20
749.9684177365004
 30
0.0
 11
446.4537310444902
 21
749.9684177365004
 31
0.0
  0
LINE
  5
3CB1
  8
DIMENSIONS
  6
BYBLOCK
 62
     0
 10
446.6337310444902
 20
759.9684177365004
 30
0.0
 11
446.6337310444902
 21
754.9684177365004
 31
0.0
  0
SOLID
  5
3CB2
  8
DIMENSIONS
 62
     0
 10
447.4670643778235
 20
759.9684177365004
 30
0.0
 11
445.8003977111568
 21
759.9684177365004
 31
0.0
 12
446.6337310444902
 22
764.9684177365004
 32
0.0
 13
446.6337310444902
 23
764.9684177365004
 33
0.0
  0
SOLID
  5
3CB3
  8
DIMENSIONS
 62
     0
 10
445.8003977111568
 20
754.9684177365004
 30
0.0
 11
447.4670643778235
 21
754.9684177365004
 31
0.0
 12
446.6337310444902
 22
749.9684177365004
 32
0.0
 13
446.6337310444902
 23
749.9684177365004
 33
0.0
  0
TEXT
  5
3CB4
  8
DIMENSIONS
  6
CONTINUOUS
 62
     5
 10
443.1701729344884
 20
737.637454184834
 30
0.0
 40
5.0
  1
15 [0.59]
 50
90.0
  0
POINT
  5
3CB5
  8
DEFPOINTS
 62
     0
 10
458.7507439125419
 20
764.9684177365004
 30
0.0
  0
POINT
  5
3CB6
  8
DEFPOINTS
 62
     0
 10
473.7507439125419
 20
749.9684177365004
 30
0.0
  0
POINT
  5
3CB7
  8
DEFPOINTS
 62
     0
 10
446.6337310444902
 20
749.9684177365004
 30
0.0
  0
ENDBLK
  5
3CAE
  8
0
  0
BLOCK
  8
0
  2
*D36
 70
     1
 10
0.0
 20
0.0
 30
0.0
  3
*D36
  1

  0
LINE
  5
3CBE
  8
DIMENSIONS
  6
BYBLOCK
 62
     0
 10
472.2507439125419
 20
178.4684177365004
 30
0.0
 11
446.4544271494409
 21
178.4684177365004
 31
0.0
  0
LINE
  5
3CBF
  8
DIMENSIONS
  6
BYBLOCK
 62
     0
 10
472.2507439125419
 20
749.9684177365004
 30
0.0
 11
446.454427149441
 21
749.9684177365004
 31
0.0
  0
LINE
  5
3CC0
  8
DIMENSIONS
  6
BYBLOCK
 62
     0
 10
446.6344271494409
 20
183.4684177365004
 30
0.0
 11
446.634427149441
 21
744.9684177365004
 31
0.0
  0
SOLID
  5
3CC1
  8
DIMENSIONS
 62
     0
 10
445.8010938161076
 20
183.4684177365004
 30
0.0
 11
447.4677604827742
 21
183.4684177365004
 31
0.0
 12
446.6344271494409
 22
178.4684177365004
 32
0.0
 13
446.6344271494409
 23
178.4684177365004
 33
0.0
  0
SOLID
  5
3CC2
  8
DIMENSIONS
 62
     0
 10
447.4677604827743
 20
744.9684177365004
 30
0.0
 11
445.8010938161077
 21
744.9684177365004
 31
0.0
 12
446.634427149441
 22
749.9684177365004
 32
0.0
 13
446.634427149441
 23
749.9684177365004
 33
0.0
  0
TEXT
  5
3CC3
  8
DIMENSIONS
  6
CONTINUOUS
 62
     5
 10
444.239427149441
 20
443.9309177365004
 30
0.0
 40
5.0
  1
571.5 [22.50]
 50
90.0
  0
POINT
  5
3CC4
  8
DEFPOINTS
 62
     0
 10
473.7507439125419
 20
178.4684177365004
 30
0.0
  0
POINT
  5
3CC5
  8
DEFPOINTS
 62
     0
 10
473.7507439125419
 20
749.9684177365004
 30
0.0
  0
POINT
  5
3CC6
  8
DEFPOINTS
 62
     0
 10
446.634427149441
 20
749.9684177365004
 30
0.0
  0
ENDBLK
  5
3CBD
  8
0
  0
BLOCK
  8
0
  2
*D37
 70
     1
 10
0.0
 20
0.0
 30
0.0
  3
*D37
  1

  0
LINE
  5
3CCD
  8
DIMENSIONS
  6
BYBLOCK
 62
     0
 10
472.9570024249289
 20
178.4684177365004
 30
0.0
 11
446.4759954813371
 21
178.4684177365004
 31
0.0
  0
LINE
  5
3CCE
  8
DIMENSIONS
  6
BYBLOCK
 62
     0
 10
457.9570024249289
 20
164.9684177365004
 30
0.0
 11
446.4759954813371
 21
164.9684177365004
 31
0.0
  0
LINE
  5
3CCF
  8
DIMENSIONS
  6
BYBLOCK
 62
     0
 10
446.6559954813371
 20
173.4684177365004
 30
0.0
 11
446.6559954813371
 21
169.9684177365004
 31
0.0
  0
SOLID
  5
3CD0
  8
DIMENSIONS
 62
     0
 10
447.4893288146704
 20
173.4684177365004
 30
0.0
 11
445.8226621480038
 21
173.4684177365004
 31
0.0
 12
446.6559954813371
 22
178.4684177365004
 32
0.0
 13
446.6559954813371
 23
178.4684177365004
 33
0.0
  0
SOLID
  5
3CD1
  8
DIMENSIONS
 62
     0
 10
445.8226621480038
 20
169.9684177365004
 30
0.0
 11
447.4893288146704
 21
169.9684177365004
 31
0.0
 12
446.6559954813371
 22
164.9684177365004
 32
0.0
 13
446.6559954813371
 23
164.9684177365004
 33
0.0
  0
TEXT
  5
3CD2
  8
DIMENSIONS
  6
CONTINUOUS
 62
     5
 10
441.9877004169741
 20
165.2022209712875
 30
0.0
 40
5.0
  1
13.5 [0.53]
 50
90.0
  0
POINT
  5
3CD3
  8
DEFPOINTS
 62
     0
 10
474.4570024249289
 20
178.4684177365004
 30
0.0
  0
POINT
  5
3CD4
  8
DEFPOINTS
 62
     0
 10
459.4570024249289
 20
164.9684177365004
 30
0.0
  0
POINT
  5
3CD5
  8
DEFPOINTS
 62
     0
 10
446.6559954813371
 20
164.9684177365004
 30
0.0
  0
ENDBLK
  5
3CCC
  8
0
  0
BLOCK
  8
0
  2
*D38
 70
     1
 10
0.0
 20
0.0
 30
0.0
  3
*D38
  1

  0
LINE
  5
3CDC
  8
DIMENSIONS
  6
BYBLOCK
 62
     0
 10
457.2507439125419
 20
164.9684177365004
 30
0.0
 11
430.5648744674552
 21
164.9684177365004
 31
0.0
  0
LINE
  5
3CDD
  8
DIMENSIONS
  6
BYBLOCK
 62
     0
 10
457.2507439125419
 20
764.9684177365004
 30
0.0
 11
430.5648744674553
 21
764.9684177365004
 31
0.0
  0
LINE
  5
3CDE
  8
DIMENSIONS
  6
BYBLOCK
 62
     0
 10
430.7448744674552
 20
169.9684177365004
 30
0.0
 11
430.7448744674553
 21
759.9684177365004
 31
0.0
  0
SOLID
  5
3CDF
  8
DIMENSIONS
 62
     0
 10
429.9115411341219
 20
169.9684177365004
 30
0.0
 11
431.5782078007886
 21
169.9684177365004
 31
0.0
 12
430.7448744674552
 22
164.9684177365004
 32
0.0
 13
430.7448744674552
 23
164.9684177365004
 33
0.0
  0
SOLID
  5
3CE0
  8
DIMENSIONS
 62
     0
 10
431.5782078007886
 20
759.9684177365004
 30
0.0
 11
429.911541134122
 21
759.9684177365004
 31
0.0
 12
430.7448744674553
 22
764.9684177365004
 32
0.0
 13
430.7448744674553
 23
764.9684177365004
 33
0.0
  0
TEXT
  5
3CE1
  8
DIMENSIONS
  6
CONTINUOUS
 62
     5
 10
428.3498744674552
 20
447.6059177365004
 30
0.0
 40
5.0
  1
600 [23.62]
 50
90.0
  0
POINT
  5
3CE2
  8
DEFPOINTS
 62
     0
 10
458.7507439125419
 20
164.9684177365004
 30
0.0
  0
POINT
  5
3CE3
  8
DEFPOINTS
 62
     0
 10
458.7507439125419
 20
764.9684177365004
 30
0.0
  0
POINT
  5
3CE4
  8
DEFPOINTS
 62
     0
 10
430.7448744674553
 20
764.9684177365004
 30
0.0
  0
ENDBLK
  5
3CDB
  8
0
  0
BLOCK
  8
0
  2
*D39
 70
     1
 10
0.0
 20
0.0
 30
0.0
  3
*D39
  1

  0
LINE
  5
3EA1
  8
DIMENSIONS
  6
BYBLOCK
 62
     0
 10
249.3284825373288
 20
1823.465646835862
 30
0.0
 11
249.3284825373288
 21
1883.775114156836
 31
0.0
  0
LINE
  5
3EA2
  8
DIMENSIONS
  6
BYBLOCK
 62
     0
 10
624.3284825373288
 20
1823.465646835862
 30
0.0
 11
624.3284825373288
 21
1883.775114156836
 31
0.0
  0
LINE
  5
3EA3
  8
DIMENSIONS
  6
BYBLOCK
 62
     0
 10
254.3284825373288
 20
1883.595114156836
 30
0.0
 11
619.3284825373288
 21
1883.595114156836
 31
0.0
  0
SOLID
  5
3EA4
  8
DIMENSIONS
 62
     0
 10
254.3284825373288
 20
1884.428447490169
 30
0.0
 11
254.3284825373288
 21
1882.761780823502
 31
0.0
 12
249.3284825373288
 22
1883.595114156836
 32
0.0
 13
249.3284825373288
 23
1883.595114156836
 33
0.0
  0
SOLID
  5
3EA5
  8
DIMENSIONS
 62
     0
 10
619.3284825373288
 20
1882.761780823502
 30
0.0
 11
619.3284825373288
 21
1884.428447490169
 31
0.0
 12
624.3284825373288
 22
1883.595114156836
 32
0.0
 13
624.3284825373288
 23
1883.595114156836
 33
0.0
  0
TEXT
  5
3EA6
  8
DIMENSIONS
  6
CONTINUOUS
 62
     5
 10
419.4484825373288
 20
1885.990114156836
 30
0.0
 40
5.0
  1
375 [14.76]
  0
POINT
  5
3EA7
  8
DEFPOINTS
 62
     0
 10
249.3284825373288
 20
1821.965646835862
 30
0.0
  0
POINT
  5
3EA8
  8
DEFPOINTS
 62
     0
 10
624.3284825373288
 20
1821.965646835862
 30
0.0
  0
POINT
  5
3EA9
  8
DEFPOINTS
 62
     0
 10
624.3284825373288
 20
1883.595114156836
 30
0.0
  0
ENDBLK
  5
3EA0
  8
0
  0
BLOCK
  8
0
  2
*D40
 70
     1
 10
0.0
 20
0.0
 30
0.0
  3
*D40
  1

  0
LINE
  5
3EB0
  8
DIMENSIONS
  6
BYBLOCK
 62
     0
 10
236.8284825373288
 20
1803.465646835862
 30
0.0
 11
236.8284825373288
 21
1902.403188387476
 31
0.0
  0
LINE
  5
3EB1
  8
DIMENSIONS
  6
BYBLOCK
 62
     0
 10
636.8284825373288
 20
1803.465646835862
 30
0.0
 11
636.8284825373288
 21
1902.403188387476
 31
0.0
  0
LINE
  5
3EB2
  8
DIMENSIONS
  6
BYBLOCK
 62
     0
 10
241.8284825373288
 20
1902.223188387476
 30
0.0
 11
631.8284825373288
 21
1902.223188387476
 31
0.0
  0
SOLID
  5
3EB3
  8
DIMENSIONS
 62
     0
 10
241.8284825373288
 20
1903.056521720809
 30
0.0
 11
241.8284825373288
 21
1901.389855054143
 31
0.0
 12
236.8284825373288
 22
1902.223188387476
 32
0.0
 13
236.8284825373288
 23
1902.223188387476
 33
0.0
  0
SOLID
  5
3EB4
  8
DIMENSIONS
 62
     0
 10
631.8284825373288
 20
1901.389855054143
 30
0.0
 11
631.8284825373288
 21
1903.056521720809
 31
0.0
 12
636.8284825373288
 22
1902.223188387476
 32
0.0
 13
636.8284825373288
 23
1902.223188387476
 33
0.0
  0
TEXT
  5
3EB5
  8
DIMENSIONS
  6
CONTINUOUS
 62
     5
 10
419.5509825373288
 20
1904.618188387476
 30
0.0
 40
5.0
  1
400 [15.75]
  0
POINT
  5
3EB6
  8
DEFPOINTS
 62
     0
 10
236.8284825373288
 20
1801.965646835862
 30
0.0
  0
POINT
  5
3EB7
  8
DEFPOINTS
 62
     0
 10
636.8284825373288
 20
1801.965646835862
 30
0.0
  0
POINT
  5
3EB8
  8
DEFPOINTS
 62
     0
 10
636.8284825373288
 20
1902.223188387476
 30
0.0
  0
ENDBLK
  5
3EAF
  8
0
  0
BLOCK
  8
0
  2
*D41
 70
     1
 10
0.0
 20
0.0
 30
0.0
  3
*D41
  1

  0
LINE
  5
3EBF
  8
DIMENSIONS
  6
BYBLOCK
 62
     0
 10
209.3284825373288
 20
1848.465646835862
 30
0.0
 11
209.3284825373288
 21
1921.059042064279
 31
0.0
  0
LINE
  5
3EC0
  8
DIMENSIONS
  6
BYBLOCK
 62
     0
 10
664.3284825373288
 20
1848.465646835862
 30
0.0
 11
664.3284825373288
 21
1921.059042064279
 31
0.0
  0
LINE
  5
3EC1
  8
DIMENSIONS
  6
BYBLOCK
 62
     0
 10
214.3284825373288
 20
1920.879042064279
 30
0.0
 11
659.3284825373288
 21
1920.879042064279
 31
0.0
  0
SOLID
  5
3EC2
  8
DIMENSIONS
 62
     0
 10
214.3284825373288
 20
1921.712375397612
 30
0.0
 11
214.3284825373288
 21
1920.045708730946
 31
0.0
 12
209.3284825373288
 22
1920.879042064279
 32
0.0
 13
209.3284825373288
 23
1920.879042064279
 33
0.0
  0
SOLID
  5
3EC3
  8
DIMENSIONS
 62
     0
 10
659.3284825373288
 20
1920.045708730946
 30
0.0
 11
659.3284825373288
 21
1921.712375397612
 31
0.0
 12
664.3284825373288
 22
1920.879042064279
 32
0.0
 13
664.3284825373288
 23
1920.879042064279
 33
0.0
  0
TEXT
  5
3EC4
  8
DIMENSIONS
  6
CONTINUOUS
 62
     5
 10
419.5509825373288
 20
1923.274042064279
 30
0.0
 40
5.0
  1
455 [17.91]
  0
POINT
  5
3EC5
  8
DEFPOINTS
 62
     0
 10
209.3284825373288
 20
1846.965646835862
 30
0.0
  0
POINT
  5
3EC6
  8
DEFPOINTS
 62
     0
 10
664.3284825373288
 20
1846.965646835862
 30
0.0
  0
POINT
  5
3EC7
  8
DEFPOINTS
 62
     0
 10
664.3284825373288
 20
1920.879042064279
 30
0.0
  0
ENDBLK
  5
3EBE
  8
0
  0
BLOCK
  8
0
  2
*D42
 70
     1
 10
0.0
 20
0.0
 30
0.0
  3
*D42
  1

  0
LINE
  5
3ECE
  8
DIMENSIONS
  6
BYBLOCK
 62
     0
 10
207.8284825373288
 20
1846.965646835862
 30
0.0
 11
190.8927543015844
 21
1846.965646835862
 31
0.0
  0
LINE
  5
3ECF
  8
DIMENSIONS
  6
BYBLOCK
 62
     0
 10
247.8284825373288
 20
1821.965646835862
 30
0.0
 11
190.8927543015844
 21
1821.965646835862
 31
0.0
  0
LINE
  5
3ED0
  8
DIMENSIONS
  6
BYBLOCK
 62
     0
 10
191.0727543015844
 20
1841.965646835862
 30
0.0
 11
191.0727543015844
 21
1826.965646835862
 31
0.0
  0
SOLID
  5
3ED1
  8
DIMENSIONS
 62
     0
 10
191.9060876349177
 20
1841.965646835862
 30
0.0
 11
190.239420968251
 21
1841.965646835862
 31
0.0
 12
191.0727543015844
 22
1846.965646835862
 32
0.0
 13
191.0727543015844
 23
1846.965646835862
 33
0.0
  0
SOLID
  5
3ED2
  8
DIMENSIONS
 62
     0
 10
190.239420968251
 20
1826.965646835862
 30
0.0
 11
191.9060876349177
 21
1826.965646835862
 31
0.0
 12
191.0727543015844
 22
1821.965646835862
 32
0.0
 13
191.0727543015844
 23
1821.965646835862
 33
0.0
  0
TEXT
  5
3ED3
  8
DIMENSIONS
  6
CONTINUOUS
 62
     5
 10
186.3898237499657
 20
1818.329880304797
 30
0.0
 40
5.0
  1
25 [0.98]
 50
90.0
  0
POINT
  5
3ED4
  8
DEFPOINTS
 62
     0
 10
209.3284825373288
 20
1846.965646835862
 30
0.0
  0
POINT
  5
3ED5
  8
DEFPOINTS
 62
     0
 10
249.3284825373288
 20
1821.965646835862
 30
0.0
  0
POINT
  5
3ED6
  8
DEFPOINTS
 62
     0
 10
191.0727543015844
 20
1821.965646835862
 30
0.0
  0
ENDBLK
  5
3ECD
  8
0
  0
BLOCK
  8
0
  2
*D43
 70
     1
 10
0.0
 20
0.0
 30
0.0
  3
*D43
  1

  0
LINE
  5
3EDD
  8
DIMENSIONS
  6
BYBLOCK
 62
     0
 10
247.8284825373288
 20
1821.965646835862
 30
0.0
 11
190.8927543015844
 21
1821.965646835862
 31
0.0
  0
LINE
  5
3EDE
  8
DIMENSIONS
  6
BYBLOCK
 62
     0
 10
247.8284825373288
 20
1489.965646835862
 30
0.0
 11
190.8927543015844
 21
1489.965646835862
 31
0.0
  0
LINE
  5
3EDF
  8
DIMENSIONS
  6
BYBLOCK
 62
     0
 10
191.0727543015844
 20
1816.965646835862
 30
0.0
 11
191.0727543015844
 21
1494.965646835862
 31
0.0
  0
SOLID
  5
3EE0
  8
DIMENSIONS
 62
     0
 10
191.9060876349178
 20
1816.965646835862
 30
0.0
 11
190.2394209682511
 21
1816.965646835862
 31
0.0
 12
191.0727543015844
 22
1821.965646835862
 32
0.0
 13
191.0727543015844
 23
1821.965646835862
 33
0.0
  0
SOLID
  5
3EE1
  8
DIMENSIONS
 62
     0
 10
190.239420968251
 20
1494.965646835862
 30
0.0
 11
191.9060876349177
 21
1494.965646835862
 31
0.0
 12
191.0727543015844
 22
1489.965646835862
 32
0.0
 13
191.0727543015844
 23
1489.965646835862
 33
0.0
  0
TEXT
  5
3EE2
  8
DIMENSIONS
  6
CONTINUOUS
 62
     5
 10
188.6777543015842
 20
1638.585646835862
 30
0.0
 40
5.0
  1
332 [13.07]
 50
90.0
  0
POINT
  5
3EE3
  8
DEFPOINTS
 62
     0
 10
249.3284825373288
 20
1821.965646835862
 30
0.0
  0
POINT
  5
3EE4
  8
DEFPOINTS
 62
     0
 10
249.3284825373288
 20
1489.965646835862
 30
0.0
  0
POINT
  5
3EE5
  8
DEFPOINTS
 62
     0
 10
191.0727543015844
 20
1489.965646835862
 30
0.0
  0
ENDBLK
  5
3EDC
  8
0
  0
BLOCK
  8
0
  2
*D44
 70
     1
 10
0.0
 20
0.0
 30
0.0
  3
*D44
  1

  0
LINE
  5
3EEC
  8
DIMENSIONS
  6
BYBLOCK
 62
     0
 10
247.8284825373288
 20
1489.965646835862
 30
0.0
 11
190.8927543015844
 21
1489.965646835862
 31
0.0
  0
LINE
  5
3EED
  8
DIMENSIONS
  6
BYBLOCK
 62
     0
 10
252.8284825373288
 20
1388.965646835862
 30
0.0
 11
190.8927543015844
 21
1388.965646835862
 31
0.0
  0
LINE
  5
3EEE
  8
DIMENSIONS
  6
BYBLOCK
 62
     0
 10
191.0727543015844
 20
1484.965646835862
 30
0.0
 11
191.0727543015844
 21
1393.965646835862
 31
0.0
  0
SOLID
  5
3EEF
  8
DIMENSIONS
 62
     0
 10
191.9060876349177
 20
1484.965646835862
 30
0.0
 11
190.239420968251
 21
1484.965646835862
 31
0.0
 12
191.0727543015844
 22
1489.965646835862
 32
0.0
 13
191.0727543015844
 23
1489.965646835862
 33
0.0
  0
SOLID
  5
3EF0
  8
DIMENSIONS
 62
     0
 10
190.239420968251
 20
1393.965646835862
 30
0.0
 11
191.9060876349177
 21
1393.965646835862
 31
0.0
 12
191.0727543015844
 22
1388.965646835862
 32
0.0
 13
191.0727543015844
 23
1388.965646835862
 33
0.0
  0
TEXT
  5
3EF1
  8
DIMENSIONS
  6
CONTINUOUS
 62
     5
 10
188.6777543015842
 20
1423.793146835862
 30
0.0
 40
5.0
  1
101 [3.98]
 50
90.0
  0
POINT
  5
3EF2
  8
DEFPOINTS
 62
     0
 10
249.3284825373288
 20
1489.965646835862
 30
0.0
  0
POINT
  5
3EF3
  8
DEFPOINTS
 62
     0
 10
254.3284825373288
 20
1388.965646835862
 30
0.0
  0
POINT
  5
3EF4
  8
DEFPOINTS
 62
     0
 10
191.0727543015844
 20
1388.965646835862
 30
0.0
  0
ENDBLK
  5
3EEB
  8
0
  0
BLOCK
  8
0
  2
*D45
 70
     1
 10
0.0
 20
0.0
 30
0.0
  3
*D45
  1

  0
LINE
  5
3EFB
  8
DIMENSIONS
  6
BYBLOCK
 62
     0
 10
252.8284825373288
 20
1388.965646835862
 30
0.0
 11
190.8932842935639
 21
1388.965646835862
 31
0.0
  0
LINE
  5
3EFC
  8
DIMENSIONS
  6
BYBLOCK
 62
     0
 10
252.8284825373288
 20
998.9656468358621
 30
0.0
 11
190.8932842935639
 21
998.9656468358621
 31
0.0
  0
LINE
  5
3EFD
  8
DIMENSIONS
  6
BYBLOCK
 62
     0
 10
191.0732842935639
 20
1383.965646835862
 30
0.0
 11
191.0732842935639
 21
1003.965646835862
 31
0.0
  0
SOLID
  5
3EFE
  8
DIMENSIONS
 62
     0
 10
191.9066176268973
 20
1383.965646835862
 30
0.0
 11
190.2399509602306
 21
1383.965646835862
 31
0.0
 12
191.0732842935639
 22
1388.965646835862
 32
0.0
 13
191.0732842935639
 23
1388.965646835862
 33
0.0
  0
SOLID
  5
3EFF
  8
DIMENSIONS
 62
     0
 10
190.2399509602305
 20
1003.965646835862
 30
0.0
 11
191.9066176268972
 21
1003.965646835862
 31
0.0
 12
191.0732842935639
 22
998.9656468358621
 32
0.0
 13
191.0732842935639
 23
998.9656468358621
 33
0.0
  0
TEXT
  5
3F00
  8
DIMENSIONS
  6
CONTINUOUS
 62
     5
 10
188.6782842935638
 20
1176.585646835862
 30
0.0
 40
5.0
  1
390 [15.35]
 50
90.0
  0
POINT
  5
3F01
  8
DEFPOINTS
 62
     0
 10
254.3284825373288
 20
1388.965646835862
 30
0.0
  0
POINT
  5
3F02
  8
DEFPOINTS
 62
     0
 10
254.3284825373288
 20
998.9656468358621
 30
0.0
  0
POINT
  5
3F03
  8
DEFPOINTS
 62
     0
 10
191.0732842935639
 20
998.9656468358621
 30
0.0
  0
ENDBLK
  5
3EFA
  8
0
  0
BLOCK
  8
0
  2
*D46
 70
     1
 10
0.0
 20
0.0
 30
0.0
  3
*D46
  1

  0
LINE
  5
3F14
  8
TEXT
  6
BYBLOCK
 62
     0
 10
991.7165630811335
 20
280.0992742226994
 30
0.0
 11
995.4487502494292
 21
276.7719962149565
 31
0.0
  0
LINE
  5
3F15
  8
TEXT
  6
BYBLOCK
 62
     0
 10
979.0271267089281
 20
291.412019449025
 30
0.0
 11
975.2949395406324
 21
294.7392974567679
 31
0.0
  0
TEXT
  5
3F16
  8
TEXT
  6
CONTINUOUS
 62
     5
 10
994.7959597660783
 20
282.5243407178251
 30
0.0
 40
5.0
  1
Ø7 [Ø0.28]
 50
318.2827126018929
  0
SOLID
  5
3F17
  8
TEXT
 62
     0
 10
978.4725803743044
 20
290.7899882543091
 30
0.0
 11
979.5816730435519
 21
292.034050643741
 31
0.0
 12
982.7593138772238
 22
288.0847414412822
 32
0.0
 13
982.7593138772238
 23
288.0847414412822
 33
0.0
  0
SOLID
  5
3F18
  8
TEXT
 62
     0
 10
992.2711094157572
 20
280.7213054174153
 30
0.0
 11
991.1620167465097
 21
279.4772430279834
 31
0.0
 12
987.9843759128378
 22
283.4265522304422
 32
0.0
 13
987.9843759128378
 23
283.4265522304422
 33
0.0
  0
LINE
  5
3F19
  8
TEXT
  6
BYBLOCK
 62
     0
 10
984.1218448950308
 20
285.7556468358622
 30
0.0
 11
986.6218448950308
 21
285.7556468358622
 31
0.0
  0
LINE
  5
3F1A
  8
TEXT
  6
BYBLOCK
 62
     0
 10
985.3718448950308
 20
284.5056468358622
 30
0.0
 11
985.3718448950308
 21
287.0056468358622
 31
0.0
  0
POINT
  5
3F1B
  8
DEFPOINTS
 62
     0
 10
987.9843759128378
 20
283.4265522304422
 30
0.0
  0
POINT
  5
3F1C
  8
DEFPOINTS
 62
     0
 10
982.7593138772238
 20
288.0847414412822
 30
0.0
  0
ENDBLK
  5
3F13
  8
0
  0
BLOCK
  8
0
  2
*D47
 70
     1
 10
0.0
 20
0.0
 30
0.0
  3
*D47
  1

  0
LINE
  5
3F23
  8
DIMENSIONS
  6
BYBLOCK
 62
     0
 10
244.5734415807506
 20
393.4634176292396
 30
0.0
 11
281.389332186569
 21
376.8154680888183
 31
0.0
  0
TEXT
  5
3F24
  8
DIMENSIONS
  6
CONTINUOUS
 62
     5
 10
250.8051101707227
 20
393.3617732257794
 30
0.0
 40
5.0
  1
Ø7 [Ø0.28]
 50
335.6677706419326
  0
SOLID
  5
3F25
  8
DIMENSIONS
 62
     0
 10
244.9167973853214
 20
394.222727339379
 30
0.0
 11
244.2300857761798
 21
392.7041079191002
 31
0.0
 12
240.0175833199143
 22
395.5235524566646
 32
0.0
 13
240.0175833199143
 23
395.5235524566646
 33
0.0
  0
LINE
  5
3F26
  8
DIMENSIONS
  6
BYBLOCK
 62
     0
 10
235.5784825373288
 20
396.9656468358621
 30
0.0
 11
238.0784825373288
 21
396.9656468358621
 31
0.0
  0
LINE
  5
3F27
  8
DIMENSIONS
  6
BYBLOCK
 62
     0
 10
236.8284825373288
 20
395.7156468358621
 30
0.0
 11
236.8284825373288
 21
398.2156468358621
 31
0.0
  0
POINT
  5
3F28
  8
DEFPOINTS
 62
     0
 10
240.0175833199143
 20
395.5235524566646
 30
0.0
  0
POINT
  5
3F29
  8
DEFPOINTS
 62
     0
 10
233.6393817547434
 20
398.4077412150596
 30
0.0
  0
ENDBLK
  5
3F22
  8
0
  0
BLOCK
  8
0
  2
*D48
 70
     1
 10
0.0
 20
0.0
 30
0.0
  3
*D48
  1

  0
LINE
  5
3F33
  8
DIMENSIONS
  6
BYBLOCK
 62
     0
 10
665.8284825373288
 20
1846.965646835862
 30
0.0
 11
682.764210773073
 21
1846.965646835862
 31
0.0
  0
LINE
  5
3F34
  8
DIMENSIONS
  6
BYBLOCK
 62
     0
 10
638.3284825373288
 20
1801.965646835862
 30
0.0
 11
682.764210773073
 21
1801.965646835862
 31
0.0
  0
LINE
  5
3F35
  8
DIMENSIONS
  6
BYBLOCK
 62
     0
 10
682.5842107730731
 20
1841.965646835862
 30
0.0
 11
682.5842107730731
 21
1806.965646835862
 31
0.0
  0
SOLID
  5
3F36
  8
DIMENSIONS
 62
     0
 10
683.4175441064065
 20
1841.965646835862
 30
0.0
 11
681.7508774397397
 21
1841.965646835862
 31
0.0
 12
682.5842107730731
 22
1846.965646835862
 32
0.0
 13
682.5842107730731
 23
1846.965646835862
 33
0.0
  0
SOLID
  5
3F37
  8
DIMENSIONS
 62
     0
 10
681.7508774397397
 20
1806.965646835862
 30
0.0
 11
683.4175441064065
 21
1806.965646835862
 31
0.0
 12
682.5842107730731
 22
1801.965646835862
 32
0.0
 13
682.5842107730731
 23
1801.965646835862
 33
0.0
  0
TEXT
  5
3F38
  8
DIMENSIONS
  6
CONTINUOUS
 62
     5
 10
680.1892107730728
 20
1811.068146835862
 30
0.0
 40
5.0
  1
45 [1.77]
 50
90.0
  0
POINT
  5
3F39
  8
DEFPOINTS
 62
     0
 10
664.3284825373288
 20
1846.965646835862
 30
0.0
  0
POINT
  5
3F3A
  8
DEFPOINTS
 62
     0
 10
636.8284825373288
 20
1801.965646835862
 30
0.0
  0
POINT
  5
3F3B
  8
DEFPOINTS
 62
     0
 10
682.5842107730731
 20
1801.965646835862
 30
0.0
  0
ENDBLK
  5
3F32
  8
0
  0
BLOCK
  8
0
  2
*D49
 70
     1
 10
0.0
 20
0.0
 30
0.0
  3
*D49
  1

  0
LINE
  5
3F42
  8
DIMENSIONS
  6
BYBLOCK
 62
     0
 10
638.3284825373288
 20
1801.965646835862
 30
0.0
 11
682.764210773073
 21
1801.965646835862
 31
0.0
  0
LINE
  5
3F43
  8
DIMENSIONS
  6
BYBLOCK
 62
     0
 10
638.3284825373288
 20
1529.465646835862
 30
0.0
 11
682.764210773073
 21
1529.465646835862
 31
0.0
  0
LINE
  5
3F44
  8
DIMENSIONS
  6
BYBLOCK
 62
     0
 10
682.5842107730731
 20
1796.965646835862
 30
0.0
 11
682.5842107730731
 21
1534.465646835862
 31
0.0
  0
SOLID
  5
3F45
  8
DIMENSIONS
 62
     0
 10
683.4175441064065
 20
1796.965646835862
 30
0.0
 11
681.7508774397397
 21
1796.965646835862
 31
0.0
 12
682.5842107730731
 22
1801.965646835862
 32
0.0
 13
682.5842107730731
 23
1801.965646835862
 33
0.0
  0
SOLID
  5
3F46
  8
DIMENSIONS
 62
     0
 10
681.7508774397397
 20
1534.465646835862
 30
0.0
 11
683.4175441064065
 21
1534.465646835862
 31
0.0
 12
682.5842107730731
 22
1529.465646835862
 32
0.0
 13
682.5842107730731
 23
1529.465646835862
 33
0.0
  0
TEXT
  5
3F47
  8
DIMENSIONS
  6
CONTINUOUS
 62
     5
 10
680.1892107730728
 20
1645.470646835862
 30
0.0
 40
5.0
  1
272.5 [10.73]
 50
90.0
  0
POINT
  5
3F48
  8
DEFPOINTS
 62
     0
 10
636.8284825373288
 20
1801.965646835862
 30
0.0
  0
POINT
  5
3F49
  8
DEFPOINTS
 62
     0
 10
636.8284825373288
 20
1529.465646835862
 30
0.0
  0
POINT
  5
3F4A
  8
DEFPOINTS
 62
     0
 10
682.5842107730731
 20
1529.465646835862
 30
0.0
  0
ENDBLK
  5
3F41
  8
0
  0
BLOCK
  8
0
  2
*D50
 70
     1
 10
0.0
 20
0.0
 30
0.0
  3
*D50
  1

  0
LINE
  5
3F51
  8
DIMENSIONS
  6
BYBLOCK
 62
     0
 10
638.3284825373288
 20
1529.465646835862
 30
0.0
 11
682.7690756379379
 21
1529.465646835862
 31
0.0
  0
LINE
  5
3F52
  8
DIMENSIONS
  6
BYBLOCK
 62
     0
 10
638.3284825373288
 20
1349.465646835862
 30
0.0
 11
682.7690756379379
 21
1349.465646835862
 31
0.0
  0
LINE
  5
3F53
  8
DIMENSIONS
  6
BYBLOCK
 62
     0
 10
682.589075637938
 20
1524.465646835862
 30
0.0
 11
682.589075637938
 21
1354.465646835862
 31
0.0
  0
SOLID
  5
3F54
  8
DIMENSIONS
 62
     0
 10
683.4224089712714
 20
1524.465646835862
 30
0.0
 11
681.7557423046046
 21
1524.465646835862
 31
0.0
 12
682.589075637938
 22
1529.465646835862
 32
0.0
 13
682.589075637938
 23
1529.465646835862
 33
0.0
  0
SOLID
  5
3F55
  8
DIMENSIONS
 62
     0
 10
681.7557423046046
 20
1354.465646835862
 30
0.0
 11
683.4224089712714
 21
1354.465646835862
 31
0.0
 12
682.589075637938
 22
1349.465646835862
 32
0.0
 13
682.589075637938
 23
1349.465646835862
 33
0.0
  0
TEXT
  5
3F56
  8
DIMENSIONS
  6
CONTINUOUS
 62
     5
 10
680.1940756379377
 20
1423.793146835862
 30
0.0
 40
5.0
  1
180 [7.09]
 50
90.0
  0
POINT
  5
3F57
  8
DEFPOINTS
 62
     0
 10
636.8284825373288
 20
1529.465646835862
 30
0.0
  0
POINT
  5
3F58
  8
DEFPOINTS
 62
     0
 10
636.8284825373288
 20
1349.465646835862
 30
0.0
  0
POINT
  5
3F59
  8
DEFPOINTS
 62
     0
 10
682.589075637938
 20
1349.465646835862
 30
0.0
  0
ENDBLK
  5
3F50
  8
0
  0
BLOCK
  8
0
  2
*D51
 70
     1
 10
0.0
 20
0.0
 30
0.0
  3
*D51
  1

  0
LINE
  5
3F60
  8
DIMENSIONS
  6
BYBLOCK
 62
     0
 10
638.3284825373288
 20
1349.465646835862
 30
0.0
 11
682.7691889679513
 21
1349.465646835862
 31
0.0
  0
LINE
  5
3F61
  8
DIMENSIONS
  6
BYBLOCK
 62
     0
 10
638.3284825373288
 20
1001.965646835862
 30
0.0
 11
682.7691889679513
 21
1001.965646835862
 31
0.0
  0
LINE
  5
3F62
  8
DIMENSIONS
  6
BYBLOCK
 62
     0
 10
682.5891889679514
 20
1344.465646835862
 30
0.0
 11
682.5891889679514
 21
1006.965646835862
 31
0.0
  0
SOLID
  5
3F63
  8
DIMENSIONS
 62
     0
 10
683.4225223012847
 20
1344.465646835862
 30
0.0
 11
681.755855634618
 21
1344.465646835862
 31
0.0
 12
682.5891889679514
 22
1349.465646835862
 32
0.0
 13
682.5891889679514
 23
1349.465646835862
 33
0.0
  0
SOLID
  5
3F64
  8
DIMENSIONS
 62
     0
 10
681.755855634618
 20
1006.965646835862
 30
0.0
 11
683.4225223012847
 21
1006.965646835862
 31
0.0
 12
682.5891889679514
 22
1001.965646835862
 32
0.0
 13
682.5891889679514
 23
1001.965646835862
 33
0.0
  0
TEXT
  5
3F65
  8
DIMENSIONS
  6
CONTINUOUS
 62
     5
 10
680.194188967951
 20
1155.425646835862
 30
0.0
 40
5.0
  1
347.5 [13.68]
 50
90.0
  0
POINT
  5
3F66
  8
DEFPOINTS
 62
     0
 10
636.8284825373288
 20
1349.465646835862
 30
0.0
  0
POINT
  5
3F67
  8
DEFPOINTS
 62
     0
 10
636.8284825373288
 20
1001.965646835862
 30
0.0
  0
POINT
  5
3F68
  8
DEFPOINTS
 62
     0
 10
682.5891889679514
 20
1001.965646835862
 30
0.0
  0
ENDBLK
  5
3F5F
  8
0
  0
BLOCK
  8
0
  2
*D52
 70
     1
 10
0.0
 20
0.0
 30
0.0
  3
*D52
  1

  0
LINE
  5
3F6F
  8
DIMENSIONS
  6
BYBLOCK
 62
     0
 10
638.3284825373288
 20
1001.965646835862
 30
0.0
 11
682.7691889679513
 21
1001.965646835862
 31
0.0
  0
LINE
  5
3F70
  8
DIMENSIONS
  6
BYBLOCK
 62
     0
 10
638.3284825373288
 20
396.9656468358621
 30
0.0
 11
682.7691889679513
 21
396.9656468358621
 31
0.0
  0
LINE
  5
3F71
  8
DIMENSIONS
  6
BYBLOCK
 62
     0
 10
682.5891889679514
 20
996.9656468358619
 30
0.0
 11
682.5891889679514
 21
401.9656468358621
 31
0.0
  0
SOLID
  5
3F72
  8
DIMENSIONS
 62
     0
 10
683.4225223012847
 20
996.9656468358619
 30
0.0
 11
681.755855634618
 21
996.9656468358619
 31
0.0
 12
682.5891889679514
 22
1001.965646835862
 32
0.0
 13
682.5891889679514
 23
1001.965646835862
 33
0.0
  0
SOLID
  5
3F73
  8
DIMENSIONS
 62
     0
 10
681.755855634618
 20
401.9656468358621
 30
0.0
 11
683.4225223012847
 21
401.9656468358621
 31
0.0
 12
682.5891889679514
 22
396.9656468358621
 32
0.0
 13
682.5891889679514
 23
396.9656468358621
 33
0.0
  0
TEXT
  5
3F74
  8
DIMENSIONS
  6
CONTINUOUS
 62
     5
 10
680.1941889679513
 20
682.103146835862
 30
0.0
 40
5.0
  1
605 [23.82]
 50
90.0
  0
POINT
  5
3F75
  8
DEFPOINTS
 62
     0
 10
636.8284825373288
 20
1001.965646835862
 30
0.0
  0
POINT
  5
3F76
  8
DEFPOINTS
 62
     0
 10
636.8284825373288
 20
396.9656468358621
 30
0.0
  0
POINT
  5
3F77
  8
DEFPOINTS
 62
     0
 10
682.5891889679514
 20
396.9656468358621
 30
0.0
  0
ENDBLK
  5
3F6E
  8
0
  0
BLOCK
  8
0
  2
*D53
 70
     1
 10
0.0
 20
0.0
 30
0.0
  3
*D53
  1

  0
LINE
  5
3FEE
  8
DIMENSIONS
  6
BYBLOCK
 62
     0
 10
435.3284825373288
 20
1828.965646835862
 30
0.0
 11
427.1697385196672
 21
1828.965646835862
 31
0.0
  0
LINE
  5
3FEF
  8
DIMENSIONS
  6
BYBLOCK
 62
     0
 10
435.3284825373288
 20
1846.965646835862
 30
0.0
 11
427.1697385196672
 21
1846.965646835862
 31
0.0
  0
LINE
  5
3FF0
  8
DIMENSIONS
  6
BYBLOCK
 62
     0
 10
427.3497385196672
 20
1833.965646835862
 30
0.0
 11
427.3497385196672
 21
1841.965646835862
 31
0.0
  0
SOLID
  5
3FF1
  8
DIMENSIONS
 62
     0
 10
426.5164051863339
 20
1833.965646835862
 30
0.0
 11
428.1830718530005
 21
1833.965646835862
 31
0.0
 12
427.3497385196672
 22
1828.965646835862
 32
0.0
 13
427.3497385196672
 23
1828.965646835862
 33
0.0
  0
SOLID
  5
3FF2
  8
DIMENSIONS
 62
     0
 10
428.1830718530005
 20
1841.965646835862
 30
0.0
 11
426.5164051863339
 21
1841.965646835862
 31
0.0
 12
427.3497385196672
 22
1846.965646835862
 32
0.0
 13
427.3497385196672
 23
1846.965646835862
 33
0.0
  0
TEXT
  5
3FF3
  8
DIMENSIONS
  6
CONTINUOUS
 62
     5
 10
429.1531856227696
 20
1848.330176805691
 30
0.0
 40
5.0
  1
18 [0.71]
 50
90.0
  0
POINT
  5
3FF4
  8
DEFPOINTS
 62
     0
 10
436.8284825373288
 20
1828.965646835862
 30
0.0
  0
POINT
  5
3FF5
  8
DEFPOINTS
 62
     0
 10
436.8284825373288
 20
1846.965646835862
 30
0.0
  0
POINT
  5
3FF6
  8
DEFPOINTS
 62
     0
 10
427.3497385196672
 20
1846.965646835862
 30
0.0
  0
ENDBLK
  5
3FED
  8
0
  0
BLOCK
  8
0
  2
*D54
 70
     1
 10
0.0
 20
0.0
 30
0.0
  3
*D54
  1

  0
LINE
  5
4003
  8
DIMENSIONS
  6
BYBLOCK
 62
     0
 10
853.3023277047715
 20
1848.465646835863
 30
0.0
 11
853.3023277047715
 21
1921.059042064279
 31
0.0
  0
LINE
  5
4004
  8
DIMENSIONS
  6
BYBLOCK
 62
     0
 10
1308.302327704771
 20
1848.465646835863
 30
0.0
 11
1308.302327704771
 21
1921.059042064279
 31
0.0
  0
LINE
  5
4005
  8
DIMENSIONS
  6
BYBLOCK
 62
     0
 10
858.3023277047715
 20
1920.879042064279
 30
0.0
 11
1303.302327704771
 21
1920.879042064279
 31
0.0
  0
SOLID
  5
4006
  8
DIMENSIONS
 62
     0
 10
858.3023277047715
 20
1921.712375397612
 30
0.0
 11
858.3023277047715
 21
1920.045708730946
 31
0.0
 12
853.3023277047715
 22
1920.879042064279
 32
0.0
 13
853.3023277047715
 23
1920.879042064279
 33
0.0
  0
SOLID
  5
4007
  8
DIMENSIONS
 62
     0
 10
1303.302327704771
 20
1920.045708730946
 30
0.0
 11
1303.302327704771
 21
1921.712375397612
 31
0.0
 12
1308.302327704771
 22
1920.879042064279
 32
0.0
 13
1308.302327704771
 23
1920.879042064279
 33
0.0
  0
TEXT
  5
4008
  8
DIMENSIONS
  6
CONTINUOUS
 62
     5
 10
1063.524827704771
 20
1923.274042064279
 30
0.0
 40
5.0
  1
455 [17.91]
  0
POINT
  5
4009
  8
DEFPOINTS
 62
     0
 10
853.3023277047715
 20
1846.965646835863
 30
0.0
  0
POINT
  5
400A
  8
DEFPOINTS
 62
     0
 10
1308.302327704771
 20
1846.965646835863
 30
0.0
  0
POINT
  5
400B
  8
DEFPOINTS
 62
     0
 10
1308.302327704771
 20
1920.879042064279
 30
0.0
  0
ENDBLK
  5
4002
  8
0
  0
BLOCK
  8
0
  2
*D55
 70
     1
 10
0.0
 20
0.0
 30
0.0
  3
*D55
  1

  0
LINE
  5
4012
  8
DIMENSIONS
  6
BYBLOCK
 62
     0
 10
868.3023277047715
 20
1833.465646835863
 30
0.0
 11
868.3023277047715
 21
1883.775114156836
 31
0.0
  0
LINE
  5
4013
  8
DIMENSIONS
  6
BYBLOCK
 62
     0
 10
1293.302327704771
 20
1833.465646835863
 30
0.0
 11
1293.302327704771
 21
1883.775114156836
 31
0.0
  0
LINE
  5
4014
  8
DIMENSIONS
  6
BYBLOCK
 62
     0
 10
873.3023277047715
 20
1883.595114156836
 30
0.0
 11
1288.302327704771
 21
1883.595114156836
 31
0.0
  0
SOLID
  5
4015
  8
DIMENSIONS
 62
     0
 10
873.3023277047715
 20
1884.428447490169
 30
0.0
 11
873.3023277047715
 21
1882.761780823502
 31
0.0
 12
868.3023277047715
 22
1883.595114156836
 32
0.0
 13
868.3023277047715
 23
1883.595114156836
 33
0.0
  0
SOLID
  5
4016
  8
DIMENSIONS
 62
     0
 10
1288.302327704771
 20
1882.761780823502
 30
0.0
 11
1288.302327704771
 21
1884.428447490169
 31
0.0
 12
1293.302327704771
 22
1883.595114156836
 32
0.0
 13
1293.302327704771
 23
1883.595114156836
 33
0.0
  0
TEXT
  5
4017
  8
DIMENSIONS
  6
CONTINUOUS
 62
     5
 10
1063.524827704771
 20
1885.990114156836
 30
0.0
 40
5.0
  1
425 [16.73]
  0
POINT
  5
4018
  8
DEFPOINTS
 62
     0
 10
868.3023277047715
 20
1831.965646835863
 30
0.0
  0
POINT
  5
4019
  8
DEFPOINTS
 62
     0
 10
1293.302327704771
 20
1831.965646835863
 30
0.0
  0
POINT
  5
401A
  8
DEFPOINTS
 62
     0
 10
1293.302327704771
 20
1883.595114156836
 30
0.0
  0
ENDBLK
  5
4011
  8
0
  0
BLOCK
  8
0
  2
*D56
 70
     1
 10
0.0
 20
0.0
 30
0.0
  3
*D56
  1

  0
LINE
  5
4021
  8
DIMENSIONS
  6
BYBLOCK
 62
     0
 10
851.8023277047715
 20
1846.965646835863
 30
0.0
 11
812.5799209976216
 21
1846.965646835863
 31
0.0
  0
LINE
  5
4022
  8
DIMENSIONS
  6
BYBLOCK
 62
     0
 10
851.8023277047715
 20
296.9656468358629
 30
0.0
 11
812.5799209976215
 21
296.9656468358629
 31
0.0
  0
LINE
  5
4023
  8
DIMENSIONS
  6
BYBLOCK
 62
     0
 10
812.7599209976215
 20
1841.965646835863
 30
0.0
 11
812.7599209976214
 21
301.9656468358629
 31
0.0
  0
SOLID
  5
4024
  8
DIMENSIONS
 62
     0
 10
813.5932543309549
 20
1841.965646835863
 30
0.0
 11
811.9265876642881
 21
1841.965646835863
 31
0.0
 12
812.7599209976215
 22
1846.965646835863
 32
0.0
 13
812.7599209976215
 23
1846.965646835863
 33
0.0
  0
SOLID
  5
4025
  8
DIMENSIONS
 62
     0
 10
811.926587664288
 20
301.9656468358629
 30
0.0
 11
813.5932543309548
 21
301.9656468358629
 31
0.0
 12
812.7599209976214
 22
296.9656468358629
 32
0.0
 13
812.7599209976214
 23
296.9656468358629
 33
0.0
  0
TEXT
  5
4026
  8
DIMENSIONS
  6
CONTINUOUS
 62
     5
 10
810.3649209976213
 20
1052.413146835863
 30
0.0
 40
5.0
  1
1550 [61.02]
 50
90.0
  0
POINT
  5
4027
  8
DEFPOINTS
 62
     0
 10
853.3023277047715
 20
1846.965646835863
 30
0.0
  0
POINT
  5
4028
  8
DEFPOINTS
 62
     0
 10
853.3023277047715
 20
296.9656468358629
 30
0.0
  0
POINT
  5
4029
  8
DEFPOINTS
 62
     0
 10
812.7599209976214
 20
296.9656468358629
 30
0.0
  0
ENDBLK
  5
4020
  8
0
  0
BLOCK
  8
0
  2
*D57
 70
     1
 10
0.0
 20
0.0
 30
0.0
  3
*D57
  1

  0
LINE
  5
4030
  8
DIMENSIONS
  6
BYBLOCK
 62
     0
 10
866.8023277047715
 20
1831.965646835863
 30
0.0
 11
834.8665994690273
 21
1831.965646835863
 31
0.0
  0
LINE
  5
4031
  8
DIMENSIONS
  6
BYBLOCK
 62
     0
 10
866.8023277047715
 20
1846.965646835863
 30
0.0
 11
834.8665994690273
 21
1846.965646835863
 31
0.0
  0
LINE
  5
4032
  8
DIMENSIONS
  6
BYBLOCK
 62
     0
 10
835.0465994690272
 20
1836.965646835863
 30
0.0
 11
835.0465994690272
 21
1841.965646835863
 31
0.0
  0
SOLID
  5
4033
  8
DIMENSIONS
 62
     0
 10
834.2132661356939
 20
1836.965646835863
 30
0.0
 11
835.8799328023606
 21
1836.965646835863
 31
0.0
 12
835.0465994690272
 22
1831.965646835863
 32
0.0
 13
835.0465994690272
 23
1831.965646835863
 33
0.0
  0
SOLID
  5
4034
  8
DIMENSIONS
 62
     0
 10
835.8799328023606
 20
1841.965646835863
 30
0.0
 11
834.2132661356939
 21
1841.965646835863
 31
0.0
 12
835.0465994690272
 22
1846.965646835863
 32
0.0
 13
835.0465994690272
 23
1846.965646835863
 33
0.0
  0
TEXT
  5
4035
  8
DIMENSIONS
  6
CONTINUOUS
 62
     5
 10
830.205815332873
 20
1819.376729207931
 30
0.0
 40
5.0
  1
15 [0.59]
 50
90.0
  0
POINT
  5
4036
  8
DEFPOINTS
 62
     0
 10
868.3023277047715
 20
1831.965646835863
 30
0.0
  0
POINT
  5
4037
  8
DEFPOINTS
 62
     0
 10
868.3023277047715
 20
1846.965646835863
 30
0.0
  0
POINT
  5
4038
  8
DEFPOINTS
 62
     0
 10
835.0465994690272
 20
1846.965646835863
 30
0.0
  0
ENDBLK
  5
402F
  8
0
  0
BLOCK
  8
0
  2
*D58
 70
     1
 10
0.0
 20
0.0
 30
0.0
  3
*D58
  1

  0
LINE
  5
403F
  8
DIMENSIONS
  6
BYBLOCK
 62
     0
 10
866.8023277047715
 20
1831.965646835863
 30
0.0
 11
834.8665994690274
 21
1831.965646835863
 31
0.0
  0
LINE
  5
4040
  8
DIMENSIONS
  6
BYBLOCK
 62
     0
 10
866.8023277047715
 20
311.9656468358629
 30
0.0
 11
834.8665994690273
 21
311.9656468358629
 31
0.0
  0
LINE
  5
4041
  8
DIMENSIONS
  6
BYBLOCK
 62
     0
 10
835.0465994690273
 20
1826.965646835863
 30
0.0
 11
835.0465994690272
 21
316.9656468358629
 31
0.0
  0
SOLID
  5
4042
  8
DIMENSIONS
 62
     0
 10
835.8799328023607
 20
1826.965646835863
 30
0.0
 11
834.213266135694
 21
1826.965646835863
 31
0.0
 12
835.0465994690273
 22
1831.965646835863
 32
0.0
 13
835.0465994690273
 23
1831.965646835863
 33
0.0
  0
SOLID
  5
4043
  8
DIMENSIONS
 62
     0
 10
834.2132661356939
 20
316.9656468358629
 30
0.0
 11
835.8799328023606
 21
316.9656468358629
 31
0.0
 12
835.0465994690272
 22
311.9656468358629
 32
0.0
 13
835.0465994690272
 23
311.9656468358629
 33
0.0
  0
TEXT
  5
4044
  8
DIMENSIONS
  6
CONTINUOUS
 62
     5
 10
832.6515994690271
 20
1052.413146835863
 30
0.0
 40
5.0
  1
1520 [59.84]
 50
90.0
  0
POINT
  5
4045
  8
DEFPOINTS
 62
     0
 10
868.3023277047715
 20
1831.965646835863
 30
0.0
  0
POINT
  5
4046
  8
DEFPOINTS
 62
     0
 10
868.3023277047715
 20
311.9656468358629
 30
0.0
  0
POINT
  5
4047
  8
DEFPOINTS
 62
     0
 10
835.0465994690272
 20
311.9656468358629
 30
0.0
  0
ENDBLK
  5
403E
  8
0
  0
BLOCK
  8
0
  2
*D59
 70
     1
 10
0.0
 20
0.0
 30
0.0
  3
*D59
  1

  0
LINE
  5
404E
  8
DIMENSIONS
  6
BYBLOCK
 62
     0
 10
866.8023277047715
 20
311.9656468358629
 30
0.0
 11
834.8665994690273
 21
311.9656468358629
 31
0.0
  0
LINE
  5
404F
  8
DIMENSIONS
  6
BYBLOCK
 62
     0
 10
866.8023277047715
 20
296.9656468358629
 30
0.0
 11
834.8665994690273
 21
296.9656468358629
 31
0.0
  0
LINE
  5
4050
  8
DIMENSIONS
  6
BYBLOCK
 62
     0
 10
835.0465994690272
 20
306.9656468358629
 30
0.0
 11
835.0465994690272
 21
301.9656468358629
 31
0.0
  0
SOLID
  5
4051
  8
DIMENSIONS
 62
     0
 10
835.8799328023606
 20
306.9656468358629
 30
0.0
 11
834.2132661356939
 21
306.9656468358629
 31
0.0
 12
835.0465994690272
 22
311.9656468358629
 32
0.0
 13
835.0465994690272
 23
311.9656468358629
 33
0.0
  0
SOLID
  5
4052
  8
DIMENSIONS
 62
     0
 10
834.2132661356939
 20
301.9656468358629
 30
0.0
 11
835.8799328023606
 21
301.9656468358629
 31
0.0
 12
835.0465994690272
 22
296.9656468358629
 32
0.0
 13
835.0465994690272
 23
296.9656468358629
 33
0.0
  0
TEXT
  5
4053
  8
DIMENSIONS
  6
CONTINUOUS
 62
     5
 10
829.2327414814645
 20
297.515151716007
 30
0.0
 40
5.0
  1
15 [0.59]
 50
90.0
  0
POINT
  5
4054
  8
DEFPOINTS
 62
     0
 10
868.3023277047715
 20
311.9656468358629
 30
0.0
  0
POINT
  5
4055
  8
DEFPOINTS
 62
     0
 10
868.3023277047715
 20
296.9656468358629
 30
0.0
  0
POINT
  5
4056
  8
DEFPOINTS
 62
     0
 10
835.0465994690272
 20
296.9656468358629
 30
0.0
  0
ENDBLK
  5
404D
  8
0
  0
BLOCK
  8
0
  2
*D60
 70
     1
 10
0.0
 20
0.0
 30
0.0
  3
*D60
  1

  0
LINE
  5
4061
  8
DIMENSIONS
  6
BYBLOCK
 62
     0
 10
207.8284825373288
 20
1846.965646835862
 30
0.0
 11
168.6060758301787
 21
1846.965646835862
 31
0.0
  0
LINE
  5
4062
  8
DIMENSIONS
  6
BYBLOCK
 62
     0
 10
207.8284825373288
 20
296.9656468358621
 30
0.0
 11
168.6060758301786
 21
296.9656468358621
 31
0.0
  0
LINE
  5
4063
  8
DIMENSIONS
  6
BYBLOCK
 62
     0
 10
168.7860758301787
 20
1841.965646835862
 30
0.0
 11
168.7860758301786
 21
301.9656468358621
 31
0.0
  0
SOLID
  5
4064
  8
DIMENSIONS
 62
     0
 10
169.619409163512
 20
1841.965646835862
 30
0.0
 11
167.9527424968453
 21
1841.965646835862
 31
0.0
 12
168.7860758301787
 22
1846.965646835862
 32
0.0
 13
168.7860758301787
 23
1846.965646835862
 33
0.0
  0
SOLID
  5
4065
  8
DIMENSIONS
 62
     0
 10
167.9527424968452
 20
301.9656468358621
 30
0.0
 11
169.6194091635119
 21
301.9656468358621
 31
0.0
 12
168.7860758301786
 22
296.9656468358621
 32
0.0
 13
168.7860758301786
 23
296.9656468358621
 33
0.0
  0
TEXT
  5
4066
  8
DIMENSIONS
  6
CONTINUOUS
 62
     5
 10
166.3910758301784
 20
1052.413146835862
 30
0.0
 40
5.0
  1
1550 [61.02]
 50
90.0
  0
POINT
  5
4067
  8
DEFPOINTS
 62
     0
 10
209.3284825373288
 20
1846.965646835862
 30
0.0
  0
POINT
  5
4068
  8
DEFPOINTS
 62
     0
 10
209.3284825373288
 20
296.9656468358621
 30
0.0
  0
POINT
  5
4069
  8
DEFPOINTS
 62
     0
 10
168.7860758301786
 20
296.9656468358621
 30
0.0
  0
ENDBLK
  5
4060
  8
0
  0
BLOCK
  8
0
  2
*D61
 70
     1
 10
0.0
 20
0.0
 30
0.0
  3
*D61
  1

  0
LINE
  5
4075
  8
TEXT
  6
BYBLOCK
 62
     0
 10
80.04351413624339
 20
2043.960429388451
 30
0.0
 11
-306.0809649974511
 21
2043.960429388451
 31
0.0
  0
LINE
  5
4076
  8
TEXT
  6
BYBLOCK
 62
     0
 10
111.754031605342
 20
97.48881151042815
 30
0.0
 11
-306.0809649974512
 21
97.48881151042818
 31
0.0
  0
LINE
  5
4077
  8
TEXT
  6
BYBLOCK
 62
     0
 10
-305.9009649974511
 20
2038.960429388451
 30
0.0
 11
-305.9009649974512
 21
102.4888115104282
 31
0.0
  0
SOLID
  5
4078
  8
TEXT
 62
     0
 10
-305.0676316641178
 20
2038.960429388451
 30
0.0
 11
-306.7342983307844
 21
2038.960429388451
 31
0.0
 12
-305.9009649974511
 22
2043.960429388451
 32
0.0
 13
-305.9009649974511
 23
2043.960429388451
 33
0.0
  0
SOLID
  5
4079
  8
TEXT
 62
     0
 10
-306.7342983307845
 20
102.4888115104282
 30
0.0
 11
-305.0676316641179
 21
102.4888115104282
 31
0.0
 12
-305.9009649974512
 22
97.48881151042818
 32
0.0
 13
-305.9009649974512
 23
97.48881151042818
 33
0.0
  0
TEXT
  5
407A
  8
TEXT
  6
CONTINUOUS
 62
     5
 10
-308.2959649974514
 20
1042.44212044944
 30
0.0
 40
5.0
  1
1946.4716 [76.63]
 50
90.0
  0
POINT
  5
407B
  8
DEFPOINTS
 62
     0
 10
81.54351413624339
 20
2043.960429388451
 30
0.0
  0
POINT
  5
407C
  8
DEFPOINTS
 62
     0
 10
113.254031605342
 20
97.48881151042815
 30
0.0
  0
POINT
  5
407D
  8
DEFPOINTS
 62
     0
 10
-305.9009649974512
 20
97.48881151042818
 30
0.0
  0
ENDBLK
  5
4074
  8
0
  0
BLOCK
  8
0
  2
*D63
 70
     1
 10
0.0
 20
0.0
 30
0.0
  3
*D63
  1

  0
LINE
  5
41E4
  8
0
  6
CONTINUOUS
 62
     0
 10
36.97052186740007
 20
1560.5497308451
 30
0.0
 11
36.97052186740007
 21
1618.532327739
 31
0.0
  0
LINE
  5
41E5
  8
0
  6
CONTINUOUS
 62
     0
 10
491.9705218674001
 20
1560.5497308451
 30
0.0
 11
491.9705218674001
 21
1618.532327739
 31
0.0
  0
LINE
  5
41E6
  8
0
  6
CONTINUOUS
 62
     0
 10
37.15052186740007
 20
1618.352327739
 30
0.0
 11
263.8643718674001
 21
1618.352327739
 31
0.0
  0
LINE
  5
41E7
  8
0
  6
CONTINUOUS
 62
     0
 10
491.7905218674001
 20
1618.352327739
 30
0.0
 11
265.0766718674
 21
1618.352327739
 31
0.0
  0
SOLID
  5
41E8
  8
0
 62
     0
 10
37.15052186740007
 20
1618.382327739
 30
0.0
 11
37.15052186740007
 21
1618.322327739
 31
0.0
 12
36.97052186740007
 22
1618.352327739
 32
0.0
 13
36.97052186740007
 23
1618.352327739
 33
0.0
  0
SOLID
  5
41E9
  8
0
 62
     0
 10
491.7905218674001
 20
1618.322327739
 30
0.0
 11
491.7905218674001
 21
1618.382327739
 31
0.0
 12
491.9705218674001
 22
1618.352327739
 32
0.0
 13
491.9705218674001
 23
1618.352327739
 33
0.0
  0
TEXT
  5
41EA
  8
0
  6
CONTINUOUS
 62
     0
 10
263.9511318674001
 20
1618.263857739
 30
0.0
 40
0.18
  1
455.0000
  0
POINT
  5
41EB
  8
DEFPOINTS
 62
     0
 10
36.97052186740007
 20
1560.4872308451
 30
0.0
  0
POINT
  5
41EC
  8
DEFPOINTS
 62
     0
 10
491.9705218674001
 20
1560.4872308451
 30
0.0
  0
POINT
  5
41F1
  8
DEFPOINTS
 62
     0
 10
491.9705218674001
 20
1618.352327739
 30
0.0
  0
ENDBLK
  5
41F2
  8
0
  6
BYBLOCK
 62
     0
  0
BLOCK
  8
0
  2
*D64
 70
     1
 10
0.0
 20
0.0
 30
0.0
  3
*D64
  1

  0
LINE
  5
41F6
  8
0
  6
CONTINUOUS
 62
     0
 10
64.47052186740007
 20
1515.5497308451
 30
0.0
 11
64.47052186740007
 21
1603.7872675061
 31
0.0
  0
LINE
  5
41F7
  8
0
  6
CONTINUOUS
 62
     0
 10
464.4705218674001
 20
1515.5497308451
 30
0.0
 11
464.4705218674001
 21
1603.7872675061
 31
0.0
  0
LINE
  5
41F8
  8
0
  6
CONTINUOUS
 62
     0
 10
64.65052186740007
 20
1603.6072675061
 30
0.0
 11
263.8643718674001
 21
1603.6072675061
 31
0.0
  0
LINE
  5
41F9
  8
0
  6
CONTINUOUS
 62
     0
 10
464.2905218674001
 20
1603.6072675061
 30
0.0
 11
265.0766718674
 21
1603.6072675061
 31
0.0
  0
SOLID
  5
41FA
  8
0
 62
     0
 10
64.65052186740007
 20
1603.6372675061
 30
0.0
 11
64.65052186740007
 21
1603.5772675061
 31
0.0
 12
64.47052186740007
 22
1603.6072675061
 32
0.0
 13
64.47052186740007
 23
1603.6072675061
 33
0.0
  0
SOLID
  5
41FB
  8
0
 62
     0
 10
464.2905218674001
 20
1603.5772675061
 30
0.0
 11
464.2905218674001
 21
1603.6372675061
 31
0.0
 12
464.4705218674001
 22
1603.6072675061
 32
0.0
 13
464.4705218674001
 23
1603.6072675061
 33
0.0
  0
TEXT
  5
41FC
  8
0
  6
CONTINUOUS
 62
     0
 10
263.9511318674001
 20
1603.5187975061
 30
0.0
 40
0.18
  1
400.0000
  0
POINT
  5
41FD
  8
DEFPOINTS
 62
     0
 10
64.47052186740007
 20
1515.4872308451
 30
0.0
  0
POINT
  5
41FE
  8
DEFPOINTS
 62
     0
 10
464.4705218674001
 20
1515.4872308451
 30
0.0
  0
POINT
  5
41FF
  8
DEFPOINTS
 62
     0
 10
464.4705218674001
 20
1603.6072675061
 30
0.0
  0
ENDBLK
  5
4200
  8
0
  6
BYBLOCK
 62
     0
  0
BLOCK
  8
0
  2
*D65
 70
     1
 10
0.0
 20
0.0
 30
0.0
  3
*D65
  1

  0
LINE
  5
4204
  8
0
  6
CONTINUOUS
 62
     0
 10
76.97052186740007
 20
1535.5497308451
 30
0.0
 11
76.97052186740007
 21
1588.7801962558
 31
0.0
  0
LINE
  5
4205
  8
0
  6
CONTINUOUS
 62
     0
 10
451.9705218674001
 20
1535.5497308451
 30
0.0
 11
451.9705218674001
 21
1588.7801962558
 31
0.0
  0
LINE
  5
4206
  8
0
  6
CONTINUOUS
 62
     0
 10
77.15052186740007
 20
1588.6001962558
 30
0.0
 11
263.8680618674001
 21
1588.6001962558
 31
0.0
  0
LINE
  5
4207
  8
0
  6
CONTINUOUS
 62
     0
 10
451.7905218674001
 20
1588.6001962558
 30
0.0
 11
265.0729818674
 21
1588.6001962558
 31
0.0
  0
SOLID
  5
4208
  8
0
 62
     0
 10
77.15052186740007
 20
1588.6301962558
 30
0.0
 11
77.15052186740007
 21
1588.5701962558
 31
0.0
 12
76.97052186740007
 22
1588.6001962558
 32
0.0
 13
76.97052186740007
 23
1588.6001962558
 33
0.0
  0
SOLID
  5
4209
  8
0
 62
     0
 10
451.7905218674001
 20
1588.5701962558
 30
0.0
 11
451.7905218674001
 21
1588.6301962558
 31
0.0
 12
451.9705218674001
 22
1588.6001962558
 32
0.0
 13
451.9705218674001
 23
1588.6001962558
 33
0.0
  0
TEXT
  5
420A
  8
0
  6
CONTINUOUS
 62
     0
 10
263.9474418674001
 20
1588.5117262558
 30
0.0
 40
0.18
  1
375.0000
  0
POINT
  5
420B
  8
DEFPOINTS
 62
     0
 10
76.97052186740007
 20
1535.4872308451
 30
0.0
  0
POINT
  5
420C
  8
DEFPOINTS
 62
     0
 10
451.9705218674001
 20
1535.4872308451
 30
0.0
  0
POINT
  5
420D
  8
DEFPOINTS
 62
     0
 10
451.9705218674001
 20
1588.6001962558
 30
0.0
  0
ENDBLK
  5
420E
  8
0
  6
BYBLOCK
 62
     0
  0
BLOCK
  8
0
  2
*D66
 70
     1
 10
0.0
 20
0.0
 30
0.0
  3
*D66
  1

  0
LINE
  5
4212
  8
0
  6
CONTINUOUS
 62
     0
 10
288.1629589082
 20
1565.9162908312
 30
0.0
 11
287.9829589082
 21
1565.9162908312
 31
0.0
  0
LINE
  5
4213
  8
0
  6
CONTINUOUS
 62
     0
 10
287.9829589082
 20
1565.9162908312
 30
0.0
 11
287.9829589082
 21
1560.4872308451
 31
0.0
  0
LINE
  5
4214
  8
0
  6
CONTINUOUS
 62
     0
 10
491.9080218674001
 20
1560.4872308451
 30
0.0
 11
287.8029589082
 21
1560.4872308451
 31
0.0
  0
LINE
  5
4215
  8
0
  6
CONTINUOUS
 62
     0
 10
264.5330218674001
 20
1542.4872308451
 30
0.0
 11
288.1629589082
 21
1542.4872308451
 31
0.0
  0
LINE
  5
4216
  8
0
  6
CONTINUOUS
 62
     0
 10
287.9829589082
 20
1560.3072308451
 30
0.0
 11
287.9829589082
 21
1542.6672308451
 31
0.0
  0
LINE
  5
4217
  8
0
  6
CONTINUOUS
 62
     0
 10
287.9829589082
 20
1542.6672308451
 30
0.0
 11
287.9829589082
 21
1560.3072308451
 31
0.0
  0
SOLID
  5
4218
  8
0
 62
     0
 10
288.0129589082
 20
1560.3072308451
 30
0.0
 11
287.9529589082001
 21
1560.3072308451
 31
0.0
 12
287.9829589082
 22
1560.4872308451
 32
0.0
 13
287.9829589082
 23
1560.4872308451
 33
0.0
  0
SOLID
  5
4219
  8
0
 62
     0
 10
287.9529589082001
 20
1542.6672308451
 30
0.0
 11
288.0129589082
 21
1542.6672308451
 31
0.0
 12
287.9829589082
 22
1542.4872308451
 32
0.0
 13
287.9829589082
 23
1542.4872308451
 33
0.0
  0
TEXT
  5
421A
  8
0
  6
CONTINUOUS
 62
     0
 10
288.2255989082
 20
1565.8278208312
 30
0.0
 40
0.18
  1
18.0000
  0
POINT
  5
421B
  8
DEFPOINTS
 62
     0
 10
491.9705218674001
 20
1560.4872308451
 30
0.0
  0
POINT
  5
421C
  8
DEFPOINTS
 62
     0
 10
264.4705218674001
 20
1542.4872308451
 30
0.0
  0
POINT
  5
43DD
  8
DEFPOINTS
 62
     0
 10
288.6872089082
 20
1542.4872308451
 30
0.0
  0
ENDBLK
  5
421D
  8
0
  6
BYBLOCK
 62
     0
  0
BLOCK
  8
0
  2
*D67
 70
     1
 10
0.0
 20
0.0
 30
0.0
  3
*D67
  1

  0
LINE
  5
4221
  8
0
  6
CONTINUOUS
 62
     0
 10
20.6131910622001
 20
1567.3387299087
 30
0.0
 11
20.4331910622001
 21
1567.3387299087
 31
0.0
  0
LINE
  5
4222
  8
0
  6
CONTINUOUS
 62
     0
 10
20.4331910622001
 20
1567.3387299087
 30
0.0
 11
20.4331910622001
 21
1560.4872308451
 31
0.0
  0
LINE
  5
4223
  8
0
  6
CONTINUOUS
 62
     0
 10
36.90802186740007
 20
1560.4872308451
 30
0.0
 11
20.2531910622001
 21
1560.4872308451
 31
0.0
  0
LINE
  5
4224
  8
0
  6
CONTINUOUS
 62
     0
 10
76.90802186740007
 20
1535.4872308451
 30
0.0
 11
20.2531910622001
 21
1535.4872308451
 31
0.0
  0
LINE
  5
4225
  8
0
  6
CONTINUOUS
 62
     0
 10
20.4331910622001
 20
1560.3072308451
 30
0.0
 11
20.43319106220009
 21
1535.6672308451
 31
0.0
  0
LINE
  5
4226
  8
0
  6
CONTINUOUS
 62
     0
 10
20.43319106220009
 20
1535.6672308451
 30
0.0
 11
20.4331910622001
 21
1560.3072308451
 31
0.0
  0
SOLID
  5
4227
  8
0
 62
     0
 10
20.4631910622001
 20
1560.3072308451
 30
0.0
 11
20.4031910622001
 21
1560.3072308451
 31
0.0
 12
20.4331910622001
 22
1560.4872308451
 32
0.0
 13
20.4331910622001
 23
1560.4872308451
 33
0.0
  0
SOLID
  5
4228
  8
0
 62
     0
 10
20.40319106220009
 20
1535.6672308451
 30
0.0
 11
20.4631910622001
 21
1535.6672308451
 31
0.0
 12
20.43319106220009
 22
1535.4872308451
 32
0.0
 13
20.43319106220009
 23
1535.4872308451
 33
0.0
  0
TEXT
  5
4229
  8
0
  6
CONTINUOUS
 62
     0
 10
20.6958110622001
 20
1567.2502599087
 30
0.0
 40
0.18
  1
25.0000
  0
POINT
  5
422A
  8
DEFPOINTS
 62
     0
 10
36.97052186740007
 20
1560.4872308451
 30
0.0
  0
POINT
  5
422B
  8
DEFPOINTS
 62
     0
 10
76.97052186740007
 20
1535.4872308451
 30
0.0
  0
POINT
  5
422C
  8
DEFPOINTS
 62
     0
 10
21.1474310622001
 20
1535.4872308451
 30
0.0
  0
ENDBLK
  5
422D
  8
0
  6
BYBLOCK
 62
     0
  0
BLOCK
  8
0
  2
*D68
 70
     1
 10
0.0
 20
0.0
 30
0.0
  3
*D68
  1

  0
LINE
  5
4231
  8
0
  6
CONTINUOUS
 62
     0
 10
76.90802186740007
 20
1535.4872308451
 30
0.0
 11
20.96743106220012
 21
1535.4872308451
 31
0.0
  0
LINE
  5
4232
  8
0
  6
CONTINUOUS
 62
     0
 10
76.90802186740007
 20
1203.4872308451
 30
0.0
 11
20.96743106220007
 21
1203.4872308451
 31
0.0
  0
LINE
  5
4233
  8
0
  6
CONTINUOUS
 62
     0
 10
21.14743106220012
 20
1535.3072308451
 30
0.0
 11
21.1474310622001
 21
1389.2924502688
 31
0.0
  0
LINE
  5
4234
  8
0
  6
CONTINUOUS
 62
     0
 10
21.14743106220007
 20
1203.6672308451
 30
0.0
 11
21.1474310622001
 21
1388.9286702688
 31
0.0
  0
SOLID
  5
4235
  8
0
 62
     0
 10
21.17743106220012
 20
1535.3072308451
 30
0.0
 11
21.11743106220012
 21
1535.3072308451
 31
0.0
 12
21.14743106220012
 22
1535.4872308451
 32
0.0
 13
21.14743106220012
 23
1535.4872308451
 33
0.0
  0
SOLID
  5
4236
  8
0
 62
     0
 10
21.11743106220007
 20
1203.6672308451
 30
0.0
 11
21.17743106220007
 21
1203.6672308451
 31
0.0
 12
21.14743106220007
 22
1203.4872308451
 32
0.0
 13
21.14743106220007
 23
1203.4872308451
 33
0.0
  0
TEXT
  5
4237
  8
0
  6
CONTINUOUS
 62
     0
 10
20.6243510622001
 20
1389.0220902688
 30
0.0
 40
0.18
  1
332.0000
  0
POINT
  5
4238
  8
DEFPOINTS
 62
     0
 10
76.97052186740007
 20
1535.4872308451
 30
0.0
  0
POINT
  5
4239
  8
DEFPOINTS
 62
     0
 10
76.97052186740007
 20
1203.4872308451
 30
0.0
  0
POINT
  5
423A
  8
DEFPOINTS
 62
     0
 10
21.1474310622001
 20
1203.4872308451
 30
0.0
  0
ENDBLK
  5
423B
  8
0
  6
BYBLOCK
 62
     0
  0
BLOCK
  8
0
  2
*D69
 70
     1
 10
0.0
 20
0.0
 30
0.0
  3
*D69
  1

  0
LINE
  5
423F
  8
0
  6
CONTINUOUS
 62
     0
 10
76.90802186740007
 20
1203.4872308451
 30
0.0
 11
20.96743106220011
 21
1203.4872308451
 31
0.0
  0
LINE
  5
4240
  8
0
  6
CONTINUOUS
 62
     0
 10
81.90802186740007
 20
1102.4872308451
 30
0.0
 11
20.96743106220009
 21
1102.4872308451
 31
0.0
  0
LINE
  5
4241
  8
0
  6
CONTINUOUS
 62
     0
 10
21.14743106220011
 20
1203.3072308451
 30
0.0
 11
21.1474310622001
 21
1159.8206589872
 31
0.0
  0
LINE
  5
4242
  8
0
  6
CONTINUOUS
 62
     0
 10
21.14743106220009
 20
1102.6672308451
 30
0.0
 11
21.1474310622001
 21
1159.4568789872
 31
0.0
  0
SOLID
  5
4243
  8
0
 62
     0
 10
21.17743106220011
 20
1203.3072308451
 30
0.0
 11
21.1174310622001
 21
1203.3072308451
 31
0.0
 12
21.14743106220011
 22
1203.4872308451
 32
0.0
 13
21.14743106220011
 23
1203.4872308451
 33
0.0
  0
SOLID
  5
4244
  8
0
 62
     0
 10
21.11743106220009
 20
1102.6672308451
 30
0.0
 11
21.17743106220009
 21
1102.6672308451
 31
0.0
 12
21.14743106220009
 22
1102.4872308451
 32
0.0
 13
21.14743106220009
 23
1102.4872308451
 33
0.0
  0
TEXT
  5
4245
  8
0
  6
CONTINUOUS
 62
     0
 10
20.6159810622001
 20
1159.5502989872
 30
0.0
 40
0.18
  1
101.0000
  0
POINT
  5
4246
  8
DEFPOINTS
 62
     0
 10
76.97052186740007
 20
1203.4872308451
 30
0.0
  0
POINT
  5
4247
  8
DEFPOINTS
 62
     0
 10
81.97052186740007
 20
1102.4872308451
 30
0.0
  0
POINT
  5
4248
  8
DEFPOINTS
 62
     0
 10
21.1474310622001
 20
1102.4872308451
 30
0.0
  0
ENDBLK
  5
424B
  8
0
  6
BYBLOCK
 62
     0
  0
BLOCK
  8
0
  2
*D70
 70
     1
 10
0.0
 20
0.0
 30
0.0
  3
*D70
  1

  0
LINE
  5
424F
  8
0
  6
CONTINUOUS
 62
     0
 10
81.90802186740007
 20
1102.4872308451
 30
0.0
 11
20.96743106220013
 21
1102.4872308451
 31
0.0
  0
LINE
  5
4250
  8
0
  6
CONTINUOUS
 62
     0
 10
81.90802186740007
 20
712.4872308450999
 30
0.0
 11
20.96743106220007
 21
712.4872308450999
 31
0.0
  0
LINE
  5
4251
  8
0
  6
CONTINUOUS
 62
     0
 10
21.14743106220013
 20
1102.3072308451
 30
0.0
 11
21.1474310622001
 21
877.4359489789999
 31
0.0
  0
LINE
  5
4252
  8
0
  6
CONTINUOUS
 62
     0
 10
21.14743106220007
 20
712.6672308450999
 30
0.0
 11
21.1474310622001
 21
877.0721689789998
 31
0.0
  0
SOLID
  5
4253
  8
0
 62
     0
 10
21.17743106220014
 20
1102.3072308451
 30
0.0
 11
21.11743106220013
 21
1102.3072308451
 31
0.0
 12
21.14743106220013
 22
1102.4872308451
 32
0.0
 13
21.14743106220013
 23
1102.4872308451
 33
0.0
  0
SOLID
  5
4254
  8
0
 62
     0
 10
21.11743106220007
 20
712.6672308450999
 30
0.0
 11
21.17743106220007
 21
712.6672308450999
 31
0.0
 12
21.14743106220007
 22
712.4872308450999
 32
0.0
 13
21.14743106220007
 23
712.4872308450999
 33
0.0
  0
TEXT
  5
4255
  8
0
  6
CONTINUOUS
 62
     0
 10
20.6243510622001
 20
877.165588979
 30
0.0
 40
0.18
  1
390.0000
  0
POINT
  5
4256
  8
DEFPOINTS
 62
     0
 10
81.97052186740007
 20
1102.4872308451
 30
0.0
  0
POINT
  5
4257
  8
DEFPOINTS
 62
     0
 10
81.97052186740007
 20
712.4872308450999
 30
0.0
  0
POINT
  5
4258
  8
DEFPOINTS
 62
     0
 10
21.1474310622001
 20
712.4872308450999
 30
0.0
  0
ENDBLK
  5
4259
  8
0
  6
BYBLOCK
 62
     0
  0
BLOCK
  8
0
  2
*D71
 70
     1
 10
0.0
 20
0.0
 30
0.0
  3
*D71
  1

  0
LINE
  5
425D
  8
0
  6
CONTINUOUS
 62
     0
 10
36.90802186740007
 20
1560.4872308451
 30
0.0
 11
4.209000000000135
 21
1560.4872308451
 31
0.0
  0
LINE
  5
425E
  8
0
  6
CONTINUOUS
 62
     0
 10
36.90802186740007
 20
10.48723084509993
 30
0.0
 11
4.208999999999886
 21
10.48723084509993
 31
0.0
  0
LINE
  5
425F
  8
0
  6
CONTINUOUS
 62
     0
 10
4.389000000000134
 20
1560.3072308451
 30
0.0
 11
4.38900000000001
 21
785.6691208451001
 31
0.0
  0
LINE
  5
4260
  8
0
  6
CONTINUOUS
 62
     0
 10
4.388999999999886
 20
10.66723084509993
 30
0.0
 11
4.38900000000001
 21
785.3053408451
 31
0.0
  0
SOLID
  5
4261
  8
0
 62
     0
 10
4.419000000000135
 20
1560.3072308451
 30
0.0
 11
4.359000000000134
 21
1560.3072308451
 31
0.0
 12
4.389000000000134
 22
1560.4872308451
 32
0.0
 13
4.389000000000134
 23
1560.4872308451
 33
0.0
  0
SOLID
  5
4262
  8
0
 62
     0
 10
4.358999999999885
 20
10.66723084509993
 30
0.0
 11
4.418999999999886
 21
10.66723084509993
 31
0.0
 12
4.388999999999886
 22
10.48723084509993
 32
0.0
 13
4.388999999999886
 23
10.48723084509993
 33
0.0
  0
TEXT
  5
4263
  8
0
  6
CONTINUOUS
 62
     0
 10
3.78771000000001
 20
785.3987608451
 30
0.0
 40
0.18
  1
1550.0000
  0
POINT
  5
4264
  8
DEFPOINTS
 62
     0
 10
36.97052186740007
 20
1560.4872308451
 30
0.0
  0
POINT
  5
4265
  8
DEFPOINTS
 62
     0
 10
36.97052186740007
 20
10.48723084509993
 30
0.0
  0
POINT
  5
4266
  8
DEFPOINTS
 62
     0
 10
4.38900000000001
 20
10.48723084509994
 30
0.0
  0
ENDBLK
  5
4267
  8
0
  6
BYBLOCK
 62
     0
  0
BLOCK
  8
0
  2
*D72
 70
     1
 10
0.0
 20
0.0
 30
0.0
  3
*D72
  1

  0
LINE
  5
426B
  8
0
  6
CONTINUOUS
 62
     0
 10
517.8183340848
 20
1567.3364390647
 30
0.0
 11
517.6383340848
 21
1567.3364390647
 31
0.0
  0
LINE
  5
426C
  8
0
  6
CONTINUOUS
 62
     0
 10
517.6383340848
 20
1567.3364390647
 30
0.0
 11
517.6383340848
 21
1560.4872308451
 31
0.0
  0
LINE
  5
426D
  8
0
  6
CONTINUOUS
 62
     0
 10
492.0330218674001
 20
1560.4872308451
 30
0.0
 11
517.8183340848
 21
1560.4872308451
 31
0.0
  0
LINE
  5
426E
  8
0
  6
CONTINUOUS
 62
     0
 10
464.5330218674001
 20
1515.4872308451
 30
0.0
 11
517.8183340848
 21
1515.4872308451
 31
0.0
  0
LINE
  5
426F
  8
0
  6
CONTINUOUS
 62
     0
 10
517.6383340848
 20
1560.3072308451
 30
0.0
 11
517.6383340848
 21
1515.6672308451
 31
0.0
  0
LINE
  5
4270
  8
0
  6
CONTINUOUS
 62
     0
 10
517.6383340848
 20
1515.6672308451
 30
0.0
 11
517.6383340848
 21
1560.3072308451
 31
0.0
  0
SOLID
  5
4271
  8
0
 62
     0
 10
517.6683340848
 20
1560.3072308451
 30
0.0
 11
517.6083340848
 21
1560.3072308451
 31
0.0
 12
517.6383340848
 22
1560.4872308451
 32
0.0
 13
517.6383340848
 23
1560.4872308451
 33
0.0
  0
SOLID
  5
4272
  8
0
 62
     0
 10
517.6083340848
 20
1515.6672308451
 30
0.0
 11
517.6683340848
 21
1515.6672308451
 31
0.0
 12
517.6383340848
 22
1515.4872308451
 32
0.0
 13
517.6383340848
 23
1515.4872308451
 33
0.0
  0
TEXT
  5
4273
  8
0
  6
CONTINUOUS
 62
     0
 10
517.9050940848
 20
1567.2479690647
 30
0.0
 40
0.18
  1
45.0000
  0
POINT
  5
4274
  8
DEFPOINTS
 62
     0
 10
491.9705218674001
 20
1560.4872308451
 30
0.0
  0
POINT
  5
4275
  8
DEFPOINTS
 62
     0
 10
464.4705218674001
 20
1515.4872308451
 30
0.0
  0
POINT
  5
43DE
  8
DEFPOINTS
 62
     0
 10
518.3546440848
 20
1515.4872308451
 30
0.0
  0
ENDBLK
  5
4276
  8
0
  6
BYBLOCK
 62
     0
  0
BLOCK
  8
0
  2
*D73
 70
     1
 10
0.0
 20
0.0
 30
0.0
  3
*D73
  1

  0
LINE
  5
427A
  8
0
  6
CONTINUOUS
 62
     0
 10
464.5330218674001
 20
1515.4872308451
 30
0.0
 11
518.5346440848
 21
1515.4872308451
 31
0.0
  0
LINE
  5
427B
  8
0
  6
CONTINUOUS
 62
     0
 10
464.5330218674001
 20
1242.9872308451
 30
0.0
 11
518.5346440848
 21
1242.9872308451
 31
0.0
  0
LINE
  5
427C
  8
0
  6
CONTINUOUS
 62
     0
 10
518.3546440848
 20
1515.3072308451
 30
0.0
 11
518.3546440848
 21
1379.4191208451
 31
0.0
  0
LINE
  5
427D
  8
0
  6
CONTINUOUS
 62
     0
 10
518.3546440848
 20
1243.1672308451
 30
0.0
 11
518.3546440848
 21
1379.0553408451
 31
0.0
  0
SOLID
  5
427E
  8
0
 62
     0
 10
518.3846440848
 20
1515.3072308451
 30
0.0
 11
518.3246440848001
 21
1515.3072308451
 31
0.0
 12
518.3546440848
 22
1515.4872308451
 32
0.0
 13
518.3546440848
 23
1515.4872308451
 33
0.0
  0
SOLID
  5
427F
  8
0
 62
     0
 10
518.3246440848001
 20
1243.1672308451
 30
0.0
 11
518.3846440848
 21
1243.1672308451
 31
0.0
 12
518.3546440848
 22
1242.9872308451
 32
0.0
 13
518.3546440848
 23
1242.9872308451
 33
0.0
  0
TEXT
  5
4280
  8
0
  6
CONTINUOUS
 62
     0
 10
517.8331840848
 20
1379.1487608451
 30
0.0
 40
0.18
  1
272.5000
  0
POINT
  5
4281
  8
DEFPOINTS
 62
     0
 10
464.4705218674001
 20
1515.4872308451
 30
0.0
  0
POINT
  5
4282
  8
DEFPOINTS
 62
     0
 10
464.4705218674001
 20
1242.9872308451
 30
0.0
  0
POINT
  5
4283
  8
DEFPOINTS
 62
     0
 10
518.3546440848
 20
1242.9872308451
 30
0.0
  0
ENDBLK
  5
4284
  8
0
  6
BYBLOCK
 62
     0
  0
BLOCK
  8
0
  2
*D74
 70
     1
 10
0.0
 20
0.0
 30
0.0
  3
*D74
  1

  0
LINE
  5
4288
  8
0
  6
CONTINUOUS
 62
     0
 10
464.5330218674001
 20
1242.9872308451
 30
0.0
 11
518.5346440848
 21
1242.9872308451
 31
0.0
  0
LINE
  5
4289
  8
0
  6
CONTINUOUS
 62
     0
 10
464.5330218674001
 20
1062.9872308451
 30
0.0
 11
518.5346440848
 21
1062.9872308451
 31
0.0
  0
LINE
  5
428A
  8
0
  6
CONTINUOUS
 62
     0
 10
518.3546440848
 20
1242.8072308451
 30
0.0
 11
518.3546440848
 21
1153.1691208451
 31
0.0
  0
LINE
  5
428B
  8
0
  6
CONTINUOUS
 62
     0
 10
518.3546440848
 20
1063.1672308451
 30
0.0
 11
518.3546440848
 21
1152.8053408451
 31
0.0
  0
SOLID
  5
428C
  8
0
 62
     0
 10
518.3846440848
 20
1242.8072308451
 30
0.0
 11
518.3246440848001
 21
1242.8072308451
 31
0.0
 12
518.3546440848
 22
1242.9872308451
 32
0.0
 13
518.3546440848
 23
1242.9872308451
 33
0.0
  0
SOLID
  5
428D
  8
0
 62
     0
 10
518.3246440848001
 20
1063.1672308451
 30
0.0
 11
518.3846440848
 21
1063.1672308451
 31
0.0
 12
518.3546440848
 22
1062.9872308451
 32
0.0
 13
518.3546440848
 23
1062.9872308451
 33
0.0
  0
TEXT
  5
428E
  8
0
  6
CONTINUOUS
 62
     0
 10
517.8231940848
 20
1152.8987608451
 30
0.0
 40
0.18
  1
180.0000
  0
POINT
  5
428F
  8
DEFPOINTS
 62
     0
 10
464.4705218674001
 20
1242.9872308451
 30
0.0
  0
POINT
  5
4290
  8
DEFPOINTS
 62
     0
 10
464.4705218674001
 20
1062.9872308451
 30
0.0
  0
POINT
  5
4291
  8
DEFPOINTS
 62
     0
 10
518.3546440848
 20
1062.9872308451
 30
0.0
  0
ENDBLK
  5
4292
  8
0
  6
BYBLOCK
 62
     0
  0
BLOCK
  8
0
  2
*D75
 70
     1
 10
0.0
 20
0.0
 30
0.0
  3
*D75
  1

  0
LINE
  5
4296
  8
0
  6
CONTINUOUS
 62
     0
 10
464.5330218674001
 20
1062.9872308451
 30
0.0
 11
518.5346440848
 21
1062.9872308451
 31
0.0
  0
LINE
  5
4297
  8
0
  6
CONTINUOUS
 62
     0
 10
464.5330218674001
 20
715.4872308450999
 30
0.0
 11
518.5346440848
 21
715.4872308450999
 31
0.0
  0
LINE
  5
4298
  8
0
  6
CONTINUOUS
 62
     0
 10
518.3546440848
 20
1062.8072308451
 30
0.0
 11
518.3546440848
 21
889.4191208451
 31
0.0
  0
LINE
  5
4299
  8
0
  6
CONTINUOUS
 62
     0
 10
518.3546440848
 20
715.6672308450999
 30
0.0
 11
518.3546440848
 21
889.0553408450999
 31
0.0
  0
SOLID
  5
429A
  8
0
 62
     0
 10
518.3846440848
 20
1062.8072308451
 30
0.0
 11
518.3246440848001
 21
1062.8072308451
 31
0.0
 12
518.3546440848
 22
1062.9872308451
 32
0.0
 13
518.3546440848
 23
1062.9872308451
 33
0.0
  0
SOLID
  5
429B
  8
0
 62
     0
 10
518.3246440848001
 20
715.6672308450999
 30
0.0
 11
518.3846440848
 21
715.6672308450999
 31
0.0
 12
518.3546440848
 22
715.4872308450999
 32
0.0
 13
518.3546440848
 23
715.4872308450999
 33
0.0
  0
TEXT
  5
429C
  8
0
  6
CONTINUOUS
 62
     0
 10
517.8315640848
 20
889.1487608451
 30
0.0
 40
0.18
  1
347.5000
  0
POINT
  5
429D
  8
DEFPOINTS
 62
     0
 10
464.4705218674001
 20
1062.9872308451
 30
0.0
  0
POINT
  5
429E
  8
DEFPOINTS
 62
     0
 10
464.4705218674001
 20
715.4872308450999
 30
0.0
  0
POINT
  5
429F
  8
DEFPOINTS
 62
     0
 10
518.3546440848
 20
715.4872308450999
 30
0.0
  0
ENDBLK
  5
42A0
  8
0
  6
BYBLOCK
 62
     0
  0
BLOCK
  8
0
  2
*D76
 70
     1
 10
0.0
 20
0.0
 30
0.0
  3
*D76
  1

  0
LINE
  5
42A4
  8
0
  6
CONTINUOUS
 62
     0
 10
464.5330218674001
 20
715.4872308450999
 30
0.0
 11
518.5346440848001
 21
715.4872308450999
 31
0.0
  0
LINE
  5
42A5
  8
0
  6
CONTINUOUS
 62
     0
 10
464.5330218674001
 20
110.4872308450999
 30
0.0
 11
518.5346440847999
 21
110.4872308450999
 31
0.0
  0
LINE
  5
42A6
  8
0
  6
CONTINUOUS
 62
     0
 10
518.3546440848002
 20
715.3072308451
 30
0.0
 11
518.3546440848
 21
413.1691208450999
 31
0.0
  0
LINE
  5
42A7
  8
0
  6
CONTINUOUS
 62
     0
 10
518.3546440847999
 20
110.6672308450999
 30
0.0
 11
518.3546440848
 21
412.8053408451
 31
0.0
  0
SOLID
  5
42A8
  8
0
 62
     0
 10
518.3846440848001
 20
715.3072308451
 30
0.0
 11
518.3246440848002
 21
715.3072308451
 31
0.0
 12
518.3546440848002
 22
715.4872308450999
 32
0.0
 13
518.3546440848002
 23
715.4872308450999
 33
0.0
  0
SOLID
  5
42A9
  8
0
 62
     0
 10
518.3246440848
 20
110.6672308450999
 30
0.0
 11
518.3846440847999
 21
110.6672308450999
 31
0.0
 12
518.3546440847999
 22
110.4872308450999
 32
0.0
 13
518.3546440847999
 23
110.4872308450999
 33
0.0
  0
TEXT
  5
42AA
  8
0
  6
CONTINUOUS
 62
     0
 10
517.8321940848
 20
412.8987608450999
 30
0.0
 40
0.18
  1
605.0000
  0
POINT
  5
42AB
  8
DEFPOINTS
 62
     0
 10
464.4705218674001
 20
715.4872308450999
 30
0.0
  0
POINT
  5
42AC
  8
DEFPOINTS
 62
     0
 10
464.4705218674001
 20
110.4872308450999
 30
0.0
  0
POINT
  5
42AD
  8
DEFPOINTS
 62
     0
 10
518.3546440848
 20
110.4872308450999
 30
0.0
  0
ENDBLK
  5
42AE
  8
0
  6
BYBLOCK
 62
     0
  0
BLOCK
  8
0
  2
*D77
 70
     1
 10
0.0
 20
0.0
 30
0.0
  3
*D77
  1

  0
LINE
  5
42B2
  8
0
  6
CONTINUOUS
 62
     0
 10
71.66157179525872
 20
102.6329256421
 30
0.0
 11
71.48157179525873
 21
102.6329256421
 31
0.0
  0
LINE
  5
42B3
  8
0
  6
CONTINUOUS
 62
     0
 10
71.48157179525873
 20
102.6329256421
 30
0.0
 11
62.25965177774707
 21
112.9640137274146
 31
0.0
  0
TEXT
  5
42B4
  8
0
  6
CONTINUOUS
 62
     0
 10
71.74149179525872
 20
102.5465256421
 30
0.0
 40
0.18
  1
Ø7.0000
  0
SOLID
  5
42B5
  8
0
 62
     0
 10
62.28203234596129
 20
112.9839914691891
 30
0.0
 11
62.23727120953284
 21
112.9440359856401
 31
0.0
 12
62.13978532710007
 22
113.0982971367
 32
0.0
 13
62.13978532710007
 23
113.0982971367
 33
0.0
  0
POINT
  5
42B6
  8
DEFPOINTS
 62
     0
 10
62.13978532710007
 20
113.0982971367
 30
0.0
  0
POINT
  5
42B7
  8
DEFPOINTS
 62
     0
 10
66.80125840780005
 20
107.8761645533999
 30
0.0
  0
ENDBLK
  5
42BB
  8
0
  6
BYBLOCK
 62
     0
  0
BLOCK
  8
0
  2
*D78
 70
     1
 10
0.0
 20
0.0
 30
0.0
  3
*D78
  1

  0
LINE
  5
42BF
  8
0
  6
CONTINUOUS
 62
     0
 10
64.47052186740007
 20
1515.5497308451
 30
0.0
 11
64.47052186740007
 21
1574.7759629024
 31
0.0
  0
LINE
  5
42C0
  8
0
  6
CONTINUOUS
 62
     0
 10
264.4705218674001
 20
1542.5497308451
 30
0.0
 11
264.4705218674001
 21
1574.7759629024
 31
0.0
  0
LINE
  5
42C1
  8
0
  6
CONTINUOUS
 62
     0
 10
64.65052186740007
 20
1574.5959629024
 30
0.0
 11
163.8664418674001
 21
1574.5959629024
 31
0.0
  0
LINE
  5
42C2
  8
0
  6
CONTINUOUS
 62
     0
 10
264.2905218674001
 20
1574.5959629024
 30
0.0
 11
165.0746018674001
 21
1574.5959629024
 31
0.0
  0
SOLID
  5
42C3
  8
0
 62
     0
 10
64.65052186740007
 20
1574.6259629024
 30
0.0
 11
64.65052186740007
 21
1574.5659629024
 31
0.0
 12
64.47052186740007
 22
1574.5959629024
 32
0.0
 13
64.47052186740007
 23
1574.5959629024
 33
0.0
  0
SOLID
  5
42C4
  8
0
 62
     0
 10
264.2905218674001
 20
1574.5659629024
 30
0.0
 11
264.2905218674001
 21
1574.6259629024
 31
0.0
 12
264.4705218674001
 22
1574.5959629024
 32
0.0
 13
264.4705218674001
 23
1574.5959629024
 33
0.0
  0
TEXT
  5
42C5
  8
0
  6
CONTINUOUS
 62
     0
 10
163.9490618674
 20
1574.5074929024
 30
0.0
 40
0.18
  1
200.0000
  0
POINT
  5
42C6
  8
DEFPOINTS
 62
     0
 10
64.47052186740007
 20
1515.4872308451
 30
0.0
  0
POINT
  5
42C7
  8
DEFPOINTS
 62
     0
 10
264.4705218674001
 20
1542.4872308451
 30
0.0
  0
POINT
  5
42C8
  8
DEFPOINTS
 62
     0
 10
264.4705218674001
 20
1574.5959629024
 30
0.0
  0
ENDBLK
  5
42C9
  8
0
  6
BYBLOCK
 62
     0
  0
BLOCK
  8
0
  2
*D79
 70
     1
 10
0.0
 20
0.0
 30
0.0
  3
*D79
  1

  0
LINE
  5
42CD
  8
0
  6
CONTINUOUS
 62
     0
 10
688.7779067208
 20
1560.5497308451
 30
0.0
 11
688.7779067208
 21
1618.532327739
 31
0.0
  0
LINE
  5
42CE
  8
0
  6
CONTINUOUS
 62
     0
 10
1143.7779067208
 20
1560.5497308451
 30
0.0
 11
1143.7779067208
 21
1618.532327739
 31
0.0
  0
LINE
  5
42CF
  8
0
  6
CONTINUOUS
 62
     0
 10
688.9579067208
 20
1618.352327739
 30
0.0
 11
915.6717567208
 21
1618.352327739
 31
0.0
  0
LINE
  5
42D0
  8
0
  6
CONTINUOUS
 62
     0
 10
1143.5979067208
 20
1618.352327739
 30
0.0
 11
916.8840567208001
 21
1618.352327739
 31
0.0
  0
SOLID
  5
42D1
  8
0
 62
     0
 10
688.9579067208
 20
1618.382327739
 30
0.0
 11
688.9579067208
 21
1618.322327739
 31
0.0
 12
688.7779067208
 22
1618.352327739
 32
0.0
 13
688.7779067208
 23
1618.352327739
 33
0.0
  0
SOLID
  5
42D2
  8
0
 62
     0
 10
1143.5979067208
 20
1618.322327739
 30
0.0
 11
1143.5979067208
 21
1618.382327739
 31
0.0
 12
1143.7779067208
 22
1618.352327739
 32
0.0
 13
1143.7779067208
 23
1618.352327739
 33
0.0
  0
TEXT
  5
42D3
  8
0
  6
CONTINUOUS
 62
     0
 10
915.7585167208
 20
1618.263857739
 30
0.0
 40
0.18
  1
455.0000
  0
POINT
  5
42D4
  8
DEFPOINTS
 62
     0
 10
688.7779067208
 20
1560.4872308451
 30
0.0
  0
POINT
  5
42D5
  8
DEFPOINTS
 62
     0
 10
1143.7779067208
 20
1560.4872308451
 30
0.0
  0
POINT
  5
42D6
  8
DEFPOINTS
 62
     0
 10
1143.7779067208
 20
1618.352327739
 30
0.0
  0
ENDBLK
  5
42D7
  8
0
  6
BYBLOCK
 62
     0
  0
BLOCK
  8
0
  2
*D80
 70
     1
 10
0.0
 20
0.0
 30
0.0
  3
*D80
  1

  0
LINE
  5
42DB
  8
0
  6
CONTINUOUS
 62
     0
 10
707.2779067208
 20
1525.5497308451
 30
0.0
 11
707.2779067208
 21
1603.7872675061
 31
0.0
  0
LINE
  5
42DC
  8
0
  6
CONTINUOUS
 62
     0
 10
1125.2779067208
 20
1525.5497308451
 30
0.0
 11
1125.2779067208
 21
1603.7872675061
 31
0.0
  0
LINE
  5
42DD
  8
0
  6
CONTINUOUS
 62
     0
 10
707.4579067208
 20
1603.6072675061
 30
0.0
 11
915.6717567208
 21
1603.6072675061
 31
0.0
  0
LINE
  5
42DE
  8
0
  6
CONTINUOUS
 62
     0
 10
1125.0979067208
 20
1603.6072675061
 30
0.0
 11
916.8840567208001
 21
1603.6072675061
 31
0.0
  0
SOLID
  5
42DF
  8
0
 62
     0
 10
707.4579067208
 20
1603.6372675061
 30
0.0
 11
707.4579067208
 21
1603.5772675061
 31
0.0
 12
707.2779067208
 22
1603.6072675061
 32
0.0
 13
707.2779067208
 23
1603.6072675061
 33
0.0
  0
SOLID
  5
42E0
  8
0
 62
     0
 10
1125.0979067208
 20
1603.5772675061
 30
0.0
 11
1125.0979067208
 21
1603.6372675061
 31
0.0
 12
1125.2779067208
 22
1603.6072675061
 32
0.0
 13
1125.2779067208
 23
1603.6072675061
 33
0.0
  0
TEXT
  5
42E1
  8
0
  6
CONTINUOUS
 62
     0
 10
915.7585167208
 20
1603.5187975061
 30
0.0
 40
0.18
  1
418.0000
  0
POINT
  5
42E2
  8
DEFPOINTS
 62
     0
 10
707.2779067208
 20
1525.4872308451
 30
0.0
  0
POINT
  5
42E3
  8
DEFPOINTS
 62
     0
 10
1125.2779067208
 20
1525.4872308451
 30
0.0
  0
POINT
  5
42E4
  8
DEFPOINTS
 62
     0
 10
1125.2779067208
 20
1603.6072675061
 30
0.0
  0
ENDBLK
  5
42E5
  8
0
  6
BYBLOCK
 62
     0
  0
BLOCK
  8
0
  2
*D81
 70
     1
 10
0.0
 20
0.0
 30
0.0
  3
*D81
  1

  0
LINE
  5
42E9
  8
0
  6
CONTINUOUS
 62
     0
 10
713.7779067208
 20
1544.5497308451
 30
0.0
 11
713.7779067208
 21
1588.7801962558
 31
0.0
  0
LINE
  5
42EA
  8
0
  6
CONTINUOUS
 62
     0
 10
1118.7779067208
 20
1544.5497308451
 30
0.0
 11
1118.7779067208
 21
1588.7801962558
 31
0.0
  0
LINE
  5
42EB
  8
0
  6
CONTINUOUS
 62
     0
 10
713.9579067208
 20
1588.6001962558
 30
0.0
 11
915.6717567208
 21
1588.6001962558
 31
0.0
  0
LINE
  5
42EC
  8
0
  6
CONTINUOUS
 62
     0
 10
1118.5979067208
 20
1588.6001962558
 30
0.0
 11
916.8840567208001
 21
1588.6001962558
 31
0.0
  0
SOLID
  5
42ED
  8
0
 62
     0
 10
713.9579067208
 20
1588.6301962558
 30
0.0
 11
713.9579067208
 21
1588.5701962558
 31
0.0
 12
713.7779067208
 22
1588.6001962558
 32
0.0
 13
713.7779067208
 23
1588.6001962558
 33
0.0
  0
SOLID
  5
42EE
  8
0
 62
     0
 10
1118.5979067208
 20
1588.5701962558
 30
0.0
 11
1118.5979067208
 21
1588.6301962558
 31
0.0
 12
1118.7779067208
 22
1588.6001962558
 32
0.0
 13
1118.7779067208
 23
1588.6001962558
 33
0.0
  0
TEXT
  5
42EF
  8
0
  6
CONTINUOUS
 62
     0
 10
915.7585167208
 20
1588.5117262558
 30
0.0
 40
0.18
  1
405.0000
  0
POINT
  5
42F0
  8
DEFPOINTS
 62
     0
 10
713.7779067208
 20
1544.4872308451
 30
0.0
  0
POINT
  5
42F1
  8
DEFPOINTS
 62
     0
 10
1118.7779067208
 20
1544.4872308451
 30
0.0
  0
POINT
  5
42F2
  8
DEFPOINTS
 62
     0
 10
1118.7779067208
 20
1588.6001962558
 30
0.0
  0
ENDBLK
  5
42F3
  8
0
  6
BYBLOCK
 62
     0
  0
BLOCK
  8
0
  2
*D82
 70
     1
 10
0.0
 20
0.0
 30
0.0
  3
*D82
  1

  0
LINE
  5
42F7
  8
0
  6
CONTINUOUS
 62
     0
 10
688.7154067208
 20
1560.4872308451
 30
0.0
 11
656.9458479498002
 21
1560.4872308451
 31
0.0
  0
LINE
  5
42F8
  8
0
  6
CONTINUOUS
 62
     0
 10
688.7154067208
 20
10.48723084509993
 30
0.0
 11
656.9458479497999
 21
10.48723084509993
 31
0.0
  0
LINE
  5
42F9
  8
0
  6
CONTINUOUS
 62
     0
 10
657.1258479498001
 20
1560.3072308451
 30
0.0
 11
657.1258479498
 21
785.6691208451001
 31
0.0
  0
LINE
  5
42FA
  8
0
  6
CONTINUOUS
 62
     0
 10
657.1258479497999
 20
10.66723084509993
 30
0.0
 11
657.1258479498
 21
785.3053408450997
 31
0.0
  0
SOLID
  5
42FB
  8
0
 62
     0
 10
657.1558479498001
 20
1560.3072308451
 30
0.0
 11
657.0958479498001
 21
1560.3072308451
 31
0.0
 12
657.1258479498001
 22
1560.4872308451
 32
0.0
 13
657.1258479498001
 23
1560.4872308451
 33
0.0
  0
SOLID
  5
42FC
  8
0
 62
     0
 10
657.0958479497999
 20
10.66723084509993
 30
0.0
 11
657.1558479497999
 21
10.66723084509993
 31
0.0
 12
657.1258479497999
 22
10.48723084509993
 32
0.0
 13
657.1258479497999
 23
10.48723084509993
 33
0.0
  0
TEXT
  5
42FD
  8
0
  6
CONTINUOUS
 62
     0
 10
656.5245579497999
 20
785.3987608451
 30
0.0
 40
0.18
  1
1550.0000
  0
POINT
  5
42FE
  8
DEFPOINTS
 62
     0
 10
688.7779067208
 20
1560.4872308451
 30
0.0
  0
POINT
  5
42FF
  8
DEFPOINTS
 62
     0
 10
688.7779067208
 20
10.48723084509993
 30
0.0
  0
POINT
  5
4300
  8
DEFPOINTS
 62
     0
 10
657.1258479498
 20
10.48723084509994
 30
0.0
  0
ENDBLK
  5
4301
  8
0
  6
BYBLOCK
 62
     0
  0
BLOCK
  8
0
  2
*D83
 70
     1
 10
0.0
 20
0.0
 30
0.0
  3
*D83
  1

  0
LINE
  5
4305
  8
0
  6
CONTINUOUS
 62
     0
 10
682.5405208419
 20
1567.1882462836
 30
0.0
 11
682.3605208419001
 21
1567.1882462836
 31
0.0
  0
LINE
  5
4306
  8
0
  6
CONTINUOUS
 62
     0
 10
682.3605208419001
 20
1567.1882462836
 30
0.0
 11
682.3605208419001
 21
1560.4872308451
 31
0.0
  0
LINE
  5
4307
  8
0
  6
CONTINUOUS
 62
     0
 10
688.7154067208
 20
1560.4872308451
 30
0.0
 11
682.1805208419001
 21
1560.4872308451
 31
0.0
  0
LINE
  5
4308
  8
0
  6
CONTINUOUS
 62
     0
 10
713.7154067208
 20
1544.4872308451
 30
0.0
 11
682.1805208419001
 21
1544.4872308451
 31
0.0
  0
LINE
  5
4309
  8
0
  6
CONTINUOUS
 62
     0
 10
682.3605208419001
 20
1560.3072308451
 30
0.0
 11
682.3605208419001
 21
1544.6672308451
 31
0.0
  0
LINE
  5
430A
  8
0
  6
CONTINUOUS
 62
     0
 10
682.3605208419001
 20
1544.6672308451
 30
0.0
 11
682.3605208419001
 21
1560.3072308451
 31
0.0
  0
SOLID
  5
430B
  8
0
 62
     0
 10
682.3905208419001
 20
1560.3072308451
 30
0.0
 11
682.3305208419001
 21
1560.3072308451
 31
0.0
 12
682.3605208419001
 22
1560.4872308451
 32
0.0
 13
682.3605208419001
 23
1560.4872308451
 33
0.0
  0
SOLID
  5
430C
  8
0
 62
     0
 10
682.3305208419001
 20
1544.6672308451
 30
0.0
 11
682.3905208419001
 21
1544.6672308451
 31
0.0
 12
682.3605208419001
 22
1544.4872308451
 32
0.0
 13
682.3605208419001
 23
1544.4872308451
 33
0.0
  0
TEXT
  5
430D
  8
0
  6
CONTINUOUS
 62
     0
 10
682.6031608419
 20
1567.0997762836
 30
0.0
 40
0.18
  1
16.0000
  0
POINT
  5
430E
  8
DEFPOINTS
 62
     0
 10
688.7779067208
 20
1560.4872308451
 30
0.0
  0
POINT
  5
430F
  8
DEFPOINTS
 62
     0
 10
713.7779067208
 20
1544.4872308451
 30
0.0
  0
POINT
  5
4310
  8
DEFPOINTS
 62
     0
 10
683.0647708419001
 20
1544.4872308451
 30
0.0
  0
ENDBLK
  5
4311
  8
0
  6
BYBLOCK
 62
     0
  0
BLOCK
  8
0
  2
*D84
 70
     1
 10
0.0
 20
0.0
 30
0.0
  3
*D84
  1

  0
LINE
  5
4315
  8
0
  6
CONTINUOUS
 62
     0
 10
683.5890208419002
 20
4.968018531799999
 30
0.0
 11
683.7690208419001
 21
4.968018531799999
 31
0.0
  0
LINE
  5
4316
  8
0
  6
CONTINUOUS
 62
     0
 10
683.7690208419001
 20
4.968018531799999
 30
0.0
 11
683.7690208419001
 21
10.48723084509993
 31
0.0
  0
LINE
  5
4317
  8
0
  6
CONTINUOUS
 62
     0
 10
713.7154067208
 20
25.48723084509993
 30
0.0
 11
683.5890208419002
 21
25.48723084509994
 31
0.0
  0
LINE
  5
4318
  8
0
  6
CONTINUOUS
 62
     0
 10
688.7154067208
 20
10.48723084509993
 30
0.0
 11
683.5890208419002
 21
10.48723084509993
 31
0.0
  0
LINE
  5
4319
  8
0
  6
CONTINUOUS
 62
     0
 10
683.7690208419001
 20
25.30723084509994
 30
0.0
 11
683.7690208419001
 21
10.66723084509993
 31
0.0
  0
LINE
  5
431A
  8
0
  6
CONTINUOUS
 62
     0
 10
683.7690208419001
 20
10.66723084509993
 30
0.0
 11
683.7690208419001
 21
25.30723084509994
 31
0.0
  0
SOLID
  5
431B
  8
0
 62
     0
 10
683.7990208419001
 20
25.30723084509994
 30
0.0
 11
683.7390208419001
 21
25.30723084509994
 31
0.0
 12
683.7690208419001
 22
25.48723084509994
 32
0.0
 13
683.7690208419001
 23
25.48723084509994
 33
0.0
  0
SOLID
  5
431C
  8
0
 62
     0
 10
683.7390208419001
 20
10.66723084509993
 30
0.0
 11
683.7990208419001
 21
10.66723084509993
 31
0.0
 12
683.7690208419001
 22
10.48723084509993
 32
0.0
 13
683.7690208419001
 23
10.48723084509993
 33
0.0
  0
TEXT
  5
431D
  8
0
  6
CONTINUOUS
 62
     0
 10
682.6031608419
 20
4.879548531799998
 30
0.0
 40
0.18
  1
15.0000
  0
POINT
  5
431E
  8
DEFPOINTS
 62
     0
 10
713.7779067208
 20
25.48723084509993
 30
0.0
  0
POINT
  5
431F
  8
DEFPOINTS
 62
     0
 10
688.7779067208
 20
10.48723084509993
 30
0.0
  0
POINT
  5
4320
  8
DEFPOINTS
 62
     0
 10
683.0647708419001
 20
10.48723084509993
 30
0.0
  0
ENDBLK
  5
4321
  8
0
  6
BYBLOCK
 62
     0
  0
BLOCK
  8
0
  2
*D85
 70
     1
 10
0.0
 20
0.0
 30
0.0
  3
*D85
  1

  0
LINE
  5
4325
  8
0
  6
CONTINUOUS
 62
     0
 10
1156.9340625603
 20
1566.2690360564
 30
0.0
 11
1156.7540625603
 21
1566.2690360564
 31
0.0
  0
LINE
  5
4326
  8
0
  6
CONTINUOUS
 62
     0
 10
1156.7540625603
 20
1566.2690360564
 30
0.0
 11
1156.7540625603
 21
1560.4872308451
 31
0.0
  0
LINE
  5
4327
  8
0
  6
CONTINUOUS
 62
     0
 10
1143.8404067208
 20
1560.4872308451
 30
0.0
 11
1156.9340625603
 21
1560.4872308451
 31
0.0
  0
LINE
  5
4328
  8
0
  6
CONTINUOUS
 62
     0
 10
1125.3404067208
 20
1525.4872308451
 30
0.0
 11
1156.9340625603
 21
1525.4872308451
 31
0.0
  0
LINE
  5
4329
  8
0
  6
CONTINUOUS
 62
     0
 10
1156.7540625603
 20
1560.3072308451
 30
0.0
 11
1156.7540625603
 21
1525.6672308451
 31
0.0
  0
LINE
  5
432A
  8
0
  6
CONTINUOUS
 62
     0
 10
1156.7540625603
 20
1525.6672308451
 30
0.0
 11
1156.7540625603
 21
1560.3072308451
 31
0.0
  0
SOLID
  5
432B
  8
0
 62
     0
 10
1156.7840625603
 20
1560.3072308451
 30
0.0
 11
1156.7240625603
 21
1560.3072308451
 31
0.0
 12
1156.7540625603
 22
1560.4872308451
 32
0.0
 13
1156.7540625603
 23
1560.4872308451
 33
0.0
  0
SOLID
  5
432C
  8
0
 62
     0
 10
1156.7240625603
 20
1525.6672308451
 30
0.0
 11
1156.7840625603
 21
1525.6672308451
 31
0.0
 12
1156.7540625603
 22
1525.4872308451
 32
0.0
 13
1156.7540625603
 23
1525.4872308451
 33
0.0
  0
TEXT
  5
432D
  8
0
  6
CONTINUOUS
 62
     0
 10
1157.0134425603
 20
1566.1805660564
 30
0.0
 40
0.18
  1
35.0000
  0
POINT
  5
432E
  8
DEFPOINTS
 62
     0
 10
1143.7779067208
 20
1560.4872308451
 30
0.0
  0
POINT
  5
432F
  8
DEFPOINTS
 62
     0
 10
1125.2779067208
 20
1525.4872308451
 30
0.0
  0
POINT
  5
43DF
  8
DEFPOINTS
 62
     0
 10
1157.4666825603
 20
1525.4872308451
 30
0.0
  0
ENDBLK
  5
4330
  8
0
  6
BYBLOCK
 62
     0
  0
BLOCK
  8
0
  2
*D86
 70
     1
 10
0.0
 20
0.0
 30
0.0
  3
*D86
  1

  0
LINE
  5
4334
  8
0
  6
CONTINUOUS
 62
     0
 10
1125.3404067208
 20
1525.4872308451
 30
0.0
 11
1157.6466825603
 21
1525.4872308451
 31
0.0
  0
LINE
  5
4335
  8
0
  6
CONTINUOUS
 62
     0
 10
1125.3404067208
 20
1135.4872308451
 30
0.0
 11
1157.6466825603
 21
1135.4872308451
 31
0.0
  0
LINE
  5
4336
  8
0
  6
CONTINUOUS
 62
     0
 10
1157.4666825603
 20
1525.3072308451
 30
0.0
 11
1157.4666825603
 21
1330.6691208451
 31
0.0
  0
LINE
  5
4337
  8
0
  6
CONTINUOUS
 62
     0
 10
1157.4666825603
 20
1135.6672308451
 30
0.0
 11
1157.4666825603
 21
1330.3053408451
 31
0.0
  0
SOLID
  5
4338
  8
0
 62
     0
 10
1157.4966825603
 20
1525.3072308451
 30
0.0
 11
1157.4366825603
 21
1525.3072308451
 31
0.0
 12
1157.4666825603
 22
1525.4872308451
 32
0.0
 13
1157.4666825603
 23
1525.4872308451
 33
0.0
  0
SOLID
  5
4339
  8
0
 62
     0
 10
1157.4366825603
 20
1135.6672308451
 30
0.0
 11
1157.4966825603
 21
1135.6672308451
 31
0.0
 12
1157.4666825603
 22
1135.4872308451
 32
0.0
 13
1157.4666825603
 23
1135.4872308451
 33
0.0
  0
TEXT
  5
433A
  8
0
  6
CONTINUOUS
 62
     0
 10
1156.9436025603
 20
1330.3987608451
 30
0.0
 40
0.18
  1
390.0000
  0
POINT
  5
433B
  8
DEFPOINTS
 62
     0
 10
1125.2779067208
 20
1525.4872308451
 30
0.0
  0
POINT
  5
433C
  8
DEFPOINTS
 62
     0
 10
1125.2779067208
 20
1135.4872308451
 30
0.0
  0
POINT
  5
433D
  8
DEFPOINTS
 62
     0
 10
1157.4666825603
 20
1135.4872308451
 30
0.0
  0
ENDBLK
  5
433E
  8
0
  6
BYBLOCK
 62
     0
  0
BLOCK
  8
0
  2
*D87
 70
     1
 10
0.0
 20
0.0
 30
0.0
  3
*D87
  1

  0
LINE
  5
4342
  8
0
  6
CONTINUOUS
 62
     0
 10
1125.3404067208
 20
1135.4872308451
 30
0.0
 11
1157.6466825603
 21
1135.4872308451
 31
0.0
  0
LINE
  5
4343
  8
0
  6
CONTINUOUS
 62
     0
 10
1125.3404067208
 20
865.4872308450999
 30
0.0
 11
1157.6466825603
 21
865.4872308450999
 31
0.0
  0
LINE
  5
4344
  8
0
  6
CONTINUOUS
 62
     0
 10
1157.4666825603
 20
1135.3072308451
 30
0.0
 11
1157.4666825603
 21
1000.6691208451
 31
0.0
  0
LINE
  5
4345
  8
0
  6
CONTINUOUS
 62
     0
 10
1157.4666825603
 20
865.6672308450999
 30
0.0
 11
1157.4666825603
 21
1000.3053408451
 31
0.0
  0
SOLID
  5
4346
  8
0
 62
     0
 10
1157.4966825603
 20
1135.3072308451
 30
0.0
 11
1157.4366825603
 21
1135.3072308451
 31
0.0
 12
1157.4666825603
 22
1135.4872308451
 32
0.0
 13
1157.4666825603
 23
1135.4872308451
 33
0.0
  0
SOLID
  5
4347
  8
0
 62
     0
 10
1157.4366825603
 20
865.6672308450999
 30
0.0
 11
1157.4966825603
 21
865.6672308450999
 31
0.0
 12
1157.4666825603
 22
865.4872308450999
 32
0.0
 13
1157.4666825603
 23
865.4872308450999
 33
0.0
  0
TEXT
  5
4348
  8
0
  6
CONTINUOUS
 62
     0
 10
1156.9452225603
 20
1000.3987608451
 30
0.0
 40
0.18
  1
270.0000
  0
POINT
  5
4349
  8
DEFPOINTS
 62
     0
 10
1125.2779067208
 20
1135.4872308451
 30
0.0
  0
POINT
  5
434A
  8
DEFPOINTS
 62
     0
 10
1125.2779067208
 20
865.4872308450999
 30
0.0
  0
POINT
  5
434B
  8
DEFPOINTS
 62
     0
 10
1157.4666825603
 20
865.4872308450999
 30
0.0
  0
ENDBLK
  5
434C
  8
0
  6
BYBLOCK
 62
     0
  0
BLOCK
  8
0
  2
*D88
 70
     1
 10
0.0
 20
0.0
 30
0.0
  3
*D88
  1

  0
LINE
  5
4350
  8
0
  6
CONTINUOUS
 62
     0
 10
1125.3404067208
 20
865.4872308450999
 30
0.0
 11
1157.6466825603
 21
865.4872308450999
 31
0.0
  0
LINE
  5
4351
  8
0
  6
CONTINUOUS
 62
     0
 10
1125.3404067208
 20
440.4872308450999
 30
0.0
 11
1157.6466825603
 21
440.4872308450999
 31
0.0
  0
LINE
  5
4352
  8
0
  6
CONTINUOUS
 62
     0
 10
1157.4666825603
 20
865.3072308451
 30
0.0
 11
1157.4666825603
 21
653.1691208451
 31
0.0
  0
LINE
  5
4353
  8
0
  6
CONTINUOUS
 62
     0
 10
1157.4666825603
 20
440.6672308450999
 30
0.0
 11
1157.4666825603
 21
652.8053408450999
 31
0.0
  0
SOLID
  5
4354
  8
0
 62
     0
 10
1157.4966825603
 20
865.3072308451
 30
0.0
 11
1157.4366825603
 21
865.3072308451
 31
0.0
 12
1157.4666825603
 22
865.4872308450999
 32
0.0
 13
1157.4666825603
 23
865.4872308450999
 33
0.0
  0
SOLID
  5
4355
  8
0
 62
     0
 10
1157.4366825603
 20
440.6672308450999
 30
0.0
 11
1157.4966825603
 21
440.6672308450999
 31
0.0
 12
1157.4666825603
 22
440.4872308450999
 32
0.0
 13
1157.4666825603
 23
440.4872308450999
 33
0.0
  0
TEXT
  5
4356
  8
0
  6
CONTINUOUS
 62
     0
 10
1156.9472925603
 20
652.8987608451
 30
0.0
 40
0.18
  1
425.0000
  0
POINT
  5
4357
  8
DEFPOINTS
 62
     0
 10
1125.2779067208
 20
865.4872308450999
 30
0.0
  0
POINT
  5
4358
  8
DEFPOINTS
 62
     0
 10
1125.2779067208
 20
440.4872308450999
 30
0.0
  0
POINT
  5
4359
  8
DEFPOINTS
 62
     0
 10
1157.4666825603
 20
440.4872308450999
 30
0.0
  0
ENDBLK
  5
435A
  8
0
  6
BYBLOCK
 62
     0
  0
BLOCK
  8
0
  2
*D89
 70
     1
 10
0.0
 20
0.0
 30
0.0
  3
*D89
  1

  0
LINE
  5
435E
  8
0
  6
CONTINUOUS
 62
     0
 10
1125.3404067208
 20
440.4872308450999
 30
0.0
 11
1157.6466825603
 21
440.4872308450999
 31
0.0
  0
LINE
  5
435F
  8
0
  6
CONTINUOUS
 62
     0
 10
1125.3404067208
 20
55.48723084509993
 30
0.0
 11
1157.6466825603
 21
55.48723084509993
 31
0.0
  0
LINE
  5
4360
  8
0
  6
CONTINUOUS
 62
     0
 10
1157.4666825603
 20
440.3072308450999
 30
0.0
 11
1157.4666825603
 21
248.1691208450999
 31
0.0
  0
LINE
  5
4361
  8
0
  6
CONTINUOUS
 62
     0
 10
1157.4666825603
 20
55.66723084509993
 30
0.0
 11
1157.4666825603
 21
247.8053408450999
 31
0.0
  0
SOLID
  5
4362
  8
0
 62
     0
 10
1157.4966825603
 20
440.3072308450999
 30
0.0
 11
1157.4366825603
 21
440.3072308450999
 31
0.0
 12
1157.4666825603
 22
440.4872308450999
 32
0.0
 13
1157.4666825603
 23
440.4872308450999
 33
0.0
  0
SOLID
  5
4363
  8
0
 62
     0
 10
1157.4366825603
 20
55.66723084509993
 30
0.0
 11
1157.4966825603
 21
55.66723084509993
 31
0.0
 12
1157.4666825603
 22
55.48723084509993
 32
0.0
 13
1157.4666825603
 23
55.48723084509993
 33
0.0
  0
TEXT
  5
4364
  8
0
  6
CONTINUOUS
 62
     0
 10
1156.9436025603
 20
247.8987608450999
 30
0.0
 40
0.18
  1
385.0000
  0
POINT
  5
4365
  8
DEFPOINTS
 62
     0
 10
1125.2779067208
 20
440.4872308450999
 30
0.0
  0
POINT
  5
4366
  8
DEFPOINTS
 62
     0
 10
1125.2779067208
 20
55.48723084509993
 30
0.0
  0
POINT
  5
4367
  8
DEFPOINTS
 62
     0
 10
1157.4666825603
 20
55.48723084509992
 30
0.0
  0
ENDBLK
  5
4368
  8
0
  6
BYBLOCK
 62
     0
  0
BLOCK
  8
0
  2
*D90
 70
     1
 10
0.0
 20
0.0
 30
0.0
  3
*D90
  1

  0
LINE
  5
436C
  8
0
  6
CONTINUOUS
 62
     0
 10
687.7432266342914
 20
1513.9285181912
 30
0.0
 11
687.9232266342914
 21
1513.9285181912
 31
0.0
  0
LINE
  5
436D
  8
0
  6
CONTINUOUS
 62
     0
 10
687.9232266342914
 20
1513.9285181912
 30
0.0
 11
710.1282919232372
 21
1527.189495277278
 31
0.0
  0
TEXT
  5
436E
  8
0
  6
CONTINUOUS
 62
     0
 10
686.7015666342915
 20
1513.8421181912
 30
0.0
 40
0.18
  1
Ø7.0000
  0
SOLID
  5
436F
  8
0
 62
     0
 10
710.1436738307574
 20
1527.163738784484
 30
0.0
 11
710.1129100157169
 21
1527.215251770072
 31
0.0
 12
710.28283088
 22
1527.2817867224
 32
0.0
 13
710.28283088
 23
1527.2817867224
 33
0.0
  0
POINT
  5
4370
  8
DEFPOINTS
 62
     0
 10
710.28283088
 20
1527.2817867224
 30
0.0
  0
POINT
  5
4371
  8
DEFPOINTS
 62
     0
 10
704.2729825615
 20
1523.6926749677
 30
0.0
  0
ENDBLK
  5
4375
  8
0
  6
BYBLOCK
 62
     0
  0
BLOCK
  8
0
  2
*D91
 70
     1
 10
0.0
 20
0.0
 30
0.0
  3
*D91
  1

  0
LINE
  5
4379
  8
0
  6
CONTINUOUS
 62
     0
 10
707.2154067208
 20
1135.4872308451
 30
0.0
 11
670.6686323826001
 21
1135.4872308451
 31
0.0
  0
LINE
  5
437A
  8
0
  6
CONTINUOUS
 62
     0
 10
707.2154067208
 20
815.4872308450999
 30
0.0
 11
670.6686323826001
 21
815.4872308450999
 31
0.0
  0
LINE
  5
437B
  8
0
  6
CONTINUOUS
 62
     0
 10
670.8486323826
 20
1135.3072308451
 30
0.0
 11
670.8486323826
 21
975.6691208451
 31
0.0
  0
LINE
  5
437C
  8
0
  6
CONTINUOUS
 62
     0
 10
670.8486323826
 20
815.6672308450999
 30
0.0
 11
670.8486323826
 21
975.3053408450999
 31
0.0
  0
SOLID
  5
437D
  8
0
 62
     0
 10
670.8786323826
 20
1135.3072308451
 30
0.0
 11
670.8186323826001
 21
1135.3072308451
 31
0.0
 12
670.8486323826
 22
1135.4872308451
 32
0.0
 13
670.8486323826
 23
1135.4872308451
 33
0.0
  0
SOLID
  5
437E
  8
0
 62
     0
 10
670.8186323826001
 20
815.6672308450999
 30
0.0
 11
670.8786323826
 21
815.6672308450999
 31
0.0
 12
670.8486323826
 22
815.4872308450999
 32
0.0
 13
670.8486323826
 23
815.4872308450999
 33
0.0
  0
TEXT
  5
437F
  8
0
  6
CONTINUOUS
 62
     0
 10
670.3255523826
 20
975.3987608451
 30
0.0
 40
0.18
  1
320.0000
  0
POINT
  5
4380
  8
DEFPOINTS
 62
     0
 10
707.2779067208
 20
1135.4872308451
 30
0.0
  0
POINT
  5
4381
  8
DEFPOINTS
 62
     0
 10
707.2779067208
 20
815.4872308450999
 30
0.0
  0
POINT
  5
4382
  8
DEFPOINTS
 62
     0
 10
670.8486323826
 20
815.4872308450999
 30
0.0
  0
ENDBLK
  5
4383
  8
0
  6
BYBLOCK
 62
     0
  0
BLOCK
  8
0
  2
*D92
 70
     1
 10
0.0
 20
0.0
 30
0.0
  3
*D92
  1

  0
LINE
  5
4387
  8
0
  6
CONTINUOUS
 62
     0
 10
707.2154067208
 20
815.4872308450999
 30
0.0
 11
670.6686323826001
 21
815.4872308450999
 31
0.0
  0
LINE
  5
4388
  8
0
  6
CONTINUOUS
 62
     0
 10
707.2154067208
 20
440.4872308450999
 30
0.0
 11
670.6686323826
 21
440.4872308450999
 31
0.0
  0
LINE
  5
4389
  8
0
  6
CONTINUOUS
 62
     0
 10
670.8486323826
 20
815.3072308451
 30
0.0
 11
670.8486323826
 21
628.6892648472
 31
0.0
  0
LINE
  5
438A
  8
0
  6
CONTINUOUS
 62
     0
 10
670.8486323825999
 20
440.6672308450999
 30
0.0
 11
670.8486323826
 21
628.3254848471998
 31
0.0
  0
SOLID
  5
438B
  8
0
 62
     0
 10
670.8786323826
 20
815.3072308451
 30
0.0
 11
670.8186323826001
 21
815.3072308451
 31
0.0
 12
670.8486323826
 22
815.4872308450999
 32
0.0
 13
670.8486323826
 23
815.4872308450999
 33
0.0
  0
SOLID
  5
438C
  8
0
 62
     0
 10
670.8186323826
 20
440.6672308450999
 30
0.0
 11
670.8786323825999
 21
440.6672308450999
 31
0.0
 12
670.8486323825999
 22
440.4872308450999
 32
0.0
 13
670.8486323825999
 23
440.4872308450999
 33
0.0
  0
TEXT
  5
438D
  8
0
  6
CONTINUOUS
 62
     0
 10
670.3255523826
 20
628.4189048472
 30
0.0
 40
0.18
  1
375.0000
  0
POINT
  5
438E
  8
DEFPOINTS
 62
     0
 10
707.2779067208
 20
815.4872308450999
 30
0.0
  0
POINT
  5
438F
  8
DEFPOINTS
 62
     0
 10
707.2779067208
 20
440.4872308450999
 30
0.0
  0
POINT
  5
4390
  8
DEFPOINTS
 62
     0
 10
670.8486323826
 20
440.4872308450999
 30
0.0
  0
ENDBLK
  5
4391
  8
0
  6
BYBLOCK
 62
     0
  0
BLOCK
  8
0
  2
*D93
 70
     1
 10
0.0
 20
0.0
 30
0.0
  3
*D93
  1

  0
LINE
  5
4395
  8
0
  6
CONTINUOUS
 62
     0
 10
707.2154067208
 20
440.4872308450999
 30
0.0
 11
670.6686323826001
 21
440.4872308450999
 31
0.0
  0
LINE
  5
4396
  8
0
  6
CONTINUOUS
 62
     0
 10
707.2154067208
 20
55.48723084509993
 30
0.0
 11
670.6686323826001
 21
55.48723084509993
 31
0.0
  0
LINE
  5
4397
  8
0
  6
CONTINUOUS
 62
     0
 10
670.8486323826
 20
440.3072308450999
 30
0.0
 11
670.8486323826
 21
248.1691208450999
 31
0.0
  0
LINE
  5
4398
  8
0
  6
CONTINUOUS
 62
     0
 10
670.8486323826
 20
55.66723084509993
 30
0.0
 11
670.8486323826
 21
247.8053408450999
 31
0.0
  0
SOLID
  5
4399
  8
0
 62
     0
 10
670.8786323826
 20
440.3072308450999
 30
0.0
 11
670.8186323826001
 21
440.3072308450999
 31
0.0
 12
670.8486323826
 22
440.4872308450999
 32
0.0
 13
670.8486323826
 23
440.4872308450999
 33
0.0
  0
SOLID
  5
439A
  8
0
 62
     0
 10
670.8186323826001
 20
55.66723084509993
 30
0.0
 11
670.8786323826
 21
55.66723084509993
 31
0.0
 12
670.8486323826
 22
55.48723084509993
 32
0.0
 13
670.8486323826
 23
55.48723084509993
 33
0.0
  0
TEXT
  5
439B
  8
0
  6
CONTINUOUS
 62
     0
 10
670.3255523826
 20
247.8987608450999
 30
0.0
 40
0.18
  1
385.0000
  0
POINT
  5
439C
  8
DEFPOINTS
 62
     0
 10
707.2779067208
 20
440.4872308450999
 30
0.0
  0
POINT
  5
439D
  8
DEFPOINTS
 62
     0
 10
707.2779067208
 20
55.48723084509993
 30
0.0
  0
POINT
  5
439E
  8
DEFPOINTS
 62
     0
 10
670.8486323826
 20
55.48723084509994
 30
0.0
  0
ENDBLK
  5
439F
  8
0
  6
BYBLOCK
 62
     0
  0
BLOCK
  8
0
  2
*D94
 70
     1
 10
0.0
 20
0.0
 30
0.0
  3
*D94
  1

  0
LINE
  5
43A3
  8
0
  6
CONTINUOUS
 62
     0
 10
671.3849423826001
 20
4.749070631999984
 30
0.0
 11
671.5649423826001
 21
4.749070631999984
 31
0.0
  0
LINE
  5
43A4
  8
0
  6
CONTINUOUS
 62
     0
 10
671.5649423826001
 20
4.749070631999984
 30
0.0
 11
671.5649423826001
 21
10.48723084509993
 31
0.0
  0
LINE
  5
43A5
  8
0
  6
CONTINUOUS
 62
     0
 10
688.7154067208
 20
10.48723084509993
 30
0.0
 11
671.3849423826001
 21
10.48723084509993
 31
0.0
  0
LINE
  5
43A6
  8
0
  6
CONTINUOUS
 62
     0
 10
707.2154067208
 20
55.48723084509993
 30
0.0
 11
671.3849423826001
 21
55.48723084509993
 31
0.0
  0
LINE
  5
43A7
  8
0
  6
CONTINUOUS
 62
     0
 10
671.5649423826001
 20
10.66723084509993
 30
0.0
 11
671.5649423826001
 21
55.30723084509993
 31
0.0
  0
LINE
  5
43A8
  8
0
  6
CONTINUOUS
 62
     0
 10
671.5649423826001
 20
55.30723084509993
 30
0.0
 11
671.5649423826001
 21
10.66723084509993
 31
0.0
  0
SOLID
  5
43A9
  8
0
 62
     0
 10
671.5349423826001
 20
10.66723084509993
 30
0.0
 11
671.5949423826
 21
10.66723084509993
 31
0.0
 12
671.5649423826001
 22
10.48723084509993
 32
0.0
 13
671.5649423826001
 23
10.48723084509993
 33
0.0
  0
SOLID
  5
43AA
  8
0
 62
     0
 10
671.5949423826
 20
55.30723084509993
 30
0.0
 11
671.5349423826001
 21
55.30723084509993
 31
0.0
 12
671.5649423826001
 22
55.48723084509993
 32
0.0
 13
671.5649423826001
 23
55.48723084509993
 33
0.0
  0
TEXT
  5
43AB
  8
0
  6
CONTINUOUS
 62
     0
 10
670.3990823826
 20
4.660600631999984
 30
0.0
 40
0.18
  1
45.0000
  0
POINT
  5
43AC
  8
DEFPOINTS
 62
     0
 10
688.7779067208
 20
10.48723084509993
 30
0.0
  0
POINT
  5
43AD
  8
DEFPOINTS
 62
     0
 10
707.2779067208
 20
55.48723084509993
 30
0.0
  0
POINT
  5
43E0
  8
DEFPOINTS
 62
     0
 10
670.8486323826
 20
55.48723084509993
 30
0.0
  0
ENDBLK
  5
43AE
  8
0
  6
BYBLOCK
 62
     0
  0
BLOCK
  8
0
  2
*D95
 70
     1
 10
0.0
 20
0.0
 30
0.0
  3
*D95
  1

  0
LINE
  5
43B2
  8
0
  6
CONTINUOUS
 62
     0
 10
1143.8404067208
 20
10.48723084509993
 30
0.0
 11
1157.6466825603
 21
10.48723084509993
 31
0.0
  0
LINE
  5
43B3
  8
0
  6
CONTINUOUS
 62
     0
 10
1125.3404067208
 20
55.48723084509993
 30
0.0
 11
1157.6466825603
 21
55.48723084509993
 31
0.0
  0
LINE
  5
43B4
  8
0
  6
CONTINUOUS
 62
     0
 10
1157.4666825603
 20
10.66723084509993
 30
0.0
 11
1157.4666825603
 21
32.80534084509993
 31
0.0
  0
LINE
  5
43B5
  8
0
  6
CONTINUOUS
 62
     0
 10
1157.4666825603
 20
55.30723084509993
 30
0.0
 11
1157.4666825603
 21
33.16912084509993
 31
0.0
  0
SOLID
  5
43B6
  8
0
 62
     0
 10
1157.4366825603
 20
10.66723084509993
 30
0.0
 11
1157.4966825603
 21
10.66723084509993
 31
0.0
 12
1157.4666825603
 22
10.48723084509993
 32
0.0
 13
1157.4666825603
 23
10.48723084509993
 33
0.0
  0
SOLID
  5
43B7
  8
0
 62
     0
 10
1157.4966825603
 20
55.30723084509993
 30
0.0
 11
1157.4366825603
 21
55.30723084509993
 31
0.0
 12
1157.4666825603
 22
55.48723084509993
 32
0.0
 13
1157.4666825603
 23
55.48723084509993
 33
0.0
  0
TEXT
  5
43B8
  8
0
  6
CONTINUOUS
 62
     0
 10
1157.0171325603
 20
32.89876084509993
 30
0.0
 40
0.18
  1
45.0000
  0
POINT
  5
43B9
  8
DEFPOINTS
 62
     0
 10
1143.7779067208
 20
10.48723084509993
 30
0.0
  0
POINT
  5
43BA
  8
DEFPOINTS
 62
     0
 10
1125.2779067208
 20
55.48723084509993
 30
0.0
  0
POINT
  5
43BB
  8
DEFPOINTS
 62
     0
 10
1157.4666825603
 20
55.48723084509993
 30
0.0
  0
ENDBLK
  5
43BC
  8
0
  6
BYBLOCK
 62
     0
  0
BLOCK
  8
0
  2
*D96
 70
     1
 10
0.0
 20
0.0
 30
0.0
  3
*D96
  1

  0
LINE
  5
4424
  8
0
  6
CONTINUOUS
 62
     0
 10
1629.019510963598
 20
1876.122003304992
 30
0.0
 11
1629.019510963598
 21
1934.104600198892
 31
0.0
  0
LINE
  5
4425
  8
0
  6
CONTINUOUS
 62
     0
 10
2084.019510963598
 20
1876.122003304992
 30
0.0
 11
2084.019510963598
 21
1934.104600198892
 31
0.0
  0
LINE
  5
4426
  8
0
  6
CONTINUOUS
 62
     0
 10
1629.199510963598
 20
1933.924600198892
 30
0.0
 11
1855.913360963599
 21
1933.924600198892
 31
0.0
  0
LINE
  5
4427
  8
0
  6
CONTINUOUS
 62
     0
 10
2083.839510963599
 20
1933.924600198892
 30
0.0
 11
1857.125660963598
 21
1933.924600198892
 31
0.0
  0
SOLID
  5
4428
  8
0
 62
     0
 10
1629.199510963598
 20
1933.954600198892
 30
0.0
 11
1629.199510963598
 21
1933.894600198892
 31
0.0
 12
1629.019510963598
 22
1933.924600198892
 32
0.0
 13
1629.019510963598
 23
1933.924600198892
 33
0.0
  0
SOLID
  5
4429
  8
0
 62
     0
 10
2083.839510963599
 20
1933.894600198892
 30
0.0
 11
2083.839510963599
 21
1933.954600198892
 31
0.0
 12
2084.019510963598
 22
1933.924600198892
 32
0.0
 13
2084.019510963598
 23
1933.924600198892
 33
0.0
  0
TEXT
  5
442A
  8
0
  6
CONTINUOUS
 62
     0
 10
1856.000120963598
 20
1933.836130198892
 30
0.0
 40
0.18
  1
455.0000
  0
POINT
  5
442B
  8
DEFPOINTS
 62
     0
 10
1629.019510963598
 20
1876.059503304992
 30
0.0
  0
POINT
  5
442C
  8
DEFPOINTS
 62
     0
 10
2084.019510963598
 20
1876.059503304992
 30
0.0
  0
POINT
  5
442D
  8
DEFPOINTS
 62
     0
 10
2084.019510963598
 20
1933.924600198892
 30
0.0
  0
ENDBLK
  5
4423
  8
0
  0
BLOCK
  8
0
  2
*D97
 70
     1
 10
0.0
 20
0.0
 30
0.0
  3
*D97
  1

  0
LINE
  5
4431
  8
0
  6
CONTINUOUS
 62
     0
 10
1656.519510963598
 20
1831.122003304992
 30
0.0
 11
1656.519510963598
 21
1919.359539965992
 31
0.0
  0
LINE
  5
4432
  8
0
  6
CONTINUOUS
 62
     0
 10
2056.519510963598
 20
1831.122003304992
 30
0.0
 11
2056.519510963598
 21
1919.359539965992
 31
0.0
  0
LINE
  5
4433
  8
0
  6
CONTINUOUS
 62
     0
 10
1656.699510963598
 20
1919.179539965992
 30
0.0
 11
1855.913360963599
 21
1919.179539965992
 31
0.0
  0
LINE
  5
4434
  8
0
  6
CONTINUOUS
 62
     0
 10
2056.339510963599
 20
1919.179539965992
 30
0.0
 11
1857.125660963598
 21
1919.179539965992
 31
0.0
  0
SOLID
  5
4435
  8
0
 62
     0
 10
1656.699510963598
 20
1919.209539965992
 30
0.0
 11
1656.699510963598
 21
1919.149539965992
 31
0.0
 12
1656.519510963598
 22
1919.179539965992
 32
0.0
 13
1656.519510963598
 23
1919.179539965992
 33
0.0
  0
SOLID
  5
4436
  8
0
 62
     0
 10
2056.339510963599
 20
1919.149539965992
 30
0.0
 11
2056.339510963599
 21
1919.209539965992
 31
0.0
 12
2056.519510963598
 22
1919.179539965992
 32
0.0
 13
2056.519510963598
 23
1919.179539965992
 33
0.0
  0
TEXT
  5
4437
  8
0
  6
CONTINUOUS
 62
     0
 10
1856.000120963598
 20
1919.091069965992
 30
0.0
 40
0.18
  1
400.0000
  0
POINT
  5
4438
  8
DEFPOINTS
 62
     0
 10
1656.519510963598
 20
1831.059503304992
 30
0.0
  0
POINT
  5
4439
  8
DEFPOINTS
 62
     0
 10
2056.519510963598
 20
1831.059503304992
 30
0.0
  0
POINT
  5
443A
  8
DEFPOINTS
 62
     0
 10
2056.519510963598
 20
1919.179539965992
 30
0.0
  0
ENDBLK
  5
4430
  8
0
  0
BLOCK
  8
0
  2
*D98
 70
     1
 10
0.0
 20
0.0
 30
0.0
  3
*D98
  1

  0
LINE
  5
443E
  8
0
  6
CONTINUOUS
 62
     0
 10
1669.019510963598
 20
1851.122003304992
 30
0.0
 11
1669.019510963598
 21
1904.352468715692
 31
0.0
  0
LINE
  5
443F
  8
0
  6
CONTINUOUS
 62
     0
 10
2044.019510963598
 20
1851.122003304992
 30
0.0
 11
2044.019510963598
 21
1904.352468715692
 31
0.0
  0
LINE
  5
4440
  8
0
  6
CONTINUOUS
 62
     0
 10
1669.199510963598
 20
1904.172468715692
 30
0.0
 11
1855.917050963599
 21
1904.172468715692
 31
0.0
  0
LINE
  5
4441
  8
0
  6
CONTINUOUS
 62
     0
 10
2043.839510963598
 20
1904.172468715692
 30
0.0
 11
1857.121970963598
 21
1904.172468715692
 31
0.0
  0
SOLID
  5
4442
  8
0
 62
     0
 10
1669.199510963598
 20
1904.202468715692
 30
0.0
 11
1669.199510963598
 21
1904.142468715692
 31
0.0
 12
1669.019510963598
 22
1904.172468715692
 32
0.0
 13
1669.019510963598
 23
1904.172468715692
 33
0.0
  0
SOLID
  5
4443
  8
0
 62
     0
 10
2043.839510963598
 20
1904.142468715692
 30
0.0
 11
2043.839510963598
 21
1904.202468715692
 31
0.0
 12
2044.019510963598
 22
1904.172468715692
 32
0.0
 13
2044.019510963598
 23
1904.172468715692
 33
0.0
  0
TEXT
  5
4444
  8
0
  6
CONTINUOUS
 62
     0
 10
1855.996430963598
 20
1904.083998715692
 30
0.0
 40
0.18
  1
375.0000
  0
POINT
  5
4445
  8
DEFPOINTS
 62
     0
 10
1669.019510963598
 20
1851.059503304992
 30
0.0
  0
POINT
  5
4446
  8
DEFPOINTS
 62
     0
 10
2044.019510963598
 20
1851.059503304992
 30
0.0
  0
POINT
  5
4447
  8
DEFPOINTS
 62
     0
 10
2044.019510963598
 20
1904.172468715692
 30
0.0
  0
ENDBLK
  5
443D
  8
0
  0
BLOCK
  8
0
  2
*D99
 70
     1
 10
0.0
 20
0.0
 30
0.0
  3
*D99
  1

  0
LINE
  5
444B
  8
0
  6
CONTINUOUS
 62
     0
 10
1880.211948004398
 20
1881.488563291092
 30
0.0
 11
1880.031948004398
 21
1881.488563291092
 31
0.0
  0
LINE
  5
444C
  8
0
  6
CONTINUOUS
 62
     0
 10
1880.031948004398
 20
1881.488563291092
 30
0.0
 11
1880.031948004398
 21
1876.059503304992
 31
0.0
  0
LINE
  5
444D
  8
0
  6
CONTINUOUS
 62
     0
 10
2083.957010963598
 20
1876.059503304992
 30
0.0
 11
1879.851948004398
 21
1876.059503304992
 31
0.0
  0
LINE
  5
444E
  8
0
  6
CONTINUOUS
 62
     0
 10
1856.582010963598
 20
1858.059503304992
 30
0.0
 11
1880.211948004398
 21
1858.059503304992
 31
0.0
  0
LINE
  5
444F
  8
0
  6
CONTINUOUS
 62
     0
 10
1880.031948004398
 20
1875.879503304992
 30
0.0
 11
1880.031948004398
 21
1858.239503304992
 31
0.0
  0
LINE
  5
4450
  8
0
  6
CONTINUOUS
 62
     0
 10
1880.031948004398
 20
1858.239503304992
 30
0.0
 11
1880.031948004398
 21
1875.879503304992
 31
0.0
  0
SOLID
  5
4451
  8
0
 62
     0
 10
1880.061948004398
 20
1875.879503304992
 30
0.0
 11
1880.001948004398
 21
1875.879503304992
 31
0.0
 12
1880.031948004398
 22
1876.059503304992
 32
0.0
 13
1880.031948004398
 23
1876.059503304992
 33
0.0
  0
SOLID
  5
4452
  8
0
 62
     0
 10
1880.001948004398
 20
1858.239503304992
 30
0.0
 11
1880.061948004398
 21
1858.239503304992
 31
0.0
 12
1880.031948004398
 22
1858.059503304992
 32
0.0
 13
1880.031948004398
 23
1858.059503304992
 33
0.0
  0
TEXT
  5
4453
  8
0
  6
CONTINUOUS
 62
     0
 10
1880.274588004398
 20
1881.400093291092
 30
0.0
 40
0.18
  1
18.0000
  0
POINT
  5
4454
  8
DEFPOINTS
 62
     0
 10
2084.019510963598
 20
1876.059503304992
 30
0.0
  0
POINT
  5
4455
  8
DEFPOINTS
 62
     0
 10
1856.519510963598
 20
1858.059503304992
 30
0.0
  0
POINT
  5
4456
  8
DEFPOINTS
 62
     0
 10
1880.031948004398
 20
1858.059503304992
 30
0.0
  0
ENDBLK
  5
444A
  8
0
  0
BLOCK
  8
0
  2
*D100
 70
     1
 10
0.0
 20
0.0
 30
0.0
  3
*D100
  1

  0
LINE
  5
445A
  8
0
  6
CONTINUOUS
 62
     0
 10
1612.662180158398
 20
1882.911002368592
 30
0.0
 11
1612.482180158398
 21
1882.911002368592
 31
0.0
  0
LINE
  5
445B
  8
0
  6
CONTINUOUS
 62
     0
 10
1612.482180158398
 20
1882.911002368592
 30
0.0
 11
1612.482180158398
 21
1876.059503304992
 31
0.0
  0
LINE
  5
445C
  8
0
  6
CONTINUOUS
 62
     0
 10
1628.957010963598
 20
1876.059503304992
 30
0.0
 11
1612.302180158398
 21
1876.059503304992
 31
0.0
  0
LINE
  5
445D
  8
0
  6
CONTINUOUS
 62
     0
 10
1668.957010963598
 20
1851.059503304992
 30
0.0
 11
1612.302180158398
 21
1851.059503304992
 31
0.0
  0
LINE
  5
445E
  8
0
  6
CONTINUOUS
 62
     0
 10
1612.482180158398
 20
1875.879503304992
 30
0.0
 11
1612.482180158398
 21
1851.239503304992
 31
0.0
  0
LINE
  5
445F
  8
0
  6
CONTINUOUS
 62
     0
 10
1612.482180158398
 20
1851.239503304992
 30
0.0
 11
1612.482180158398
 21
1875.879503304992
 31
0.0
  0
SOLID
  5
4460
  8
0
 62
     0
 10
1612.512180158398
 20
1875.879503304992
 30
0.0
 11
1612.452180158398
 21
1875.879503304992
 31
0.0
 12
1612.482180158398
 22
1876.059503304992
 32
0.0
 13
1612.482180158398
 23
1876.059503304992
 33
0.0
  0
SOLID
  5
4461
  8
0
 62
     0
 10
1612.452180158398
 20
1851.239503304992
 30
0.0
 11
1612.512180158398
 21
1851.239503304992
 31
0.0
 12
1612.482180158398
 22
1851.059503304992
 32
0.0
 13
1612.482180158398
 23
1851.059503304992
 33
0.0
  0
TEXT
  5
4462
  8
0
  6
CONTINUOUS
 62
     0
 10
1612.744800158398
 20
1882.822532368592
 30
0.0
 40
0.18
  1
25.0000
  0
POINT
  5
4463
  8
DEFPOINTS
 62
     0
 10
1629.019510963598
 20
1876.059503304992
 30
0.0
  0
POINT
  5
4464
  8
DEFPOINTS
 62
     0
 10
1669.019510963598
 20
1851.059503304992
 30
0.0
  0
POINT
  5
4465
  8
DEFPOINTS
 62
     0
 10
1612.482180158398
 20
1851.059503304992
 30
0.0
  0
ENDBLK
  5
4459
  8
0
  0
BLOCK
  8
0
  2
*D101
 70
     1
 10
0.0
 20
0.0
 30
0.0
  3
*D101
  1

  0
LINE
  5
4469
  8
0
  6
CONTINUOUS
 62
     0
 10
1668.957010963598
 20
1851.059503304992
 30
0.0
 11
1613.016420158398
 21
1851.059503304992
 31
0.0
  0
LINE
  5
446A
  8
0
  6
CONTINUOUS
 62
     0
 10
1668.957010963598
 20
1519.059503304992
 30
0.0
 11
1613.016420158398
 21
1519.059503304992
 31
0.0
  0
LINE
  5
446B
  8
0
  6
CONTINUOUS
 62
     0
 10
1613.196420158398
 20
1850.879503304992
 30
0.0
 11
1613.196420158398
 21
1704.864722728692
 31
0.0
  0
LINE
  5
446C
  8
0
  6
CONTINUOUS
 62
     0
 10
1613.196420158398
 20
1519.239503304992
 30
0.0
 11
1613.196420158398
 21
1704.500942728692
 31
0.0
  0
SOLID
  5
446D
  8
0
 62
     0
 10
1613.226420158398
 20
1850.879503304992
 30
0.0
 11
1613.166420158398
 21
1850.879503304992
 31
0.0
 12
1613.196420158398
 22
1851.059503304992
 32
0.0
 13
1613.196420158398
 23
1851.059503304992
 33
0.0
  0
SOLID
  5
446E
  8
0
 62
     0
 10
1613.166420158398
 20
1519.239503304992
 30
0.0
 11
1613.226420158398
 21
1519.239503304992
 31
0.0
 12
1613.196420158398
 22
1519.059503304992
 32
0.0
 13
1613.196420158398
 23
1519.059503304992
 33
0.0
  0
TEXT
  5
446F
  8
0
  6
CONTINUOUS
 62
     0
 10
1612.673340158398
 20
1704.594362728692
 30
0.0
 40
0.18
  1
332.0000
  0
POINT
  5
4470
  8
DEFPOINTS
 62
     0
 10
1669.019510963598
 20
1851.059503304992
 30
0.0
  0
POINT
  5
4471
  8
DEFPOINTS
 62
     0
 10
1669.019510963598
 20
1519.059503304992
 30
0.0
  0
POINT
  5
4472
  8
DEFPOINTS
 62
     0
 10
1613.196420158398
 20
1519.059503304992
 30
0.0
  0
ENDBLK
  5
4468
  8
0
  0
BLOCK
  8
0
  2
*D102
 70
     1
 10
0.0
 20
0.0
 30
0.0
  3
*D102
  1

  0
LINE
  5
4476
  8
0
  6
CONTINUOUS
 62
     0
 10
1668.957010963598
 20
1519.059503304992
 30
0.0
 11
1613.016420158398
 21
1519.059503304992
 31
0.0
  0
LINE
  5
4477
  8
0
  6
CONTINUOUS
 62
     0
 10
1673.957010963598
 20
1418.059503304992
 30
0.0
 11
1613.016420158398
 21
1418.059503304992
 31
0.0
  0
LINE
  5
4478
  8
0
  6
CONTINUOUS
 62
     0
 10
1613.196420158398
 20
1518.879503304992
 30
0.0
 11
1613.196420158398
 21
1475.392931447092
 31
0.0
  0
LINE
  5
4479
  8
0
  6
CONTINUOUS
 62
     0
 10
1613.196420158398
 20
1418.239503304992
 30
0.0
 11
1613.196420158398
 21
1475.029151447092
 31
0.0
  0
SOLID
  5
447A
  8
0
 62
     0
 10
1613.226420158398
 20
1518.879503304992
 30
0.0
 11
1613.166420158398
 21
1518.879503304992
 31
0.0
 12
1613.196420158398
 22
1519.059503304992
 32
0.0
 13
1613.196420158398
 23
1519.059503304992
 33
0.0
  0
SOLID
  5
447B
  8
0
 62
     0
 10
1613.166420158398
 20
1418.239503304992
 30
0.0
 11
1613.226420158398
 21
1418.239503304992
 31
0.0
 12
1613.196420158398
 22
1418.059503304992
 32
0.0
 13
1613.196420158398
 23
1418.059503304992
 33
0.0
  0
TEXT
  5
447C
  8
0
  6
CONTINUOUS
 62
     0
 10
1612.664970158398
 20
1475.122571447092
 30
0.0
 40
0.18
  1
101.0000
  0
POINT
  5
447D
  8
DEFPOINTS
 62
     0
 10
1669.019510963598
 20
1519.059503304992
 30
0.0
  0
POINT
  5
447E
  8
DEFPOINTS
 62
     0
 10
1674.019510963598
 20
1418.059503304992
 30
0.0
  0
POINT
  5
447F
  8
DEFPOINTS
 62
     0
 10
1613.196420158398
 20
1418.059503304992
 30
0.0
  0
ENDBLK
  5
4475
  8
0
  0
BLOCK
  8
0
  2
*D103
 70
     1
 10
0.0
 20
0.0
 30
0.0
  3
*D103
  1

  0
LINE
  5
4483
  8
0
  6
CONTINUOUS
 62
     0
 10
1673.957010963598
 20
1418.059503304992
 30
0.0
 11
1613.016420158398
 21
1418.059503304992
 31
0.0
  0
LINE
  5
4484
  8
0
  6
CONTINUOUS
 62
     0
 10
1673.957010963598
 20
1028.059503304992
 30
0.0
 11
1613.016420158398
 21
1028.059503304992
 31
0.0
  0
LINE
  5
4485
  8
0
  6
CONTINUOUS
 62
     0
 10
1613.196420158398
 20
1417.879503304992
 30
0.0
 11
1613.196420158398
 21
1193.008221438892
 31
0.0
  0
LINE
  5
4486
  8
0
  6
CONTINUOUS
 62
     0
 10
1613.196420158398
 20
1028.239503304992
 30
0.0
 11
1613.196420158398
 21
1192.644441438892
 31
0.0
  0
SOLID
  5
4487
  8
0
 62
     0
 10
1613.226420158398
 20
1417.879503304992
 30
0.0
 11
1613.166420158398
 21
1417.879503304992
 31
0.0
 12
1613.196420158398
 22
1418.059503304992
 32
0.0
 13
1613.196420158398
 23
1418.059503304992
 33
0.0
  0
SOLID
  5
4488
  8
0
 62
     0
 10
1613.166420158398
 20
1028.239503304992
 30
0.0
 11
1613.226420158398
 21
1028.239503304992
 31
0.0
 12
1613.196420158398
 22
1028.059503304992
 32
0.0
 13
1613.196420158398
 23
1028.059503304992
 33
0.0
  0
TEXT
  5
4489
  8
0
  6
CONTINUOUS
 62
     0
 10
1612.673340158398
 20
1192.737861438892
 30
0.0
 40
0.18
  1
390.0000
  0
POINT
  5
448A
  8
DEFPOINTS
 62
     0
 10
1674.019510963598
 20
1418.059503304992
 30
0.0
  0
POINT
  5
448B
  8
DEFPOINTS
 62
     0
 10
1674.019510963598
 20
1028.059503304992
 30
0.0
  0
POINT
  5
448C
  8
DEFPOINTS
 62
     0
 10
1613.196420158398
 20
1028.059503304992
 30
0.0
  0
ENDBLK
  5
4482
  8
0
  0
BLOCK
  8
0
  2
*D104
 70
     1
 10
0.0
 20
0.0
 30
0.0
  3
*D104
  1

  0
LINE
  5
4490
  8
0
  6
CONTINUOUS
 62
     0
 10
1628.957010963598
 20
1876.059503304992
 30
0.0
 11
1596.257989096198
 21
1876.059503304992
 31
0.0
  0
LINE
  5
4491
  8
0
  6
CONTINUOUS
 62
     0
 10
1628.957010963598
 20
326.0595033049922
 30
0.0
 11
1596.257989096198
 21
326.0595033049922
 31
0.0
  0
LINE
  5
4492
  8
0
  6
CONTINUOUS
 62
     0
 10
1596.437989096198
 20
1875.879503304992
 30
0.0
 11
1596.437989096198
 21
1101.241393304992
 31
0.0
  0
LINE
  5
4493
  8
0
  6
CONTINUOUS
 62
     0
 10
1596.437989096198
 20
326.2395033049922
 30
0.0
 11
1596.437989096198
 21
1100.877613304992
 31
0.0
  0
SOLID
  5
4494
  8
0
 62
     0
 10
1596.467989096198
 20
1875.879503304992
 30
0.0
 11
1596.407989096198
 21
1875.879503304992
 31
0.0
 12
1596.437989096198
 22
1876.059503304992
 32
0.0
 13
1596.437989096198
 23
1876.059503304992
 33
0.0
  0
SOLID
  5
4495
  8
0
 62
     0
 10
1596.407989096198
 20
326.2395033049922
 30
0.0
 11
1596.467989096198
 21
326.2395033049922
 31
0.0
 12
1596.437989096198
 22
326.0595033049922
 32
0.0
 13
1596.437989096198
 23
326.0595033049922
 33
0.0
  0
TEXT
  5
4496
  8
0
  6
CONTINUOUS
 62
     0
 10
1595.836699096198
 20
1100.971033304992
 30
0.0
 40
0.18
  1
1550.0000
  0
POINT
  5
4497
  8
DEFPOINTS
 62
     0
 10
1629.019510963598
 20
1876.059503304992
 30
0.0
  0
POINT
  5
4498
  8
DEFPOINTS
 62
     0
 10
1629.019510963598
 20
326.0595033049922
 30
0.0
  0
POINT
  5
4499
  8
DEFPOINTS
 62
     0
 10
1596.437989096198
 20
326.0595033049922
 30
0.0
  0
ENDBLK
  5
448F
  8
0
  0
BLOCK
  8
0
  2
*D105
 70
     1
 10
0.0
 20
0.0
 30
0.0
  3
*D105
  1

  0
LINE
  5
449D
  8
0
  6
CONTINUOUS
 62
     0
 10
2109.867323180998
 20
1882.908711524592
 30
0.0
 11
2109.687323180999
 21
1882.908711524592
 31
0.0
  0
LINE
  5
449E
  8
0
  6
CONTINUOUS
 62
     0
 10
2109.687323180999
 20
1882.908711524592
 30
0.0
 11
2109.687323180999
 21
1876.059503304992
 31
0.0
  0
LINE
  5
449F
  8
0
  6
CONTINUOUS
 62
     0
 10
2084.082010963598
 20
1876.059503304992
 30
0.0
 11
2109.867323180998
 21
1876.059503304992
 31
0.0
  0
LINE
  5
44A0
  8
0
  6
CONTINUOUS
 62
     0
 10
2056.582010963598
 20
1831.059503304992
 30
0.0
 11
2109.867323180998
 21
1831.059503304992
 31
0.0
  0
LINE
  5
44A1
  8
0
  6
CONTINUOUS
 62
     0
 10
2109.687323180999
 20
1875.879503304992
 30
0.0
 11
2109.687323180999
 21
1831.239503304992
 31
0.0
  0
LINE
  5
44A2
  8
0
  6
CONTINUOUS
 62
     0
 10
2109.687323180999
 20
1831.239503304992
 30
0.0
 11
2109.687323180999
 21
1875.879503304992
 31
0.0
  0
SOLID
  5
44A3
  8
0
 62
     0
 10
2109.717323180999
 20
1875.879503304992
 30
0.0
 11
2109.657323180998
 21
1875.879503304992
 31
0.0
 12
2109.687323180999
 22
1876.059503304992
 32
0.0
 13
2109.687323180999
 23
1876.059503304992
 33
0.0
  0
SOLID
  5
44A4
  8
0
 62
     0
 10
2109.657323180998
 20
1831.239503304992
 30
0.0
 11
2109.717323180999
 21
1831.239503304992
 31
0.0
 12
2109.687323180999
 22
1831.059503304992
 32
0.0
 13
2109.687323180999
 23
1831.059503304992
 33
0.0
  0
TEXT
  5
44A5
  8
0
  6
CONTINUOUS
 62
     0
 10
2109.954083180999
 20
1882.820241524592
 30
0.0
 40
0.18
  1
45.0000
  0
POINT
  5
44A6
  8
DEFPOINTS
 62
     0
 10
2084.019510963598
 20
1876.059503304992
 30
0.0
  0
POINT
  5
44A7
  8
DEFPOINTS
 62
     0
 10
2056.519510963598
 20
1831.059503304992
 30
0.0
  0
POINT
  5
44A8
  8
DEFPOINTS
 62
     0
 10
2109.687323180998
 20
1831.059503304992
 30
0.0
  0
ENDBLK
  5
449C
  8
0
  0
BLOCK
  8
0
  2
*D106
 70
     1
 10
0.0
 20
0.0
 30
0.0
  3
*D106
  1

  0
LINE
  5
44AC
  8
0
  6
CONTINUOUS
 62
     0
 10
2056.582010963598
 20
1831.059503304992
 30
0.0
 11
2110.583633180998
 21
1831.059503304992
 31
0.0
  0
LINE
  5
44AD
  8
0
  6
CONTINUOUS
 62
     0
 10
2056.582010963598
 20
1558.559503304992
 30
0.0
 11
2110.583633180998
 21
1558.559503304992
 31
0.0
  0
LINE
  5
44AE
  8
0
  6
CONTINUOUS
 62
     0
 10
2110.403633180998
 20
1830.879503304992
 30
0.0
 11
2110.403633180998
 21
1694.991393304992
 31
0.0
  0
LINE
  5
44AF
  8
0
  6
CONTINUOUS
 62
     0
 10
2110.403633180998
 20
1558.739503304992
 30
0.0
 11
2110.403633180998
 21
1694.627613304992
 31
0.0
  0
SOLID
  5
44B0
  8
0
 62
     0
 10
2110.433633180999
 20
1830.879503304992
 30
0.0
 11
2110.373633180998
 21
1830.879503304992
 31
0.0
 12
2110.403633180998
 22
1831.059503304992
 32
0.0
 13
2110.403633180998
 23
1831.059503304992
 33
0.0
  0
SOLID
  5
44B1
  8
0
 62
     0
 10
2110.373633180998
 20
1558.739503304992
 30
0.0
 11
2110.433633180999
 21
1558.739503304992
 31
0.0
 12
2110.403633180998
 22
1558.559503304992
 32
0.0
 13
2110.403633180998
 23
1558.559503304992
 33
0.0
  0
TEXT
  5
44B2
  8
0
  6
CONTINUOUS
 62
     0
 10
2109.882173180999
 20
1694.721033304992
 30
0.0
 40
0.18
  1
272.5000
  0
POINT
  5
44B3
  8
DEFPOINTS
 62
     0
 10
2056.519510963598
 20
1831.059503304992
 30
0.0
  0
POINT
  5
44B4
  8
DEFPOINTS
 62
     0
 10
2056.519510963598
 20
1558.559503304992
 30
0.0
  0
POINT
  5
44B5
  8
DEFPOINTS
 62
     0
 10
2110.403633180998
 20
1558.559503304992
 30
0.0
  0
ENDBLK
  5
44AB
  8
0
  0
BLOCK
  8
0
  2
*D107
 70
     1
 10
0.0
 20
0.0
 30
0.0
  3
*D107
  1

  0
LINE
  5
44B9
  8
0
  6
CONTINUOUS
 62
     0
 10
2056.582010963598
 20
1558.559503304992
 30
0.0
 11
2110.583633180998
 21
1558.559503304992
 31
0.0
  0
LINE
  5
44BA
  8
0
  6
CONTINUOUS
 62
     0
 10
2056.582010963598
 20
1378.559503304992
 30
0.0
 11
2110.583633180998
 21
1378.559503304992
 31
0.0
  0
LINE
  5
44BB
  8
0
  6
CONTINUOUS
 62
     0
 10
2110.403633180998
 20
1558.379503304992
 30
0.0
 11
2110.403633180998
 21
1468.741393304992
 31
0.0
  0
LINE
  5
44BC
  8
0
  6
CONTINUOUS
 62
     0
 10
2110.403633180998
 20
1378.739503304992
 30
0.0
 11
2110.403633180998
 21
1468.377613304992
 31
0.0
  0
SOLID
  5
44BD
  8
0
 62
     0
 10
2110.433633180999
 20
1558.379503304992
 30
0.0
 11
2110.373633180998
 21
1558.379503304992
 31
0.0
 12
2110.403633180998
 22
1558.559503304992
 32
0.0
 13
2110.403633180998
 23
1558.559503304992
 33
0.0
  0
SOLID
  5
44BE
  8
0
 62
     0
 10
2110.373633180998
 20
1378.739503304992
 30
0.0
 11
2110.433633180999
 21
1378.739503304992
 31
0.0
 12
2110.403633180998
 22
1378.559503304992
 32
0.0
 13
2110.403633180998
 23
1378.559503304992
 33
0.0
  0
TEXT
  5
44BF
  8
0
  6
CONTINUOUS
 62
     0
 10
2109.872183180998
 20
1468.471033304992
 30
0.0
 40
0.18
  1
180.0000
  0
POINT
  5
44C0
  8
DEFPOINTS
 62
     0
 10
2056.519510963598
 20
1558.559503304992
 30
0.0
  0
POINT
  5
44C1
  8
DEFPOINTS
 62
     0
 10
2056.519510963598
 20
1378.559503304992
 30
0.0
  0
POINT
  5
44C2
  8
DEFPOINTS
 62
     0
 10
2110.403633180998
 20
1378.559503304992
 30
0.0
  0
ENDBLK
  5
44B8
  8
0
  0
BLOCK
  8
0
  2
*D108
 70
     1
 10
0.0
 20
0.0
 30
0.0
  3
*D108
  1

  0
LINE
  5
44C6
  8
0
  6
CONTINUOUS
 62
     0
 10
2056.582010963598
 20
1378.559503304992
 30
0.0
 11
2110.583633180998
 21
1378.559503304992
 31
0.0
  0
LINE
  5
44C7
  8
0
  6
CONTINUOUS
 62
     0
 10
2056.582010963598
 20
1031.059503304992
 30
0.0
 11
2110.583633180998
 21
1031.059503304992
 31
0.0
  0
LINE
  5
44C8
  8
0
  6
CONTINUOUS
 62
     0
 10
2110.403633180998
 20
1378.379503304992
 30
0.0
 11
2110.403633180998
 21
1204.991393304992
 31
0.0
  0
LINE
  5
44C9
  8
0
  6
CONTINUOUS
 62
     0
 10
2110.403633180998
 20
1031.239503304992
 30
0.0
 11
2110.403633180998
 21
1204.627613304992
 31
0.0
  0
SOLID
  5
44CA
  8
0
 62
     0
 10
2110.433633180999
 20
1378.379503304992
 30
0.0
 11
2110.373633180998
 21
1378.379503304992
 31
0.0
 12
2110.403633180998
 22
1378.559503304992
 32
0.0
 13
2110.403633180998
 23
1378.559503304992
 33
0.0
  0
SOLID
  5
44CB
  8
0
 62
     0
 10
2110.373633180998
 20
1031.239503304992
 30
0.0
 11
2110.433633180999
 21
1031.239503304992
 31
0.0
 12
2110.403633180998
 22
1031.059503304992
 32
0.0
 13
2110.403633180998
 23
1031.059503304992
 33
0.0
  0
TEXT
  5
44CC
  8
0
  6
CONTINUOUS
 62
     0
 10
2109.880553180999
 20
1204.721033304992
 30
0.0
 40
0.18
  1
347.5000
  0
POINT
  5
44CD
  8
DEFPOINTS
 62
     0
 10
2056.519510963598
 20
1378.559503304992
 30
0.0
  0
POINT
  5
44CE
  8
DEFPOINTS
 62
     0
 10
2056.519510963598
 20
1031.059503304992
 30
0.0
  0
POINT
  5
44CF
  8
DEFPOINTS
 62
     0
 10
2110.403633180998
 20
1031.059503304992
 30
0.0
  0
ENDBLK
  5
44C5
  8
0
  0
BLOCK
  8
0
  2
*D109
 70
     1
 10
0.0
 20
0.0
 30
0.0
  3
*D109
  1

  0
LINE
  5
44D3
  8
0
  6
CONTINUOUS
 62
     0
 10
2056.582010963598
 20
1031.059503304992
 30
0.0
 11
2110.583633180998
 21
1031.059503304992
 31
0.0
  0
LINE
  5
44D4
  8
0
  6
CONTINUOUS
 62
     0
 10
2056.582010963598
 20
426.0595033049922
 30
0.0
 11
2110.583633180998
 21
426.0595033049922
 31
0.0
  0
LINE
  5
44D5
  8
0
  6
CONTINUOUS
 62
     0
 10
2110.403633180998
 20
1030.879503304992
 30
0.0
 11
2110.403633180998
 21
728.7413933049922
 31
0.0
  0
LINE
  5
44D6
  8
0
  6
CONTINUOUS
 62
     0
 10
2110.403633180998
 20
426.2395033049922
 30
0.0
 11
2110.403633180998
 21
728.3776133049921
 31
0.0
  0
SOLID
  5
44D7
  8
0
 62
     0
 10
2110.433633180999
 20
1030.879503304992
 30
0.0
 11
2110.373633180998
 21
1030.879503304992
 31
0.0
 12
2110.403633180998
 22
1031.059503304992
 32
0.0
 13
2110.403633180998
 23
1031.059503304992
 33
0.0
  0
SOLID
  5
44D8
  8
0
 62
     0
 10
2110.373633180998
 20
426.2395033049922
 30
0.0
 11
2110.433633180999
 21
426.2395033049922
 31
0.0
 12
2110.403633180998
 22
426.0595033049922
 32
0.0
 13
2110.403633180998
 23
426.0595033049922
 33
0.0
  0
TEXT
  5
44D9
  8
0
  6
CONTINUOUS
 62
     0
 10
2109.881183180999
 20
728.4710333049923
 30
0.0
 40
0.18
  1
605.0000
  0
POINT
  5
44DA
  8
DEFPOINTS
 62
     0
 10
2056.519510963598
 20
1031.059503304992
 30
0.0
  0
POINT
  5
44DB
  8
DEFPOINTS
 62
     0
 10
2056.519510963598
 20
426.0595033049922
 30
0.0
  0
POINT
  5
44DC
  8
DEFPOINTS
 62
     0
 10
2110.403633180998
 20
426.0595033049922
 30
0.0
  0
ENDBLK
  5
44D2
  8
0
  0
BLOCK
  8
0
  2
*D110
 70
     1
 10
0.0
 20
0.0
 30
0.0
  3
*D110
  1

  0
LINE
  5
44E0
  8
0
  6
CONTINUOUS
 62
     0
 10
1663.710560891457
 20
418.2051981019922
 30
0.0
 11
1663.530560891457
 21
418.2051981019922
 31
0.0
  0
LINE
  5
44E1
  8
0
  6
CONTINUOUS
 62
     0
 10
1663.530560891457
 20
418.2051981019922
 30
0.0
 11
1654.308640873945
 21
428.5362861873069
 31
0.0
  0
TEXT
  5
44E2
  8
0
  6
CONTINUOUS
 62
     0
 10
1663.790480891457
 20
418.1187981019922
 30
0.0
 40
0.18
  1
Ø7.0000
  0
SOLID
  5
44E3
  8
0
 62
     0
 10
1654.331021442159
 20
428.5562639290814
 30
0.0
 11
1654.286260305731
 21
428.5163084455324
 31
0.0
 12
1654.188774423298
 22
428.6705695965922
 32
0.0
 13
1654.188774423298
 23
428.6705695965922
 33
0.0
  0
POINT
  5
44E4
  8
DEFPOINTS
 62
     0
 10
1654.188774423298
 20
428.6705695965922
 30
0.0
  0
POINT
  5
44E5
  8
DEFPOINTS
 62
     0
 10
1658.850247503998
 20
423.4484370132922
 30
0.0
  0
ENDBLK
  5
44DF
  8
0
  0
BLOCK
  8
0
  2
*D111
 70
     1
 10
0.0
 20
0.0
 30
0.0
  3
*D111
  1

  0
LINE
  5
44E9
  8
0
  6
CONTINUOUS
 62
     0
 10
1656.519510963598
 20
1831.122003304992
 30
0.0
 11
1656.519510963598
 21
1890.348235362292
 31
0.0
  0
LINE
  5
44EA
  8
0
  6
CONTINUOUS
 62
     0
 10
1856.519510963598
 20
1858.122003304992
 30
0.0
 11
1856.519510963598
 21
1890.348235362292
 31
0.0
  0
LINE
  5
44EB
  8
0
  6
CONTINUOUS
 62
     0
 10
1656.699510963598
 20
1890.168235362292
 30
0.0
 11
1755.915430963599
 21
1890.168235362292
 31
0.0
  0
LINE
  5
44EC
  8
0
  6
CONTINUOUS
 62
     0
 10
1856.339510963598
 20
1890.168235362292
 30
0.0
 11
1757.123590963598
 21
1890.168235362292
 31
0.0
  0
SOLID
  5
44ED
  8
0
 62
     0
 10
1656.699510963598
 20
1890.198235362292
 30
0.0
 11
1656.699510963598
 21
1890.138235362292
 31
0.0
 12
1656.519510963598
 22
1890.168235362292
 32
0.0
 13
1656.519510963598
 23
1890.168235362292
 33
0.0
  0
SOLID
  5
44EE
  8
0
 62
     0
 10
1856.339510963598
 20
1890.138235362292
 30
0.0
 11
1856.339510963598
 21
1890.198235362292
 31
0.0
 12
1856.519510963598
 22
1890.168235362292
 32
0.0
 13
1856.519510963598
 23
1890.168235362292
 33
0.0
  0
TEXT
  5
44EF
  8
0
  6
CONTINUOUS
 62
     0
 10
1755.998050963598
 20
1890.079765362292
 30
0.0
 40
0.18
  1
200.0000
  0
POINT
  5
44F0
  8
DEFPOINTS
 62
     0
 10
1656.519510963598
 20
1831.059503304992
 30
0.0
  0
POINT
  5
44F1
  8
DEFPOINTS
 62
     0
 10
1856.519510963598
 20
1858.059503304992
 30
0.0
  0
POINT
  5
44F2
  8
DEFPOINTS
 62
     0
 10
1856.519510963598
 20
1890.168235362292
 30
0.0
  0
ENDBLK
  5
44E8
  8
0
  0
BLOCK
  8
0
  2
*D112
 70
     1
 10
0.0
 20
0.0
 30
0.0
  3
*D112
  1

  0
LINE
  5
44F6
  8
DIMENSIONS
  6
BYBLOCK
 62
     0
 10
855.139327201776
 20
1848.465646835862
 30
0.0
 11
855.139327201776
 21
1905.010743729762
 31
0.0
  0
LINE
  5
44F7
  8
DIMENSIONS
  6
BYBLOCK
 62
     0
 10
1310.139327201776
 20
1848.465646835862
 30
0.0
 11
1310.139327201776
 21
1905.010743729762
 31
0.0
  0
LINE
  5
44F8
  8
DIMENSIONS
  6
BYBLOCK
 62
     0
 10
860.139327201776
 20
1904.830743729762
 30
0.0
 11
1305.139327201776
 21
1904.830743729762
 31
0.0
  0
SOLID
  5
44F9
  8
DIMENSIONS
 62
     0
 10
860.139327201776
 20
1905.664077063096
 30
0.0
 11
860.139327201776
 21
1903.997410396429
 31
0.0
 12
855.139327201776
 22
1904.830743729762
 32
0.0
 13
855.139327201776
 23
1904.830743729762
 33
0.0
  0
SOLID
  5
44FA
  8
DIMENSIONS
 62
     0
 10
1305.139327201776
 20
1903.997410396429
 30
0.0
 11
1305.139327201776
 21
1905.664077063096
 31
0.0
 12
1310.139327201776
 22
1904.830743729762
 32
0.0
 13
1310.139327201776
 23
1904.830743729762
 33
0.0
  0
TEXT
  5
44FB
  8
DIMENSIONS
  6
CONTINUOUS
 62
     5
 10
1065.361827201776
 20
1907.225743729763
 30
0.0
 40
5.0
  1
455 [17.91]
  0
POINT
  5
44FC
  8
DEFPOINTS
 62
     0
 10
855.139327201776
 20
1846.965646835862
 30
0.0
  0
POINT
  5
44FD
  8
DEFPOINTS
 62
     0
 10
1310.139327201776
 20
1846.965646835862
 30
0.0
  0
POINT
  5
44FE
  8
DEFPOINTS
 62
     0
 10
1310.139327201776
 20
1904.830743729762
 30
0.0
  0
ENDBLK
  5
44F5
  8
0
  0
BLOCK
  8
0
  2
*D113
 70
     1
 10
0.0
 20
0.0
 30
0.0
  3
*D113
  1

  0
LINE
  5
4503
  8
DIMENSIONS
  6
BYBLOCK
 62
     0
 10
873.639327201776
 20
1813.465646835862
 30
0.0
 11
873.639327201776
 21
1890.265683496862
 31
0.0
  0
LINE
  5
4504
  8
DIMENSIONS
  6
BYBLOCK
 62
     0
 10
1291.639327201776
 20
1813.465646835862
 30
0.0
 11
1291.639327201776
 21
1890.265683496862
 31
0.0
  0
LINE
  5
4505
  8
DIMENSIONS
  6
BYBLOCK
 62
     0
 10
878.639327201776
 20
1890.085683496862
 30
0.0
 11
1286.639327201776
 21
1890.085683496862
 31
0.0
  0
SOLID
  5
4506
  8
DIMENSIONS
 62
     0
 10
878.639327201776
 20
1890.919016830196
 30
0.0
 11
878.639327201776
 21
1889.252350163529
 31
0.0
 12
873.639327201776
 22
1890.085683496862
 32
0.0
 13
873.639327201776
 23
1890.085683496862
 33
0.0
  0
SOLID
  5
4507
  8
DIMENSIONS
 62
     0
 10
1286.639327201776
 20
1889.252350163529
 30
0.0
 11
1286.639327201776
 21
1890.919016830196
 31
0.0
 12
1291.639327201776
 22
1890.085683496862
 32
0.0
 13
1291.639327201776
 23
1890.085683496862
 33
0.0
  0
TEXT
  5
4508
  8
DIMENSIONS
  6
CONTINUOUS
 62
     5
 10
1065.361827201776
 20
1892.480683496863
 30
0.0
 40
5.0
  1
418 [16.46]
  0
POINT
  5
4509
  8
DEFPOINTS
 62
     0
 10
873.639327201776
 20
1811.965646835862
 30
0.0
  0
POINT
  5
450A
  8
DEFPOINTS
 62
     0
 10
1291.639327201776
 20
1811.965646835862
 30
0.0
  0
POINT
  5
450B
  8
DEFPOINTS
 62
     0
 10
1291.639327201776
 20
1890.085683496862
 30
0.0
  0
ENDBLK
  5
4502
  8
0
  0
BLOCK
  8
0
  2
*D114
 70
     1
 10
0.0
 20
0.0
 30
0.0
  3
*D114
  1

  0
LINE
  5
4510
  8
DIMENSIONS
  6
BYBLOCK
 62
     0
 10
880.139327201776
 20
1832.465646835862
 30
0.0
 11
880.139327201776
 21
1875.258612246562
 31
0.0
  0
LINE
  5
4511
  8
DIMENSIONS
  6
BYBLOCK
 62
     0
 10
1285.139327201776
 20
1832.465646835862
 30
0.0
 11
1285.139327201776
 21
1875.258612246562
 31
0.0
  0
LINE
  5
4512
  8
DIMENSIONS
  6
BYBLOCK
 62
     0
 10
885.139327201776
 20
1875.078612246562
 30
0.0
 11
1280.139327201776
 21
1875.078612246562
 31
0.0
  0
SOLID
  5
4513
  8
DIMENSIONS
 62
     0
 10
885.139327201776
 20
1875.911945579895
 30
0.0
 11
885.139327201776
 21
1874.245278913229
 31
0.0
 12
880.139327201776
 22
1875.078612246562
 32
0.0
 13
880.139327201776
 23
1875.078612246562
 33
0.0
  0
SOLID
  5
4514
  8
DIMENSIONS
 62
     0
 10
1280.139327201776
 20
1874.245278913229
 30
0.0
 11
1280.139327201776
 21
1875.911945579895
 31
0.0
 12
1285.139327201776
 22
1875.078612246562
 32
0.0
 13
1285.139327201776
 23
1875.078612246562
 33
0.0
  0
TEXT
  5
4515
  8
DIMENSIONS
  6
CONTINUOUS
 62
     5
 10
1065.361827201776
 20
1877.473612246562
 30
0.0
 40
5.0
  1
405 [15.94]
  0
POINT
  5
4516
  8
DEFPOINTS
 62
     0
 10
880.139327201776
 20
1830.965646835862
 30
0.0
  0
POINT
  5
4517
  8
DEFPOINTS
 62
     0
 10
1285.139327201776
 20
1830.965646835862
 30
0.0
  0
POINT
  5
4518
  8
DEFPOINTS
 62
     0
 10
1285.139327201776
 20
1875.078612246562
 30
0.0
  0
ENDBLK
  5
450F
  8
0
  0
BLOCK
  8
0
  2
*D115
 70
     1
 10
0.0
 20
0.0
 30
0.0
  3
*D115
  1

  0
LINE
  5
451D
  8
DIMENSIONS
  6
BYBLOCK
 62
     0
 10
853.639327201776
 20
1846.965646835862
 30
0.0
 11
815.322629118554
 21
1846.965646835862
 31
0.0
  0
LINE
  5
451E
  8
DIMENSIONS
  6
BYBLOCK
 62
     0
 10
853.639327201776
 20
296.9656468358623
 30
0.0
 11
815.3226291185538
 21
296.9656468358623
 31
0.0
  0
LINE
  5
451F
  8
DIMENSIONS
  6
BYBLOCK
 62
     0
 10
815.502629118554
 20
1841.965646835862
 30
0.0
 11
815.5026291185537
 21
301.9656468358623
 31
0.0
  0
SOLID
  5
4520
  8
DIMENSIONS
 62
     0
 10
816.3359624518873
 20
1841.965646835862
 30
0.0
 11
814.6692957852206
 21
1841.965646835862
 31
0.0
 12
815.502629118554
 22
1846.965646835862
 32
0.0
 13
815.502629118554
 23
1846.965646835862
 33
0.0
  0
SOLID
  5
4521
  8
DIMENSIONS
 62
     0
 10
814.6692957852204
 20
301.9656468358623
 30
0.0
 11
816.3359624518871
 21
301.9656468358623
 31
0.0
 12
815.5026291185537
 22
296.9656468358623
 32
0.0
 13
815.5026291185537
 23
296.9656468358623
 33
0.0
  0
TEXT
  5
4522
  8
DIMENSIONS
  6
CONTINUOUS
 62
     5
 10
813.1076291185536
 20
1052.413146835862
 30
0.0
 40
5.0
  1
1550 [61.02]
 50
90.0
  0
POINT
  5
4523
  8
DEFPOINTS
 62
     0
 10
855.139327201776
 20
1846.965646835862
 30
0.0
  0
POINT
  5
4524
  8
DEFPOINTS
 62
     0
 10
855.139327201776
 20
296.9656468358623
 30
0.0
  0
POINT
  5
4525
  8
DEFPOINTS
 62
     0
 10
815.5026291185537
 20
296.9656468358623
 30
0.0
  0
ENDBLK
  5
451C
  8
0
  0
BLOCK
  8
0
  2
*D116
 70
     1
 10
0.0
 20
0.0
 30
0.0
  3
*D116
  1

  0
LINE
  5
452A
  8
DIMENSIONS
  6
BYBLOCK
 62
     0
 10
853.639327201776
 20
1846.965646835862
 30
0.0
 11
849.2461913228759
 21
1846.965646835862
 31
0.0
  0
LINE
  5
452B
  8
DIMENSIONS
  6
BYBLOCK
 62
     0
 10
878.639327201776
 20
1830.965646835862
 30
0.0
 11
849.2461913228759
 21
1830.965646835862
 31
0.0
  0
LINE
  5
452C
  8
DIMENSIONS
  6
BYBLOCK
 62
     0
 10
849.4261913228759
 20
1846.965646835862
 30
0.0
 11
849.4261913228759
 21
1879.910646835862
 31
0.0
  0
LINE
  5
452D
  8
DIMENSIONS
  6
BYBLOCK
 62
     0
 10
849.4261913228759
 20
1841.965646835862
 30
0.0
 11
849.4261913228759
 21
1835.965646835862
 31
0.0
  0
SOLID
  5
452E
  8
DIMENSIONS
 62
     0
 10
850.2595246562092
 20
1841.965646835862
 30
0.0
 11
848.5928579895425
 21
1841.965646835862
 31
0.0
 12
849.4261913228759
 22
1846.965646835862
 32
0.0
 13
849.4261913228759
 23
1846.965646835862
 33
0.0
  0
SOLID
  5
452F
  8
DIMENSIONS
 62
     0
 10
848.5928579895425
 20
1835.965646835862
 30
0.0
 11
850.2595246562092
 21
1835.965646835862
 31
0.0
 12
849.4261913228759
 22
1830.965646835862
 32
0.0
 13
849.4261913228759
 23
1830.965646835862
 33
0.0
  0
TEXT
  5
4530
  8
DIMENSIONS
  6
CONTINUOUS
 62
     5
 10
847.0311913228757
 20
1852.205646835862
 30
0.0
 40
5.0
  1
16 [0.63]
 50
90.0
  0
POINT
  5
4531
  8
DEFPOINTS
 62
     0
 10
855.139327201776
 20
1846.965646835862
 30
0.0
  0
POINT
  5
4532
  8
DEFPOINTS
 62
     0
 10
880.139327201776
 20
1830.965646835862
 30
0.0
  0
POINT
  5
4533
  8
DEFPOINTS
 62
     0
 10
849.4261913228759
 20
1830.965646835862
 30
0.0
  0
ENDBLK
  5
4529
  8
0
  0
BLOCK
  8
0
  2
*D117
 70
     1
 10
0.0
 20
0.0
 30
0.0
  3
*D117
  1

  0
LINE
  5
4539
  8
DIMENSIONS
  6
BYBLOCK
 62
     0
 10
878.639327201776
 20
311.9656468358623
 30
0.0
 11
849.2461913228759
 21
311.9656468358623
 31
0.0
  0
LINE
  5
453A
  8
DIMENSIONS
  6
BYBLOCK
 62
     0
 10
853.639327201776
 20
296.9656468358623
 30
0.0
 11
849.2461913228759
 21
296.9656468358623
 31
0.0
  0
LINE
  5
453B
  8
DIMENSIONS
  6
BYBLOCK
 62
     0
 10
849.4261913228759
 20
311.9656468358623
 30
0.0
 11
849.4261913228759
 21
264.0206468358623
 31
0.0
  0
LINE
  5
453C
  8
DIMENSIONS
  6
BYBLOCK
 62
     0
 10
849.4261913228759
 20
306.9656468358623
 30
0.0
 11
849.4261913228759
 21
301.9656468358623
 31
0.0
  0
SOLID
  5
453D
  8
DIMENSIONS
 62
     0
 10
850.2595246562092
 20
306.9656468358623
 30
0.0
 11
848.5928579895425
 21
306.9656468358623
 31
0.0
 12
849.4261913228759
 22
311.9656468358623
 32
0.0
 13
849.4261913228759
 23
311.9656468358623
 33
0.0
  0
SOLID
  5
453E
  8
DIMENSIONS
 62
     0
 10
848.5928579895425
 20
301.9656468358623
 30
0.0
 11
850.2595246562092
 21
301.9656468358623
 31
0.0
 12
849.4261913228759
 22
296.9656468358623
 32
0.0
 13
849.4261913228759
 23
296.9656468358623
 33
0.0
  0
TEXT
  5
453F
  8
DIMENSIONS
  6
CONTINUOUS
 62
     5
 10
847.0311913228758
 20
264.2606468358623
 30
0.0
 40
5.0
  1
15 [0.59]
 50
90.0
  0
POINT
  5
4540
  8
DEFPOINTS
 62
     0
 10
880.139327201776
 20
311.9656468358623
 30
0.0
  0
POINT
  5
4541
  8
DEFPOINTS
 62
     0
 10
855.139327201776
 20
296.9656468358623
 30
0.0
  0
POINT
  5
4542
  8
DEFPOINTS
 62
     0
 10
849.4261913228759
 20
296.9656468358623
 30
0.0
  0
ENDBLK
  5
4538
  8
0
  0
BLOCK
  8
0
  2
*D118
 70
     1
 10
0.0
 20
0.0
 30
0.0
  3
*D118
  1

  0
LINE
  5
4548
  8
DIMENSIONS
  6
BYBLOCK
 62
     0
 10
1311.639327201776
 20
1846.965646835862
 30
0.0
 11
1324.008103041276
 21
1846.965646835862
 31
0.0
  0
LINE
  5
4549
  8
DIMENSIONS
  6
BYBLOCK
 62
     0
 10
1293.139327201776
 20
1811.965646835862
 30
0.0
 11
1324.008103041276
 21
1811.965646835862
 31
0.0
  0
LINE
  5
454A
  8
DIMENSIONS
  6
BYBLOCK
 62
     0
 10
1323.828103041276
 20
1846.965646835862
 30
0.0
 11
1323.828103041276
 21
1880.375646835862
 31
0.0
  0
LINE
  5
454B
  8
DIMENSIONS
  6
BYBLOCK
 62
     0
 10
1323.828103041276
 20
1841.965646835862
 30
0.0
 11
1323.828103041276
 21
1816.965646835862
 31
0.0
  0
SOLID
  5
454C
  8
DIMENSIONS
 62
     0
 10
1324.661436374609
 20
1841.965646835862
 30
0.0
 11
1322.994769707942
 21
1841.965646835862
 31
0.0
 12
1323.828103041276
 22
1846.965646835862
 32
0.0
 13
1323.828103041276
 23
1846.965646835862
 33
0.0
  0
SOLID
  5
454D
  8
DIMENSIONS
 62
     0
 10
1322.994769707942
 20
1816.965646835862
 30
0.0
 11
1324.661436374609
 21
1816.965646835862
 31
0.0
 12
1323.828103041276
 22
1811.965646835862
 32
0.0
 13
1323.828103041276
 23
1811.965646835862
 33
0.0
  0
TEXT
  5
454E
  8
DIMENSIONS
  6
CONTINUOUS
 62
     5
 10
1321.433103041275
 20
1852.670646835862
 30
0.0
 40
5.0
  1
35 [1.38]
 50
90.0
  0
POINT
  5
454F
  8
DEFPOINTS
 62
     0
 10
1310.139327201776
 20
1846.965646835862
 30
0.0
  0
POINT
  5
4550
  8
DEFPOINTS
 62
     0
 10
1291.639327201776
 20
1811.965646835862
 30
0.0
  0
POINT
  5
4551
  8
DEFPOINTS
 62
     0
 10
1323.828103041276
 20
1811.965646835862
 30
0.0
  0
ENDBLK
  5
4547
  8
0
  0
BLOCK
  8
0
  2
*D119
 70
     1
 10
0.0
 20
0.0
 30
0.0
  3
*D119
  1

  0
LINE
  5
4557
  8
DIMENSIONS
  6
BYBLOCK
 62
     0
 10
1293.139327201776
 20
1811.965646835862
 30
0.0
 11
1324.008103041276
 21
1811.965646835862
 31
0.0
  0
LINE
  5
4558
  8
DIMENSIONS
  6
BYBLOCK
 62
     0
 10
1293.139327201776
 20
1421.965646835862
 30
0.0
 11
1324.008103041276
 21
1421.965646835862
 31
0.0
  0
LINE
  5
4559
  8
DIMENSIONS
  6
BYBLOCK
 62
     0
 10
1323.828103041276
 20
1806.965646835862
 30
0.0
 11
1323.828103041276
 21
1426.965646835862
 31
0.0
  0
SOLID
  5
455A
  8
DIMENSIONS
 62
     0
 10
1324.661436374609
 20
1806.965646835862
 30
0.0
 11
1322.994769707942
 21
1806.965646835862
 31
0.0
 12
1323.828103041276
 22
1811.965646835862
 32
0.0
 13
1323.828103041276
 23
1811.965646835862
 33
0.0
  0
SOLID
  5
455B
  8
DIMENSIONS
 62
     0
 10
1322.994769707942
 20
1426.965646835862
 30
0.0
 11
1324.661436374609
 21
1426.965646835862
 31
0.0
 12
1323.828103041276
 22
1421.965646835862
 32
0.0
 13
1323.828103041276
 23
1421.965646835862
 33
0.0
  0
TEXT
  5
455C
  8
DIMENSIONS
  6
CONTINUOUS
 62
     5
 10
1321.433103041275
 20
1599.585646835862
 30
0.0
 40
5.0
  1
390 [15.35]
 50
90.0
  0
POINT
  5
455D
  8
DEFPOINTS
 62
     0
 10
1291.639327201776
 20
1811.965646835862
 30
0.0
  0
POINT
  5
455E
  8
DEFPOINTS
 62
     0
 10
1291.639327201776
 20
1421.965646835862
 30
0.0
  0
POINT
  5
455F
  8
DEFPOINTS
 62
     0
 10
1323.828103041276
 20
1421.965646835862
 30
0.0
  0
ENDBLK
  5
4556
  8
0
  0
BLOCK
  8
0
  2
*D120
 70
     1
 10
0.0
 20
0.0
 30
0.0
  3
*D120
  1

  0
LINE
  5
4564
  8
DIMENSIONS
  6
BYBLOCK
 62
     0
 10
1293.139327201776
 20
1421.965646835862
 30
0.0
 11
1324.008103041276
 21
1421.965646835862
 31
0.0
  0
LINE
  5
4565
  8
DIMENSIONS
  6
BYBLOCK
 62
     0
 10
1293.139327201776
 20
1151.965646835862
 30
0.0
 11
1324.008103041276
 21
1151.965646835862
 31
0.0
  0
LINE
  5
4566
  8
DIMENSIONS
  6
BYBLOCK
 62
     0
 10
1323.828103041276
 20
1416.965646835862
 30
0.0
 11
1323.828103041276
 21
1156.965646835862
 31
0.0
  0
SOLID
  5
4567
  8
DIMENSIONS
 62
     0
 10
1324.661436374609
 20
1416.965646835862
 30
0.0
 11
1322.994769707942
 21
1416.965646835862
 31
0.0
 12
1323.828103041276
 22
1421.965646835862
 32
0.0
 13
1323.828103041276
 23
1421.965646835862
 33
0.0
  0
SOLID
  5
4568
  8
DIMENSIONS
 62
     0
 10
1322.994769707942
 20
1156.965646835862
 30
0.0
 11
1324.661436374609
 21
1156.965646835862
 31
0.0
 12
1323.828103041276
 22
1151.965646835862
 32
0.0
 13
1323.828103041276
 23
1151.965646835862
 33
0.0
  0
TEXT
  5
4569
  8
DIMENSIONS
  6
CONTINUOUS
 62
     5
 10
1321.433103041275
 20
1269.630646835862
 30
0.0
 40
5.0
  1
270 [10.63]
 50
90.0
  0
POINT
  5
456A
  8
DEFPOINTS
 62
     0
 10
1291.639327201776
 20
1421.965646835862
 30
0.0
  0
POINT
  5
456B
  8
DEFPOINTS
 62
     0
 10
1291.639327201776
 20
1151.965646835862
 30
0.0
  0
POINT
  5
456C
  8
DEFPOINTS
 62
     0
 10
1323.828103041276
 20
1151.965646835862
 30
0.0
  0
ENDBLK
  5
4563
  8
0
  0
BLOCK
  8
0
  2
*D121
 70
     1
 10
0.0
 20
0.0
 30
0.0
  3
*D121
  1

  0
LINE
  5
4571
  8
DIMENSIONS
  6
BYBLOCK
 62
     0
 10
1293.139327201776
 20
1151.965646835862
 30
0.0
 11
1324.008103041276
 21
1151.965646835862
 31
0.0
  0
LINE
  5
4572
  8
DIMENSIONS
  6
BYBLOCK
 62
     0
 10
1293.139327201776
 20
726.9656468358623
 30
0.0
 11
1324.008103041276
 21
726.9656468358623
 31
0.0
  0
LINE
  5
4573
  8
DIMENSIONS
  6
BYBLOCK
 62
     0
 10
1323.828103041276
 20
1146.965646835862
 30
0.0
 11
1323.828103041276
 21
731.9656468358623
 31
0.0
  0
SOLID
  5
4574
  8
DIMENSIONS
 62
     0
 10
1324.661436374609
 20
1146.965646835862
 30
0.0
 11
1322.994769707942
 21
1146.965646835862
 31
0.0
 12
1323.828103041276
 22
1151.965646835862
 32
0.0
 13
1323.828103041276
 23
1151.965646835862
 33
0.0
  0
SOLID
  5
4575
  8
DIMENSIONS
 62
     0
 10
1322.994769707942
 20
731.9656468358623
 30
0.0
 11
1324.661436374609
 21
731.9656468358623
 31
0.0
 12
1323.828103041276
 22
726.9656468358623
 32
0.0
 13
1323.828103041276
 23
726.9656468358623
 33
0.0
  0
TEXT
  5
4576
  8
DIMENSIONS
  6
CONTINUOUS
 62
     5
 10
1321.433103041275
 20
922.1881468358624
 30
0.0
 40
5.0
  1
425 [16.73]
 50
90.0
  0
POINT
  5
4577
  8
DEFPOINTS
 62
     0
 10
1291.639327201776
 20
1151.965646835862
 30
0.0
  0
POINT
  5
4578
  8
DEFPOINTS
 62
     0
 10
1291.639327201776
 20
726.9656468358623
 30
0.0
  0
POINT
  5
4579
  8
DEFPOINTS
 62
     0
 10
1323.828103041276
 20
726.9656468358623
 30
0.0
  0
ENDBLK
  5
4570
  8
0
  0
BLOCK
  8
0
  2
*D122
 70
     1
 10
0.0
 20
0.0
 30
0.0
  3
*D122
  1

  0
LINE
  5
457E
  8
DIMENSIONS
  6
BYBLOCK
 62
     0
 10
1293.139327201776
 20
726.9656468358623
 30
0.0
 11
1324.008103041276
 21
726.9656468358623
 31
0.0
  0
LINE
  5
457F
  8
DIMENSIONS
  6
BYBLOCK
 62
     0
 10
1293.139327201776
 20
341.9656468358623
 30
0.0
 11
1324.008103041276
 21
341.9656468358623
 31
0.0
  0
LINE
  5
4580
  8
DIMENSIONS
  6
BYBLOCK
 62
     0
 10
1323.828103041276
 20
721.9656468358623
 30
0.0
 11
1323.828103041276
 21
346.9656468358623
 31
0.0
  0
SOLID
  5
4581
  8
DIMENSIONS
 62
     0
 10
1324.661436374609
 20
721.9656468358623
 30
0.0
 11
1322.994769707942
 21
721.9656468358623
 31
0.0
 12
1323.828103041276
 22
726.9656468358623
 32
0.0
 13
1323.828103041276
 23
726.9656468358623
 33
0.0
  0
SOLID
  5
4582
  8
DIMENSIONS
 62
     0
 10
1322.994769707942
 20
346.9656468358623
 30
0.0
 11
1324.661436374609
 21
346.9656468358623
 31
0.0
 12
1323.828103041276
 22
341.9656468358623
 32
0.0
 13
1323.828103041276
 23
341.9656468358623
 33
0.0
  0
TEXT
  5
4583
  8
DIMENSIONS
  6
CONTINUOUS
 62
     5
 10
1321.433103041275
 20
517.0856468358622
 30
0.0
 40
5.0
  1
385 [15.16]
 50
90.0
  0
POINT
  5
4584
  8
DEFPOINTS
 62
     0
 10
1291.639327201776
 20
726.9656468358623
 30
0.0
  0
POINT
  5
4585
  8
DEFPOINTS
 62
     0
 10
1291.639327201776
 20
341.9656468358623
 30
0.0
  0
POINT
  5
4586
  8
DEFPOINTS
 62
     0
 10
1323.828103041276
 20
341.9656468358623
 30
0.0
  0
ENDBLK
  5
457D
  8
0
  0
BLOCK
  8
0
  2
*D123
 70
     1
 10
0.0
 20
0.0
 30
0.0
  3
*D123
  1

  0
LINE
  5
458B
  8
DIMENSIONS
  6
BYBLOCK
 62
     0
 10
866.341654243508
 20
1807.607439705082
 30
0.0
 11
823.3416508640694
 21
1781.927620614441
 31
0.0
  0
TEXT
  5
458C
  8
DIMENSIONS
  6
CONTINUOUS
 62
     5
 10
822.6907993206975
 20
1784.421697050417
 30
0.0
 40
5.0
  1
Ø7 [Ø0.28]
 50
30.84586210423512
  0
SOLID
  5
458D
  8
DIMENSIONS
 62
     0
 10
866.7689294524047
 20
1806.891981571921
 30
0.0
 11
865.9143790346112
 21
1808.322897838243
 31
0.0
 12
870.6344030424759
 22
1810.171090958462
 32
0.0
 13
870.6344030424759
 23
1810.171090958462
 33
0.0
  0
LINE
  5
458E
  8
DIMENSIONS
  6
BYBLOCK
 62
     0
 10
872.389327201726
 20
1811.965646835812
 30
0.0
 11
874.889327201726
 21
1811.965646835812
 31
0.0
  0
LINE
  5
458F
  8
DIMENSIONS
  6
BYBLOCK
 62
     0
 10
873.639327201726
 20
1810.715646835812
 30
0.0
 11
873.639327201726
 21
1813.215646835812
 31
0.0
  0
POINT
  5
45D8
  8
DEFPOINTS
 62
     0
 10
870.6344030424759
 20
1810.171090958462
 30
0.0
  0
POINT
  5
45D9
  8
DEFPOINTS
 62
     0
 10
876.6442513609761
 20
1813.760202713162
 30
0.0
  0
ENDBLK
  5
458A
  8
0
  0
BLOCK
  8
0
  2
*D124
 70
     1
 10
0.0
 20
0.0
 30
0.0
  3
*D124
  1

  0
LINE
  5
4594
  8
DIMENSIONS
  6
BYBLOCK
 62
     0
 10
872.139327201776
 20
1421.965646835862
 30
0.0
 11
837.0300528635759
 21
1421.965646835862
 31
0.0
  0
LINE
  5
4595
  8
DIMENSIONS
  6
BYBLOCK
 62
     0
 10
872.139327201776
 20
1101.965646835862
 30
0.0
 11
837.0300528635759
 21
1101.965646835862
 31
0.0
  0
LINE
  5
4596
  8
DIMENSIONS
  6
BYBLOCK
 62
     0
 10
837.2100528635758
 20
1416.965646835862
 30
0.0
 11
837.2100528635758
 21
1106.965646835862
 31
0.0
  0
SOLID
  5
4597
  8
DIMENSIONS
 62
     0
 10
838.0433861969092
 20
1416.965646835862
 30
0.0
 11
836.3767195302424
 21
1416.965646835862
 31
0.0
 12
837.2100528635758
 22
1421.965646835862
 32
0.0
 13
837.2100528635758
 23
1421.965646835862
 33
0.0
  0
SOLID
  5
4598
  8
DIMENSIONS
 62
     0
 10
836.3767195302424
 20
1106.965646835862
 30
0.0
 11
838.0433861969092
 21
1106.965646835862
 31
0.0
 12
837.2100528635758
 22
1101.965646835862
 32
0.0
 13
837.2100528635758
 23
1101.965646835862
 33
0.0
  0
TEXT
  5
4599
  8
DIMENSIONS
  6
CONTINUOUS
 62
     5
 10
834.8150528635754
 20
1244.585646835862
 30
0.0
 40
5.0
  1
320 [12.60]
 50
90.0
  0
POINT
  5
459A
  8
DEFPOINTS
 62
     0
 10
873.639327201776
 20
1421.965646835862
 30
0.0
  0
POINT
  5
459B
  8
DEFPOINTS
 62
     0
 10
873.639327201776
 20
1101.965646835862
 30
0.0
  0
POINT
  5
459C
  8
DEFPOINTS
 62
     0
 10
837.2100528635758
 20
1101.965646835862
 30
0.0
  0
ENDBLK
  5
4593
  8
0
  0
BLOCK
  8
0
  2
*D125
 70
     1
 10
0.0
 20
0.0
 30
0.0
  3
*D125
  1

  0
LINE
  5
45A1
  8
DIMENSIONS
  6
BYBLOCK
 62
     0
 10
872.139327201776
 20
1101.965646835862
 30
0.0
 11
837.0300528635759
 21
1101.965646835862
 31
0.0
  0
LINE
  5
45A2
  8
DIMENSIONS
  6
BYBLOCK
 62
     0
 10
872.139327201776
 20
726.9656468358623
 30
0.0
 11
837.0300528635757
 21
726.9656468358623
 31
0.0
  0
LINE
  5
45A3
  8
DIMENSIONS
  6
BYBLOCK
 62
     0
 10
837.2100528635758
 20
1096.965646835862
 30
0.0
 11
837.2100528635757
 21
731.9656468358623
 31
0.0
  0
SOLID
  5
45A4
  8
DIMENSIONS
 62
     0
 10
838.0433861969092
 20
1096.965646835862
 30
0.0
 11
836.3767195302424
 21
1096.965646835862
 31
0.0
 12
837.2100528635758
 22
1101.965646835862
 32
0.0
 13
837.2100528635758
 23
1101.965646835862
 33
0.0
  0
SOLID
  5
45A5
  8
DIMENSIONS
 62
     0
 10
836.3767195302423
 20
731.9656468358623
 30
0.0
 11
838.0433861969091
 21
731.9656468358623
 31
0.0
 12
837.2100528635757
 22
726.9656468358623
 32
0.0
 13
837.2100528635757
 23
726.9656468358623
 33
0.0
  0
TEXT
  5
45A6
  8
DIMENSIONS
  6
CONTINUOUS
 62
     5
 10
834.8150528635758
 20
897.6057908379623
 30
0.0
 40
5.0
  1
375 [14.76]
 50
89.99999999999999
  0
POINT
  5
45A7
  8
DEFPOINTS
 62
     0
 10
873.639327201776
 20
1101.965646835862
 30
0.0
  0
POINT
  5
45A8
  8
DEFPOINTS
 62
     0
 10
873.639327201776
 20
726.9656468358623
 30
0.0
  0
POINT
  5
45A9
  8
DEFPOINTS
 62
     0
 10
837.2100528635757
 20
726.9656468358623
 30
0.0
  0
ENDBLK
  5
45A0
  8
0
  0
BLOCK
  8
0
  2
*D126
 70
     1
 10
0.0
 20
0.0
 30
0.0
  3
*D126
  1

  0
LINE
  5
45AE
  8
DIMENSIONS
  6
BYBLOCK
 62
     0
 10
872.139327201776
 20
726.9656468358623
 30
0.0
 11
837.0300528635759
 21
726.9656468358623
 31
0.0
  0
LINE
  5
45AF
  8
DIMENSIONS
  6
BYBLOCK
 62
     0
 10
872.139327201776
 20
341.9656468358623
 30
0.0
 11
837.0300528635759
 21
341.9656468358623
 31
0.0
  0
LINE
  5
45B0
  8
DIMENSIONS
  6
BYBLOCK
 62
     0
 10
837.2100528635758
 20
721.9656468358623
 30
0.0
 11
837.2100528635758
 21
346.9656468358623
 31
0.0
  0
SOLID
  5
45B1
  8
DIMENSIONS
 62
     0
 10
838.0433861969092
 20
721.9656468358623
 30
0.0
 11
836.3767195302424
 21
721.9656468358623
 31
0.0
 12
837.2100528635758
 22
726.9656468358623
 32
0.0
 13
837.2100528635758
 23
726.9656468358623
 33
0.0
  0
SOLID
  5
45B2
  8
DIMENSIONS
 62
     0
 10
836.3767195302424
 20
346.9656468358623
 30
0.0
 11
838.0433861969092
 21
346.9656468358623
 31
0.0
 12
837.2100528635758
 22
341.9656468358623
 32
0.0
 13
837.2100528635758
 23
341.9656468358623
 33
0.0
  0
TEXT
  5
45B3
  8
DIMENSIONS
  6
CONTINUOUS
 62
     5
 10
834.8150528635757
 20
517.0856468358623
 30
0.0
 40
5.0
  1
385 [15.16]
 50
89.99999999999999
  0
POINT
  5
45B4
  8
DEFPOINTS
 62
     0
 10
873.639327201776
 20
726.9656468358623
 30
0.0
  0
POINT
  5
45B5
  8
DEFPOINTS
 62
     0
 10
873.639327201776
 20
341.9656468358623
 30
0.0
  0
POINT
  5
45B6
  8
DEFPOINTS
 62
     0
 10
837.2100528635758
 20
341.9656468358623
 30
0.0
  0
ENDBLK
  5
45AD
  8
0
  0
BLOCK
  8
0
  2
*D127
 70
     1
 10
0.0
 20
0.0
 30
0.0
  3
*D127
  1

  0
LINE
  5
45BB
  8
DIMENSIONS
  6
BYBLOCK
 62
     0
 10
853.639327201776
 20
296.9656468358623
 30
0.0
 11
837.0300528635759
 21
296.9656468358623
 31
0.0
  0
LINE
  5
45BC
  8
DIMENSIONS
  6
BYBLOCK
 62
     0
 10
872.139327201776
 20
341.9656468358623
 30
0.0
 11
837.0300528635759
 21
341.9656468358623
 31
0.0
  0
LINE
  5
45BD
  8
DIMENSIONS
  6
BYBLOCK
 62
     0
 10
837.2100528635758
 20
296.9656468358623
 30
0.0
 11
837.2100528635758
 21
263.3506468358623
 31
0.0
  0
LINE
  5
45BE
  8
DIMENSIONS
  6
BYBLOCK
 62
     0
 10
837.2100528635758
 20
301.9656468358623
 30
0.0
 11
837.2100528635758
 21
336.9656468358623
 31
0.0
  0
SOLID
  5
45BF
  8
DIMENSIONS
 62
     0
 10
836.3767195302424
 20
301.9656468358623
 30
0.0
 11
838.0433861969092
 21
301.9656468358623
 31
0.0
 12
837.2100528635758
 22
296.9656468358623
 32
0.0
 13
837.2100528635758
 23
296.9656468358623
 33
0.0
  0
SOLID
  5
45C0
  8
DIMENSIONS
 62
     0
 10
838.0433861969092
 20
336.9656468358623
 30
0.0
 11
836.3767195302424
 21
336.9656468358623
 31
0.0
 12
837.2100528635758
 22
341.9656468358623
 32
0.0
 13
837.2100528635758
 23
341.9656468358623
 33
0.0
  0
TEXT
  5
45C1
  8
DIMENSIONS
  6
CONTINUOUS
 62
     5
 10
834.8150528635758
 20
264.2606468358623
 30
0.0
 40
5.0
  1
45 [1.77]
 50
90.0
  0
POINT
  5
45C2
  8
DEFPOINTS
 62
     0
 10
855.139327201776
 20
296.9656468358623
 30
0.0
  0
POINT
  5
45C3
  8
DEFPOINTS
 62
     0
 10
873.639327201776
 20
341.9656468358623
 30
0.0
  0
POINT
  5
45C4
  8
DEFPOINTS
 62
     0
 10
837.2100528635758
 20
341.9656468358623
 30
0.0
  0
ENDBLK
  5
45BA
  8
0
  0
BLOCK
  8
0
  2
*D128
 70
     1
 10
0.0
 20
0.0
 30
0.0
  3
*D128
  1

  0
LINE
  5
45CA
  8
DIMENSIONS
  6
BYBLOCK
 62
     0
 10
1311.639327201776
 20
296.9656468358623
 30
0.0
 11
1324.008103041276
 21
296.9656468358623
 31
0.0
  0
LINE
  5
45CB
  8
DIMENSIONS
  6
BYBLOCK
 62
     0
 10
1293.139327201776
 20
341.9656468358623
 30
0.0
 11
1324.008103041276
 21
341.9656468358623
 31
0.0
  0
LINE
  5
45CC
  8
DIMENSIONS
  6
BYBLOCK
 62
     0
 10
1323.828103041276
 20
301.9656468358623
 30
0.0
 11
1323.828103041276
 21
336.9656468358623
 31
0.0
  0
SOLID
  5
45CD
  8
DIMENSIONS
 62
     0
 10
1322.994769707942
 20
301.9656468358623
 30
0.0
 11
1324.661436374609
 21
301.9656468358623
 31
0.0
 12
1323.828103041276
 22
296.9656468358623
 32
0.0
 13
1323.828103041276
 23
296.9656468358623
 33
0.0
  0
SOLID
  5
45CE
  8
DIMENSIONS
 62
     0
 10
1324.661436374609
 20
336.9656468358623
 30
0.0
 11
1322.994769707942
 21
336.9656468358623
 31
0.0
 12
1323.828103041276
 22
341.9656468358623
 32
0.0
 13
1323.828103041276
 23
341.9656468358623
 33
0.0
  0
TEXT
  5
45CF
  8
DIMENSIONS
  6
CONTINUOUS
 62
     5
 10
1321.433103041275
 20
306.0681468358625
 30
0.0
 40
5.0
  1
45 [1.77]
 50
90.0
  0
POINT
  5
45D0
  8
DEFPOINTS
 62
     0
 10
1310.139327201776
 20
296.9656468358623
 30
0.0
  0
POINT
  5
45D1
  8
DEFPOINTS
 62
     0
 10
1291.639327201776
 20
341.9656468358623
 30
0.0
  0
POINT
  5
45D2
  8
DEFPOINTS
 62
     0
 10
1323.828103041276
 20
341.9656468358623
 30
0.0
  0
ENDBLK
  5
45C9
  8
0
  0
ENDSEC
  0
SECTION
  2
ENTITIES
  0
TEXT
  5
25BF
  8
DIMENSIONS
  6
BYBLOCK
 10
175.8273638605629
 20
175.2068846320082
 30
0.0
 40
11.25
  1
Note:
  0
TEXT
  5
25C0
  8
DIMENSIONS
  6
BYBLOCK
 10
176.1286974512052
 20
151.5167069740236
 30
0.0
 40
11.25
  1
Primary dimensions in millimeters.
  0
TEXT
  5
25C1
  8
DIMENSIONS
  6
BYBLOCK
 10
176.6268788080825
 20
127.729649354259
 30
0.0
 40
11.25
  1
Secondary dimensions in inches.
  0
POLYLINE
  5
3484
  8
0
  6
BYBLOCK
 66
     1
 10
0.0
 20
0.0
 30
0.0
 70
     1
  0
VERTEX
  5
45E4
  8
0
  6
BYBLOCK
 10
81.54351413624404
 20
97.48881151042815
 30
0.0
  0
VERTEX
  5
45E5
  8
0
  6
BYBLOCK
 10
81.54351413624366
 20
2047.488811510428
 30
0.0
  0
VERTEX
  5
45E6
  8
0
  6
BYBLOCK
 10
1436.424295602861
 20
2047.488811510428
 30
0.0
  0
VERTEX
  5
45E7
  8
0
  6
BYBLOCK
 10
1436.424295602861
 20
97.48881151042815
 30
0.0
  0
SEQEND
  5
45FA
  8
0
  6
BYBLOCK
  0
TEXT
  5
37D9
  8
TEXT
  6
BYBLOCK
 10
1419.255942128155
 20
115.7377827258937
 30
0.0
 40
10.0
  1
596044234/a
 50
89.99999999999999
  0
TEXT
  5
3C44
  8
TEXT
  6
CONTINUOUS
 10
344.4597190172435
 20
263.6068047732554
 30
0.0
 40
12.0
  1
CUTOUT FOR EXTERNAL
  0
TEXT
  5
3D14
  8
TEXT
  6
CONTINUOUS
 10
989.4057915846247
 20
265.3300744014401
 30
0.0
 40
12.0
  1
CUTOUT FOR INTERNAL
  0
LINE
  5
3E75
  8
0
  6
CONTINUOUS
 10
664.3284825373288
 20
296.9656468358621
 30
0.0
 11
209.3284825373288
 21
296.9656468358621
 31
0.0
  0
LINE
  5
3E77
  8
0
  6
CONTINUOUS
 10
209.3284825373288
 20
296.9656468358621
 30
0.0
 11
209.3284825373288
 21
1846.965646835862
 31
0.0
  0
LINE
  5
3E79
  8
0
  6
CONTINUOUS
 10
249.3284825373288
 20
1821.965646835862
 30
0.0
 11
249.3284825373288
 21
1489.965646835862
 31
0.0
  0
LINE
  5
3E7A
  8
0
  6
CONTINUOUS
 10
254.3284825373288
 20
1388.965646835862
 30
0.0
 11
254.3284825373288
 21
998.9656468358621
 31
0.0
  0
LINE
  5
3E7B
  8
0
  6
CONTINUOUS
 10
254.3284825373288
 20
998.9656468358621
 30
0.0
 11
619.3284825373288
 21
998.9656468358621
 31
0.0
  0
LINE
  5
3E7C
  8
0
  6
CONTINUOUS
 10
619.3284825373288
 20
998.9656468358621
 30
0.0
 11
619.3284825373288
 21
1388.965646835862
 31
0.0
  0
LINE
  5
3E7D
  8
0
  6
CONTINUOUS
 10
624.3284825373288
 20
1489.965646835862
 30
0.0
 11
624.3284825373288
 21
1821.965646835862
 31
0.0
  0
LINE
  5
3E7F
  8
0
  6
CONTINUOUS
 10
664.3284825373288
 20
1846.965646835862
 30
0.0
 11
664.3284825373288
 21
296.9656468358621
 31
0.0
  0
LINE
  5
3E80
  8
0
  6
CONTINUOUS
 10
619.3284825373288
 20
1388.965646835862
 30
0.0
 11
254.3284825373288
 21
1388.965646835862
 31
0.0
  0
LINE
  5
3E81
  8
0
  6
CONTINUOUS
 10
249.3284825373288
 20
1489.965646835862
 30
0.0
 11
624.3284825373288
 21
1489.965646835862
 31
0.0
  0
LINE
  5
3E82
  8
0
  6
CONTINUOUS
 10
624.3284825373288
 20
1821.965646835862
 30
0.0
 11
249.3284825373288
 21
1821.965646835862
 31
0.0
  0
LINE
  5
3E84
  8
0
  6
CONTINUOUS
 10
209.3284825373288
 20
1846.965646835862
 30
0.0
 11
664.3284825373288
 21
1846.965646835862
 31
0.0
  0
CIRCLE
  5
3E85
  8
0
  6
CONTINUOUS
 10
236.8284825373288
 20
1001.965646835862
 30
0.0
 40
3.5
  0
CIRCLE
  5
3E86
  8
0
  6
CONTINUOUS
 10
236.8284825373288
 20
396.9656468358621
 30
0.0
 40
3.5
  0
CIRCLE
  5
3E89
  8
0
  6
CONTINUOUS
 10
236.8284825373288
 20
1801.965646835862
 30
0.0
 40
3.5
  0
CIRCLE
  5
3E8A
  8
0
  6
CONTINUOUS
 10
236.8284825373288
 20
1529.465646835862
 30
0.0
 40
3.5
  0
CIRCLE
  5
3E8B
  8
0
  6
CONTINUOUS
 10
236.8284825373288
 20
1349.465646835862
 30
0.0
 40
3.5
  0
CIRCLE
  5
3E8F
  8
0
  6
CONTINUOUS
 10
636.8284825373288
 20
1001.965646835862
 30
0.0
 40
3.5
  0
CIRCLE
  5
3E90
  8
0
  6
CONTINUOUS
 10
636.8284825373288
 20
396.9656468358621
 30
0.0
 40
3.5
  0
CIRCLE
  5
3E93
  8
0
  6
CONTINUOUS
 10
636.8284825373288
 20
1801.965646835862
 30
0.0
 40
3.5
  0
CIRCLE
  5
3E95
  8
0
  6
CONTINUOUS
 10
636.8284825373288
 20
1529.465646835862
 30
0.0
 40
3.5
  0
CIRCLE
  5
3E96
  8
0
  6
CONTINUOUS
 10
636.8284825373288
 20
1349.465646835862
 30
0.0
 40
3.5
  0
DIMENSION
  5
3E9B
  8
DIMENSIONS
  6
BYBLOCK
  2
*D39
 10
624.3284825373288
 20
1883.595114156836
 30
0.0
 11
436.8284825373288
 21
1887.797614156836
 31
0.0
 70
    32
  3
DUAL-DIM
 13
249.3284825373288
 23
1821.965646835862
 33
0.0
 14
624.3284825373288
 24
1821.965646835862
 34
0.0
1001
ACAD
1000
DSTYLE
1002
{
1070
   287
1070
     5
1070
   144
1040
1.0
1070
   279
1070
     2
1002
}
  0
DIMENSION
  5
3EAA
  8
DIMENSIONS
  6
BYBLOCK
  2
*D40
 10
636.8284825373288
 20
1902.223188387476
 30
0.0
 11
436.8284825373288
 21
1906.425688387476
 31
0.0
 70
    32
  3
DUAL-DIM
 13
236.8284825373288
 23
1801.965646835862
 33
0.0
 14
636.8284825373288
 24
1801.965646835862
 34
0.0
1001
ACAD
1000
DSTYLE
1002
{
1070
   287
1070
     5
1070
   144
1040
1.0
1070
   279
1070
     2
1002
}
  0
DIMENSION
  5
3EB9
  8
DIMENSIONS
  6
BYBLOCK
  2
*D41
 10
664.3284825373288
 20
1920.879042064279
 30
0.0
 11
436.8284825373288
 21
1925.081542064279
 31
0.0
 70
    32
  3
DUAL-DIM
 13
209.3284825373288
 23
1846.965646835862
 33
0.0
 14
664.3284825373288
 24
1846.965646835862
 34
0.0
1001
ACAD
1000
DSTYLE
1002
{
1070
   287
1070
     5
1070
   144
1040
1.0
1070
   279
1070
     2
1002
}
  0
DIMENSION
  5
3EC8
  8
DIMENSIONS
  6
BYBLOCK
  2
*D42
 10
191.0727543015844
 20
1821.965646835862
 30
0.0
 11
184.5823237499659
 21
1831.784880304797
 31
0.0
 70
   160
  3
DUAL-DIM
 13
209.3284825373288
 23
1846.965646835862
 33
0.0
 14
249.3284825373288
 24
1821.965646835862
 34
0.0
 50
90.0
1001
ACAD
1000
DSTYLE
1002
{
1070
   287
1070
     5
1070
   144
1040
1.0
1070
   279
1070
     2
1002
}
  0
DIMENSION
  5
3ED7
  8
DIMENSIONS
  6
BYBLOCK
  2
*D43
 10
191.0727543015844
 20
1489.965646835862
 30
0.0
 11
186.8702543015843
 21
1655.965646835862
 31
0.0
 70
    32
  3
DUAL-DIM
 13
249.3284825373288
 23
1821.965646835862
 33
0.0
 14
249.3284825373288
 24
1489.965646835862
 34
0.0
 50
90.0
1001
ACAD
1000
DSTYLE
1002
{
1070
   287
1070
     5
1070
   144
1040
1.0
1070
   279
1070
     2
1002
}
  0
DIMENSION
  5
3EE6
  8
DIMENSIONS
  6
BYBLOCK
  2
*D44
 10
191.0727543015844
 20
1388.965646835862
 30
0.0
 11
186.8702543015843
 21
1439.465646835862
 31
0.0
 70
    32
  3
DUAL-DIM
 13
249.3284825373288
 23
1489.965646835862
 33
0.0
 14
254.3284825373288
 24
1388.965646835862
 34
0.0
 50
90.0
1001
ACAD
1000
DSTYLE
1002
{
1070
   287
1070
     5
1070
   144
1040
1.0
1070
   279
1070
     2
1002
}
  0
DIMENSION
  5
3EF5
  8
DIMENSIONS
  6
BYBLOCK
  2
*D45
 10
191.0732842935639
 20
998.9656468358621
 30
0.0
 11
186.8707842935638
 21
1193.965646835862
 31
0.0
 70
    32
  3
DUAL-DIM
 13
254.3284825373288
 23
1388.965646835862
 33
0.0
 14
254.3284825373288
 24
998.9656468358621
 34
0.0
 50
90.0
1001
ACAD
1000
DSTYLE
1002
{
1070
   287
1070
     5
1070
   144
1040
1.0
1070
   279
1070
     2
1002
}
  0
POLYLINE
  5
3F06
  8
CENTERS
 66
     1
 10
0.0
 20
0.0
 30
0.0
  0
VERTEX
  5
45E8
  8
CENTERS
 10
436.8284825373288
 20
1846.965646835862
 30
0.0
  0
VERTEX
  5
45E9
  8
CENTERS
 10
436.8284825373288
 20
296.9656468358621
 30
0.0
  0
SEQEND
  5
45FB
  8
CENTERS
  0
TEXT
  5
3F07
  8
DIMENSIONS
  6
BYBLOCK
 10
446.1305265988443
 20
1656.090646711441
 30
0.0
 40
7.0
  1
Centerline
 50
89.99999999999999
  0
POLYLINE
  5
3F08
  8
DIMENSIONS
  6
BYBLOCK
 62
     1
 66
     1
 10
0.0
 20
0.0
 30
0.0
 40
1.4
 41
1.4
  0
VERTEX
  5
45EA
  8
DIMENSIONS
  6
BYBLOCK
 62
     1
 10
443.5696739131435
 20
1708.260867901341
 30
0.0
  0
VERTEX
  5
45EB
  8
DIMENSIONS
  6
BYBLOCK
 62
     1
 10
429.5696739131435
 20
1708.260867901341
 30
0.0
  0
SEQEND
  5
45FC
  8
DIMENSIONS
  6
BYBLOCK
 62
     1
  0
POLYLINE
  5
3F09
  8
DIMENSIONS
 62
     1
 66
     1
 10
0.0
 20
0.0
 30
0.0
 40
1.4
 41
1.4
  0
VERTEX
  5
45EC
  8
DIMENSIONS
 62
     1
 10
436.7508399500729
 20
1747.718356639099
 30
0.0
  0
VERTEX
  5
45ED
  8
DIMENSIONS
 62
     1
 10
436.7508399500729
 20
1712.718356639099
 30
0.0
  0
SEQEND
  5
45FD
  8
DIMENSIONS
 62
     1
  0
POLYLINE
  5
3F0A
  8
DIMENSIONS
 62
     1
 66
     1
 10
0.0
 20
0.0
 30
0.0
 40
1.4
 41
1.4
  0
VERTEX
  5
45EE
  8
DIMENSIONS
 62
     1
 10
452.3009651046981
 20
1732.168231484476
 30
0.0
  0
VERTEX
  5
45EF
  8
DIMENSIONS
 62
     1
 10
436.7508399500729
 20
1747.718356639099
 30
0.0
  0
VERTEX
  5
45F0
  8
DIMENSIONS
 62
     1
 10
421.1930631267345
 20
1732.16057981576
 30
0.0
  0
SEQEND
  5
45FE
  8
DIMENSIONS
 62
     1
  0
DIMENSION
  5
3F0E
  8
DIMENSIONS
  6
BYBLOCK
  2
*D47
 10
233.6393817547434
 20
398.4077412150596
 30
0.0
 11
265.259316014078
 21
384.1093754453165
 31
0.0
 70
   163
  3
DUAL-DIM
 15
240.0175833199143
 25
395.5235524566646
 35
0.0
 40
0.0
1001
ACAD
1000
DSTYLE
1002
{
1070
   287
1070
     3
1070
   172
1070
     0
1070
   174
1070
     0
1070
   175
1070
     0
1070
   289
1070
     3
1070
    40
1040
1.0
1070
   140
1040
5.0
1070
   147
1040
1.0
1070
    42
1040
1.5
1070
    44
1040
0.18
1070
   141
1040
2.5
1070
    41
1040
5.0
1070
   279
1070
     0
1002
}
1001
ACAD_DSTYLE_DIMRADIAL_EXT3
1070
   387
1070
     1
1070
   388
1040
0.0
1070
   390
1040
6.283185307179586
  0
DIMENSION
  5
3F2D
  8
DIMENSIONS
  6
BYBLOCK
  2
*D48
 10
682.5842107730731
 20
1801.965646835862
 30
0.0
 11
678.381710773073
 21
1824.465646835862
 31
0.0
 70
    32
  3
DUAL-DIM
 13
664.3284825373288
 23
1846.965646835862
 33
0.0
 14
636.8284825373288
 24
1801.965646835862
 34
0.0
 50
90.0
1001
ACAD
1000
DSTYLE
1002
{
1070
   287
1070
     5
1070
   144
1040
1.0
1070
   279
1070
     2
1002
}
  0
DIMENSION
  5
3F3C
  8
DIMENSIONS
  6
BYBLOCK
  2
*D49
 10
682.5842107730731
 20
1529.465646835862
 30
0.0
 11
678.381710773073
 21
1665.715646835862
 31
0.0
 70
    32
  3
DUAL-DIM
 13
636.8284825373288
 23
1801.965646835862
 33
0.0
 14
636.8284825373288
 24
1529.465646835862
 34
0.0
 50
90.0
1001
ACAD
1000
DSTYLE
1002
{
1070
   287
1070
     5
1070
   144
1040
1.0
1070
   279
1070
     2
1002
}
  0
DIMENSION
  5
3F4B
  8
DIMENSIONS
  6
BYBLOCK
  2
*D50
 10
682.589075637938
 20
1349.465646835862
 30
0.0
 11
678.3865756379379
 21
1439.465646835862
 31
0.0
 70
    32
  3
DUAL-DIM
 13
636.8284825373288
 23
1529.465646835862
 33
0.0
 14
636.8284825373288
 24
1349.465646835862
 34
0.0
 50
90.0
1001
ACAD
1000
DSTYLE
1002
{
1070
   287
1070
     5
1070
   144
1040
1.0
1070
   279
1070
     2
1002
}
  0
DIMENSION
  5
3F5A
  8
DIMENSIONS
  6
BYBLOCK
  2
*D51
 10
682.5891889679514
 20
1001.965646835862
 30
0.0
 11
678.3866889679513
 21
1175.715646835862
 31
0.0
 70
    32
  3
DUAL-DIM
 13
636.8284825373288
 23
1349.465646835862
 33
0.0
 14
636.8284825373288
 24
1001.965646835862
 34
0.0
 50
90.0
1001
ACAD
1000
DSTYLE
1002
{
1070
   287
1070
     5
1070
   144
1040
1.0
1070
   279
1070
     2
1002
}
  0
DIMENSION
  5
3F69
  8
DIMENSIONS
  6
BYBLOCK
  2
*D52
 10
682.5891889679514
 20
396.9656468358621
 30
0.0
 11
678.3866889679514
 21
699.465646835862
 31
0.0
 70
    32
  3
DUAL-DIM
 13
636.8284825373288
 23
1001.965646835862
 33
0.0
 14
636.8284825373288
 24
396.9656468358621
 34
0.0
 50
90.0
1001
ACAD
1000
DSTYLE
1002
{
1070
   287
1070
     5
1070
   144
1040
1.0
1070
   279
1070
     2
1002
}
  0
CIRCLE
  5
3FDC
  8
0
  6
CONTINUOUS
 10
436.8284825373288
 20
1828.965646835862
 30
0.0
 40
3.5
  0
DIMENSION
  5
3FE8
  8
DIMENSIONS
  6
BYBLOCK
  2
*D53
 10
427.3497385196672
 20
1846.965646835862
 30
0.0
 11
427.3456856227696
 21
1862.062676805691
 31
0.0
 70
   160
  3
DUAL-DIM
 13
436.8284825373288
 23
1828.965646835862
 33
0.0
 14
436.8284825373288
 24
1846.965646835862
 34
0.0
 50
90.0
1001
ACAD
1000
DSTYLE
1002
{
1070
   287
1070
     5
1070
   144
1040
1.0
1070
   279
1070
     2
1002
}
  0
POLYLINE
  5
3FF7
  8
CENTERS
 66
     1
 10
0.0
 20
0.0
 30
0.0
  0
VERTEX
  5
45F1
  8
CENTERS
 10
1082.639327201776
 20
1846.965646835863
 30
0.0
  0
VERTEX
  5
45F2
  8
CENTERS
 10
1082.639327201776
 20
296.9656468358625
 30
0.0
  0
SEQEND
  5
45FF
  8
CENTERS
  0
TEXT
  5
3FF8
  8
DIMENSIONS
  6
BYBLOCK
 10
1091.941371263292
 20
1656.090646711441
 30
0.0
 40
7.0
  1
Centerline
 50
89.99999999999999
  0
POLYLINE
  5
3FF9
  8
DIMENSIONS
  6
BYBLOCK
 62
     1
 66
     1
 10
0.0
 20
0.0
 30
0.0
 40
1.4
 41
1.4
  0
VERTEX
  5
45F3
  8
DIMENSIONS
  6
BYBLOCK
 62
     1
 10
1089.380518577591
 20
1708.260867901341
 30
0.0
  0
VERTEX
  5
45F4
  8
DIMENSIONS
  6
BYBLOCK
 62
     1
 10
1075.380518577591
 20
1708.260867901341
 30
0.0
  0
SEQEND
  5
4600
  8
DIMENSIONS
  6
BYBLOCK
 62
     1
  0
POLYLINE
  5
3FFA
  8
DIMENSIONS
 62
     1
 66
     1
 10
0.0
 20
0.0
 30
0.0
 40
1.4
 41
1.4
  0
VERTEX
  5
45F5
  8
DIMENSIONS
 62
     1
 10
1082.56168461452
 20
1747.718356639099
 30
0.0
  0
VERTEX
  5
45F6
  8
DIMENSIONS
 62
     1
 10
1082.56168461452
 20
1712.718356639099
 30
0.0
  0
SEQEND
  5
4601
  8
DIMENSIONS
 62
     1
  0
POLYLINE
  5
3FFB
  8
DIMENSIONS
 62
     1
 66
     1
 10
0.0
 20
0.0
 30
0.0
 40
1.4
 41
1.4
  0
VERTEX
  5
45F7
  8
DIMENSIONS
 62
     1
 10
1098.111809769146
 20
1732.168231484476
 30
0.0
  0
VERTEX
  5
45F8
  8
DIMENSIONS
 62
     1
 10
1082.56168461452
 20
1747.718356639099
 30
0.0
  0
VERTEX
  5
45F9
  8
DIMENSIONS
 62
     1
 10
1067.003907791182
 20
1732.160579815761
 30
0.0
  0
SEQEND
  5
4602
  8
DIMENSIONS
 62
     1
  0
DIMENSION
  5
405B
  8
DIMENSIONS
  6
BYBLOCK
  2
*D60
 10
168.7860758301786
 20
296.9656468358621
 30
0.0
 11
164.5835758301785
 21
1071.965646835862
 31
0.0
 70
    32
  3
DUAL-DIM
 13
209.3284825373288
 23
1846.965646835862
 33
0.0
 14
209.3284825373288
 24
296.9656468358621
 34
0.0
 50
90.0
1001
ACAD
1000
DSTYLE
1002
{
1070
   287
1070
     5
1070
   144
1040
1.0
1070
   279
1070
     2
1002
}
  0
DIMENSION
  5
43F2
  8
DIMENSIONS
  6
BYBLOCK
  2
*D112
 10
1310.139327201776
 20
1904.830743729762
 30
0.0
 11
1082.639327201776
 21
1904.830743729762
 31
0.0
 70
   160
  3
DUAL-DIM
 13
855.139327201776
 23
1846.965646835862
 33
0.0
 14
1310.139327201776
 24
1846.965646835862
 34
0.0
  0
DIMENSION
  5
43F3
  8
DIMENSIONS
  6
BYBLOCK
  2
*D113
 10
1291.639327201776
 20
1890.085683496862
 30
0.0
 11
1082.639327201776
 21
1890.085683496862
 31
0.0
 70
   160
  3
DUAL-DIM
 13
873.639327201776
 23
1811.965646835862
 33
0.0
 14
1291.639327201776
 24
1811.965646835862
 34
0.0
  0
DIMENSION
  5
43F4
  8
DIMENSIONS
  6
BYBLOCK
  2
*D114
 10
1285.139327201776
 20
1875.078612246562
 30
0.0
 11
1082.639327201776
 21
1875.078612246562
 31
0.0
 70
   160
  3
DUAL-DIM
 13
880.139327201776
 23
1830.965646835862
 33
0.0
 14
1285.139327201776
 24
1830.965646835862
 34
0.0
  0
DIMENSION
  5
43F5
  8
DIMENSIONS
  6
BYBLOCK
  2
*D115
 10
815.5026291185537
 20
296.9656468358623
 30
0.0
 11
815.5026291185538
 21
1071.965646835862
 31
0.0
 70
   160
  3
DUAL-DIM
 13
855.139327201776
 23
1846.965646835862
 33
0.0
 14
855.139327201776
 24
296.9656468358623
 34
0.0
 50
-90.00000000000001
  0
DIMENSION
  5
43F6
  8
DIMENSIONS
  6
BYBLOCK
  2
*D116
 10
849.4261913228759
 20
1830.965646835862
 30
0.0
 11
849.4261913228759
 21
1865.938146835862
 31
0.0
 70
   160
  3
DUAL-DIM
 13
855.139327201776
 23
1846.965646835862
 33
0.0
 14
880.139327201776
 24
1830.965646835862
 34
0.0
 50
-90.00000000000001
  0
DIMENSION
  5
43F7
  8
DIMENSIONS
  6
BYBLOCK
  2
*D117
 10
849.4261913228759
 20
296.9656468358623
 30
0.0
 11
849.4261913228759
 21
277.9931468358623
 31
0.0
 70
   160
  3
DUAL-DIM
 13
880.139327201776
 23
311.9656468358623
 33
0.0
 14
855.139327201776
 24
296.9656468358623
 34
0.0
 50
-90.00000000000001
  0
DIMENSION
  5
43F8
  8
DIMENSIONS
  6
BYBLOCK
  2
*D118
 10
1323.828103041276
 20
1811.965646835862
 30
0.0
 11
1323.828103041276
 21
1866.170646835862
 31
0.0
 70
   160
  3
DUAL-DIM
 13
1310.139327201776
 23
1846.965646835862
 33
0.0
 14
1291.639327201776
 24
1811.965646835862
 34
0.0
 50
-90.00000000000001
  0
DIMENSION
  5
43F9
  8
DIMENSIONS
  6
BYBLOCK
  2
*D119
 10
1323.828103041276
 20
1421.965646835862
 30
0.0
 11
1323.828103041276
 21
1616.965646835862
 31
0.0
 70
   160
  3
DUAL-DIM
 13
1291.639327201776
 23
1811.965646835862
 33
0.0
 14
1291.639327201776
 24
1421.965646835862
 34
0.0
 50
-90.00000000000001
  0
DIMENSION
  5
43FA
  8
DIMENSIONS
  6
BYBLOCK
  2
*D120
 10
1323.828103041276
 20
1151.965646835862
 30
0.0
 11
1323.828103041276
 21
1286.965646835862
 31
0.0
 70
   160
  3
DUAL-DIM
 13
1291.639327201776
 23
1421.965646835862
 33
0.0
 14
1291.639327201776
 24
1151.965646835862
 34
0.0
 50
-90.00000000000001
  0
DIMENSION
  5
43FB
  8
DIMENSIONS
  6
BYBLOCK
  2
*D121
 10
1323.828103041276
 20
726.9656468358623
 30
0.0
 11
1323.828103041276
 21
939.4656468358623
 31
0.0
 70
   160
  3
DUAL-DIM
 13
1291.639327201776
 23
1151.965646835862
 33
0.0
 14
1291.639327201776
 24
726.9656468358623
 34
0.0
 50
-90.00000000000001
  0
DIMENSION
  5
43FC
  8
DIMENSIONS
  6
BYBLOCK
  2
*D122
 10
1323.828103041276
 20
341.9656468358623
 30
0.0
 11
1323.828103041276
 21
534.4656468358623
 31
0.0
 70
   160
  3
DUAL-DIM
 13
1291.639327201776
 23
726.9656468358623
 33
0.0
 14
1291.639327201776
 24
341.9656468358623
 34
0.0
 50
-90.00000000000001
  0
DIMENSION
  5
43FD
  8
DIMENSIONS
  6
BYBLOCK
  2
*D123
 10
876.6442513609761
 20
1813.760202713162
 30
0.0
 11
838.5401279868154
 21
1791.004227877035
 31
0.0
 70
   163
  3
DUAL-DIM
 15
870.6344030424759
 25
1810.171090958462
 35
0.0
 40
0.0
  0
DIMENSION
  5
43FE
  8
DIMENSIONS
  6
BYBLOCK
  2
*D124
 10
837.2100528635758
 20
1101.965646835862
 30
0.0
 11
837.2100528635758
 21
1261.965646835862
 31
0.0
 70
   160
  3
DUAL-DIM
 13
873.639327201776
 23
1421.965646835862
 33
0.0
 14
873.639327201776
 24
1101.965646835862
 34
0.0
 50
-90.00000000000001
  0
DIMENSION
  5
43FF
  8
DIMENSIONS
  6
BYBLOCK
  2
*D125
 10
837.2100528635757
 20
726.9656468358623
 30
0.0
 11
837.2100528635758
 21
914.9857908379623
 31
0.0
 70
   160
  3
DUAL-DIM
 13
873.639327201776
 23
1101.965646835862
 33
0.0
 14
873.639327201776
 24
726.9656468358623
 34
0.0
 50
-90.00000000000001
  0
DIMENSION
  5
4400
  8
DIMENSIONS
  6
BYBLOCK
  2
*D126
 10
837.2100528635758
 20
341.9656468358623
 30
0.0
 11
837.2100528635758
 21
534.4656468358623
 31
0.0
 70
   160
  3
DUAL-DIM
 13
873.639327201776
 23
726.9656468358623
 33
0.0
 14
873.639327201776
 24
341.9656468358623
 34
0.0
 50
-90.00000000000001
  0
DIMENSION
  5
4401
  8
DIMENSIONS
  6
BYBLOCK
  2
*D127
 10
837.2100528635758
 20
341.9656468358623
 30
0.0
 11
837.2100528635758
 21
277.6581468358623
 31
0.0
 70
   160
  3
DUAL-DIM
 13
855.139327201776
 23
296.9656468358623
 33
0.0
 14
873.639327201776
 24
341.9656468358623
 34
0.0
 50
90.0
  0
DIMENSION
  5
4402
  8
DIMENSIONS
  6
BYBLOCK
  2
*D128
 10
1323.828103041276
 20
341.9656468358623
 30
0.0
 11
1323.828103041276
 21
319.4656468358623
 31
0.0
 70
   160
  3
DUAL-DIM
 13
1310.139327201776
 23
296.9656468358623
 33
0.0
 14
1291.639327201776
 24
341.9656468358623
 34
0.0
 50
90.0
  0
LINE
  5
4407
  8
0
  6
CONTINUOUS
 10
1285.139327201776
 20
311.9656468358623
 30
0.0
 11
880.139327201776
 21
311.9656468358623
 31
0.0
  0
LINE
  5
4408
  8
0
  6
CONTINUOUS
 10
880.139327201776
 20
311.9656468358623
 30
0.0
 11
880.139327201776
 21
1830.965646835862
 31
0.0
  0
LINE
  5
440A
  8
0
  6
CONTINUOUS
 10
1285.139327201776
 20
1830.965646835862
 30
0.0
 11
1285.139327201776
 21
311.9656468358623
 31
0.0
  0
LINE
  5
440E
  8
0
  6
CONTINUOUS
 10
880.139327201776
 20
1830.965646835862
 30
0.0
 11
1285.139327201776
 21
1830.965646835862
 31
0.0
  0
LINE
  5
440F
  8
0
  6
CONTINUOUS
 10
1310.139327201776
 20
296.9656468358623
 30
0.0
 11
855.139327201776
 21
296.9656468358623
 31
0.0
  0
LINE
  5
4410
  8
0
  6
CONTINUOUS
 10
1285.139327201776
 20
311.9656468358623
 30
0.0
 11
880.139327201776
 21
311.9656468358623
 31
0.0
  0
LINE
  5
4411
  8
0
  6
CONTINUOUS
 10
855.139327201776
 20
296.9656468358623
 30
0.0
 11
855.139327201776
 21
1846.965646835862
 31
0.0
  0
LINE
  5
4412
  8
0
  6
CONTINUOUS
 10
880.139327201776
 20
311.9656468358623
 30
0.0
 11
880.139327201776
 21
1830.965646835862
 31
0.0
  0
LINE
  5
4413
  8
0
  6
CONTINUOUS
 10
1285.139327201776
 20
1830.965646835862
 30
0.0
 11
1285.139327201776
 21
311.9656468358623
 31
0.0
  0
LINE
  5
4414
  8
0
  6
CONTINUOUS
 10
1310.139327201776
 20
1846.965646835862
 30
0.0
 11
1310.139327201776
 21
296.9656468358623
 31
0.0
  0
LINE
  5
4415
  8
0
  6
CONTINUOUS
 10
880.139327201776
 20
1830.965646835862
 30
0.0
 11
1285.139327201776
 21
1830.965646835862
 31
0.0
  0
LINE
  5
4416
  8
0
  6
CONTINUOUS
 10
855.139327201776
 20
1846.965646835862
 30
0.0
 11
1310.139327201776
 21
1846.965646835862
 31
0.0
  0
CIRCLE
  5
4417
  8
0
  6
CONTINUOUS
 10
873.639327201776
 20
1811.965646835862
 30
0.0
 40
3.5
  0
CIRCLE
  5
4418
  8
0
  6
CONTINUOUS
 10
1291.639327201776
 20
1811.965646835862
 30
0.0
 40
3.5
  0
CIRCLE
  5
4419
  8
0
  6
CONTINUOUS
 10
873.639327201776
 20
1421.965646835862
 30
0.0
 40
3.5
  0
CIRCLE
  5
441A
  8
0
  6
CONTINUOUS
 10
1291.639327201776
 20
1421.965646835862
 30
0.0
 40
3.5
  0
CIRCLE
  5
441B
  8
0
  6
CONTINUOUS
 10
873.639327201776
 20
1101.965646835862
 30
0.0
 40
3.5
  0
CIRCLE
  5
441C
  8
0
  6
CONTINUOUS
 10
1291.639327201776
 20
1151.965646835862
 30
0.0
 40
3.5
  0
CIRCLE
  5
441D
  8
0
  6
CONTINUOUS
 10
873.639327201776
 20
726.9656468358623
 30
0.0
 40
3.5
  0
CIRCLE
  5
441E
  8
0
  6
CONTINUOUS
 10
1291.639327201776
 20
726.9656468358623
 30
0.0
 40
3.5
  0
CIRCLE
  5
441F
  8
0
  6
CONTINUOUS
 10
873.639327201776
 20
341.9656468358623
 30
0.0
 40
3.5
  0
CIRCLE
  5
4420
  8
0
  6
CONTINUOUS
 10
1291.639327201776
 20
341.9656468358623
 30
0.0
 40
3.5
  0
VIEWPORT
  5
B1C
 67
     1
  8
0
 10
0.0
 20
0.0
 30
0.0
 40
8.976000000000003
 41
6.936000000000003
 68
     1
 69
     1
1001
ACAD
1000
MVIEW
1002
{
1070
    16
1010
0.0
1020
0.0
1030
0.0
1010
0.0
1020
0.0
1030
1.0
1040
0.0
1040
6.936000000000003
1040
5.250000000000001
1040
3.5
1040
50.0
1040
0.0
1040
0.0
1070
     0
1070
   100
1070
     0
1070
     3
1070
     0
1070
     0
1070
     0
1070
     0
1040
0.0
1040
0.0
1040
0.0
1040
0.5
1040
0.5
1040
0.0
1040
0.0
1070
     0
1002
{
1002
}
1002
}
  0
VIEWPORT
  5
B1D
 67
     1
  8
0
 10
5.25
 20
3.5
 30
0.0
 40
8.4
 41
5.600000000000001
 68
     2
 69
     2
1001
ACAD
1000
MVIEW
1002
{
1070
    16
1010
0.0
1020
0.0
1030
0.0
1010
0.0
1020
0.0
1030
1.0
1040
0.0
1040
278.6419840998563
1040
207.1268606538857
1040
36.27547653054833
1040
50.0
1040
0.0
1040
0.0
1070
     0
1070
   100
1070
     0
1070
     3
1070
     0
1070
     0
1070
     0
1070
     0
1040
0.0
1040
0.0
1040
0.0
1040
0.5
1040
0.5
1040
0.0
1040
0.0
1070
     0
1002
{
1002
}
1002
}
  0
ENDSEC
  0
EOF
