  0
SECTION
  2
HEADER
  9
$ACADVER
  1
AC1009
  9
$DWGCODEPAGE
  3
ansi_1252
  9
$INSBASE
 10
0.0
 20
0.0
 30
0.0
  9
$EXTMIN
 10
81.54351413624403
 20
97.48881151042815
 30
0.0
  9
$EXTMAX
 10
1003.91952444171
 20
1200.261626907785
 30
0.0
  9
$LIMMIN
 10
0.0
 20
0.0
  9
$LIMMAX
 10
594.0
 20
420.0
  9
$ORTHOMODE
 70
     1
  9
$REGENMODE
 70
     1
  9
$FILLMODE
 70
     1
  9
$QTEXTMODE
 70
     0
  9
$MIRRTEXT
 70
     1
  9
$DRAGMODE
 70
     2
  9
$LTSCALE
 40
32.67
  9
$OSMODE
 70
 31743
  9
$ATTMODE
 70
     1
  9
$TEXTSIZE
 40
0.2
  9
$TRACEWID
 40
0.05
  9
$TEXTSTYLE
  7
STANDARD
  9
$CLAYER
  8
TEXT
  9
$CELTYPE
  6
BYBLOCK
  9
$CECOLOR
 62
   256
  9
$DIMSCALE
 40
1.0
  9
$DIMASZ
 40
5.0
  9
$DIMEXO
 40
1.5
  9
$DIMDLI
 40
1.0
  9
$DIMRND
 40
0.0
  9
$DIMDLE
 40
0.0
  9
$DIMEXE
 40
0.18
  9
$DIMTP
 40
0.0
  9
$DIMTM
 40
0.0
  9
$DIMTXT
 40
5.0
  9
$DIMCEN
 40
2.5
  9
$DIMTSZ
 40
0.0
  9
$DIMTOL
 70
     0
  9
$DIMLIM
 70
     0
  9
$DIMTIH
 70
     0
  9
$DIMTOH
 70
     0
  9
$DIMSE1
 70
     0
  9
$DIMSE2
 70
     0
  9
$DIMTAD
 70
     1
  9
$DIMZIN
 70
     8
  9
$DIMBLK
  1

  9
$DIMASO
 70
     1
  9
$DIMSHO
 70
     1
  9
$DIMPOST
  1

  9
$DIMAPOST
  1

  9
$DIMALT
 70
     1
  9
$DIMALTD
 70
     2
  9
$DIMALTF
 40
0.03937
  9
$DIMLFAC
 40
1.0
  9
$DIMTOFL
 70
     0
  9
$DIMTVP
 40
0.0
  9
$DIMTIX
 70
     0
  9
$DIMSOXD
 70
     0
  9
$DIMSAH
 70
     0
  9
$DIMBLK1
  1

  9
$DIMBLK2
  1

  9
$DIMSTYLE
  2
DUAL-DIM
  9
$DIMCLRD
 70
     0
  9
$DIMCLRE
 70
     0
  9
$DIMCLRT
 70
     5
  9
$DIMTFAC
 40
1.0
  9
$DIMGAP
 40
1.0
  9
$LUNITS
 70
     2
  9
$LUPREC
 70
     4
  9
$SKETCHINC
 40
0.1
  9
$FILLETRAD
 40
15.0
  9
$AUNITS
 70
     0
  9
$AUPREC
 70
     0
  9
$MENU
  1
.
  9
$ELEVATION
 40
0.0
  9
$PELEVATION
 40
0.0
  9
$THICKNESS
 40
0.0
  9
$LIMCHECK
 70
     0
  9
$CHAMFERA
 40
0.0
  9
$CHAMFERB
 40
0.0
  9
$SKPOLY
 70
     0
  9
$TDCREATE
 40
2457428.354677859
  9
$TDUPDATE
 40
2458775.699212268
  9
$TDINDWG
 40
0.1389733102
  9
$TDUSRTIMER
 40
0.0105305093
  9
$USRTIMER
 70
     1
  9
$ANGBASE
 50
0.0
  9
$ANGDIR
 70
     0
  9
$PDMODE
 70
     3
  9
$PDSIZE
 40
0.3125
  9
$PLINEWID
 40
0.0
  9
$COORDS
 70
     1
  9
$SPLFRAME
 70
     0
  9
$SPLINETYPE
 70
     6
  9
$SPLINESEGS
 70
     8
  9
$ATTDIA
 70
     0
  9
$ATTREQ
 70
     1
  9
$HANDLING
 70
     1
  9
$HANDSEED
  5
4670
  9
$SURFTAB1
 70
     6
  9
$SURFTAB2
 70
     6
  9
$SURFTYPE
 70
     6
  9
$SURFU
 70
     6
  9
$SURFV
 70
     6
  9
$UCSNAME
  2

  9
$UCSORG
 10
0.0
 20
0.0
 30
0.0
  9
$UCSXDIR
 10
1.0
 20
0.0
 30
0.0
  9
$UCSYDIR
 10
0.0
 20
1.0
 30
0.0
  9
$PUCSNAME
  2

  9
$PUCSORG
 10
0.0
 20
0.0
 30
0.0
  9
$PUCSXDIR
 10
1.0
 20
0.0
 30
0.0
  9
$PUCSYDIR
 10
0.0
 20
1.0
 30
0.0
  9
$USERI1
 70
     0
  9
$USERI2
 70
     0
  9
$USERI3
 70
     0
  9
$USERI4
 70
     0
  9
$USERI5
 70
     0
  9
$USERR1
 40
0.0
  9
$USERR2
 40
0.0
  9
$USERR3
 40
0.0
  9
$USERR4
 40
0.0
  9
$USERR5
 40
0.0
  9
$WORLDVIEW
 70
     1
  9
$SHADEDGE
 70
     3
  9
$SHADEDIF
 70
    70
  9
$TILEMODE
 70
     1
  9
$MAXACTVP
 70
    64
  9
$PLIMCHECK
 70
     0
  9
$PEXTMIN
 10
1.05
 20
0.6999999999999997
 30
0.0
  9
$PEXTMAX
 10
9.45
 20
6.300000000000001
 30
0.0
  9
$PLIMMIN
 10
0.0
 20
0.0
  9
$PLIMMAX
 10
0.0
 20
0.0
  9
$UNITMODE
 70
     0
  9
$VISRETAIN
 70
     1
  9
$PLINEGEN
 70
     0
  9
$PSLTSCALE
 70
     1
  0
ENDSEC
  0
SECTION
  2
TABLES
  0
TABLE
  2
VPORT
 70
     1
  0
VPORT
  2
*ACTIVE
 70
     0
 10
0.0
 20
0.0
 11
1.0
 21
1.0
 12
542.7315192889771
 22
648.8752192091067
 13
0.0
 23
0.0
 14
0.5
 24
0.5
 15
0.5
 25
0.5
 16
0.0
 26
0.0
 36
1.0
 17
0.0
 27
0.0
 37
0.0
 40
1124.828271705304
 41
1.929555895865238
 42
50.0
 43
0.0
 44
0.0
 50
0.0
 51
0.0
 71
    16
 72
   100
 73
     1
 74
     3
 75
     0
 76
     0
 77
     0
 78
     0
  0
ENDTAB
  0
TABLE
  2
LTYPE
 70
     7
  0
LTYPE
  2
CONTINUOUS
 70
     0
  3
Solid line
 72
    65
 73
     0
 40
0.0
  0
LTYPE
  2
CENTER
 70
     0
  3
____ _ ____ _ ____ _ ____ _ ____ _ ____ _ ____
 72
    65
 73
     4
 40
0.6
 49
0.375
 49
-0.075
 49
0.075
 49
-0.075
  0
LTYPE
  2
HIDDEN
 70
     0
  3
- - - - - - - - - - - - - - - - - - - -
 72
    65
 73
     2
 40
0.2
 49
0.1
 49
-0.1
  0
LTYPE
  2
PHANTOM
 70
     0
  3
_____ _ _ _____ _ _ _____ _ _ _____
 72
    65
 73
     6
 40
0.8
 49
0.45
 49
-0.05
 49
0.1
 49
-0.05
 49
0.1
 49
-0.05
  0
LTYPE
  2
DOT
 70
     0
  3
. . . . . . . . . . . . . . . . . . . .
 72
    65
 73
     2
 40
0.2
 49
0.1
 49
-0.1
  0
LTYPE
  2
DASHED
 70
     0
  3
- - - - - - - - - - - - - - - - - - - -
 72
    65
 73
     2
 40
0.2
 49
0.1
 49
-0.1
  0
LTYPE
  2
STRICHPUNKT
 70
     0
  3
__ . __ . __ . __ . __ . __ . __ . __ . __ . __
 72
    65
 73
     4
 40
1.0
 49
0.5
 49
-0.25
 49
0.0
 49
-0.25
  0
ENDTAB
  0
TABLE
  2
LAYER
 70
    22
  0
LAYER
  2
0
 70
     0
 62
     7
  6
CONTINUOUS
  0
LAYER
  2
DEFAULT_1
 70
     0
 62
     7
  6
CENTER
  0
LAYER
  2
DEFAULT_2
 70
     0
 62
     7
  6
HIDDEN
  0
LAYER
  2
DEFAULT_3
 70
     0
 62
     7
  6
PHANTOM
  0
LAYER
  2
01___PRT_ALL_DTM_PLN
 70
     0
 62
     7
  6
CONTINUOUS
  0
LAYER
  2
01___PRT_DEF_DTM_PLN
 70
     0
 62
     7
  6
CONTINUOUS
  0
LAYER
  2
02___PRT_ALL_AXES
 70
     0
 62
     7
  6
CONTINUOUS
  0
LAYER
  2
03___PRT_ALL_CURVES
 70
     0
 62
     7
  6
CONTINUOUS
  0
LAYER
  2
04___PRT_ALL_DTM_PNT
 70
     0
 62
     7
  6
CONTINUOUS
  0
LAYER
  2
05___PRT_ALL_DTM_CSYS
 70
     0
 62
     7
  6
CONTINUOUS
  0
LAYER
  2
05___PRT_DEF_DTM_CSYS
 70
     0
 62
     7
  6
CONTINUOUS
  0
LAYER
  2
06___PRT_ALL_SURFS
 70
     0
 62
     7
  6
CONTINUOUS
  0
LAYER
  2
DEFPOINTS
 70
     0
 62
     7
  6
CONTINUOUS
  0
LAYER
  2
DIMENSIONS
 70
     0
 62
     2
  6
CONTINUOUS
  0
LAYER
  2
AM_5
 70
     0
 62
     3
  6
CONTINUOUS
  0
LAYER
  2
CUTOUT
 70
     0
 62
     7
  6
CONTINUOUS
  0
LAYER
  2
EXTERNAL_OUTFIT
 70
     0
 62
     7
  6
CENTER
  0
LAYER
  2
OUTLINES
 70
     0
 62
     4
  6
CONTINUOUS
  0
LAYER
  2
3
 70
     0
 62
     4
  6
CONTINUOUS
  0
LAYER
  2
CENTERS
 70
     0
 62
     3
  6
CENTER
  0
LAYER
  2
TEXT
 70
     0
 62
   171
  6
CONTINUOUS
  0
LAYER
  2
OC-5725_30_40
 70
     0
 62
     4
  6
CONTINUOUS
  0
ENDTAB
  0
TABLE
  2
STYLE
 70
     2
  0
STYLE
  2
STANDARD
 70
     0
 40
0.0
 41
1.0
 50
0.0
 71
     0
 42
0.2
  3
arial.ttf
  4

  0
STYLE
  2
TEXTSTYLE_1
 70
     0
 40
0.0
 41
0.8
 50
0.0
 71
     0
 42
0.2
  3
gdt
  4

  0
ENDTAB
  0
TABLE
  2
VIEW
 70
     0
  0
ENDTAB
  0
TABLE
  2
UCS
 70
     0
  0
ENDTAB
  0
TABLE
  2
APPID
 70
    18
  0
APPID
  2
ACAD
 70
     0
  0
APPID
  2
ACAECLAYERSTANDARD
 70
     0
  0
APPID
  2
ACAD_DSTYLE_DIMRADIAL_EXTE
 70
     0
  0
APPID
  2
ACAD_DSTYLE_DIMJOGGED_JOGA
 70
     0
  0
APPID
  2
ACAD_DSTYLE_DIMJAG
 70
     0
  0
APPID
  2
ACAD_DSTYLE_DIMBREAK
 70
     0
  0
APPID
  2
ACAD_PSEXT
 70
     0
  0
APPID
  2
ACAD_DSTYLE_DIMINSPECT
 70
     0
  0
APPID
  2
ACAD_DSTYLE_DIMRADIAL_EXT0
 70
     0
  0
APPID
  2
ACAD_DSTYLE_DIMJOGGED_JOG0
 70
     0
  0
APPID
  2
PLOTTRANSPARENCY
 70
     0
  0
APPID
  2
ACAD_DSTYLE_DIMRADIAL_EXT1
 70
     0
  0
APPID
  2
ACADANNOTATIVE
 70
     0
  0
APPID
  2
ACAD_NAV_VCDISPLAY
 70
     0
  0
APPID
  2
ACAD_MLEADERVER
 70
     0
  0
APPID
  2
ACAD_DSTYLE_DIMRADIAL_EXT2
 70
     0
  0
APPID
  2
ACAD_DSTYLE_DIMRADIAL_EXT3
 70
     0
  0
APPID
  2
ACAD_DSTYLE_DIMRADIAL_EXT4
 70
     0
  0
ENDTAB
  0
TABLE
  2
DIMSTYLE
 70
     6
  0
DIMSTYLE
  2
STANDARD
 70
     0
  3

  4

  5

  6

  7

 40
1.0
 41
0.18
 42
0.0625
 43
0.38
 44
0.18
 45
0.0
 46
0.0
 47
0.0
 48
0.0
140
0.18
141
0.09
142
0.0
143
25.4
144
1.0
145
0.0
146
1.0
147
0.09
 71
     0
 72
     0
 73
     1
 74
     1
 75
     0
 76
     0
 77
     0
 78
     0
170
     0
171
     2
172
     0
173
     0
174
     0
175
     0
176
     0
177
     0
178
     0
  0
DIMSTYLE
  2
DUAL-DIM
 70
     0
  3

  4

  5

  6

  7

 40
1.0
 41
5.0
 42
1.5
 43
1.0
 44
0.18
 45
0.0
 46
0.0
 47
0.0
 48
0.0
140
5.0
141
2.5
142
0.0
143
0.03937
144
1.0
145
0.0
146
1.0
147
1.0
 71
     0
 72
     0
 73
     0
 74
     0
 75
     0
 76
     0
 77
     1
 78
     8
170
     1
171
     2
172
     0
173
     0
174
     0
175
     0
176
     0
177
     0
178
     5
  0
DIMSTYLE
  2
AM_ISO
 70
     0
  3

  4
"
  5

  6

  7

 40
1.0
 41
3.5
 42
1.0
 43
10.0
 44
1.0
 45
0.0
 46
0.0
 47
0.1
 48
0.1
140
3.5
141
0.0
142
0.0
143
0.0393701
144
1.0
145
0.0
146
0.71
147
1.5
 71
     0
 72
     0
 73
     0
 74
     0
 75
     0
 76
     0
 77
     1
 78
     8
170
     0
171
     2
172
     1
173
     0
174
     0
175
     0
176
   256
177
   256
178
     2
  0
DIMSTYLE
  2
AM_ISO$3
 70
     0
  3

  4
"
  5

  6

  7

 40
1.0
 41
3.5
 42
1.0
 43
10.0
 44
1.0
 45
0.0
 46
0.0
 47
0.1
 48
0.1
140
3.5
141
0.0
142
0.0
143
0.0393701
144
1.0
145
0.0
146
0.71
147
1.5
 71
     0
 72
     0
 73
     0
 74
     1
 75
     0
 76
     0
 77
     1
 78
     8
170
     0
171
     2
172
     0
173
     0
174
     0
175
     0
176
   256
177
   256
178
     2
  0
DIMSTYLE
  2
AM_ISO$0
 70
     0
  3

  4
"
  5

  6

  7

 40
1.0
 41
3.5
 42
1.0
 43
10.0
 44
1.0
 45
0.0
 46
0.0
 47
0.1
 48
0.1
140
3.5
141
0.0
142
0.0
143
0.0393701
144
1.0
145
0.0
146
0.71
147
1.5
 71
     0
 72
     0
 73
     0
 74
     0
 75
     0
 76
     0
 77
     1
 78
     8
170
     0
171
     2
172
     1
173
     0
174
     0
175
     0
176
   256
177
   256
178
     2
  0
DIMSTYLE
  2
DIMS_1000_W_
 70
     0
  3
<> mm
  4
<>"
  5

  6

  7

 40
1.0
 41
5.0
 42
0.5
 43
7.0
 44
0.5
 45
0.0
 46
0.0
 47
0.0
 48
0.0
140
7.0
141
5.0
142
0.0
143
0.0394
144
1.0
145
0.0
146
0.7142857142857143
147
0.5
 71
     0
 72
     0
 73
     0
 74
     0
 75
     0
 76
     0
 77
     1
 78
     8
170
     1
171
     2
172
     0
173
     0
174
     0
175
     0
176
   256
177
   256
178
     6
  0
ENDTAB
  0
ENDSEC
  0
SECTION
  2
BLOCKS
  0
BLOCK
  8
0
  2
$MODEL_SPACE
 70
     0
 10
0.0
 20
0.0
 30
0.0
  3
$MODEL_SPACE
  1

  0
ENDBLK
  5
110
  8
0
  0
BLOCK
 67
     1
  8
0
  2
$PAPER_SPACE
 70
     0
 10
0.0
 20
0.0
 30
0.0
  3
$PAPER_SPACE
  1

  0
ENDBLK
  5
112
 67
     1
  8
0
  0
BLOCK
  8
0
  2
_FILLED
 70
     0
 10
0.0
 20
0.0
 30
0.0
  3
_FILLED
  1

  0
SOLID
  5
3D
  8
0
  6
BYBLOCK
 62
     0
 10
0.0
 20
0.0
 30
0.0
 11
-1.0
 21
0.2
 31
0.0
 12
-1.0
 22
-0.2
 32
0.0
 13
-1.0
 23
-0.2
 33
0.0
  0
ENDBLK
  5
3E
  8
0
  6
BYBLOCK
 62
     0
  0
BLOCK
  8
0
  2
*D1
 70
     1
 10
0.0
 20
0.0
 30
0.0
  3
*D1
  1

  0
LINE
  5
363F
  8
DIMENSIONS
  6
BYBLOCK
 62
     0
 10
166.1742888745337
 20
1999.199947470358
 30
0.0
 11
133.9339242955317
 21
1999.199947470358
 31
0.0
  0
LINE
  5
3640
  8
DIMENSIONS
  6
BYBLOCK
 62
     0
 10
166.1742888745337
 20
649.1999474703578
 30
0.0
 11
133.9339242955317
 21
649.1999474703578
 31
0.0
  0
LINE
  5
3641
  8
DIMENSIONS
  6
BYBLOCK
 62
     0
 10
134.1139242955317
 20
1994.199947470358
 30
0.0
 11
134.1139242955317
 21
654.1999474703578
 31
0.0
  0
SOLID
  5
3642
  8
DIMENSIONS
 62
     0
 10
134.947257628865
 20
1994.199947470358
 30
0.0
 11
133.2805909621983
 21
1994.199947470358
 31
0.0
 12
134.1139242955317
 22
1999.199947470358
 32
0.0
 13
134.1139242955317
 23
1999.199947470358
 33
0.0
  0
SOLID
  5
3643
  8
DIMENSIONS
 62
     0
 10
133.2805909621983
 20
654.1999474703578
 30
0.0
 11
134.947257628865
 21
654.1999474703578
 31
0.0
 12
134.1139242955317
 22
649.1999474703578
 32
0.0
 13
134.1139242955317
 23
649.1999474703578
 33
0.0
  0
TEXT
  5
3644
  8
DIMENSIONS
  6
CONTINUOUS
 62
     5
 10
131.7189242955315
 20
1304.647447470358
 30
0.0
 40
5.0
  1
1350 [53.15]
 50
90.0
  0
POINT
  5
3645
  8
DEFPOINTS
 62
     0
 10
167.6742888745337
 20
1999.199947470358
 30
0.0
  0
POINT
  5
3646
  8
DEFPOINTS
 62
     0
 10
167.6742888745337
 20
649.1999474703578
 30
0.0
  0
POINT
  5
3647
  8
DEFPOINTS
 62
     0
 10
134.1139242955317
 20
649.1999474703578
 30
0.0
  0
ENDBLK
  5
363E
  8
0
  0
BLOCK
  8
0
  2
*D2
 70
     1
 10
0.0
 20
0.0
 30
0.0
  3
*D2
  1

  0
LINE
  5
364E
  8
DIMENSIONS
  6
BYBLOCK
 62
     0
 10
167.6742888745337
 20
2000.699947470358
 30
0.0
 11
167.6742888745337
 21
2038.207615583009
 31
0.0
  0
LINE
  5
364F
  8
DIMENSIONS
  6
BYBLOCK
 62
     0
 10
562.6742888745337
 20
2000.699947470358
 30
0.0
 11
562.6742888745337
 21
2038.207615583009
 31
0.0
  0
LINE
  5
3650
  8
DIMENSIONS
  6
BYBLOCK
 62
     0
 10
172.6742888745337
 20
2038.027615583009
 30
0.0
 11
557.6742888745337
 21
2038.027615583009
 31
0.0
  0
SOLID
  5
3651
  8
DIMENSIONS
 62
     0
 10
172.6742888745337
 20
2038.860948916342
 30
0.0
 11
172.6742888745337
 21
2037.194282249676
 31
0.0
 12
167.6742888745337
 22
2038.027615583009
 32
0.0
 13
167.6742888745337
 23
2038.027615583009
 33
0.0
  0
SOLID
  5
3652
  8
DIMENSIONS
 62
     0
 10
557.6742888745337
 20
2037.194282249676
 30
0.0
 11
557.6742888745337
 21
2038.860948916342
 31
0.0
 12
562.6742888745337
 22
2038.027615583009
 32
0.0
 13
562.6742888745337
 23
2038.027615583009
 33
0.0
  0
TEXT
  5
3653
  8
DIMENSIONS
  6
CONTINUOUS
 62
     5
 10
347.7942888745337
 20
2040.422615583009
 30
0.0
 40
5.0
  1
395 [15.55]
  0
POINT
  5
3654
  8
DEFPOINTS
 62
     0
 10
167.6742888745337
 20
1999.199947470358
 30
0.0
  0
POINT
  5
3655
  8
DEFPOINTS
 62
     0
 10
562.6742888745337
 20
1999.199947470358
 30
0.0
  0
POINT
  5
3656
  8
DEFPOINTS
 62
     0
 10
562.6742888745337
 20
2038.027615583009
 30
0.0
  0
ENDBLK
  5
364D
  8
0
  0
BLOCK
  8
0
  2
*D3
 70
     1
 10
0.0
 20
0.0
 30
0.0
  3
*D3
  1

  0
LINE
  5
3690
  8
DIMENSIONS
  6
BYBLOCK
 62
     0
 10
564.1742888745337
 20
1999.199947470358
 30
0.0
 11
592.9775455485664
 21
1999.199947470358
 31
0.0
  0
LINE
  5
3691
  8
DIMENSIONS
  6
BYBLOCK
 62
     0
 10
514.1742888745337
 20
1969.199947470358
 30
0.0
 11
592.9775455485664
 21
1969.199947470358
 31
0.0
  0
LINE
  5
3692
  8
DIMENSIONS
  6
BYBLOCK
 62
     0
 10
592.7975455485664
 20
1994.199947470358
 30
0.0
 11
592.7975455485664
 21
1974.199947470358
 31
0.0
  0
SOLID
  5
3693
  8
DIMENSIONS
 62
     0
 10
593.6308788818998
 20
1994.199947470358
 30
0.0
 11
591.964212215233
 21
1994.199947470358
 31
0.0
 12
592.7975455485664
 22
1999.199947470358
 32
0.0
 13
592.7975455485664
 23
1999.199947470358
 33
0.0
  0
SOLID
  5
3694
  8
DIMENSIONS
 62
     0
 10
591.964212215233
 20
1974.199947470358
 30
0.0
 11
593.6308788818998
 21
1974.199947470358
 31
0.0
 12
592.7975455485664
 22
1969.199947470358
 32
0.0
 13
592.7975455485664
 23
1969.199947470358
 33
0.0
  0
TEXT
  5
3695
  8
DIMENSIONS
  6
CONTINUOUS
 62
     5
 10
590.4025455485664
 20
1970.699947470358
 30
0.0
 40
5.0
  1
30 [1.18]
 50
90.0
  0
POINT
  5
3696
  8
DEFPOINTS
 62
     0
 10
562.6742888745337
 20
1999.199947470358
 30
0.0
  0
POINT
  5
3697
  8
DEFPOINTS
 62
     0
 10
512.6742888745337
 20
1969.199947470358
 30
0.0
  0
POINT
  5
3698
  8
DEFPOINTS
 62
     0
 10
592.7975455485664
 20
1969.199947470358
 30
0.0
  0
ENDBLK
  5
368F
  8
0
  0
BLOCK
  8
0
  2
*D4
 70
     1
 10
0.0
 20
0.0
 30
0.0
  3
*D4
  1

  0
LINE
  5
369F
  8
DIMENSIONS
  6
BYBLOCK
 62
     0
 10
514.1742888745337
 20
1969.199947470358
 30
0.0
 11
593.1609009514342
 21
1969.199947470358
 31
0.0
  0
LINE
  5
36A0
  8
DIMENSIONS
  6
BYBLOCK
 62
     0
 10
514.1742888745337
 20
1679.199947470358
 30
0.0
 11
593.1609009514342
 21
1679.199947470358
 31
0.0
  0
LINE
  5
36A1
  8
DIMENSIONS
  6
BYBLOCK
 62
     0
 10
592.9809009514343
 20
1964.199947470358
 30
0.0
 11
592.9809009514343
 21
1684.199947470358
 31
0.0
  0
SOLID
  5
36A2
  8
DIMENSIONS
 62
     0
 10
593.8142342847676
 20
1964.199947470358
 30
0.0
 11
592.1475676181009
 21
1964.199947470358
 31
0.0
 12
592.9809009514343
 22
1969.199947470358
 32
0.0
 13
592.9809009514343
 23
1969.199947470358
 33
0.0
  0
SOLID
  5
36A3
  8
DIMENSIONS
 62
     0
 10
592.1475676181009
 20
1684.199947470358
 30
0.0
 11
593.8142342847676
 21
1684.199947470358
 31
0.0
 12
592.9809009514343
 22
1679.199947470358
 32
0.0
 13
592.9809009514343
 23
1679.199947470358
 33
0.0
  0
TEXT
  5
36A4
  8
DIMENSIONS
  6
CONTINUOUS
 62
     5
 10
590.585900951434
 20
1806.864947470358
 30
0.0
 40
5.0
  1
290 [11.42]
 50
90.0
  0
POINT
  5
36A5
  8
DEFPOINTS
 62
     0
 10
512.6742888745337
 20
1969.199947470358
 30
0.0
  0
POINT
  5
36A6
  8
DEFPOINTS
 62
     0
 10
512.6742888745337
 20
1679.199947470358
 30
0.0
  0
POINT
  5
36A7
  8
DEFPOINTS
 62
     0
 10
592.9809009514343
 20
1679.199947470358
 30
0.0
  0
ENDBLK
  5
369E
  8
0
  0
BLOCK
  8
0
  2
*D5
 70
     1
 10
0.0
 20
0.0
 30
0.0
  3
*D5
  1

  0
LINE
  5
36AE
  8
DIMENSIONS
  6
BYBLOCK
 62
     0
 10
514.1742888745337
 20
1679.199947470358
 30
0.0
 11
593.3409009514343
 21
1679.199947470358
 31
0.0
  0
LINE
  5
36AF
  8
DIMENSIONS
  6
BYBLOCK
 62
     0
 10
514.1742888745337
 20
1544.199947470358
 30
0.0
 11
593.3409009514343
 21
1544.199947470358
 31
0.0
  0
LINE
  5
36B0
  8
DIMENSIONS
  6
BYBLOCK
 62
     0
 10
593.1609009514343
 20
1674.199947470358
 30
0.0
 11
593.1609009514343
 21
1549.199947470358
 31
0.0
  0
SOLID
  5
36B1
  8
DIMENSIONS
 62
     0
 10
593.9942342847677
 20
1674.199947470358
 30
0.0
 11
592.3275676181009
 21
1674.199947470358
 31
0.0
 12
593.1609009514343
 22
1679.199947470358
 32
0.0
 13
593.1609009514343
 23
1679.199947470358
 33
0.0
  0
SOLID
  5
36B2
  8
DIMENSIONS
 62
     0
 10
592.3275676181009
 20
1549.199947470358
 30
0.0
 11
593.9942342847677
 21
1549.199947470358
 31
0.0
 12
593.1609009514343
 22
1544.199947470358
 32
0.0
 13
593.1609009514343
 23
1544.199947470358
 33
0.0
  0
TEXT
  5
36B3
  8
DIMENSIONS
  6
CONTINUOUS
 62
     5
 10
590.7659009514339
 20
1596.027447470358
 30
0.0
 40
5.0
  1
135 [5.31]
 50
90.0
  0
POINT
  5
36B4
  8
DEFPOINTS
 62
     0
 10
512.6742888745337
 20
1679.199947470358
 30
0.0
  0
POINT
  5
36B5
  8
DEFPOINTS
 62
     0
 10
512.6742888745337
 20
1544.199947470358
 30
0.0
  0
POINT
  5
36B6
  8
DEFPOINTS
 62
     0
 10
593.1609009514343
 20
1544.199947470358
 30
0.0
  0
ENDBLK
  5
36AD
  8
0
  0
BLOCK
  8
0
  2
*D6
 70
     1
 10
0.0
 20
0.0
 30
0.0
  3
*D6
  1

  0
LINE
  5
36BD
  8
DIMENSIONS
  6
BYBLOCK
 62
     0
 10
514.1742888745337
 20
1544.199947470358
 30
0.0
 11
593.5209009514343
 21
1544.199947470358
 31
0.0
  0
LINE
  5
36BE
  8
DIMENSIONS
  6
BYBLOCK
 62
     0
 10
514.1742888745337
 20
1259.199947470358
 30
0.0
 11
593.5209009514343
 21
1259.199947470358
 31
0.0
  0
LINE
  5
36BF
  8
DIMENSIONS
  6
BYBLOCK
 62
     0
 10
593.3409009514344
 20
1539.199947470358
 30
0.0
 11
593.3409009514344
 21
1264.199947470358
 31
0.0
  0
SOLID
  5
36C0
  8
DIMENSIONS
 62
     0
 10
594.1742342847677
 20
1539.199947470358
 30
0.0
 11
592.507567618101
 21
1539.199947470358
 31
0.0
 12
593.3409009514344
 22
1544.199947470358
 32
0.0
 13
593.3409009514344
 23
1544.199947470358
 33
0.0
  0
SOLID
  5
36C1
  8
DIMENSIONS
 62
     0
 10
592.507567618101
 20
1264.199947470358
 30
0.0
 11
594.1742342847677
 21
1264.199947470358
 31
0.0
 12
593.3409009514344
 22
1259.199947470358
 32
0.0
 13
593.3409009514344
 23
1259.199947470358
 33
0.0
  0
TEXT
  5
36C2
  8
DIMENSIONS
  6
CONTINUOUS
 62
     5
 10
590.9459009514342
 20
1384.364947470358
 30
0.0
 40
5.0
  1
285 [11.22]
 50
90.0
  0
POINT
  5
36C3
  8
DEFPOINTS
 62
     0
 10
512.6742888745337
 20
1544.199947470358
 30
0.0
  0
POINT
  5
36C4
  8
DEFPOINTS
 62
     0
 10
512.6742888745337
 20
1259.199947470358
 30
0.0
  0
POINT
  5
36C5
  8
DEFPOINTS
 62
     0
 10
593.3409009514344
 20
1259.199947470358
 30
0.0
  0
ENDBLK
  5
36BC
  8
0
  0
BLOCK
  8
0
  2
*D7
 70
     1
 10
0.0
 20
0.0
 30
0.0
  3
*D7
  1

  0
LINE
  5
36DC
  8
DIMENSIONS
  6
BYBLOCK
 10
342.5862666949176
 20
1571.968926540532
 30
0.0
 11
352.2962666949176
 21
1571.968926540532
 31
0.0
  0
LINE
  5
36DD
  8
DIMENSIONS
  6
BYBLOCK
 10
352.2962666949176
 20
1571.968926540532
 30
0.0
 11
361.0664542152566
 21
1559.867900752809
 31
0.0
  0
TEXT
  5
36DE
  8
DIMENSIONS
  6
CONTINUOUS
 62
     5
 10
342.3062666949176
 20
1573.258926540532
 30
0.0
 40
5.0
  1
Ø7
  0
SOLID
  5
36DF
  8
DIMENSIONS
 10
360.5941247750524
 20
1559.525581197869
 30
0.0
 11
361.5387836554609
 21
1560.210220307748
 31
0.0
 12
363.1203715448951
 22
1557.033924111583
 32
0.0
 13
363.1203715448951
 23
1557.033924111583
 33
0.0
  0
POINT
  5
36E0
  8
DEFPOINTS
 62
     0
 10
363.1203715448951
 20
1557.033924111583
 30
0.0
  0
POINT
  5
36E1
  8
DEFPOINTS
 62
     0
 10
367.2282062041722
 20
1551.365970829132
 30
0.0
  0
ENDBLK
  5
36DB
  8
0
  0
BLOCK
  8
0
  2
*D8
 70
     1
 10
0.0
 20
0.0
 30
0.0
  3
*D8
  1

  0
LINE
  5
36EA
  8
DIMENSIONS
  6
BYBLOCK
 62
     0
 10
167.6742888745337
 20
2000.699947470358
 30
0.0
 11
167.6742888745337
 21
2013.114105116885
 31
0.0
  0
LINE
  5
36EB
  8
DIMENSIONS
  6
BYBLOCK
 62
     0
 10
195.1742888745337
 20
1975.699947470358
 30
0.0
 11
195.1742888745337
 21
2013.114105116885
 31
0.0
  0
LINE
  5
36EC
  8
DIMENSIONS
  6
BYBLOCK
 62
     0
 10
172.6742888745337
 20
2012.934105116885
 30
0.0
 11
190.1742888745337
 21
2012.934105116885
 31
0.0
  0
SOLID
  5
36ED
  8
DIMENSIONS
 62
     0
 10
172.6742888745337
 20
2013.767438450219
 30
0.0
 11
172.6742888745337
 21
2012.100771783552
 31
0.0
 12
167.6742888745337
 22
2012.934105116885
 32
0.0
 13
167.6742888745337
 23
2012.934105116885
 33
0.0
  0
SOLID
  5
36EE
  8
DIMENSIONS
 62
     0
 10
190.1742888745337
 20
2012.100771783552
 30
0.0
 11
190.1742888745337
 21
2013.767438450219
 31
0.0
 12
195.1742888745337
 22
2012.934105116885
 32
0.0
 13
195.1742888745337
 23
2012.934105116885
 33
0.0
  0
TEXT
  5
36EF
  8
DIMENSIONS
  6
CONTINUOUS
 62
     5
 10
132.5259280782368
 20
2015.682547271457
 30
0.0
 40
5.0
  1
27.5 [1.08]
  0
POINT
  5
36F0
  8
DEFPOINTS
 62
     0
 10
167.6742888745337
 20
1999.199947470358
 30
0.0
  0
POINT
  5
36F1
  8
DEFPOINTS
 62
     0
 10
195.1742888745337
 20
1974.199947470358
 30
0.0
  0
POINT
  5
36F2
  8
DEFPOINTS
 62
     0
 10
195.1742888745337
 20
2012.934105116885
 30
0.0
  0
ENDBLK
  5
36E9
  8
0
  0
BLOCK
  8
0
  2
*D9
 70
     1
 10
0.0
 20
0.0
 30
0.0
  3
*D9
  1

  0
LINE
  5
36F9
  8
DIMENSIONS
  6
BYBLOCK
 62
     0
 10
195.1742888745337
 20
1975.699947470358
 30
0.0
 11
195.1742888745337
 21
2013.114105116885
 31
0.0
  0
LINE
  5
36FA
  8
DIMENSIONS
  6
BYBLOCK
 62
     0
 10
365.1742888745337
 20
1980.699947470358
 30
0.0
 11
365.1742888745337
 21
2013.114105116885
 31
0.0
  0
LINE
  5
36FB
  8
DIMENSIONS
  6
BYBLOCK
 62
     0
 10
200.1742888745337
 20
2012.934105116885
 30
0.0
 11
360.1742888745337
 21
2012.934105116885
 31
0.0
  0
SOLID
  5
36FC
  8
DIMENSIONS
 62
     0
 10
200.1742888745337
 20
2013.767438450219
 30
0.0
 11
200.1742888745337
 21
2012.100771783552
 31
0.0
 12
195.1742888745337
 22
2012.934105116885
 32
0.0
 13
195.1742888745337
 23
2012.934105116885
 33
0.0
  0
SOLID
  5
36FD
  8
DIMENSIONS
 62
     0
 10
360.1742888745337
 20
2012.100771783552
 30
0.0
 11
360.1742888745337
 21
2013.767438450219
 31
0.0
 12
365.1742888745337
 22
2012.934105116885
 32
0.0
 13
365.1742888745337
 23
2012.934105116885
 33
0.0
  0
TEXT
  5
36FE
  8
DIMENSIONS
  6
CONTINUOUS
 62
     5
 10
264.5017888745336
 20
2015.329105116886
 30
0.0
 40
5.0
  1
170 [6.69]
  0
POINT
  5
36FF
  8
DEFPOINTS
 62
     0
 10
195.1742888745337
 20
1974.199947470358
 30
0.0
  0
POINT
  5
3700
  8
DEFPOINTS
 62
     0
 10
365.1742888745337
 20
1979.199947470358
 30
0.0
  0
POINT
  5
3701
  8
DEFPOINTS
 62
     0
 10
365.1742888745337
 20
2012.934105116885
 30
0.0
  0
ENDBLK
  5
36F8
  8
0
  0
BLOCK
  8
0
  2
*D10
 70
     1
 10
0.0
 20
0.0
 30
0.0
  3
*D10
  1

  0
LINE
  5
3708
  8
DIMENSIONS
  6
BYBLOCK
 62
     0
 10
512.6742888745337
 20
1970.699947470358
 30
0.0
 11
512.6742888745337
 21
2012.934105116885
 31
0.0
  0
LINE
  5
3709
  8
DIMENSIONS
  6
BYBLOCK
 62
     0
 10
562.6742888745337
 20
2000.699947470358
 30
0.0
 11
562.6742888745337
 21
2012.934105116885
 31
0.0
  0
LINE
  5
370A
  8
DIMENSIONS
  6
BYBLOCK
 62
     0
 10
517.6742888745337
 20
2012.754105116885
 30
0.0
 11
557.6742888745337
 21
2012.754105116885
 31
0.0
  0
SOLID
  5
370B
  8
DIMENSIONS
 62
     0
 10
517.6742888745337
 20
2013.587438450219
 30
0.0
 11
517.6742888745337
 21
2011.920771783552
 31
0.0
 12
512.6742888745337
 22
2012.754105116885
 32
0.0
 13
512.6742888745337
 23
2012.754105116885
 33
0.0
  0
SOLID
  5
370C
  8
DIMENSIONS
 62
     0
 10
557.6742888745337
 20
2011.920771783552
 30
0.0
 11
557.6742888745337
 21
2013.587438450219
 31
0.0
 12
562.6742888745337
 22
2012.754105116885
 32
0.0
 13
562.6742888745337
 23
2012.754105116885
 33
0.0
  0
TEXT
  5
370D
  8
DIMENSIONS
  6
CONTINUOUS
 62
     5
 10
524.1767888745337
 20
2015.149105116885
 30
0.0
 40
5.0
  1
50 [1.97]
  0
POINT
  5
370E
  8
DEFPOINTS
 62
     0
 10
512.6742888745337
 20
1969.199947470358
 30
0.0
  0
POINT
  5
370F
  8
DEFPOINTS
 62
     0
 10
562.6742888745337
 20
1999.199947470358
 30
0.0
  0
POINT
  5
3710
  8
DEFPOINTS
 62
     0
 10
562.6742888745337
 20
2012.754105116885
 30
0.0
  0
ENDBLK
  5
3707
  8
0
  0
BLOCK
  8
0
  2
*D11
 70
     1
 10
0.0
 20
0.0
 30
0.0
  3
*D11
  1

  0
LINE
  5
3718
  8
DIMENSIONS
  6
BYBLOCK
 62
     0
 10
166.1742888745337
 20
1999.199947470358
 30
0.0
 11
148.3086746452446
 21
1999.199947470358
 31
0.0
  0
LINE
  5
3719
  8
DIMENSIONS
  6
BYBLOCK
 62
     0
 10
193.6742888745337
 20
1974.199947470358
 30
0.0
 11
148.3086746452446
 21
1974.199947470358
 31
0.0
  0
LINE
  5
371A
  8
DIMENSIONS
  6
BYBLOCK
 62
     0
 10
148.4886746452446
 20
1994.199947470358
 30
0.0
 11
148.4886746452446
 21
1979.199947470358
 31
0.0
  0
SOLID
  5
371B
  8
DIMENSIONS
 62
     0
 10
149.3220079785779
 20
1994.199947470358
 30
0.0
 11
147.6553413119113
 21
1994.199947470358
 31
0.0
 12
148.4886746452446
 22
1999.199947470358
 32
0.0
 13
148.4886746452446
 23
1999.199947470358
 33
0.0
  0
SOLID
  5
371C
  8
DIMENSIONS
 62
     0
 10
147.6553413119113
 20
1979.199947470358
 30
0.0
 11
149.3220079785779
 21
1979.199947470358
 31
0.0
 12
148.4886746452446
 22
1974.199947470358
 32
0.0
 13
148.4886746452446
 23
1974.199947470358
 33
0.0
  0
TEXT
  5
371D
  8
DIMENSIONS
  6
CONTINUOUS
 62
     5
 10
145.4095295396723
 20
1972.398489951154
 30
0.0
 40
5.0
  1
25 [0.98]
 50
90.0
  0
POINT
  5
371E
  8
DEFPOINTS
 62
     0
 10
167.6742888745337
 20
1999.199947470358
 30
0.0
  0
POINT
  5
371F
  8
DEFPOINTS
 62
     0
 10
195.1742888745337
 20
1974.199947470358
 30
0.0
  0
POINT
  5
3720
  8
DEFPOINTS
 62
     0
 10
148.4886746452446
 20
1974.199947470358
 30
0.0
  0
ENDBLK
  5
3717
  8
0
  0
BLOCK
  8
0
  2
*D12
 70
     1
 10
0.0
 20
0.0
 30
0.0
  3
*D12
  1

  0
LINE
  5
3727
  8
DIMENSIONS
  6
BYBLOCK
 62
     0
 10
193.6742888745337
 20
1974.199947470358
 30
0.0
 11
148.3086746452446
 21
1974.199947470358
 31
0.0
  0
LINE
  5
3728
  8
DIMENSIONS
  6
BYBLOCK
 62
     0
 10
193.6742888745337
 20
1699.199947470358
 30
0.0
 11
148.3086746452446
 21
1699.199947470358
 31
0.0
  0
LINE
  5
3729
  8
DIMENSIONS
  6
BYBLOCK
 62
     0
 10
148.4886746452446
 20
1969.199947470358
 30
0.0
 11
148.4886746452446
 21
1704.199947470358
 31
0.0
  0
SOLID
  5
372A
  8
DIMENSIONS
 62
     0
 10
149.3220079785779
 20
1969.199947470358
 30
0.0
 11
147.6553413119113
 21
1969.199947470358
 31
0.0
 12
148.4886746452446
 22
1974.199947470358
 32
0.0
 13
148.4886746452446
 23
1974.199947470358
 33
0.0
  0
SOLID
  5
372B
  8
DIMENSIONS
 62
     0
 10
147.6553413119112
 20
1704.199947470358
 30
0.0
 11
149.3220079785779
 21
1704.199947470358
 31
0.0
 12
148.4886746452446
 22
1699.199947470358
 32
0.0
 13
148.4886746452446
 23
1699.199947470358
 33
0.0
  0
TEXT
  5
372C
  8
DIMENSIONS
  6
CONTINUOUS
 62
     5
 10
146.0936746452444
 20
1819.364947470358
 30
0.0
 40
5.0
  1
275 [10.83]
 50
90.0
  0
POINT
  5
372D
  8
DEFPOINTS
 62
     0
 10
195.1742888745337
 20
1974.199947470358
 30
0.0
  0
POINT
  5
372E
  8
DEFPOINTS
 62
     0
 10
195.1742888745337
 20
1699.199947470358
 30
0.0
  0
POINT
  5
372F
  8
DEFPOINTS
 62
     0
 10
148.4886746452446
 20
1699.199947470358
 30
0.0
  0
ENDBLK
  5
3726
  8
0
  0
BLOCK
  8
0
  2
*D13
 70
     1
 10
0.0
 20
0.0
 30
0.0
  3
*D13
  1

  0
LINE
  5
3736
  8
DIMENSIONS
  6
BYBLOCK
 62
     0
 10
740.3549576630467
 20
2000.699947470358
 30
0.0
 11
740.3549576630467
 21
2038.207615583009
 31
0.0
  0
LINE
  5
3737
  8
DIMENSIONS
  6
BYBLOCK
 62
     0
 10
1135.354957663047
 20
2000.699947470358
 30
0.0
 11
1135.354957663047
 21
2038.207615583009
 31
0.0
  0
LINE
  5
3738
  8
DIMENSIONS
  6
BYBLOCK
 62
     0
 10
745.3549576630467
 20
2038.027615583009
 30
0.0
 11
1130.354957663047
 21
2038.027615583009
 31
0.0
  0
SOLID
  5
3739
  8
DIMENSIONS
 62
     0
 10
745.3549576630467
 20
2038.860948916342
 30
0.0
 11
745.3549576630467
 21
2037.194282249676
 31
0.0
 12
740.3549576630467
 22
2038.027615583009
 32
0.0
 13
740.3549576630467
 23
2038.027615583009
 33
0.0
  0
SOLID
  5
373A
  8
DIMENSIONS
 62
     0
 10
1130.354957663047
 20
2037.194282249676
 30
0.0
 11
1130.354957663047
 21
2038.860948916342
 31
0.0
 12
1135.354957663047
 22
2038.027615583009
 32
0.0
 13
1135.354957663047
 23
2038.027615583009
 33
0.0
  0
TEXT
  5
373B
  8
DIMENSIONS
  6
CONTINUOUS
 62
     5
 10
920.4749576630467
 20
2040.422615583009
 30
0.0
 40
5.0
  1
395 [15.55]
  0
POINT
  5
373C
  8
DEFPOINTS
 62
     0
 10
740.3549576630467
 20
1999.199947470358
 30
0.0
  0
POINT
  5
373D
  8
DEFPOINTS
 62
     0
 10
1135.354957663047
 20
1999.199947470358
 30
0.0
  0
POINT
  5
373E
  8
DEFPOINTS
 62
     0
 10
1135.354957663047
 20
2038.027615583009
 30
0.0
  0
ENDBLK
  5
3735
  8
0
  0
BLOCK
  8
0
  2
*D14
 70
     1
 10
0.0
 20
0.0
 30
0.0
  3
*D14
  1

  0
LINE
  5
3754
  8
DIMENSIONS
  6
BYBLOCK
 62
     0
 10
193.6742888745337
 20
1699.199947470358
 30
0.0
 11
148.3086746452446
 21
1699.199947470358
 31
0.0
  0
LINE
  5
3755
  8
DIMENSIONS
  6
BYBLOCK
 62
     0
 10
193.6742888745337
 20
1554.199947470358
 30
0.0
 11
148.3086746452446
 21
1554.199947470358
 31
0.0
  0
LINE
  5
3756
  8
DIMENSIONS
  6
BYBLOCK
 62
     0
 10
148.4886746452446
 20
1694.199947470358
 30
0.0
 11
148.4886746452446
 21
1559.199947470358
 31
0.0
  0
SOLID
  5
3757
  8
DIMENSIONS
 62
     0
 10
149.3220079785779
 20
1694.199947470358
 30
0.0
 11
147.6553413119112
 21
1694.199947470358
 31
0.0
 12
148.4886746452446
 22
1699.199947470358
 32
0.0
 13
148.4886746452446
 23
1699.199947470358
 33
0.0
  0
SOLID
  5
3758
  8
DIMENSIONS
 62
     0
 10
147.6553413119112
 20
1559.199947470358
 30
0.0
 11
149.3220079785779
 21
1559.199947470358
 31
0.0
 12
148.4886746452446
 22
1554.199947470358
 32
0.0
 13
148.4886746452446
 23
1554.199947470358
 33
0.0
  0
TEXT
  5
3759
  8
DIMENSIONS
  6
CONTINUOUS
 62
     5
 10
146.0936746452444
 20
1611.027447470358
 30
0.0
 40
5.0
  1
145 [5.71]
 50
90.0
  0
POINT
  5
375A
  8
DEFPOINTS
 62
     0
 10
195.1742888745337
 20
1699.199947470358
 30
0.0
  0
POINT
  5
375B
  8
DEFPOINTS
 62
     0
 10
195.1742888745337
 20
1554.199947470358
 30
0.0
  0
POINT
  5
375C
  8
DEFPOINTS
 62
     0
 10
148.4886746452446
 20
1554.199947470358
 30
0.0
  0
ENDBLK
  5
3753
  8
0
  0
BLOCK
  8
0
  2
*D15
 70
     1
 10
0.0
 20
0.0
 30
0.0
  3
*D15
  1

  0
LINE
  5
3763
  8
DIMENSIONS
  6
BYBLOCK
 62
     0
 10
193.6742888745337
 20
1554.199947470358
 30
0.0
 11
148.3086746452446
 21
1554.199947470358
 31
0.0
  0
LINE
  5
3764
  8
DIMENSIONS
  6
BYBLOCK
 62
     0
 10
193.6742888745337
 20
1259.199947470358
 30
0.0
 11
148.3086746452445
 21
1259.199947470358
 31
0.0
  0
LINE
  5
3765
  8
DIMENSIONS
  6
BYBLOCK
 62
     0
 10
148.4886746452446
 20
1549.199947470358
 30
0.0
 11
148.4886746452445
 21
1264.199947470358
 31
0.0
  0
SOLID
  5
3766
  8
DIMENSIONS
 62
     0
 10
149.3220079785779
 20
1549.199947470358
 30
0.0
 11
147.6553413119112
 21
1549.199947470358
 31
0.0
 12
148.4886746452446
 22
1554.199947470358
 32
0.0
 13
148.4886746452446
 23
1554.199947470358
 33
0.0
  0
SOLID
  5
3767
  8
DIMENSIONS
 62
     0
 10
147.6553413119112
 20
1264.199947470358
 30
0.0
 11
149.3220079785779
 21
1264.199947470358
 31
0.0
 12
148.4886746452445
 22
1259.199947470358
 32
0.0
 13
148.4886746452445
 23
1259.199947470358
 33
0.0
  0
TEXT
  5
3768
  8
DIMENSIONS
  6
CONTINUOUS
 62
     5
 10
146.0936746452444
 20
1389.364947470358
 30
0.0
 40
5.0
  1
295 [11.61]
 50
90.0
  0
POINT
  5
3769
  8
DEFPOINTS
 62
     0
 10
195.1742888745337
 20
1554.199947470358
 30
0.0
  0
POINT
  5
376A
  8
DEFPOINTS
 62
     0
 10
195.1742888745337
 20
1259.199947470358
 30
0.0
  0
POINT
  5
376B
  8
DEFPOINTS
 62
     0
 10
148.4886746452445
 20
1259.199947470358
 30
0.0
  0
ENDBLK
  5
3762
  8
0
  0
BLOCK
  8
0
  2
*D16
 70
     1
 10
0.0
 20
0.0
 30
0.0
  3
*D16
  1

  0
LINE
  5
37E5
  8
DIMENSIONS
  6
BYBLOCK
 62
     0
 10
755.3549576630467
 20
2002.555945912821
 30
0.0
 11
755.3549576630467
 21
2012.934105116885
 31
0.0
  0
LINE
  5
37E6
  8
DIMENSIONS
  6
BYBLOCK
 62
     0
 10
1120.354957663047
 20
2002.555945912821
 30
0.0
 11
1120.354957663047
 21
2012.934105116885
 31
0.0
  0
LINE
  5
37E7
  8
DIMENSIONS
  6
BYBLOCK
 62
     0
 10
760.3549576630467
 20
2012.754105116885
 30
0.0
 11
1115.354957663047
 21
2012.754105116885
 31
0.0
  0
SOLID
  5
37E8
  8
DIMENSIONS
 62
     0
 10
760.3549576630467
 20
2013.587438450219
 30
0.0
 11
760.3549576630467
 21
2011.920771783552
 31
0.0
 12
755.3549576630467
 22
2012.754105116885
 32
0.0
 13
755.3549576630467
 23
2012.754105116885
 33
0.0
  0
SOLID
  5
37E9
  8
DIMENSIONS
 62
     0
 10
1115.354957663047
 20
2011.920771783552
 30
0.0
 11
1115.354957663047
 21
2013.587438450219
 31
0.0
 12
1120.354957663047
 22
2012.754105116885
 32
0.0
 13
1120.354957663047
 23
2012.754105116885
 33
0.0
  0
TEXT
  5
37EA
  8
DIMENSIONS
  6
CONTINUOUS
 62
     5
 10
920.4749576630467
 20
2015.149105116885
 30
0.0
 40
5.0
  1
365 [14.37]
  0
POINT
  5
37EB
  8
DEFPOINTS
 62
     0
 10
755.3549576630467
 20
2001.055945912821
 30
0.0
  0
POINT
  5
37EC
  8
DEFPOINTS
 62
     0
 10
1120.354957663047
 20
2001.055945912821
 30
0.0
  0
POINT
  5
37ED
  8
DEFPOINTS
 62
     0
 10
1120.354957663047
 20
2012.754105116885
 30
0.0
  0
ENDBLK
  5
37E4
  8
0
  0
BLOCK
  8
0
  2
*D17
 70
     1
 10
0.0
 20
0.0
 30
0.0
  3
*D17
  1

  0
LINE
  5
37F4
  8
DIMENSIONS
  6
BYBLOCK
 62
     0
 10
738.8549576630467
 20
1999.199947470358
 30
0.0
 11
706.6145930840447
 21
1999.199947470358
 31
0.0
  0
LINE
  5
37F5
  8
DIMENSIONS
  6
BYBLOCK
 62
     0
 10
738.8549576630467
 20
649.1999474703578
 30
0.0
 11
706.6145930840446
 21
649.1999474703578
 31
0.0
  0
LINE
  5
37F6
  8
DIMENSIONS
  6
BYBLOCK
 62
     0
 10
706.7945930840447
 20
1994.199947470358
 30
0.0
 11
706.7945930840445
 21
654.1999474703578
 31
0.0
  0
SOLID
  5
37F7
  8
DIMENSIONS
 62
     0
 10
707.627926417378
 20
1994.199947470358
 30
0.0
 11
705.9612597507113
 21
1994.199947470358
 31
0.0
 12
706.7945930840447
 22
1999.199947470358
 32
0.0
 13
706.7945930840447
 23
1999.199947470358
 33
0.0
  0
SOLID
  5
37F8
  8
DIMENSIONS
 62
     0
 10
705.9612597507112
 20
654.1999474703578
 30
0.0
 11
707.6279264173779
 21
654.1999474703578
 31
0.0
 12
706.7945930840445
 22
649.1999474703578
 32
0.0
 13
706.7945930840445
 23
649.1999474703578
 33
0.0
  0
TEXT
  5
37F9
  8
DIMENSIONS
  6
CONTINUOUS
 62
     5
 10
704.3995930840445
 20
1304.647447470358
 30
0.0
 40
5.0
  1
1350 [53.15]
 50
90.0
  0
POINT
  5
37FA
  8
DEFPOINTS
 62
     0
 10
740.3549576630467
 20
1999.199947470358
 30
0.0
  0
POINT
  5
37FB
  8
DEFPOINTS
 62
     0
 10
740.3549576630467
 20
649.1999474703578
 30
0.0
  0
POINT
  5
37FC
  8
DEFPOINTS
 62
     0
 10
706.7945930840445
 20
649.1999474703578
 30
0.0
  0
ENDBLK
  5
37F3
  8
0
  0
BLOCK
  8
0
  2
*D18
 70
     1
 10
0.0
 20
0.0
 30
0.0
  3
*D18
  1

  0
LINE
  5
3803
  8
DIMENSIONS
  6
BYBLOCK
 62
     0
 10
738.8549576630467
 20
1999.199947470358
 30
0.0
 11
721.6867697492731
 21
1999.199947470358
 31
0.0
  0
LINE
  5
3804
  8
DIMENSIONS
  6
BYBLOCK
 62
     0
 10
736.2708637061598
 20
1979.199947470358
 30
0.0
 11
721.6867697492731
 21
1979.199947470358
 31
0.0
  0
LINE
  5
3805
  8
DIMENSIONS
  6
BYBLOCK
 62
     0
 10
721.8667697492731
 20
1994.199947470358
 30
0.0
 11
721.8667697492731
 21
1984.199947470358
 31
0.0
  0
SOLID
  5
3806
  8
DIMENSIONS
 62
     0
 10
722.7001030826065
 20
1994.199947470358
 30
0.0
 11
721.0334364159397
 21
1994.199947470358
 31
0.0
 12
721.8667697492731
 22
1999.199947470358
 32
0.0
 13
721.8667697492731
 23
1999.199947470358
 33
0.0
  0
SOLID
  5
3807
  8
DIMENSIONS
 62
     0
 10
721.0334364159397
 20
1984.199947470358
 30
0.0
 11
722.7001030826065
 21
1984.199947470358
 31
0.0
 12
721.8667697492731
 22
1979.199947470358
 32
0.0
 13
721.8667697492731
 23
1979.199947470358
 33
0.0
  0
TEXT
  5
3808
  8
DIMENSIONS
  6
CONTINUOUS
 62
     5
 10
718.7891623334128
 20
1971.421427266842
 30
0.0
 40
5.0
  1
20 [0.79]
 50
90.0
  0
POINT
  5
3809
  8
DEFPOINTS
 62
     0
 10
740.3549576630467
 20
1999.199947470358
 30
0.0
  0
POINT
  5
380A
  8
DEFPOINTS
 62
     0
 10
737.7708637061598
 20
1979.199947470358
 30
0.0
  0
POINT
  5
380B
  8
DEFPOINTS
 62
     0
 10
721.8667697492731
 20
1979.199947470358
 30
0.0
  0
ENDBLK
  5
3802
  8
0
  0
BLOCK
  8
0
  2
*D19
 70
     1
 10
0.0
 20
0.0
 30
0.0
  3
*D19
  1

  0
LINE
  5
3812
  8
DIMENSIONS
  6
BYBLOCK
 62
     0
 10
736.2708637061598
 20
1979.199947470358
 30
0.0
 11
721.6867697492731
 21
1979.199947470358
 31
0.0
  0
LINE
  5
3813
  8
DIMENSIONS
  6
BYBLOCK
 62
     0
 10
753.8549576630467
 20
664.1999474703578
 30
0.0
 11
721.686769749273
 21
664.1999474703578
 31
0.0
  0
LINE
  5
3814
  8
DIMENSIONS
  6
BYBLOCK
 62
     0
 10
721.8667697492731
 20
1974.199947470358
 30
0.0
 11
721.866769749273
 21
669.1999474703578
 31
0.0
  0
SOLID
  5
3815
  8
DIMENSIONS
 62
     0
 10
722.7001030826065
 20
1974.199947470358
 30
0.0
 11
721.0334364159397
 21
1974.199947470358
 31
0.0
 12
721.8667697492731
 22
1979.199947470358
 32
0.0
 13
721.8667697492731
 23
1979.199947470358
 33
0.0
  0
SOLID
  5
3816
  8
DIMENSIONS
 62
     0
 10
721.0334364159396
 20
669.1999474703578
 30
0.0
 11
722.7001030826063
 21
669.1999474703578
 31
0.0
 12
721.866769749273
 22
664.1999474703578
 32
0.0
 13
721.866769749273
 23
664.1999474703578
 33
0.0
  0
TEXT
  5
3817
  8
DIMENSIONS
  6
CONTINUOUS
 62
     5
 10
719.4717697492729
 20
1302.147447470358
 30
0.0
 40
5.0
  1
1315 [51.77]
 50
90.0
  0
POINT
  5
3818
  8
DEFPOINTS
 62
     0
 10
737.7708637061598
 20
1979.199947470358
 30
0.0
  0
POINT
  5
3819
  8
DEFPOINTS
 62
     0
 10
755.3549576630467
 20
664.1999474703578
 30
0.0
  0
POINT
  5
381A
  8
DEFPOINTS
 62
     0
 10
721.866769749273
 20
664.1999474703578
 30
0.0
  0
ENDBLK
  5
3811
  8
0
  0
BLOCK
  8
0
  2
*D20
 70
     1
 10
0.0
 20
0.0
 30
0.0
  3
*D20
  1

  0
LINE
  5
3861
  8
DIMENSIONS
  6
BYBLOCK
 62
     0
 10
753.8549576630467
 20
664.1999474703578
 30
0.0
 11
721.6996182350464
 21
664.1999474703578
 31
0.0
  0
LINE
  5
3862
  8
DIMENSIONS
  6
BYBLOCK
 62
     0
 10
753.8549576630467
 20
649.1999474703578
 30
0.0
 11
721.6996182350464
 21
649.1999474703578
 31
0.0
  0
LINE
  5
3863
  8
DIMENSIONS
  6
BYBLOCK
 62
     0
 10
721.8796182350463
 20
659.1999474703578
 30
0.0
 11
721.8796182350463
 21
654.1999474703578
 31
0.0
  0
SOLID
  5
3864
  8
DIMENSIONS
 62
     0
 10
722.7129515683797
 20
659.1999474703578
 30
0.0
 11
721.046284901713
 21
659.1999474703578
 31
0.0
 12
721.8796182350463
 22
664.1999474703578
 32
0.0
 13
721.8796182350463
 23
664.1999474703578
 33
0.0
  0
SOLID
  5
3865
  8
DIMENSIONS
 62
     0
 10
721.046284901713
 20
654.1999474703578
 30
0.0
 11
722.7129515683797
 21
654.1999474703578
 31
0.0
 12
721.8796182350463
 22
649.1999474703578
 32
0.0
 13
721.8796182350463
 23
649.1999474703578
 33
0.0
  0
TEXT
  5
3866
  8
DIMENSIONS
  6
CONTINUOUS
 62
     5
 10
717.914250326188
 20
649.7687963808794
 30
0.0
 40
5.0
  1
15 [0.59]
 50
90.0
  0
POINT
  5
3867
  8
DEFPOINTS
 62
     0
 10
755.3549576630467
 20
664.1999474703578
 30
0.0
  0
POINT
  5
3868
  8
DEFPOINTS
 62
     0
 10
755.3549576630467
 20
649.1999474703578
 30
0.0
  0
POINT
  5
3869
  8
DEFPOINTS
 62
     0
 10
721.8796182350463
 20
649.1999474703578
 30
0.0
  0
ENDBLK
  5
3860
  8
0
  0
BLOCK
  8
0
  2
*D21
 70
     1
 10
0.0
 20
0.0
 30
0.0
  3
*D21
  1

  0
LINE
  5
3A49
  8
DIMENSIONS
  6
BYBLOCK
 62
     0
 10
123.9459240616767
 20
785.7610312787658
 30
0.0
 11
123.9459240616767
 21
819.1690970198455
 31
0.0
  0
LINE
  5
3A4A
  8
DIMENSIONS
  6
BYBLOCK
 62
     0
 10
373.9459240616767
 20
785.7610312787658
 30
0.0
 11
373.9459240616767
 21
819.1690970198455
 31
0.0
  0
LINE
  5
3A4B
  8
DIMENSIONS
  6
BYBLOCK
 62
     0
 10
128.9459240616767
 20
818.9890970198455
 30
0.0
 11
368.9459240616767
 21
818.9890970198455
 31
0.0
  0
SOLID
  5
3A4C
  8
DIMENSIONS
 62
     0
 10
128.9459240616767
 20
819.8224303531789
 30
0.0
 11
128.9459240616767
 21
818.1557636865122
 31
0.0
 12
123.9459240616767
 22
818.9890970198455
 32
0.0
 13
123.9459240616767
 23
818.9890970198455
 33
0.0
  0
SOLID
  5
3A4D
  8
DIMENSIONS
 62
     0
 10
368.9459240616767
 20
818.1557636865122
 30
0.0
 11
368.9459240616767
 21
819.8224303531789
 31
0.0
 12
373.9459240616767
 22
818.9890970198455
 32
0.0
 13
373.9459240616767
 23
818.9890970198455
 33
0.0
  0
TEXT
  5
3A4E
  8
DIMENSIONS
  6
CONTINUOUS
 62
     5
 10
233.5509240616767
 20
821.3840970198455
 30
0.0
 40
5.0
  1
250 [9.84]
  0
POINT
  5
3A4F
  8
DEFPOINTS
 62
     0
 10
123.9459240616767
 20
784.2610312787658
 30
0.0
  0
POINT
  5
3A50
  8
DEFPOINTS
 62
     0
 10
373.9459240616767
 20
784.2610312787658
 30
0.0
  0
POINT
  5
3A51
  8
DEFPOINTS
 62
     0
 10
373.9459240616767
 20
818.9890970198455
 30
0.0
  0
ENDBLK
  5
3A48
  8
0
  0
BLOCK
  8
0
  2
*D22
 70
     1
 10
0.0
 20
0.0
 30
0.0
  3
*D22
  1

  0
LINE
  5
3A58
  8
DIMENSIONS
  6
BYBLOCK
 62
     0
 10
138.9459240616767
 20
765.7610312787658
 30
0.0
 11
138.9459240616767
 21
805.9170830556243
 31
0.0
  0
LINE
  5
3A59
  8
DIMENSIONS
  6
BYBLOCK
 62
     0
 10
358.9459240616767
 20
765.7610312787658
 30
0.0
 11
358.9459240616767
 21
805.9170830556243
 31
0.0
  0
LINE
  5
3A5A
  8
DIMENSIONS
  6
BYBLOCK
 62
     0
 10
143.9459240616767
 20
805.7370830556243
 30
0.0
 11
353.9459240616767
 21
805.7370830556243
 31
0.0
  0
SOLID
  5
3A5B
  8
DIMENSIONS
 62
     0
 10
143.9459240616767
 20
806.5704163889577
 30
0.0
 11
143.9459240616767
 21
804.903749722291
 31
0.0
 12
138.9459240616767
 22
805.7370830556243
 32
0.0
 13
138.9459240616767
 23
805.7370830556243
 33
0.0
  0
SOLID
  5
3A5C
  8
DIMENSIONS
 62
     0
 10
353.9459240616767
 20
804.903749722291
 30
0.0
 11
353.9459240616767
 21
806.5704163889577
 31
0.0
 12
358.9459240616767
 22
805.7370830556243
 32
0.0
 13
358.9459240616767
 23
805.7370830556243
 33
0.0
  0
TEXT
  5
3A5D
  8
DIMENSIONS
  6
CONTINUOUS
 62
     5
 10
233.5509240616767
 20
808.1320830556243
 30
0.0
 40
5.0
  1
220 [8.66]
  0
POINT
  5
3A5E
  8
DEFPOINTS
 62
     0
 10
138.9459240616767
 20
764.2610312787658
 30
0.0
  0
POINT
  5
3A5F
  8
DEFPOINTS
 62
     0
 10
358.9459240616767
 20
764.2610312787658
 30
0.0
  0
POINT
  5
3A60
  8
DEFPOINTS
 62
     0
 10
358.9459240616767
 20
805.7370830556243
 30
0.0
  0
ENDBLK
  5
3A57
  8
0
  0
BLOCK
  8
0
  2
*D23
 70
     1
 10
0.0
 20
0.0
 30
0.0
  3
*D23
  1

  0
LINE
  5
3A67
  8
DIMENSIONS
  6
BYBLOCK
 62
     0
 10
146.4459240616767
 20
763.2610312787658
 30
0.0
 11
146.4459240616767
 21
795.0704837310958
 31
0.0
  0
LINE
  5
3A68
  8
DIMENSIONS
  6
BYBLOCK
 62
     0
 10
351.4459240616767
 20
763.2610312787658
 30
0.0
 11
351.4459240616767
 21
795.0704837310958
 31
0.0
  0
LINE
  5
3A69
  8
DIMENSIONS
  6
BYBLOCK
 62
     0
 10
151.4459240616767
 20
794.8904837310959
 30
0.0
 11
346.4459240616767
 21
794.8904837310959
 31
0.0
  0
SOLID
  5
3A6A
  8
DIMENSIONS
 62
     0
 10
151.4459240616767
 20
795.7238170644292
 30
0.0
 11
151.4459240616767
 21
794.0571503977625
 31
0.0
 12
146.4459240616767
 22
794.8904837310959
 32
0.0
 13
146.4459240616767
 23
794.8904837310959
 33
0.0
  0
SOLID
  5
3A6B
  8
DIMENSIONS
 62
     0
 10
346.4459240616767
 20
794.0571503977625
 30
0.0
 11
346.4459240616767
 21
795.7238170644292
 31
0.0
 12
351.4459240616767
 22
794.8904837310959
 32
0.0
 13
351.4459240616767
 23
794.8904837310959
 33
0.0
  0
TEXT
  5
3A6C
  8
DIMENSIONS
  6
CONTINUOUS
 62
     5
 10
233.5509240616767
 20
797.2854837310958
 30
0.0
 40
5.0
  1
205 [8.07]
  0
POINT
  5
3A6D
  8
DEFPOINTS
 62
     0
 10
146.4459240616767
 20
761.7610312787658
 30
0.0
  0
POINT
  5
3A6E
  8
DEFPOINTS
 62
     0
 10
351.4459240616767
 20
761.7610312787658
 30
0.0
  0
POINT
  5
3A6F
  8
DEFPOINTS
 62
     0
 10
351.4459240616767
 20
794.8904837310959
 30
0.0
  0
ENDBLK
  5
3A66
  8
0
  0
BLOCK
  8
0
  2
*D24
 70
     1
 10
0.0
 20
0.0
 30
0.0
  3
*D24
  1

  0
LINE
  5
3A90
  8
DIMENSIONS
  6
BYBLOCK
 62
     0
 10
122.4459240616767
 20
784.2610312787658
 30
0.0
 11
111.6711756304719
 21
784.2610312787658
 31
0.0
  0
LINE
  5
3A91
  8
DIMENSIONS
  6
BYBLOCK
 62
     0
 10
137.4459240616767
 20
764.2610312787658
 30
0.0
 11
111.6711756304719
 21
764.2610312787658
 31
0.0
  0
LINE
  5
3A92
  8
DIMENSIONS
  6
BYBLOCK
 62
     0
 10
111.8511756304719
 20
779.2610312787658
 30
0.0
 11
111.8511756304719
 21
769.2610312787658
 31
0.0
  0
SOLID
  5
3A93
  8
DIMENSIONS
 62
     0
 10
112.6845089638052
 20
779.2610312787658
 30
0.0
 11
111.0178422971386
 21
779.2610312787658
 31
0.0
 12
111.8511756304719
 22
784.2610312787658
 32
0.0
 13
111.8511756304719
 23
784.2610312787658
 33
0.0
  0
SOLID
  5
3A94
  8
DIMENSIONS
 62
     0
 10
111.0178422971386
 20
769.2610312787658
 30
0.0
 11
112.6845089638052
 21
769.2610312787658
 31
0.0
 12
111.8511756304719
 22
764.2610312787658
 32
0.0
 13
111.8511756304719
 23
764.2610312787658
 33
0.0
  0
TEXT
  5
3A95
  8
DIMENSIONS
  6
CONTINUOUS
 62
     5
 10
108.6343301159366
 20
756.7849530413838
 30
0.0
 40
5.0
  1
20 [0.79]
 50
90.0
  0
POINT
  5
3A96
  8
DEFPOINTS
 62
     0
 10
123.9459240616767
 20
784.2610312787658
 30
0.0
  0
POINT
  5
3A97
  8
DEFPOINTS
 62
     0
 10
138.9459240616767
 20
764.2610312787658
 30
0.0
  0
POINT
  5
3A98
  8
DEFPOINTS
 62
     0
 10
111.8511756304719
 20
764.2610312787658
 30
0.0
  0
ENDBLK
  5
3A8F
  8
0
  0
BLOCK
  8
0
  2
*D25
 70
     1
 10
0.0
 20
0.0
 30
0.0
  3
*D25
  1

  0
LINE
  5
3A9F
  8
DIMENSIONS
  6
BYBLOCK
 62
     0
 10
137.4459240616767
 20
764.2610312787658
 30
0.0
 11
111.6711756304719
 21
764.2610312787658
 31
0.0
  0
LINE
  5
3AA0
  8
DIMENSIONS
  6
BYBLOCK
 62
     0
 10
137.4459240616767
 20
649.2610312787658
 30
0.0
 11
111.6711756304719
 21
649.2610312787658
 31
0.0
  0
LINE
  5
3AA1
  8
DIMENSIONS
  6
BYBLOCK
 62
     0
 10
111.8511756304719
 20
759.2610312787658
 30
0.0
 11
111.8511756304719
 21
654.2610312787658
 31
0.0
  0
SOLID
  5
3AA2
  8
DIMENSIONS
 62
     0
 10
112.6845089638052
 20
759.2610312787658
 30
0.0
 11
111.0178422971386
 21
759.2610312787658
 31
0.0
 12
111.8511756304719
 22
764.2610312787658
 32
0.0
 13
111.8511756304719
 23
764.2610312787658
 33
0.0
  0
SOLID
  5
3AA3
  8
DIMENSIONS
 62
     0
 10
111.0178422971386
 20
654.2610312787658
 30
0.0
 11
112.6845089638052
 21
654.2610312787658
 31
0.0
 12
111.8511756304719
 22
649.2610312787658
 32
0.0
 13
111.8511756304719
 23
649.2610312787658
 33
0.0
  0
TEXT
  5
3AA4
  8
DIMENSIONS
  6
CONTINUOUS
 62
     5
 10
109.4561756304719
 20
691.0885312787659
 30
0.0
 40
5.0
  1
115 [4.53]
 50
90.0
  0
POINT
  5
3AA5
  8
DEFPOINTS
 62
     0
 10
138.9459240616767
 20
764.2610312787658
 30
0.0
  0
POINT
  5
3AA6
  8
DEFPOINTS
 62
     0
 10
138.9459240616767
 20
649.2610312787658
 30
0.0
  0
POINT
  5
3AA7
  8
DEFPOINTS
 62
     0
 10
111.8511756304719
 20
649.2610312787658
 30
0.0
  0
ENDBLK
  5
3A9E
  8
0
  0
BLOCK
  8
0
  2
*D26
 70
     1
 10
0.0
 20
0.0
 30
0.0
  3
*D26
  1

  0
LINE
  5
3AAE
  8
DIMENSIONS
  6
BYBLOCK
 62
     0
 10
137.4459240616767
 20
649.2610312787658
 30
0.0
 11
111.6711756304719
 21
649.2610312787658
 31
0.0
  0
LINE
  5
3AAF
  8
DIMENSIONS
  6
BYBLOCK
 62
     0
 10
137.4459240616767
 20
472.2610312787658
 30
0.0
 11
111.6711756304719
 21
472.2610312787658
 31
0.0
  0
LINE
  5
3AB0
  8
DIMENSIONS
  6
BYBLOCK
 62
     0
 10
111.8511756304719
 20
644.2610312787658
 30
0.0
 11
111.8511756304719
 21
477.2610312787658
 31
0.0
  0
SOLID
  5
3AB1
  8
DIMENSIONS
 62
     0
 10
112.6845089638052
 20
644.2610312787658
 30
0.0
 11
111.0178422971386
 21
644.2610312787658
 31
0.0
 12
111.8511756304719
 22
649.2610312787658
 32
0.0
 13
111.8511756304719
 23
649.2610312787658
 33
0.0
  0
SOLID
  5
3AB2
  8
DIMENSIONS
 62
     0
 10
111.0178422971386
 20
477.2610312787658
 30
0.0
 11
112.6845089638052
 21
477.2610312787658
 31
0.0
 12
111.8511756304719
 22
472.2610312787658
 32
0.0
 13
111.8511756304719
 23
472.2610312787658
 33
0.0
  0
TEXT
  5
3AB3
  8
DIMENSIONS
  6
CONTINUOUS
 62
     5
 10
109.4561756304719
 20
545.0885312787658
 30
0.0
 40
5.0
  1
177 [6.97]
 50
90.0
  0
POINT
  5
3AB4
  8
DEFPOINTS
 62
     0
 10
138.9459240616767
 20
649.2610312787658
 30
0.0
  0
POINT
  5
3AB5
  8
DEFPOINTS
 62
     0
 10
138.9459240616767
 20
472.2610312787658
 30
0.0
  0
POINT
  5
3AB6
  8
DEFPOINTS
 62
     0
 10
111.8511756304719
 20
472.2610312787658
 30
0.0
  0
ENDBLK
  5
3AAD
  8
0
  0
BLOCK
  8
0
  2
*D27
 70
     1
 10
0.0
 20
0.0
 30
0.0
  3
*D27
  1

  0
LINE
  5
3ABD
  8
DIMENSIONS
  6
BYBLOCK
 62
     0
 10
122.4459240616767
 20
784.2610312787658
 30
0.0
 11
97.30303926524219
 21
784.2610312787658
 31
0.0
  0
LINE
  5
3ABE
  8
DIMENSIONS
  6
BYBLOCK
 62
     0
 10
122.4459240616767
 20
184.2610312787658
 30
0.0
 11
97.30303926524215
 21
184.2610312787658
 31
0.0
  0
LINE
  5
3ABF
  8
DIMENSIONS
  6
BYBLOCK
 62
     0
 10
97.4830392652422
 20
779.2610312787658
 30
0.0
 11
97.48303926524216
 21
189.2610312787658
 31
0.0
  0
SOLID
  5
3AC0
  8
DIMENSIONS
 62
     0
 10
98.31637259857553
 20
779.2610312787658
 30
0.0
 11
96.64970593190887
 21
779.2610312787658
 31
0.0
 12
97.4830392652422
 22
784.2610312787658
 32
0.0
 13
97.4830392652422
 23
784.2610312787658
 33
0.0
  0
SOLID
  5
3AC1
  8
DIMENSIONS
 62
     0
 10
96.64970593190883
 20
189.2610312787658
 30
0.0
 11
98.31637259857548
 21
189.2610312787658
 31
0.0
 12
97.48303926524216
 22
184.2610312787658
 32
0.0
 13
97.48303926524216
 23
184.2610312787658
 33
0.0
  0
TEXT
  5
3AC2
  8
DIMENSIONS
  6
CONTINUOUS
 62
     5
 10
95.08803926524217
 20
466.8985312787658
 30
0.0
 40
5.0
  1
600 [23.62]
 50
90.0
  0
POINT
  5
3AC3
  8
DEFPOINTS
 62
     0
 10
123.9459240616767
 20
784.2610312787658
 30
0.0
  0
POINT
  5
3AC4
  8
DEFPOINTS
 62
     0
 10
123.9459240616767
 20
184.2610312787658
 30
0.0
  0
POINT
  5
3AC5
  8
DEFPOINTS
 62
     0
 10
97.48303926524216
 20
184.2610312787658
 30
0.0
  0
ENDBLK
  5
3ABC
  8
0
  0
BLOCK
  8
0
  2
*D28
 70
     1
 10
0.0
 20
0.0
 30
0.0
  3
*D28
  1

  0
LINE
  5
3ACC
  8
DIMENSIONS
  6
BYBLOCK
 62
     0
 10
375.4459240616767
 20
784.2610312787658
 30
0.0
 11
386.4006724928815
 21
784.2610312787658
 31
0.0
  0
LINE
  5
3ACD
  8
DIMENSIONS
  6
BYBLOCK
 62
     0
 10
352.9459240616767
 20
761.7610312787658
 30
0.0
 11
386.4006724928815
 21
761.7610312787658
 31
0.0
  0
LINE
  5
3ACE
  8
DIMENSIONS
  6
BYBLOCK
 62
     0
 10
386.2206724928815
 20
779.2610312787658
 30
0.0
 11
386.2206724928815
 21
766.7610312787658
 31
0.0
  0
SOLID
  5
3ACF
  8
DIMENSIONS
 62
     0
 10
387.0540058262148
 20
779.2610312787658
 30
0.0
 11
385.3873391595482
 21
779.2610312787658
 31
0.0
 12
386.2206724928815
 22
784.2610312787658
 32
0.0
 13
386.2206724928815
 23
784.2610312787658
 33
0.0
  0
SOLID
  5
3AD0
  8
DIMENSIONS
 62
     0
 10
385.3873391595482
 20
766.7610312787658
 30
0.0
 11
387.0540058262148
 21
766.7610312787658
 31
0.0
 12
386.2206724928815
 22
761.7610312787658
 32
0.0
 13
386.2206724928815
 23
761.7610312787658
 33
0.0
  0
TEXT
  5
3AD1
  8
DIMENSIONS
  6
CONTINUOUS
 62
     5
 10
394.3728313293744
 20
756.4392597824462
 30
0.0
 40
5.0
  1
22.5 [0.89]
 50
90.0
  0
POINT
  5
3AD2
  8
DEFPOINTS
 62
     0
 10
373.9459240616767
 20
784.2610312787658
 30
0.0
  0
POINT
  5
3AD3
  8
DEFPOINTS
 62
     0
 10
351.4459240616767
 20
761.7610312787658
 30
0.0
  0
POINT
  5
3AD4
  8
DEFPOINTS
 62
     0
 10
386.2206724928815
 20
761.7610312787658
 30
0.0
  0
ENDBLK
  5
3ACB
  8
0
  0
BLOCK
  8
0
  2
*D29
 70
     1
 10
0.0
 20
0.0
 30
0.0
  3
*D29
  1

  0
LINE
  5
3ADB
  8
DIMENSIONS
  6
BYBLOCK
 62
     0
 10
352.9459240616767
 20
761.7610312787658
 30
0.0
 11
386.4006724928815
 21
761.7610312787658
 31
0.0
  0
LINE
  5
3ADC
  8
DIMENSIONS
  6
BYBLOCK
 62
     0
 10
352.9459240616767
 20
491.7610312787658
 30
0.0
 11
386.4006724928815
 21
491.7610312787658
 31
0.0
  0
LINE
  5
3ADD
  8
DIMENSIONS
  6
BYBLOCK
 62
     0
 10
386.2206724928815
 20
756.7610312787658
 30
0.0
 11
386.2206724928815
 21
496.7610312787658
 31
0.0
  0
SOLID
  5
3ADE
  8
DIMENSIONS
 62
     0
 10
387.0540058262148
 20
756.7610312787658
 30
0.0
 11
385.3873391595482
 21
756.7610312787658
 31
0.0
 12
386.2206724928815
 22
761.7610312787658
 32
0.0
 13
386.2206724928815
 23
761.7610312787658
 33
0.0
  0
SOLID
  5
3ADF
  8
DIMENSIONS
 62
     0
 10
385.3873391595482
 20
496.7610312787658
 30
0.0
 11
387.0540058262148
 21
496.7610312787658
 31
0.0
 12
386.2206724928815
 22
491.7610312787658
 32
0.0
 13
386.2206724928815
 23
491.7610312787658
 33
0.0
  0
TEXT
  5
3AE0
  8
DIMENSIONS
  6
CONTINUOUS
 62
     5
 10
393.6306137930424
 20
609.2073436811809
 30
0.0
 40
5.0
  1
270 [10.63]
 50
90.0
  0
POINT
  5
3AE1
  8
DEFPOINTS
 62
     0
 10
351.4459240616767
 20
761.7610312787658
 30
0.0
  0
POINT
  5
3AE2
  8
DEFPOINTS
 62
     0
 10
351.4459240616767
 20
491.7610312787658
 30
0.0
  0
POINT
  5
3AE3
  8
DEFPOINTS
 62
     0
 10
386.2206724928815
 20
491.7610312787658
 30
0.0
  0
ENDBLK
  5
3ADA
  8
0
  0
BLOCK
  8
0
  2
*D30
 70
     1
 10
0.0
 20
0.0
 30
0.0
  3
*D30
  1

  0
LINE
  5
3AEE
  8
DIMENSIONS
  6
BYBLOCK
 62
     0
 10
143.4223925127121
 20
445.742683849421
 30
0.0
 11
146.0556092486153
 21
441.4922521511391
 31
0.0
  0
LINE
  5
3AEF
  8
DIMENSIONS
  6
BYBLOCK
 62
     0
 10
134.4694556106413
 20
460.1941516235794
 30
0.0
 11
131.8362388747381
 21
464.4445833218613
 31
0.0
  0
TEXT
  5
3AF0
  8
DIMENSIONS
  6
CONTINUOUS
 62
     5
 10
146.0929436634589
 20
452.5089693514943
 30
0.0
 40
5.0
  1
Ø7 [Ø0.28]
 50
301.7789385995003
  0
SOLID
  5
3AF1
  8
DIMENSIONS
 62
     0
 10
133.7610503275943
 20
459.7552821675956
 30
0.0
 11
135.1778608936883
 21
460.6330210795633
 31
0.0
 12
137.1026723465445
 22
455.9437199252976
 32
0.0
 13
137.1026723465445
 23
455.9437199252976
 33
0.0
  0
SOLID
  5
3AF2
  8
DIMENSIONS
 62
     0
 10
144.1307977957591
 20
446.1815533054049
 30
0.0
 11
142.7139872296651
 21
445.3038143934371
 31
0.0
 12
140.7891757768089
 22
449.9931155477029
 32
0.0
 13
140.7891757768089
 23
449.9931155477029
 33
0.0
  0
LINE
  5
3AF3
  8
DIMENSIONS
  6
BYBLOCK
 62
     0
 10
137.6959240616767
 20
452.9684177365002
 30
0.0
 11
140.1959240616767
 21
452.9684177365002
 31
0.0
  0
LINE
  5
3AF4
  8
DIMENSIONS
  6
BYBLOCK
 62
     0
 10
138.9459240616767
 20
451.7184177365002
 30
0.0
 11
138.9459240616767
 21
454.2184177365002
 31
0.0
  0
POINT
  5
3AF5
  8
DEFPOINTS
 62
     0
 10
140.7891757768089
 20
449.9931155477029
 30
0.0
  0
POINT
  5
3AF6
  8
DEFPOINTS
 62
     0
 10
137.1026723465445
 20
455.9437199252976
 30
0.0
  0
ENDBLK
  5
3AED
  8
0
  0
BLOCK
  8
0
  2
*D31
 70
     1
 10
0.0
 20
0.0
 30
0.0
  3
*D31
  1

  0
LINE
  5
3AFD
  8
DIMENSIONS
  6
BYBLOCK
 10
164.4425146893333
 20
424.0756242369305
 30
0.0
 11
156.8455146893333
 21
424.0756242369305
 31
0.0
  0
LINE
  5
3AFE
  8
DIMENSIONS
  6
BYBLOCK
 10
156.8455146893333
 20
424.0756242369305
 30
0.0
 11
142.6324274919411
 21
447.0178133589055
 31
0.0
  0
TEXT
  5
3AFF
  8
DIMENSIONS
  6
CONTINUOUS
 62
     2
 10
158.1495146893333
 20
425.7786242369305
 30
0.0
 40
3.5
  1
Ø7
  0
SOLID
  5
3B00
  8
DIMENSIONS
 10
143.128311190074
 20
447.3250219780942
 30
0.0
 11
142.1365437938082
 21
446.7106047397168
 31
0.0
 12
140.7891757768089
 22
449.9931155477029
 32
0.0
 13
140.7891757768089
 23
449.9931155477029
 33
0.0
  0
POINT
  5
3B01
  8
DEFPOINTS
 62
     0
 10
140.7891757768089
 20
449.9931155477029
 30
0.0
  0
POINT
  5
3B02
  8
DEFPOINTS
 62
     0
 10
137.1026723465445
 20
455.9437199252976
 30
0.0
  0
ENDBLK
  5
3AFC
  8
0
  0
BLOCK
  8
0
  2
*D32
 70
     1
 10
0.0
 20
0.0
 30
0.0
  3
*D32
  1

  0
LINE
  5
3B0D
  8
DIMENSIONS
  6
BYBLOCK
 62
     0
 10
146.3122844778818
 20
468.0199542671369
 30
0.0
 11
181.3284953739718
 21
447.8598699547996
 31
0.0
  0
TEXT
  5
3B0E
  8
DIMENSIONS
  6
CONTINUOUS
 62
     5
 10
152.5043135584082
 20
467.3108697405004
 30
0.0
 40
5.0
  1
Ø7 [Ø0.28]
 50
330.0694275147055
  0
SOLID
  5
3B0F
  8
DIMENSIONS
 62
     0
 10
146.728076341767
 20
468.742146464804
 30
0.0
 11
145.8964926139966
 21
467.2977620694697
 31
0.0
 12
141.9791312918788
 22
470.514705450448
 32
0.0
 13
141.9791312918788
 23
470.514705450448
 33
0.0
  0
LINE
  5
3B10
  8
DIMENSIONS
  6
BYBLOCK
 62
     0
 10
137.6959240616767
 20
472.2610312787658
 30
0.0
 11
140.1959240616767
 21
472.2610312787658
 31
0.0
  0
LINE
  5
3B11
  8
DIMENSIONS
  6
BYBLOCK
 62
     0
 10
138.9459240616767
 20
471.0110312787658
 30
0.0
 11
138.9459240616767
 21
473.5110312787658
 31
0.0
  0
POINT
  5
3B12
  8
DEFPOINTS
 62
     0
 10
141.9791312918788
 20
470.514705450448
 30
0.0
  0
POINT
  5
3B13
  8
DEFPOINTS
 62
     0
 10
135.9127168314746
 20
474.0073571070836
 30
0.0
  0
ENDBLK
  5
3B0C
  8
0
  0
BLOCK
  8
0
  2
*D33
 70
     1
 10
0.0
 20
0.0
 30
0.0
  3
*D33
  1

  0
LINE
  5
3C91
  8
DIMENSIONS
  6
BYBLOCK
 62
     0
 10
458.7507439125419
 20
766.4684177365004
 30
0.0
 11
458.7507439125419
 21
786.6244695133588
 31
0.0
  0
LINE
  5
3C92
  8
DIMENSIONS
  6
BYBLOCK
 62
     0
 10
708.7507439125418
 20
766.4684177365004
 30
0.0
 11
708.7507439125418
 21
786.6244695133588
 31
0.0
  0
LINE
  5
3C93
  8
DIMENSIONS
  6
BYBLOCK
 62
     0
 10
463.7507439125419
 20
786.4444695133589
 30
0.0
 11
703.7507439125418
 21
786.4444695133589
 31
0.0
  0
SOLID
  5
3C94
  8
DIMENSIONS
 62
     0
 10
463.7507439125419
 20
787.2778028466922
 30
0.0
 11
463.7507439125419
 21
785.6111361800255
 31
0.0
 12
458.7507439125419
 22
786.4444695133589
 32
0.0
 13
458.7507439125419
 23
786.4444695133589
 33
0.0
  0
SOLID
  5
3C95
  8
DIMENSIONS
 62
     0
 10
703.7507439125418
 20
785.6111361800255
 30
0.0
 11
703.7507439125418
 21
787.2778028466922
 31
0.0
 12
708.7507439125418
 22
786.4444695133589
 32
0.0
 13
708.7507439125418
 23
786.4444695133589
 33
0.0
  0
TEXT
  5
3C96
  8
DIMENSIONS
  6
CONTINUOUS
 62
     5
 10
568.3557439125417
 20
788.8394695133588
 30
0.0
 40
5.0
  1
250 [9.84]
  0
POINT
  5
3C97
  8
DEFPOINTS
 62
     0
 10
458.7507439125419
 20
764.9684177365004
 30
0.0
  0
POINT
  5
3C98
  8
DEFPOINTS
 62
     0
 10
708.7507439125418
 20
764.9684177365004
 30
0.0
  0
POINT
  5
3C99
  8
DEFPOINTS
 62
     0
 10
708.7507439125418
 20
786.4444695133589
 30
0.0
  0
ENDBLK
  5
3C90
  8
0
  0
BLOCK
  8
0
  2
*D34
 70
     1
 10
0.0
 20
0.0
 30
0.0
  3
*D34
  1

  0
LINE
  5
3CA0
  8
DIMENSIONS
  6
BYBLOCK
 62
     0
 10
473.7507439125419
 20
751.4684177365004
 30
0.0
 11
473.7507439125419
 21
775.7778701888303
 31
0.0
  0
LINE
  5
3CA1
  8
DIMENSIONS
  6
BYBLOCK
 62
     0
 10
693.7507439125418
 20
751.4684177365004
 30
0.0
 11
693.7507439125418
 21
775.7778701888303
 31
0.0
  0
LINE
  5
3CA2
  8
DIMENSIONS
  6
BYBLOCK
 62
     0
 10
478.7507439125419
 20
775.5978701888304
 30
0.0
 11
688.7507439125418
 21
775.5978701888304
 31
0.0
  0
SOLID
  5
3CA3
  8
DIMENSIONS
 62
     0
 10
478.7507439125419
 20
776.4312035221637
 30
0.0
 11
478.7507439125419
 21
774.764536855497
 31
0.0
 12
473.7507439125419
 22
775.5978701888304
 32
0.0
 13
473.7507439125419
 23
775.5978701888304
 33
0.0
  0
SOLID
  5
3CA4
  8
DIMENSIONS
 62
     0
 10
688.7507439125418
 20
774.764536855497
 30
0.0
 11
688.7507439125418
 21
776.4312035221637
 31
0.0
 12
693.7507439125418
 22
775.5978701888304
 32
0.0
 13
693.7507439125418
 23
775.5978701888304
 33
0.0
  0
TEXT
  5
3CA5
  8
DIMENSIONS
  6
CONTINUOUS
 62
     5
 10
568.3557439125417
 20
777.9928701888304
 30
0.0
 40
5.0
  1
220 [8.66]
  0
POINT
  5
3CA6
  8
DEFPOINTS
 62
     0
 10
473.7507439125419
 20
749.9684177365004
 30
0.0
  0
POINT
  5
3CA7
  8
DEFPOINTS
 62
     0
 10
693.7507439125418
 20
749.9684177365004
 30
0.0
  0
POINT
  5
3CA8
  8
DEFPOINTS
 62
     0
 10
693.7507439125418
 20
775.5978701888304
 30
0.0
  0
ENDBLK
  5
3C9F
  8
0
  0
BLOCK
  8
0
  2
*D35
 70
     1
 10
0.0
 20
0.0
 30
0.0
  3
*D35
  1

  0
LINE
  5
3CAF
  8
DIMENSIONS
  6
BYBLOCK
 62
     0
 10
457.2507439125419
 20
764.9684177365004
 30
0.0
 11
446.4537310444902
 21
764.9684177365004
 31
0.0
  0
LINE
  5
3CB0
  8
DIMENSIONS
  6
BYBLOCK
 62
     0
 10
472.2507439125419
 20
749.9684177365004
 30
0.0
 11
446.4537310444902
 21
749.9684177365004
 31
0.0
  0
LINE
  5
3CB1
  8
DIMENSIONS
  6
BYBLOCK
 62
     0
 10
446.6337310444902
 20
759.9684177365004
 30
0.0
 11
446.6337310444902
 21
754.9684177365004
 31
0.0
  0
SOLID
  5
3CB2
  8
DIMENSIONS
 62
     0
 10
447.4670643778235
 20
759.9684177365004
 30
0.0
 11
445.8003977111568
 21
759.9684177365004
 31
0.0
 12
446.6337310444902
 22
764.9684177365004
 32
0.0
 13
446.6337310444902
 23
764.9684177365004
 33
0.0
  0
SOLID
  5
3CB3
  8
DIMENSIONS
 62
     0
 10
445.8003977111568
 20
754.9684177365004
 30
0.0
 11
447.4670643778235
 21
754.9684177365004
 31
0.0
 12
446.6337310444902
 22
749.9684177365004
 32
0.0
 13
446.6337310444902
 23
749.9684177365004
 33
0.0
  0
TEXT
  5
3CB4
  8
DIMENSIONS
  6
CONTINUOUS
 62
     5
 10
443.1701729344884
 20
737.637454184834
 30
0.0
 40
5.0
  1
15 [0.59]
 50
90.0
  0
POINT
  5
3CB5
  8
DEFPOINTS
 62
     0
 10
458.7507439125419
 20
764.9684177365004
 30
0.0
  0
POINT
  5
3CB6
  8
DEFPOINTS
 62
     0
 10
473.7507439125419
 20
749.9684177365004
 30
0.0
  0
POINT
  5
3CB7
  8
DEFPOINTS
 62
     0
 10
446.6337310444902
 20
749.9684177365004
 30
0.0
  0
ENDBLK
  5
3CAE
  8
0
  0
BLOCK
  8
0
  2
*D36
 70
     1
 10
0.0
 20
0.0
 30
0.0
  3
*D36
  1

  0
LINE
  5
3CBE
  8
DIMENSIONS
  6
BYBLOCK
 62
     0
 10
472.2507439125419
 20
178.4684177365004
 30
0.0
 11
446.4544271494409
 21
178.4684177365004
 31
0.0
  0
LINE
  5
3CBF
  8
DIMENSIONS
  6
BYBLOCK
 62
     0
 10
472.2507439125419
 20
749.9684177365004
 30
0.0
 11
446.454427149441
 21
749.9684177365004
 31
0.0
  0
LINE
  5
3CC0
  8
DIMENSIONS
  6
BYBLOCK
 62
     0
 10
446.6344271494409
 20
183.4684177365004
 30
0.0
 11
446.634427149441
 21
744.9684177365004
 31
0.0
  0
SOLID
  5
3CC1
  8
DIMENSIONS
 62
     0
 10
445.8010938161076
 20
183.4684177365004
 30
0.0
 11
447.4677604827742
 21
183.4684177365004
 31
0.0
 12
446.6344271494409
 22
178.4684177365004
 32
0.0
 13
446.6344271494409
 23
178.4684177365004
 33
0.0
  0
SOLID
  5
3CC2
  8
DIMENSIONS
 62
     0
 10
447.4677604827743
 20
744.9684177365004
 30
0.0
 11
445.8010938161077
 21
744.9684177365004
 31
0.0
 12
446.634427149441
 22
749.9684177365004
 32
0.0
 13
446.634427149441
 23
749.9684177365004
 33
0.0
  0
TEXT
  5
3CC3
  8
DIMENSIONS
  6
CONTINUOUS
 62
     5
 10
444.239427149441
 20
443.9309177365004
 30
0.0
 40
5.0
  1
571.5 [22.50]
 50
90.0
  0
POINT
  5
3CC4
  8
DEFPOINTS
 62
     0
 10
473.7507439125419
 20
178.4684177365004
 30
0.0
  0
POINT
  5
3CC5
  8
DEFPOINTS
 62
     0
 10
473.7507439125419
 20
749.9684177365004
 30
0.0
  0
POINT
  5
3CC6
  8
DEFPOINTS
 62
     0
 10
446.634427149441
 20
749.9684177365004
 30
0.0
  0
ENDBLK
  5
3CBD
  8
0
  0
BLOCK
  8
0
  2
*D37
 70
     1
 10
0.0
 20
0.0
 30
0.0
  3
*D37
  1

  0
LINE
  5
3CCD
  8
DIMENSIONS
  6
BYBLOCK
 62
     0
 10
472.9570024249289
 20
178.4684177365004
 30
0.0
 11
446.4759954813371
 21
178.4684177365004
 31
0.0
  0
LINE
  5
3CCE
  8
DIMENSIONS
  6
BYBLOCK
 62
     0
 10
457.9570024249289
 20
164.9684177365004
 30
0.0
 11
446.4759954813371
 21
164.9684177365004
 31
0.0
  0
LINE
  5
3CCF
  8
DIMENSIONS
  6
BYBLOCK
 62
     0
 10
446.6559954813371
 20
173.4684177365004
 30
0.0
 11
446.6559954813371
 21
169.9684177365004
 31
0.0
  0
SOLID
  5
3CD0
  8
DIMENSIONS
 62
     0
 10
447.4893288146704
 20
173.4684177365004
 30
0.0
 11
445.8226621480038
 21
173.4684177365004
 31
0.0
 12
446.6559954813371
 22
178.4684177365004
 32
0.0
 13
446.6559954813371
 23
178.4684177365004
 33
0.0
  0
SOLID
  5
3CD1
  8
DIMENSIONS
 62
     0
 10
445.8226621480038
 20
169.9684177365004
 30
0.0
 11
447.4893288146704
 21
169.9684177365004
 31
0.0
 12
446.6559954813371
 22
164.9684177365004
 32
0.0
 13
446.6559954813371
 23
164.9684177365004
 33
0.0
  0
TEXT
  5
3CD2
  8
DIMENSIONS
  6
CONTINUOUS
 62
     5
 10
441.9877004169741
 20
165.2022209712875
 30
0.0
 40
5.0
  1
13.5 [0.53]
 50
90.0
  0
POINT
  5
3CD3
  8
DEFPOINTS
 62
     0
 10
474.4570024249289
 20
178.4684177365004
 30
0.0
  0
POINT
  5
3CD4
  8
DEFPOINTS
 62
     0
 10
459.4570024249289
 20
164.9684177365004
 30
0.0
  0
POINT
  5
3CD5
  8
DEFPOINTS
 62
     0
 10
446.6559954813371
 20
164.9684177365004
 30
0.0
  0
ENDBLK
  5
3CCC
  8
0
  0
BLOCK
  8
0
  2
*D38
 70
     1
 10
0.0
 20
0.0
 30
0.0
  3
*D38
  1

  0
LINE
  5
3CDC
  8
DIMENSIONS
  6
BYBLOCK
 62
     0
 10
457.2507439125419
 20
164.9684177365004
 30
0.0
 11
430.5648744674552
 21
164.9684177365004
 31
0.0
  0
LINE
  5
3CDD
  8
DIMENSIONS
  6
BYBLOCK
 62
     0
 10
457.2507439125419
 20
764.9684177365004
 30
0.0
 11
430.5648744674553
 21
764.9684177365004
 31
0.0
  0
LINE
  5
3CDE
  8
DIMENSIONS
  6
BYBLOCK
 62
     0
 10
430.7448744674552
 20
169.9684177365004
 30
0.0
 11
430.7448744674553
 21
759.9684177365004
 31
0.0
  0
SOLID
  5
3CDF
  8
DIMENSIONS
 62
     0
 10
429.9115411341219
 20
169.9684177365004
 30
0.0
 11
431.5782078007886
 21
169.9684177365004
 31
0.0
 12
430.7448744674552
 22
164.9684177365004
 32
0.0
 13
430.7448744674552
 23
164.9684177365004
 33
0.0
  0
SOLID
  5
3CE0
  8
DIMENSIONS
 62
     0
 10
431.5782078007886
 20
759.9684177365004
 30
0.0
 11
429.911541134122
 21
759.9684177365004
 31
0.0
 12
430.7448744674553
 22
764.9684177365004
 32
0.0
 13
430.7448744674553
 23
764.9684177365004
 33
0.0
  0
TEXT
  5
3CE1
  8
DIMENSIONS
  6
CONTINUOUS
 62
     5
 10
428.3498744674552
 20
447.6059177365004
 30
0.0
 40
5.0
  1
600 [23.62]
 50
90.0
  0
POINT
  5
3CE2
  8
DEFPOINTS
 62
     0
 10
458.7507439125419
 20
164.9684177365004
 30
0.0
  0
POINT
  5
3CE3
  8
DEFPOINTS
 62
     0
 10
458.7507439125419
 20
764.9684177365004
 30
0.0
  0
POINT
  5
3CE4
  8
DEFPOINTS
 62
     0
 10
430.7448744674553
 20
764.9684177365004
 30
0.0
  0
ENDBLK
  5
3CDB
  8
0
  0
BLOCK
  8
0
  2
*D39
 70
     1
 10
0.0
 20
0.0
 30
0.0
  3
*D39
  1

  0
LINE
  5
3E42
  8
0
  6
CONTINUOUS
 62
     0
 10
445.6859004364001
 20
48.34518388690002
 30
0.0
 11
445.6859004364001
 21
16.41899312160002
 31
0.0
  0
LINE
  5
3E43
  8
0
  6
CONTINUOUS
 62
     0
 10
678.6859004364001
 20
48.34518388690002
 30
0.0
 11
678.6859004364001
 21
16.41899312160002
 31
0.0
  0
LINE
  5
3E44
  8
0
  6
CONTINUOUS
 62
     0
 10
445.8659004364001
 20
16.59899312160002
 30
0.0
 11
561.5818204364
 21
16.59899312160002
 31
0.0
  0
LINE
  5
3E45
  8
0
  6
CONTINUOUS
 62
     0
 10
678.5059004364001
 20
16.59899312160002
 30
0.0
 11
562.7899804364001
 21
16.59899312160002
 31
0.0
  0
SOLID
  5
3E46
  8
0
 62
     0
 10
445.8659004364001
 20
16.62899312160002
 30
0.0
 11
445.8659004364001
 21
16.56899312160002
 31
0.0
 12
445.6859004364001
 22
16.59899312160002
 32
0.0
 13
445.6859004364001
 23
16.59899312160002
 33
0.0
  0
SOLID
  5
3E47
  8
0
 62
     0
 10
678.5059004364001
 20
16.56899312160002
 30
0.0
 11
678.5059004364001
 21
16.62899312160002
 31
0.0
 12
678.6859004364001
 22
16.59899312160002
 32
0.0
 13
678.6859004364001
 23
16.59899312160002
 33
0.0
  0
TEXT
  5
3E48
  8
0
  6
CONTINUOUS
 62
     0
 10
561.6644404364
 20
16.51052312160002
 30
0.0
 40
0.18
  1
233.0000
  0
POINT
  5
3E49
  8
DEFPOINTS
 62
     0
 10
445.6859004364001
 20
48.40768388690002
 30
0.0
  0
POINT
  5
3E4A
  8
DEFPOINTS
 62
     0
 10
678.6859004364001
 20
48.40768388690002
 30
0.0
  0
POINT
  5
3E4F
  8
DEFPOINTS
 62
     0
 10
678.6859004364001
 20
16.59899312160002
 30
0.0
  0
ENDBLK
  5
3E50
  8
0
  6
BYBLOCK
 62
     0
  0
BLOCK
  8
0
  2
*D40
 70
     1
 10
0.0
 20
0.0
 30
0.0
  3
*D40
  1

  0
LINE
  5
3E54
  8
0
  6
CONTINUOUS
 62
     0
 10
273.9953773264
 20
633.9701838869
 30
0.0
 11
273.9953773264
 21
682.3739958616999
 31
0.0
  0
LINE
  5
3E55
  8
0
  6
CONTINUOUS
 62
     0
 10
23.99537732640002
 20
633.9701838869
 30
0.0
 11
23.99537732640002
 21
682.3739958616999
 31
0.0
  0
LINE
  5
3E56
  8
0
  6
CONTINUOUS
 62
     0
 10
273.8153773264
 20
682.1939958616999
 30
0.0
 11
150.9865275967
 21
682.1939958616999
 31
0.0
  0
LINE
  5
3E57
  8
0
  6
CONTINUOUS
 62
     0
 10
24.17537732640002
 20
682.1939958616999
 30
0.0
 11
149.7783675967
 21
682.1939958616999
 31
0.0
  0
SOLID
  5
3E58
  8
0
 62
     0
 10
273.8153773264
 20
682.1639958617
 30
0.0
 11
273.8153773264
 21
682.2239958616999
 31
0.0
 12
273.9953773264
 22
682.1939958616999
 32
0.0
 13
273.9953773264
 23
682.1939958616999
 33
0.0
  0
SOLID
  5
3E59
  8
0
 62
     0
 10
24.17537732640002
 20
682.2239958616999
 30
0.0
 11
24.17537732640002
 21
682.1639958617
 31
0.0
 12
23.99537732640002
 22
682.1939958616999
 32
0.0
 13
23.99537732640002
 23
682.1939958616999
 33
0.0
  0
TEXT
  5
3E5A
  8
0
  6
CONTINUOUS
 62
     0
 10
149.8609875967
 20
682.1055258617
 30
0.0
 40
0.18
  1
250.0000
  0
POINT
  5
3E5B
  8
DEFPOINTS
 62
     0
 10
273.9953773264
 20
633.9076838869
 30
0.0
  0
POINT
  5
3E5C
  8
DEFPOINTS
 62
     0
 10
23.99537732640002
 20
633.9076838869
 30
0.0
  0
POINT
  5
3E5D
  8
DEFPOINTS
 62
     0
 10
23.99537732640001
 20
682.1939958616999
 30
0.0
  0
ENDBLK
  5
3E5E
  8
0
  6
BYBLOCK
 62
     0
  0
BLOCK
  8
0
  2
*D41
 70
     1
 10
0.0
 20
0.0
 30
0.0
  3
*D41
  1

  0
LINE
  5
3E62
  8
0
  6
CONTINUOUS
 62
     0
 10
23.93287732640002
 20
633.9076838869
 30
0.0
 11
4.209000000000058
 21
633.9076838869
 31
0.0
  0
LINE
  5
3E63
  8
0
  6
CONTINUOUS
 62
     0
 10
23.93287732640002
 20
33.90768388690002
 30
0.0
 11
4.208999999999962
 21
33.90768388690003
 31
0.0
  0
LINE
  5
3E64
  8
0
  6
CONTINUOUS
 62
     0
 10
4.389000000000058
 20
633.7276838869001
 30
0.0
 11
4.38900000000001
 21
334.0895738869
 31
0.0
  0
LINE
  5
3E65
  8
0
  6
CONTINUOUS
 62
     0
 10
4.388999999999962
 20
34.08768388690003
 30
0.0
 11
4.38900000000001
 21
333.7257938869001
 31
0.0
  0
SOLID
  5
3E66
  8
0
 62
     0
 10
4.419000000000058
 20
633.7276838869001
 30
0.0
 11
4.359000000000058
 21
633.7276838869001
 31
0.0
 12
4.389000000000058
 22
633.9076838869
 32
0.0
 13
4.389000000000058
 23
633.9076838869
 33
0.0
  0
SOLID
  5
3E67
  8
0
 62
     0
 10
4.358999999999962
 20
34.08768388690003
 30
0.0
 11
4.418999999999962
 21
34.08768388690003
 31
0.0
 12
4.388999999999962
 22
33.90768388690003
 32
0.0
 13
4.388999999999962
 23
33.90768388690003
 33
0.0
  0
TEXT
  5
3E68
  8
0
  6
CONTINUOUS
 62
     0
 10
3.86655000000001
 20
333.8192138869
 30
0.0
 40
0.18
  1
600.0000
  0
POINT
  5
3E69
  8
DEFPOINTS
 62
     0
 10
23.99537732640002
 20
633.9076838869
 30
0.0
  0
POINT
  5
3E6A
  8
DEFPOINTS
 62
     0
 10
23.99537732640002
 20
33.90768388690002
 30
0.0
  0
POINT
  5
3E6B
  8
DEFPOINTS
 62
     0
 10
4.38900000000001
 20
33.90768388690002
 30
0.0
  0
ENDBLK
  5
3E6C
  8
0
  6
BYBLOCK
 62
     0
  0
BLOCK
  8
0
  2
*D42
 70
     1
 10
0.0
 20
0.0
 30
0.0
  3
*D42
  1

  0
LINE
  5
3E70
  8
0
  6
CONTINUOUS
 62
     0
 10
38.99537732640002
 20
613.9480811907001
 30
0.0
 11
38.99537732640002
 21
668.2168911573
 31
0.0
  0
LINE
  5
3E71
  8
0
  6
CONTINUOUS
 62
     0
 10
258.9953773264
 20
614.3335248889
 30
0.0
 11
258.9953773264
 21
668.2168911573
 31
0.0
  0
LINE
  5
3E72
  8
0
  6
CONTINUOUS
 62
     0
 10
39.17537732640002
 20
668.0368911573
 30
0.0
 11
149.6967752278
 21
668.0368911573
 31
0.0
  0
LINE
  5
3E73
  8
0
  6
CONTINUOUS
 62
     0
 10
258.8153773264
 20
668.0368911573
 30
0.0
 11
150.9049352278
 21
668.0368911573
 31
0.0
  0
SOLID
  5
3E74
  8
0
 62
     0
 10
39.17537732640002
 20
668.0668911573
 30
0.0
 11
39.17537732640002
 21
668.0068911573001
 31
0.0
 12
38.99537732640002
 22
668.0368911573
 32
0.0
 13
38.99537732640002
 23
668.0368911573
 33
0.0
  0
SOLID
  5
3E75
  8
0
 62
     0
 10
258.8153773264
 20
668.0068911573001
 30
0.0
 11
258.8153773264
 21
668.0668911573
 31
0.0
 12
258.9953773264
 22
668.0368911573
 32
0.0
 13
258.9953773264
 23
668.0368911573
 33
0.0
  0
TEXT
  5
3E76
  8
0
  6
CONTINUOUS
 62
     0
 10
149.7793952278
 20
667.9484211573001
 30
0.0
 40
0.18
  1
220.0000
  0
POINT
  5
3E77
  8
DEFPOINTS
 62
     0
 10
38.99537732640002
 20
613.8855811907001
 30
0.0
  0
POINT
  5
3E78
  8
DEFPOINTS
 62
     0
 10
258.9953773264
 20
614.2710248889
 30
0.0
  0
POINT
  5
3E79
  8
DEFPOINTS
 62
     0
 10
258.9953773264
 20
668.0368911573
 30
0.0
  0
ENDBLK
  5
3E7A
  8
0
  6
BYBLOCK
 62
     0
  0
BLOCK
  8
0
  2
*D43
 70
     1
 10
0.0
 20
0.0
 30
0.0
  3
*D43
  1

  0
LINE
  5
3E7E
  8
0
  6
CONTINUOUS
 62
     0
 10
251.4953773264
 20
611.4701838869
 30
0.0
 11
251.4953773264
 21
640.3224323226999
 31
0.0
  0
LINE
  5
3E7F
  8
0
  6
CONTINUOUS
 62
     0
 10
46.49537732640002
 20
611.4701838869
 30
0.0
 11
46.49537732640002
 21
640.3224323226999
 31
0.0
  0
LINE
  5
3E80
  8
0
  6
CONTINUOUS
 62
     0
 10
251.3153773264
 20
640.1424323227
 30
0.0
 11
149.5994573264001
 21
640.1424323227
 31
0.0
  0
LINE
  5
3E81
  8
0
  6
CONTINUOUS
 62
     0
 10
46.67537732640002
 20
640.1424323227
 30
0.0
 11
148.3912973264
 21
640.1424323227
 31
0.0
  0
SOLID
  5
3E82
  8
0
 62
     0
 10
251.3153773264
 20
640.1124323227
 30
0.0
 11
251.3153773264
 21
640.1724323226999
 31
0.0
 12
251.4953773264
 22
640.1424323227
 32
0.0
 13
251.4953773264
 23
640.1424323227
 33
0.0
  0
SOLID
  5
3E83
  8
0
 62
     0
 10
46.67537732640002
 20
640.1724323226999
 30
0.0
 11
46.67537732640002
 21
640.1124323227
 31
0.0
 12
46.49537732640002
 22
640.1424323227
 32
0.0
 13
46.49537732640002
 23
640.1424323227
 33
0.0
  0
TEXT
  5
3E84
  8
0
  6
CONTINUOUS
 62
     0
 10
148.4739173264
 20
640.0539623227
 30
0.0
 40
0.18
  1
205.0000
  0
POINT
  5
3E85
  8
DEFPOINTS
 62
     0
 10
251.4953773264
 20
611.4076838869
 30
0.0
  0
POINT
  5
3E86
  8
DEFPOINTS
 62
     0
 10
46.49537732640002
 20
611.4076838869
 30
0.0
  0
POINT
  5
3E87
  8
DEFPOINTS
 62
     0
 10
46.49537732640002
 20
640.1424323227
 30
0.0
  0
ENDBLK
  5
3E88
  8
0
  6
BYBLOCK
 62
     0
  0
BLOCK
  8
0
  2
*D44
 70
     1
 10
0.0
 20
0.0
 30
0.0
  3
*D44
  1

  0
LINE
  5
3E8C
  8
0
  6
CONTINUOUS
 62
     0
 10
281.425514465
 20
641.0004674598001
 30
0.0
 11
281.245514465
 21
641.0004674598001
 31
0.0
  0
LINE
  5
3E8D
  8
0
  6
CONTINUOUS
 62
     0
 10
281.245514465
 20
641.0004674598001
 30
0.0
 11
281.245514465
 21
633.9076838869
 31
0.0
  0
LINE
  5
3E8E
  8
0
  6
CONTINUOUS
 62
     0
 10
251.5578773264
 20
611.4076838869
 30
0.0
 11
281.425514465
 21
611.4076838869
 31
0.0
  0
LINE
  5
3E8F
  8
0
  6
CONTINUOUS
 62
     0
 10
274.0578773264
 20
633.9076838869
 30
0.0
 11
281.425514465
 21
633.9076838869
 31
0.0
  0
LINE
  5
3E90
  8
0
  6
CONTINUOUS
 62
     0
 10
281.245514465
 20
611.5876838869
 30
0.0
 11
281.245514465
 21
633.7276838869001
 31
0.0
  0
LINE
  5
3E91
  8
0
  6
CONTINUOUS
 62
     0
 10
281.245514465
 20
633.7276838869001
 30
0.0
 11
281.245514465
 21
611.5876838869
 31
0.0
  0
SOLID
  5
3E92
  8
0
 62
     0
 10
281.2155144650001
 20
611.5876838869
 30
0.0
 11
281.275514465
 21
611.5876838869
 31
0.0
 12
281.245514465
 22
611.4076838869
 32
0.0
 13
281.245514465
 23
611.4076838869
 33
0.0
  0
SOLID
  5
3E93
  8
0
 62
     0
 10
281.275514465
 20
633.7276838869001
 30
0.0
 11
281.2155144650001
 21
633.7276838869001
 31
0.0
 12
281.245514465
 22
633.9076838869
 32
0.0
 13
281.245514465
 23
633.9076838869
 33
0.0
  0
TEXT
  5
3E94
  8
0
  6
CONTINUOUS
 62
     0
 10
281.508134465
 20
640.9119974598002
 30
0.0
 40
0.18
  1
22.5000
  0
POINT
  5
3E95
  8
DEFPOINTS
 62
     0
 10
251.4953773264
 20
611.4076838869
 30
0.0
  0
POINT
  5
3E96
  8
DEFPOINTS
 62
     0
 10
273.9953773264
 20
633.9076838869
 30
0.0
  0
POINT
  5
3FC4
  8
DEFPOINTS
 62
     0
 10
281.959754465
 20
633.9076838869
 30
0.0
  0
ENDBLK
  5
3E97
  8
0
  6
BYBLOCK
 62
     0
  0
BLOCK
  8
0
  2
*D45
 70
     1
 10
0.0
 20
0.0
 30
0.0
  3
*D45
  1

  0
LINE
  5
3E9B
  8
0
  6
CONTINUOUS
 62
     0
 10
251.5578773264
 20
341.4076838869
 30
0.0
 11
282.139754465
 21
341.4076838869
 31
0.0
  0
LINE
  5
3E9C
  8
0
  6
CONTINUOUS
 62
     0
 10
251.5578773264
 20
611.4076838869
 30
0.0
 11
282.139754465
 21
611.4076838869
 31
0.0
  0
LINE
  5
3E9D
  8
0
  6
CONTINUOUS
 62
     0
 10
281.959754465
 20
341.5876838869
 30
0.0
 11
281.959754465
 21
476.2257938869001
 31
0.0
  0
LINE
  5
3E9E
  8
0
  6
CONTINUOUS
 62
     0
 10
281.959754465
 20
611.2276838869001
 30
0.0
 11
281.959754465
 21
476.5895738869
 31
0.0
  0
SOLID
  5
3E9F
  8
0
 62
     0
 10
281.929754465
 20
341.5876838869
 30
0.0
 11
281.989754465
 21
341.5876838869
 31
0.0
 12
281.959754465
 22
341.4076838869
 32
0.0
 13
281.959754465
 23
341.4076838869
 33
0.0
  0
SOLID
  5
3EA0
  8
0
 62
     0
 10
281.989754465
 20
611.2276838869001
 30
0.0
 11
281.929754465
 21
611.2276838869001
 31
0.0
 12
281.959754465
 22
611.4076838869
 32
0.0
 13
281.959754465
 23
611.4076838869
 33
0.0
  0
TEXT
  5
3EA1
  8
0
  6
CONTINUOUS
 62
     0
 10
281.438294465
 20
476.3192138869
 30
0.0
 40
0.18
  1
270.0000
  0
POINT
  5
3EA2
  8
DEFPOINTS
 62
     0
 10
251.4953773264
 20
341.4076838869
 30
0.0
  0
POINT
  5
3EA3
  8
DEFPOINTS
 62
     0
 10
251.4953773264
 20
611.4076838869
 30
0.0
  0
POINT
  5
3EA4
  8
DEFPOINTS
 62
     0
 10
281.959754465
 20
611.4076838869
 30
0.0
  0
ENDBLK
  5
3EA5
  8
0
  6
BYBLOCK
 62
     0
  0
BLOCK
  8
0
  2
*D46
 70
     1
 10
0.0
 20
0.0
 30
0.0
  3
*D46
  1

  0
LINE
  5
3EA9
  8
0
  6
CONTINUOUS
 62
     0
 10
16.06799323020001
 20
640.3672086523
 30
0.0
 11
15.88799323020001
 21
640.3672086523
 31
0.0
  0
LINE
  5
3EAA
  8
0
  6
CONTINUOUS
 62
     0
 10
15.88799323020001
 20
640.3672086523
 30
0.0
 11
15.88799323020001
 21
633.9076838869
 31
0.0
  0
LINE
  5
3EAB
  8
0
  6
CONTINUOUS
 62
     0
 10
23.93287732640002
 20
633.9076838869
 30
0.0
 11
15.70799323020001
 21
633.9076838869
 31
0.0
  0
LINE
  5
3EAC
  8
0
  6
CONTINUOUS
 62
     0
 10
38.93287732640002
 20
613.9076838869
 30
0.0
 11
15.70799323020001
 21
613.9076838869
 31
0.0
  0
LINE
  5
3EAD
  8
0
  6
CONTINUOUS
 62
     0
 10
15.88799323020001
 20
633.7276838869001
 30
0.0
 11
15.88799323020001
 21
614.0876838869
 31
0.0
  0
LINE
  5
3EAE
  8
0
  6
CONTINUOUS
 62
     0
 10
15.88799323020001
 20
614.0876838869
 30
0.0
 11
15.88799323020001
 21
633.7276838869001
 31
0.0
  0
SOLID
  5
3EAF
  8
0
 62
     0
 10
15.91799323020001
 20
633.7276838869001
 30
0.0
 11
15.85799323020001
 21
633.7276838869001
 31
0.0
 12
15.88799323020001
 22
633.9076838869
 32
0.0
 13
15.88799323020001
 23
633.9076838869
 33
0.0
  0
SOLID
  5
3EB0
  8
0
 62
     0
 10
15.85799323020001
 20
614.0876838869
 30
0.0
 11
15.91799323020001
 21
614.0876838869
 31
0.0
 12
15.88799323020001
 22
613.9076838869
 32
0.0
 13
15.88799323020001
 23
613.9076838869
 33
0.0
  0
TEXT
  5
3EB1
  8
0
  6
CONTINUOUS
 62
     0
 10
16.15061323020001
 20
640.2787386523
 30
0.0
 40
0.18
  1
20.0000
  0
POINT
  5
3EB2
  8
DEFPOINTS
 62
     0
 10
23.99537732640002
 20
633.9076838869
 30
0.0
  0
POINT
  5
3EB3
  8
DEFPOINTS
 62
     0
 10
38.99537732640002
 20
613.9076838869
 30
0.0
  0
POINT
  5
3FC5
  8
DEFPOINTS
 62
     0
 10
16.60223323020001
 20
613.9076838869
 30
0.0
  0
ENDBLK
  5
3EB4
  8
0
  6
BYBLOCK
 62
     0
  0
BLOCK
  8
0
  2
*D47
 70
     1
 10
0.0
 20
0.0
 30
0.0
  3
*D47
  1

  0
LINE
  5
3EB8
  8
0
  6
CONTINUOUS
 62
     0
 10
38.93287732640002
 20
613.9076838869
 30
0.0
 11
16.42223323020002
 21
613.9076838869
 31
0.0
  0
LINE
  5
3EB9
  8
0
  6
CONTINUOUS
 62
     0
 10
38.93287732640002
 20
498.9076838869
 30
0.0
 11
16.4222332302
 21
498.9076838869
 31
0.0
  0
LINE
  5
3EBA
  8
0
  6
CONTINUOUS
 62
     0
 10
16.60223323020002
 20
613.7276838869001
 30
0.0
 11
16.60223323020001
 21
557.4623902135002
 31
0.0
  0
LINE
  5
3EBB
  8
0
  6
CONTINUOUS
 62
     0
 10
16.6022332302
 20
499.0876838869
 30
0.0
 11
16.60223323020001
 21
557.0986102135
 31
0.0
  0
SOLID
  5
3EBC
  8
0
 62
     0
 10
16.63223323020002
 20
613.7276838869001
 30
0.0
 11
16.57223323020002
 21
613.7276838869001
 31
0.0
 12
16.60223323020002
 22
613.9076838869
 32
0.0
 13
16.60223323020002
 23
613.9076838869
 33
0.0
  0
SOLID
  5
3EBD
  8
0
 62
     0
 10
16.5722332302
 20
499.0876838869
 30
0.0
 11
16.6322332302
 21
499.0876838869
 31
0.0
 12
16.6022332302
 22
498.9076838869
 32
0.0
 13
16.6022332302
 23
498.9076838869
 33
0.0
  0
TEXT
  5
3EBE
  8
0
  6
CONTINUOUS
 62
     0
 10
16.07078323020001
 20
557.1920302135002
 30
0.0
 40
0.18
  1
115.0000
  0
POINT
  5
3EBF
  8
DEFPOINTS
 62
     0
 10
38.99537732640002
 20
613.9076838869
 30
0.0
  0
POINT
  5
3EC0
  8
DEFPOINTS
 62
     0
 10
38.99537732640002
 20
498.9076838869
 30
0.0
  0
POINT
  5
3EC1
  8
DEFPOINTS
 62
     0
 10
16.60223323020001
 20
498.9076838869
 30
0.0
  0
ENDBLK
  5
3EC2
  8
0
  6
BYBLOCK
 62
     0
  0
BLOCK
  8
0
  2
*D48
 70
     1
 10
0.0
 20
0.0
 30
0.0
  3
*D48
  1

  0
LINE
  5
3EC6
  8
0
  6
CONTINUOUS
 62
     0
 10
38.93287732640002
 20
498.9076838869
 30
0.0
 11
16.42223323020003
 21
498.9076838869
 31
0.0
  0
LINE
  5
3EC7
  8
0
  6
CONTINUOUS
 62
     0
 10
38.93287732640002
 20
321.9076838869
 30
0.0
 11
16.4222332302
 21
321.9076838869
 31
0.0
  0
LINE
  5
3EC8
  8
0
  6
CONTINUOUS
 62
     0
 10
16.60223323020003
 20
498.7276838869
 30
0.0
 11
16.60223323020001
 21
410.5895738869
 31
0.0
  0
LINE
  5
3EC9
  8
0
  6
CONTINUOUS
 62
     0
 10
16.6022332302
 20
322.0876838869
 30
0.0
 11
16.60223323020001
 21
410.2257938869001
 31
0.0
  0
SOLID
  5
3ECA
  8
0
 62
     0
 10
16.63223323020003
 20
498.7276838869
 30
0.0
 11
16.57223323020003
 21
498.7276838869
 31
0.0
 12
16.60223323020003
 22
498.9076838869
 32
0.0
 13
16.60223323020003
 23
498.9076838869
 33
0.0
  0
SOLID
  5
3ECB
  8
0
 62
     0
 10
16.5722332302
 20
322.0876838869
 30
0.0
 11
16.6322332302
 21
322.0876838869
 31
0.0
 12
16.6022332302
 22
321.9076838869
 32
0.0
 13
16.6022332302
 23
321.9076838869
 33
0.0
  0
TEXT
  5
3ECC
  8
0
  6
CONTINUOUS
 62
     0
 10
16.07078323020001
 20
410.3192138869
 30
0.0
 40
0.18
  1
177.0000
  0
POINT
  5
3ECD
  8
DEFPOINTS
 62
     0
 10
38.99537732640002
 20
498.9076838869
 30
0.0
  0
POINT
  5
3ECE
  8
DEFPOINTS
 62
     0
 10
38.99537732640002
 20
321.9076838869
 30
0.0
  0
POINT
  5
3ECF
  8
DEFPOINTS
 62
     0
 10
16.60223323020001
 20
321.9076838869
 30
0.0
  0
ENDBLK
  5
3ED0
  8
0
  6
BYBLOCK
 62
     0
  0
BLOCK
  8
0
  2
*D49
 70
     1
 10
0.0
 20
0.0
 30
0.0
  3
*D49
  1

  0
LINE
  5
3ED4
  8
0
  6
CONTINUOUS
 62
     0
 10
44.34124222982054
 20
313.3249474231
 30
0.0
 11
44.16124222982054
 21
313.3249474231
 31
0.0
  0
LINE
  5
3ED5
  8
0
  6
CONTINUOUS
 62
     0
 10
44.16124222982054
 20
313.3249474231
 30
0.0
 11
37.28329964182557
 21
324.7521856010461
 31
0.0
  0
TEXT
  5
3ED6
  8
0
  6
CONTINUOUS
 62
     0
 10
44.42116222982054
 20
313.2385474231
 30
0.0
 40
0.18
  1
Ø7.0000
  0
SOLID
  5
3ED7
  8
0
 62
     0
 10
37.30900297056789
 20
324.7676561825337
 30
0.0
 11
37.25759631308325
 21
324.7367150195585
 31
0.0
 12
37.19047615290002
 22
324.9064055735
 32
0.0
 13
37.19047615290002
 23
324.9064055735
 33
0.0
  0
POINT
  5
3ED8
  8
DEFPOINTS
 62
     0
 10
37.19047615290002
 20
324.9064055735
 30
0.0
  0
POINT
  5
3ED9
  8
DEFPOINTS
 62
     0
 10
40.8002785
 20
318.9089622003
 30
0.0
  0
ENDBLK
  5
3EDE
  8
0
  6
BYBLOCK
 62
     0
  0
BLOCK
  8
0
  2
*D50
 70
     1
 10
0.0
 20
0.0
 30
0.0
  3
*D50
  1

  0
LINE
  5
3EE2
  8
0
  6
CONTINUOUS
 62
     0
 10
437.1859004364001
 20
633.9701838869
 30
0.0
 11
437.1859004364001
 21
683.6631089121
 31
0.0
  0
LINE
  5
3EE3
  8
0
  6
CONTINUOUS
 62
     0
 10
687.1859004364001
 20
633.9701838869
 30
0.0
 11
687.1859004364001
 21
683.6631089121
 31
0.0
  0
LINE
  5
3EE4
  8
0
  6
CONTINUOUS
 62
     0
 10
437.3659004364001
 20
683.4831089121001
 30
0.0
 11
561.5818204364
 21
683.4831089121001
 31
0.0
  0
LINE
  5
3EE5
  8
0
  6
CONTINUOUS
 62
     0
 10
687.0059004364001
 20
683.4831089121001
 30
0.0
 11
562.7899804364001
 21
683.4831089121001
 31
0.0
  0
SOLID
  5
3EE6
  8
0
 62
     0
 10
437.3659004364001
 20
683.5131089121
 30
0.0
 11
437.3659004364001
 21
683.4531089121001
 31
0.0
 12
437.1859004364001
 22
683.4831089121001
 32
0.0
 13
437.1859004364001
 23
683.4831089121001
 33
0.0
  0
SOLID
  5
3EE7
  8
0
 62
     0
 10
687.0059004364001
 20
683.4531089121001
 30
0.0
 11
687.0059004364001
 21
683.5131089121
 31
0.0
 12
687.1859004364001
 22
683.4831089121001
 32
0.0
 13
687.1859004364001
 23
683.4831089121001
 33
0.0
  0
TEXT
  5
3EE8
  8
0
  6
CONTINUOUS
 62
     0
 10
561.6644404364
 20
683.3946389121002
 30
0.0
 40
0.18
  1
250.0000
  0
POINT
  5
3EE9
  8
DEFPOINTS
 62
     0
 10
437.1859004364001
 20
633.9076838869
 30
0.0
  0
POINT
  5
3EEA
  8
DEFPOINTS
 62
     0
 10
687.1859004364001
 20
633.9076838869
 30
0.0
  0
POINT
  5
3EEB
  8
DEFPOINTS
 62
     0
 10
687.1859004364001
 20
683.4831089121001
 30
0.0
  0
ENDBLK
  5
3EEC
  8
0
  6
BYBLOCK
 62
     0
  0
BLOCK
  8
0
  2
*D51
 70
     1
 10
0.0
 20
0.0
 30
0.0
  3
*D51
  1

  0
LINE
  5
3EF0
  8
0
  6
CONTINUOUS
 62
     0
 10
453.1859004364001
 20
611.9701838869
 30
0.0
 11
453.1859004364001
 21
655.6511194240999
 31
0.0
  0
LINE
  5
3EF1
  8
0
  6
CONTINUOUS
 62
     0
 10
671.1859004364001
 20
611.9701838869
 30
0.0
 11
671.1859004364001
 21
655.6511194240999
 31
0.0
  0
LINE
  5
3EF2
  8
0
  6
CONTINUOUS
 62
     0
 10
453.3659004364001
 20
655.4711194240999
 30
0.0
 11
561.5818204364
 21
655.4711194240999
 31
0.0
  0
LINE
  5
3EF3
  8
0
  6
CONTINUOUS
 62
     0
 10
671.0059004364001
 20
655.4711194240999
 30
0.0
 11
562.7899804364001
 21
655.4711194240999
 31
0.0
  0
SOLID
  5
3EF4
  8
0
 62
     0
 10
453.3659004364001
 20
655.5011194240999
 30
0.0
 11
453.3659004364001
 21
655.4411194241
 31
0.0
 12
453.1859004364001
 22
655.4711194240999
 32
0.0
 13
453.1859004364001
 23
655.4711194240999
 33
0.0
  0
SOLID
  5
3EF5
  8
0
 62
     0
 10
671.0059004364001
 20
655.4411194241
 30
0.0
 11
671.0059004364001
 21
655.5011194240999
 31
0.0
 12
671.1859004364001
 22
655.4711194240999
 32
0.0
 13
671.1859004364001
 23
655.4711194240999
 33
0.0
  0
TEXT
  5
3EF6
  8
0
  6
CONTINUOUS
 62
     0
 10
561.6644404364
 20
655.3826494241
 30
0.0
 40
0.18
  1
218.0000
  0
POINT
  5
3EF7
  8
DEFPOINTS
 62
     0
 10
453.1859004364001
 20
611.9076838869
 30
0.0
  0
POINT
  5
3EF8
  8
DEFPOINTS
 62
     0
 10
671.1859004364001
 20
611.9076838869
 30
0.0
  0
POINT
  5
3EF9
  8
DEFPOINTS
 62
     0
 10
671.1859004364001
 20
655.4711194240999
 30
0.0
  0
ENDBLK
  5
3EFA
  8
0
  6
BYBLOCK
 62
     0
  0
BLOCK
  8
0
  2
*D52
 70
     1
 10
0.0
 20
0.0
 30
0.0
  3
*D52
  1

  0
LINE
  5
3EFE
  8
0
  6
CONTINUOUS
 62
     0
 10
448.9859004364
 20
582.1201838869001
 30
0.0
 11
448.9859004364
 21
669.5060042075999
 31
0.0
  0
LINE
  5
3EFF
  8
0
  6
CONTINUOUS
 62
     0
 10
675.3859004364
 20
582.1201838869001
 30
0.0
 11
675.3859004364
 21
669.5060042075999
 31
0.0
  0
LINE
  5
3F00
  8
0
  6
CONTINUOUS
 62
     0
 10
449.1659004364
 20
669.3260042075999
 30
0.0
 11
561.5818204364
 21
669.3260042075999
 31
0.0
  0
LINE
  5
3F01
  8
0
  6
CONTINUOUS
 62
     0
 10
675.2059004364
 20
669.3260042075999
 30
0.0
 11
562.7899804364001
 21
669.3260042075999
 31
0.0
  0
SOLID
  5
3F02
  8
0
 62
     0
 10
449.1659004364
 20
669.3560042075999
 30
0.0
 11
449.1659004364
 21
669.2960042075999
 31
0.0
 12
448.9859004364
 22
669.3260042075999
 32
0.0
 13
448.9859004364
 23
669.3260042075999
 33
0.0
  0
SOLID
  5
3F03
  8
0
 62
     0
 10
675.2059004364
 20
669.2960042075999
 30
0.0
 11
675.2059004364
 21
669.3560042075999
 31
0.0
 12
675.3859004364
 22
669.3260042075999
 32
0.0
 13
675.3859004364
 23
669.3260042075999
 33
0.0
  0
TEXT
  5
3F04
  8
0
  6
CONTINUOUS
 62
     0
 10
561.6644404364
 20
669.2375342076
 30
0.0
 40
0.18
  1
226.4000
  0
POINT
  5
3F05
  8
DEFPOINTS
 62
     0
 10
448.9859004364
 20
582.0576838869001
 30
0.0
  0
POINT
  5
3F06
  8
DEFPOINTS
 62
     0
 10
675.3859004364
 20
582.0576838869001
 30
0.0
  0
POINT
  5
3F07
  8
DEFPOINTS
 62
     0
 10
675.3859004364
 20
669.3260042075999
 30
0.0
  0
ENDBLK
  5
3F08
  8
0
  6
BYBLOCK
 62
     0
  0
BLOCK
  8
0
  2
*D53
 70
     1
 10
0.0
 20
0.0
 30
0.0
  3
*D53
  1

  0
LINE
  5
3F0C
  8
0
  6
CONTINUOUS
 62
     0
 10
437.1234004364001
 20
33.90768388690002
 30
0.0
 11
413.8983806923
 21
33.90768388690003
 31
0.0
  0
LINE
  5
3F0D
  8
0
  6
CONTINUOUS
 62
     0
 10
437.1234004364001
 20
633.9076838869
 30
0.0
 11
413.8983806923
 21
633.9076838869
 31
0.0
  0
LINE
  5
3F0E
  8
0
  6
CONTINUOUS
 62
     0
 10
414.0783806923
 20
34.08768388690003
 30
0.0
 11
414.0783806923
 21
333.7257938869001
 31
0.0
  0
LINE
  5
3F0F
  8
0
  6
CONTINUOUS
 62
     0
 10
414.0783806923
 20
633.7276838869001
 30
0.0
 11
414.0783806923
 21
334.0895738869
 31
0.0
  0
SOLID
  5
3F10
  8
0
 62
     0
 10
414.0483806923
 20
34.08768388690003
 30
0.0
 11
414.1083806923
 21
34.08768388690003
 31
0.0
 12
414.0783806923
 22
33.90768388690003
 32
0.0
 13
414.0783806923
 23
33.90768388690003
 33
0.0
  0
SOLID
  5
3F11
  8
0
 62
     0
 10
414.1083806923
 20
633.7276838869001
 30
0.0
 11
414.0483806923
 21
633.7276838869001
 31
0.0
 12
414.0783806923
 22
633.9076838869
 32
0.0
 13
414.0783806923
 23
633.9076838869
 33
0.0
  0
TEXT
  5
3F12
  8
0
  6
CONTINUOUS
 62
     0
 10
413.5559306923
 20
333.8192138869
 30
0.0
 40
0.18
  1
600.0000
  0
POINT
  5
3F13
  8
DEFPOINTS
 62
     0
 10
437.1859004364001
 20
33.90768388690002
 30
0.0
  0
POINT
  5
3F14
  8
DEFPOINTS
 62
     0
 10
437.1859004364001
 20
633.9076838869
 30
0.0
  0
POINT
  5
3F15
  8
DEFPOINTS
 62
     0
 10
414.0783806923
 20
633.9076838869
 30
0.0
  0
ENDBLK
  5
3F16
  8
0
  6
BYBLOCK
 62
     0
  0
BLOCK
  8
0
  2
*D54
 70
     1
 10
0.0
 20
0.0
 30
0.0
  3
*D54
  1

  0
LINE
  5
3F1A
  8
0
  6
CONTINUOUS
 62
     0
 10
428.0463288776001
 20
639.6467942029001
 30
0.0
 11
427.8663288776001
 21
639.6467942029001
 31
0.0
  0
LINE
  5
3F1B
  8
0
  6
CONTINUOUS
 62
     0
 10
427.8663288776001
 20
639.6467942029001
 30
0.0
 11
427.8663288776001
 21
633.9076838869
 31
0.0
  0
LINE
  5
3F1C
  8
0
  6
CONTINUOUS
 62
     0
 10
437.1234004364001
 20
633.9076838869
 30
0.0
 11
427.6863288776001
 21
633.9076838869
 31
0.0
  0
LINE
  5
3F1D
  8
0
  6
CONTINUOUS
 62
     0
 10
453.1234004364001
 20
611.9076838869
 30
0.0
 11
427.6863288776001
 21
611.9076838869
 31
0.0
  0
LINE
  5
3F1E
  8
0
  6
CONTINUOUS
 62
     0
 10
427.8663288776001
 20
633.7276838869001
 30
0.0
 11
427.8663288776001
 21
612.0876838869
 31
0.0
  0
LINE
  5
3F1F
  8
0
  6
CONTINUOUS
 62
     0
 10
427.8663288776001
 20
612.0876838869
 30
0.0
 11
427.8663288776001
 21
633.7276838869001
 31
0.0
  0
SOLID
  5
3F20
  8
0
 62
     0
 10
427.8963288776001
 20
633.7276838869001
 30
0.0
 11
427.8363288776001
 21
633.7276838869001
 31
0.0
 12
427.8663288776001
 22
633.9076838869
 32
0.0
 13
427.8663288776001
 23
633.9076838869
 33
0.0
  0
SOLID
  5
3F21
  8
0
 62
     0
 10
427.8363288776001
 20
612.0876838869
 30
0.0
 11
427.8963288776001
 21
612.0876838869
 31
0.0
 12
427.8663288776001
 22
611.9076838869
 32
0.0
 13
427.8663288776001
 23
611.9076838869
 33
0.0
  0
TEXT
  5
3F22
  8
0
  6
CONTINUOUS
 62
     0
 10
428.1289488776001
 20
639.5583242029002
 30
0.0
 40
0.18
  1
22.0000
  0
POINT
  5
3F23
  8
DEFPOINTS
 62
     0
 10
437.1859004364001
 20
633.9076838869
 30
0.0
  0
POINT
  5
3F24
  8
DEFPOINTS
 62
     0
 10
453.1859004364001
 20
611.9076838869
 30
0.0
  0
POINT
  5
3FC6
  8
DEFPOINTS
 62
     0
 10
428.5805688776001
 20
611.9076838869
 30
0.0
  0
ENDBLK
  5
3F25
  8
0
  6
BYBLOCK
 62
     0
  0
BLOCK
  8
0
  2
*D55
 70
     1
 10
0.0
 20
0.0
 30
0.0
  3
*D55
  1

  0
LINE
  5
3F29
  8
0
  6
CONTINUOUS
 62
     0
 10
453.1234004364001
 20
611.9076838869
 30
0.0
 11
428.4005688776001
 21
611.9076838869
 31
0.0
  0
LINE
  5
3F2A
  8
0
  6
CONTINUOUS
 62
     0
 10
448.9234004364
 20
582.0576838869001
 30
0.0
 11
428.4005688776001
 21
582.0576838869001
 31
0.0
  0
LINE
  5
3F2B
  8
0
  6
CONTINUOUS
 62
     0
 10
428.5805688776001
 20
611.7276838869001
 30
0.0
 11
428.5805688776001
 21
597.1645738869001
 31
0.0
  0
LINE
  5
3F2C
  8
0
  6
CONTINUOUS
 62
     0
 10
428.5805688776001
 20
582.2376838869001
 30
0.0
 11
428.5805688776001
 21
596.8007938869
 31
0.0
  0
SOLID
  5
3F2D
  8
0
 62
     0
 10
428.6105688776
 20
611.7276838869001
 30
0.0
 11
428.5505688776001
 21
611.7276838869001
 31
0.0
 12
428.5805688776001
 22
611.9076838869
 32
0.0
 13
428.5805688776001
 23
611.9076838869
 33
0.0
  0
SOLID
  5
3F2E
  8
0
 62
     0
 10
428.5505688776001
 20
582.2376838869001
 30
0.0
 11
428.6105688776
 21
582.2376838869001
 31
0.0
 12
428.5805688776001
 22
582.0576838869001
 32
0.0
 13
428.5805688776001
 23
582.0576838869001
 33
0.0
  0
TEXT
  5
3F2F
  8
0
  6
CONTINUOUS
 62
     0
 10
428.1289488776001
 20
596.8942138869002
 30
0.0
 40
0.18
  1
29.8500
  0
POINT
  5
3F30
  8
DEFPOINTS
 62
     0
 10
453.1859004364001
 20
611.9076838869
 30
0.0
  0
POINT
  5
3F31
  8
DEFPOINTS
 62
     0
 10
448.9859004364
 20
582.0576838869001
 30
0.0
  0
POINT
  5
3F32
  8
DEFPOINTS
 62
     0
 10
428.5805688776001
 20
582.0576838869001
 30
0.0
  0
ENDBLK
  5
3F35
  8
0
  6
BYBLOCK
 62
     0
  0
BLOCK
  8
0
  2
*D56
 70
     1
 10
0.0
 20
0.0
 30
0.0
  3
*D56
  1

  0
LINE
  5
3F39
  8
0
  6
CONTINUOUS
 62
     0
 10
448.9234004364
 20
582.0576838869001
 30
0.0
 11
428.4005688776001
 21
582.0576838869001
 31
0.0
  0
LINE
  5
3F3A
  8
0
  6
CONTINUOUS
 62
     0
 10
448.9234004364
 20
437.0576838869
 30
0.0
 11
428.4005688776001
 21
437.0576838869
 31
0.0
  0
LINE
  5
3F3B
  8
0
  6
CONTINUOUS
 62
     0
 10
428.5805688776001
 20
581.8776838869002
 30
0.0
 11
428.5805688776001
 21
509.7395738869
 31
0.0
  0
LINE
  5
3F3C
  8
0
  6
CONTINUOUS
 62
     0
 10
428.5805688776001
 20
437.2376838869
 30
0.0
 11
428.5805688776001
 21
509.3757938869001
 31
0.0
  0
SOLID
  5
3F3D
  8
0
 62
     0
 10
428.6105688776
 20
581.8776838869002
 30
0.0
 11
428.5505688776001
 21
581.8776838869002
 31
0.0
 12
428.5805688776001
 22
582.0576838869001
 32
0.0
 13
428.5805688776001
 23
582.0576838869001
 33
0.0
  0
SOLID
  5
3F3E
  8
0
 62
     0
 10
428.5505688776001
 20
437.2376838869
 30
0.0
 11
428.6105688776
 21
437.2376838869
 31
0.0
 12
428.5805688776001
 22
437.0576838869
 32
0.0
 13
428.5805688776001
 23
437.0576838869
 33
0.0
  0
TEXT
  5
3F3F
  8
0
  6
CONTINUOUS
 62
     0
 10
428.0491188776001
 20
509.4692138869
 30
0.0
 40
0.18
  1
145.0000
  0
POINT
  5
3F40
  8
DEFPOINTS
 62
     0
 10
448.9859004364
 20
582.0576838869001
 30
0.0
  0
POINT
  5
3F41
  8
DEFPOINTS
 62
     0
 10
448.9859004364
 20
437.0576838869
 30
0.0
  0
POINT
  5
3F42
  8
DEFPOINTS
 62
     0
 10
428.5805688776001
 20
437.0576838869
 30
0.0
  0
ENDBLK
  5
3F43
  8
0
  6
BYBLOCK
 62
     0
  0
BLOCK
  8
0
  2
*D57
 70
     1
 10
0.0
 20
0.0
 30
0.0
  3
*D57
  1

  0
LINE
  5
3F47
  8
0
  6
CONTINUOUS
 62
     0
 10
453.1234004364001
 20
358.9076838869
 30
0.0
 11
428.4005688776001
 21
358.9076838869
 31
0.0
  0
LINE
  5
3F48
  8
0
  6
CONTINUOUS
 62
     0
 10
448.9234004364
 20
437.0576838869
 30
0.0
 11
428.4005688776001
 21
437.0576838869
 31
0.0
  0
LINE
  5
3F49
  8
0
  6
CONTINUOUS
 62
     0
 10
428.5805688776001
 20
359.0876838869
 30
0.0
 11
428.5805688776001
 21
397.8007938869001
 31
0.0
  0
LINE
  5
3F4A
  8
0
  6
CONTINUOUS
 62
     0
 10
428.5805688776001
 20
436.8776838869
 30
0.0
 11
428.5805688776001
 21
398.1645738869
 31
0.0
  0
SOLID
  5
3F4B
  8
0
 62
     0
 10
428.5505688776001
 20
359.0876838869
 30
0.0
 11
428.6105688776
 21
359.0876838869
 31
0.0
 12
428.5805688776001
 22
358.9076838869
 32
0.0
 13
428.5805688776001
 23
358.9076838869
 33
0.0
  0
SOLID
  5
3F4C
  8
0
 62
     0
 10
428.6105688776
 20
436.8776838869
 30
0.0
 11
428.5505688776001
 21
436.8776838869
 31
0.0
 12
428.5805688776001
 22
437.0576838869
 32
0.0
 13
428.5805688776001
 23
437.0576838869
 33
0.0
  0
TEXT
  5
3F4D
  8
0
  6
CONTINUOUS
 62
     0
 10
428.1266988776001
 20
397.8942138869
 30
0.0
 40
0.18
  1
78.1500
  0
POINT
  5
3F4E
  8
DEFPOINTS
 62
     0
 10
453.1859004364001
 20
358.9076838869
 30
0.0
  0
POINT
  5
3F4F
  8
DEFPOINTS
 62
     0
 10
448.9859004364
 20
437.0576838869
 30
0.0
  0
POINT
  5
3F50
  8
DEFPOINTS
 62
     0
 10
428.5805688776001
 20
437.0576838869
 30
0.0
  0
ENDBLK
  5
3F51
  8
0
  6
BYBLOCK
 62
     0
  0
BLOCK
  8
0
  2
*D58
 70
     1
 10
0.0
 20
0.0
 30
0.0
  3
*D58
  1

  0
LINE
  5
3F55
  8
0
  6
CONTINUOUS
 62
     0
 10
682.530077173867
 20
353.1892422489
 30
0.0
 11
682.350077173867
 21
353.1892422489
 31
0.0
  0
LINE
  5
3F56
  8
0
  6
CONTINUOUS
 62
     0
 10
682.350077173867
 20
353.1892422489
 30
0.0
 11
668.2309784565642
 21
360.4212347097325
 31
0.0
  0
TEXT
  5
3F57
  8
0
  6
CONTINUOUS
 62
     0
 10
682.609997173867
 20
353.1028422489
 30
0.0
 40
0.18
  1
Ø7.0000
  0
SOLID
  5
3F58
  8
0
 62
     0
 10
668.2446551206255
 20
360.4479358119599
 30
0.0
 11
668.217301792503
 21
360.3945336075051
 31
0.0
 12
668.0707718432001
 22
360.5032946941
 32
0.0
 13
668.0707718432001
 23
360.5032946941
 33
0.0
  0
POINT
  5
3F59
  8
DEFPOINTS
 62
     0
 10
668.0707718432001
 20
360.5032946941
 30
0.0
  0
POINT
  5
3F5A
  8
DEFPOINTS
 62
     0
 10
674.3010290296
 20
357.3120730798
 30
0.0
  0
ENDBLK
  5
3F5F
  8
0
  6
BYBLOCK
 62
     0
  0
BLOCK
  8
0
  2
*D59
 70
     1
 10
0.0
 20
0.0
 30
0.0
  3
*D59
  1

  0
LINE
  5
3F63
  8
0
  6
CONTINUOUS
 62
     0
 10
464.1859004364001
 20
42.84518388690002
 30
0.0
 11
464.1859004364001
 21
27.59900391960002
 31
0.0
  0
LINE
  5
3F64
  8
0
  6
CONTINUOUS
 62
     0
 10
660.1859004364001
 20
42.84518388690002
 30
0.0
 11
660.1859004364001
 21
27.59900391960002
 31
0.0
  0
LINE
  5
3F65
  8
0
  6
CONTINUOUS
 62
     0
 10
464.3659004364001
 20
27.77900391960002
 30
0.0
 11
561.5918104364
 21
27.77900391960002
 31
0.0
  0
LINE
  5
3F66
  8
0
  6
CONTINUOUS
 62
     0
 10
660.0059004364001
 20
27.77900391960002
 30
0.0
 11
562.7799904364001
 21
27.77900391960002
 31
0.0
  0
SOLID
  5
3F67
  8
0
 62
     0
 10
464.3659004364001
 20
27.80900391960002
 30
0.0
 11
464.3659004364001
 21
27.74900391960002
 31
0.0
 12
464.1859004364001
 22
27.77900391960002
 32
0.0
 13
464.1859004364001
 23
27.77900391960002
 33
0.0
  0
SOLID
  5
3F68
  8
0
 62
     0
 10
660.0059004364001
 20
27.74900391960002
 30
0.0
 11
660.0059004364001
 21
27.80900391960002
 31
0.0
 12
660.1859004364001
 22
27.77900391960002
 32
0.0
 13
660.1859004364001
 23
27.77900391960002
 33
0.0
  0
TEXT
  5
3F69
  8
0
  6
CONTINUOUS
 62
     0
 10
561.6544504364
 20
27.69053391960002
 30
0.0
 40
0.18
  1
196.0000
  0
POINT
  5
3F6A
  8
DEFPOINTS
 62
     0
 10
464.1859004364001
 20
42.90768388690002
 30
0.0
  0
POINT
  5
3F6B
  8
DEFPOINTS
 62
     0
 10
660.1859004364001
 20
42.90768388690002
 30
0.0
  0
POINT
  5
3F6C
  8
DEFPOINTS
 62
     0
 10
660.1859004364001
 20
27.77900391960002
 30
0.0
  0
ENDBLK
  5
3F6D
  8
0
  6
BYBLOCK
 62
     0
  0
BLOCK
  8
0
  2
*D60
 70
     1
 10
0.0
 20
0.0
 30
0.0
  3
*D60
  1

  0
LINE
  5
3F71
  8
0
  6
CONTINUOUS
 62
     0
 10
429.0434388776
 20
28.33288840560002
 30
0.0
 11
429.2234388776
 21
28.33288840560002
 31
0.0
  0
LINE
  5
3F72
  8
0
  6
CONTINUOUS
 62
     0
 10
429.2234388776
 20
28.33288840560002
 30
0.0
 11
429.2234388776
 21
33.90768388690002
 31
0.0
  0
LINE
  5
3F73
  8
0
  6
CONTINUOUS
 62
     0
 10
437.1234004364001
 20
33.90768388690002
 30
0.0
 11
429.0434388776
 21
33.90768388690002
 31
0.0
  0
LINE
  5
3F74
  8
0
  6
CONTINUOUS
 62
     0
 10
464.1234004364001
 20
42.90768388690002
 30
0.0
 11
429.0434388776
 21
42.90768388690002
 31
0.0
  0
LINE
  5
3F75
  8
0
  6
CONTINUOUS
 62
     0
 10
429.2234388776
 20
34.08768388690002
 30
0.0
 11
429.2234388776
 21
42.72768388690002
 31
0.0
  0
LINE
  5
3F76
  8
0
  6
CONTINUOUS
 62
     0
 10
429.2234388776
 20
42.72768388690002
 30
0.0
 11
429.2234388776
 21
34.08768388690002
 31
0.0
  0
SOLID
  5
3F77
  8
0
 62
     0
 10
429.1934388776
 20
34.08768388690002
 30
0.0
 11
429.2534388776
 21
34.08768388690002
 31
0.0
 12
429.2234388776
 22
33.90768388690002
 32
0.0
 13
429.2234388776
 23
33.90768388690002
 33
0.0
  0
SOLID
  5
3F78
  8
0
 62
     0
 10
429.2534388776
 20
42.72768388690002
 30
0.0
 11
429.1934388776
 21
42.72768388690002
 31
0.0
 12
429.2234388776
 22
42.90768388690002
 32
0.0
 13
429.2234388776
 23
42.90768388690002
 33
0.0
  0
TEXT
  5
3F79
  8
0
  6
CONTINUOUS
 62
     0
 10
428.1972588776001
 20
28.24441840560002
 30
0.0
 40
0.18
  1
9.0000
  0
POINT
  5
3F7A
  8
DEFPOINTS
 62
     0
 10
437.1859004364001
 20
33.90768388690002
 30
0.0
  0
POINT
  5
3F7B
  8
DEFPOINTS
 62
     0
 10
464.1859004364001
 20
42.90768388690002
 30
0.0
  0
POINT
  5
3F7C
  8
DEFPOINTS
 62
     0
 10
428.5805688776001
 20
42.90768388690002
 30
0.0
  0
ENDBLK
  5
3F7D
  8
0
  6
BYBLOCK
 62
     0
  0
BLOCK
  8
0
  2
*D61
 70
     1
 10
0.0
 20
0.0
 30
0.0
  3
*D61
  1

  0
LINE
  5
3F81
  8
0
  6
CONTINUOUS
 62
     0
 10
459.6859004364001
 20
619.9701838869
 30
0.0
 11
459.6859004364001
 21
641.611545373
 31
0.0
  0
LINE
  5
3F82
  8
0
  6
CONTINUOUS
 62
     0
 10
664.6859004364001
 20
619.9701838869
 30
0.0
 11
664.6859004364001
 21
641.611545373
 31
0.0
  0
LINE
  5
3F83
  8
0
  6
CONTINUOUS
 62
     0
 10
459.8659004364001
 20
641.4315453730001
 30
0.0
 11
561.5818204364
 21
641.4315453730001
 31
0.0
  0
LINE
  5
3F84
  8
0
  6
CONTINUOUS
 62
     0
 10
664.5059004364001
 20
641.4315453730001
 30
0.0
 11
562.7899804364001
 21
641.4315453730001
 31
0.0
  0
SOLID
  5
3F85
  8
0
 62
     0
 10
459.8659004364001
 20
641.461545373
 30
0.0
 11
459.8659004364001
 21
641.4015453730001
 31
0.0
 12
459.6859004364001
 22
641.4315453730001
 32
0.0
 13
459.6859004364001
 23
641.4315453730001
 33
0.0
  0
SOLID
  5
3F86
  8
0
 62
     0
 10
664.5059004364001
 20
641.4015453730001
 30
0.0
 11
664.5059004364001
 21
641.461545373
 31
0.0
 12
664.6859004364001
 22
641.4315453730001
 32
0.0
 13
664.6859004364001
 23
641.4315453730001
 33
0.0
  0
TEXT
  5
3F87
  8
0
  6
CONTINUOUS
 62
     0
 10
561.6644404364
 20
641.3430753730001
 30
0.0
 40
0.18
  1
205.0000
  0
POINT
  5
3F88
  8
DEFPOINTS
 62
     0
 10
459.6859004364001
 20
619.9076838869
 30
0.0
  0
POINT
  5
3F89
  8
DEFPOINTS
 62
     0
 10
664.6859004364001
 20
619.9076838869
 30
0.0
  0
POINT
  5
3F8A
  8
DEFPOINTS
 62
     0
 10
664.6859004364001
 20
641.4315453730001
 30
0.0
  0
ENDBLK
  5
3F8B
  8
0
  6
BYBLOCK
 62
     0
  0
BLOCK
  8
0
  2
*D62
 70
     1
 10
0.0
 20
0.0
 30
0.0
  3
*D62
  1

  0
LINE
  5
4018
  8
DIMENSIONS
  6
BYBLOCK
 62
     0
 10
458.7507439125419
 20
182.761031278766
 30
0.0
 11
458.7507439125419
 21
142.6967475708404
 31
0.0
  0
LINE
  5
4019
  8
DIMENSIONS
  6
BYBLOCK
 62
     0
 10
691.7507439125418
 20
182.761031278766
 30
0.0
 11
691.7507439125418
 21
142.6967475708404
 31
0.0
  0
LINE
  5
401A
  8
DIMENSIONS
  6
BYBLOCK
 62
     0
 10
463.7507439125419
 20
142.8767475708404
 30
0.0
 11
686.7507439125418
 21
142.8767475708404
 31
0.0
  0
SOLID
  5
401B
  8
DIMENSIONS
 62
     0
 10
463.7507439125419
 20
143.7100809041738
 30
0.0
 11
463.7507439125419
 21
142.0434142375071
 31
0.0
 12
458.7507439125419
 22
142.8767475708404
 32
0.0
 13
458.7507439125419
 23
142.8767475708404
 33
0.0
  0
SOLID
  5
401C
  8
DIMENSIONS
 62
     0
 10
686.7507439125418
 20
142.0434142375071
 30
0.0
 11
686.7507439125418
 21
143.7100809041738
 31
0.0
 12
691.7507439125418
 22
142.8767475708404
 32
0.0
 13
691.7507439125418
 23
142.8767475708404
 33
0.0
  0
TEXT
  5
401D
  8
DIMENSIONS
  6
CONTINUOUS
 62
     5
 10
559.8557439125417
 20
145.2717475708404
 30
0.0
 40
5.0
  1
233 [9.17]
  0
POINT
  5
401E
  8
DEFPOINTS
 62
     0
 10
458.7507439125419
 20
184.261031278766
 30
0.0
  0
POINT
  5
401F
  8
DEFPOINTS
 62
     0
 10
691.7507439125418
 20
184.261031278766
 30
0.0
  0
POINT
  5
4020
  8
DEFPOINTS
 62
     0
 10
691.7507439125418
 20
142.8767475708404
 30
0.0
  0
ENDBLK
  5
4017
  8
0
  0
BLOCK
  8
0
  2
*D63
 70
     1
 10
0.0
 20
0.0
 30
0.0
  3
*D63
  1

  0
LINE
  5
4025
  8
0
  6
CONTINUOUS
 62
     0
 10
1110.665980093202
 20
800.9380542426779
 30
0.0
 11
1110.665980093202
 21
849.3418662174778
 31
0.0
  0
LINE
  5
4026
  8
0
  6
CONTINUOUS
 62
     0
 10
860.6659800932019
 20
800.9380542426779
 30
0.0
 11
860.6659800932019
 21
849.3418662174778
 31
0.0
  0
LINE
  5
4027
  8
0
  6
CONTINUOUS
 62
     0
 10
1110.485980093202
 20
849.1618662174778
 30
0.0
 11
987.657130363502
 21
849.1618662174778
 31
0.0
  0
LINE
  5
4028
  8
0
  6
CONTINUOUS
 62
     0
 10
860.8459800932019
 20
849.1618662174778
 30
0.0
 11
986.4489703635019
 21
849.1618662174778
 31
0.0
  0
SOLID
  5
4029
  8
0
 62
     0
 10
1110.485980093202
 20
849.1318662174779
 30
0.0
 11
1110.485980093202
 21
849.1918662174778
 31
0.0
 12
1110.665980093202
 22
849.1618662174778
 32
0.0
 13
1110.665980093202
 23
849.1618662174778
 33
0.0
  0
SOLID
  5
402A
  8
0
 62
     0
 10
860.8459800932019
 20
849.1918662174778
 30
0.0
 11
860.8459800932019
 21
849.1318662174779
 31
0.0
 12
860.6659800932019
 22
849.1618662174778
 32
0.0
 13
860.6659800932019
 23
849.1618662174778
 33
0.0
  0
TEXT
  5
402B
  8
0
  6
CONTINUOUS
 62
     0
 10
986.5315903635019
 20
849.0733962174779
 30
0.0
 40
0.18
  1
250.0000
  0
POINT
  5
402C
  8
DEFPOINTS
 62
     0
 10
1110.665980093202
 20
800.8755542426779
 30
0.0
  0
POINT
  5
402D
  8
DEFPOINTS
 62
     0
 10
860.6659800932019
 20
800.8755542426779
 30
0.0
  0
POINT
  5
402E
  8
DEFPOINTS
 62
     0
 10
860.6659800932019
 20
849.1618662174778
 30
0.0
  0
ENDBLK
  5
4024
  8
0
  0
BLOCK
  8
0
  2
*D64
 70
     1
 10
0.0
 20
0.0
 30
0.0
  3
*D64
  1

  0
LINE
  5
4032
  8
DIMENSIONS
  6
BYBLOCK
 62
     0
 10
859.1659800932019
 20
800.8755542426779
 30
0.0
 11
840.879602766802
 21
800.8755542426779
 31
0.0
  0
LINE
  5
4033
  8
DIMENSIONS
  6
BYBLOCK
 62
     0
 10
859.1659800932019
 20
200.8755542426779
 30
0.0
 11
840.8796027668019
 21
200.8755542426779
 31
0.0
  0
LINE
  5
4034
  8
DIMENSIONS
  6
BYBLOCK
 62
     0
 10
841.059602766802
 20
795.8755542426779
 30
0.0
 11
841.059602766802
 21
518.9780542426779
 31
0.0
  0
LINE
  5
4035
  8
DIMENSIONS
  6
BYBLOCK
 62
     0
 10
841.0596027668018
 20
205.8755542426779
 30
0.0
 11
841.0596027668018
 21
482.773054242678
 31
0.0
  0
SOLID
  5
4036
  8
DIMENSIONS
 62
     0
 10
841.8929361001353
 20
795.8755542426779
 30
0.0
 11
840.2262694334686
 21
795.8755542426779
 31
0.0
 12
841.059602766802
 22
800.8755542426779
 32
0.0
 13
841.059602766802
 23
800.8755542426779
 33
0.0
  0
SOLID
  5
4037
  8
DIMENSIONS
 62
     0
 10
840.2262694334685
 20
205.8755542426779
 30
0.0
 11
841.8929361001352
 21
205.8755542426779
 31
0.0
 12
841.0596027668018
 22
200.8755542426779
 32
0.0
 13
841.0596027668018
 23
200.8755542426779
 33
0.0
  0
TEXT
  5
4038
  8
DIMENSIONS
  6
CONTINUOUS
 62
     5
 10
842.867102766802
 20
483.513054242678
 30
0.0
 40
5.0
  1
600 [23.62]
 50
89.99999999999999
  0
POINT
  5
4039
  8
DEFPOINTS
 62
     0
 10
860.6659800932019
 20
800.8755542426779
 30
0.0
  0
POINT
  5
403A
  8
DEFPOINTS
 62
     0
 10
860.6659800932019
 20
200.8755542426779
 30
0.0
  0
POINT
  5
4147
  8
DEFPOINTS
 62
     0
 10
841.0596027668018
 20
200.8755542426779
 30
0.0
  0
ENDBLK
  5
4031
  8
0
  0
BLOCK
  8
0
  2
*D65
 70
     1
 10
0.0
 20
0.0
 30
0.0
  3
*D65
  1

  0
LINE
  5
403F
  8
0
  6
CONTINUOUS
 62
     0
 10
875.6659800932019
 20
780.915951546478
 30
0.0
 11
875.6659800932019
 21
835.1847615130779
 31
0.0
  0
LINE
  5
4040
  8
0
  6
CONTINUOUS
 62
     0
 10
1095.665980093202
 20
781.3013952446779
 30
0.0
 11
1095.665980093202
 21
835.1847615130779
 31
0.0
  0
LINE
  5
4041
  8
0
  6
CONTINUOUS
 62
     0
 10
875.8459800932019
 20
835.0047615130779
 30
0.0
 11
986.3673779946018
 21
835.0047615130779
 31
0.0
  0
LINE
  5
4042
  8
0
  6
CONTINUOUS
 62
     0
 10
1095.485980093202
 20
835.0047615130779
 30
0.0
 11
987.575537994602
 21
835.0047615130779
 31
0.0
  0
SOLID
  5
4043
  8
0
 62
     0
 10
875.8459800932019
 20
835.0347615130779
 30
0.0
 11
875.8459800932019
 21
834.974761513078
 31
0.0
 12
875.6659800932019
 22
835.0047615130779
 32
0.0
 13
875.6659800932019
 23
835.0047615130779
 33
0.0
  0
SOLID
  5
4044
  8
0
 62
     0
 10
1095.485980093202
 20
834.974761513078
 30
0.0
 11
1095.485980093202
 21
835.0347615130779
 31
0.0
 12
1095.665980093202
 22
835.0047615130779
 32
0.0
 13
1095.665980093202
 23
835.0047615130779
 33
0.0
  0
TEXT
  5
4045
  8
0
  6
CONTINUOUS
 62
     0
 10
986.4499979946019
 20
834.916291513078
 30
0.0
 40
0.18
  1
220.0000
  0
POINT
  5
4046
  8
DEFPOINTS
 62
     0
 10
875.6659800932019
 20
780.853451546478
 30
0.0
  0
POINT
  5
4047
  8
DEFPOINTS
 62
     0
 10
1095.665980093202
 20
781.2388952446779
 30
0.0
  0
POINT
  5
4048
  8
DEFPOINTS
 62
     0
 10
1095.665980093202
 20
835.0047615130779
 30
0.0
  0
ENDBLK
  5
403E
  8
0
  0
BLOCK
  8
0
  2
*D66
 70
     1
 10
0.0
 20
0.0
 30
0.0
  3
*D66
  1

  0
LINE
  5
404C
  8
0
  6
CONTINUOUS
 62
     0
 10
1088.165980093202
 20
778.4380542426779
 30
0.0
 11
1088.165980093202
 21
807.2903026784778
 31
0.0
  0
LINE
  5
404D
  8
0
  6
CONTINUOUS
 62
     0
 10
883.1659800932019
 20
778.4380542426779
 30
0.0
 11
883.1659800932019
 21
807.2903026784778
 31
0.0
  0
LINE
  5
404E
  8
0
  6
CONTINUOUS
 62
     0
 10
1087.985980093202
 20
807.1103026784779
 30
0.0
 11
986.270060093202
 21
807.1103026784779
 31
0.0
  0
LINE
  5
404F
  8
0
  6
CONTINUOUS
 62
     0
 10
883.3459800932019
 20
807.1103026784779
 30
0.0
 11
985.0619000932019
 21
807.1103026784779
 31
0.0
  0
SOLID
  5
4050
  8
0
 62
     0
 10
1087.985980093202
 20
807.0803026784779
 30
0.0
 11
1087.985980093202
 21
807.1403026784778
 31
0.0
 12
1088.165980093202
 22
807.1103026784779
 32
0.0
 13
1088.165980093202
 23
807.1103026784779
 33
0.0
  0
SOLID
  5
4051
  8
0
 62
     0
 10
883.3459800932019
 20
807.1403026784778
 30
0.0
 11
883.3459800932019
 21
807.0803026784779
 31
0.0
 12
883.1659800932019
 22
807.1103026784779
 32
0.0
 13
883.1659800932019
 23
807.1103026784779
 33
0.0
  0
TEXT
  5
4052
  8
0
  6
CONTINUOUS
 62
     0
 10
985.1445200932019
 20
807.021832678478
 30
0.0
 40
0.18
  1
205.0000
  0
POINT
  5
4053
  8
DEFPOINTS
 62
     0
 10
1088.165980093202
 20
778.3755542426779
 30
0.0
  0
POINT
  5
4054
  8
DEFPOINTS
 62
     0
 10
883.1659800932019
 20
778.3755542426779
 30
0.0
  0
POINT
  5
4055
  8
DEFPOINTS
 62
     0
 10
883.1659800932019
 20
807.1103026784779
 30
0.0
  0
ENDBLK
  5
404B
  8
0
  0
BLOCK
  8
0
  2
*D67
 70
     1
 10
0.0
 20
0.0
 30
0.0
  3
*D67
  1

  0
LINE
  5
4059
  8
0
  6
CONTINUOUS
 62
     0
 10
1118.096117231802
 20
807.968337815578
 30
0.0
 11
1117.916117231802
 21
807.968337815578
 31
0.0
  0
LINE
  5
405A
  8
0
  6
CONTINUOUS
 62
     0
 10
1117.916117231802
 20
807.968337815578
 30
0.0
 11
1117.916117231802
 21
800.8755542426779
 31
0.0
  0
LINE
  5
405B
  8
0
  6
CONTINUOUS
 62
     0
 10
1088.228480093202
 20
778.3755542426779
 30
0.0
 11
1118.096117231802
 21
778.3755542426779
 31
0.0
  0
LINE
  5
405C
  8
0
  6
CONTINUOUS
 62
     0
 10
1110.728480093202
 20
800.8755542426779
 30
0.0
 11
1118.096117231802
 21
800.8755542426779
 31
0.0
  0
LINE
  5
405D
  8
0
  6
CONTINUOUS
 62
     0
 10
1117.916117231802
 20
778.5555542426779
 30
0.0
 11
1117.916117231802
 21
800.695554242678
 31
0.0
  0
LINE
  5
405E
  8
0
  6
CONTINUOUS
 62
     0
 10
1117.916117231802
 20
800.695554242678
 30
0.0
 11
1117.916117231802
 21
778.5555542426779
 31
0.0
  0
SOLID
  5
405F
  8
0
 62
     0
 10
1117.886117231802
 20
778.5555542426779
 30
0.0
 11
1117.946117231802
 21
778.5555542426779
 31
0.0
 12
1117.916117231802
 22
778.3755542426779
 32
0.0
 13
1117.916117231802
 23
778.3755542426779
 33
0.0
  0
SOLID
  5
4060
  8
0
 62
     0
 10
1117.946117231802
 20
800.695554242678
 30
0.0
 11
1117.886117231802
 21
800.695554242678
 31
0.0
 12
1117.916117231802
 22
800.8755542426779
 32
0.0
 13
1117.916117231802
 23
800.8755542426779
 33
0.0
  0
TEXT
  5
4061
  8
0
  6
CONTINUOUS
 62
     0
 10
1118.178737231802
 20
807.8798678155781
 30
0.0
 40
0.18
  1
22.5000
  0
POINT
  5
4062
  8
DEFPOINTS
 62
     0
 10
1088.165980093202
 20
778.3755542426779
 30
0.0
  0
POINT
  5
4063
  8
DEFPOINTS
 62
     0
 10
1110.665980093202
 20
800.8755542426779
 30
0.0
  0
POINT
  5
4064
  8
DEFPOINTS
 62
     0
 10
1117.916117231802
 20
800.8755542426779
 30
0.0
  0
ENDBLK
  5
4058
  8
0
  0
BLOCK
  8
0
  2
*D68
 70
     1
 10
0.0
 20
0.0
 30
0.0
  3
*D68
  1

  0
LINE
  5
4068
  8
0
  6
CONTINUOUS
 62
     0
 10
1088.228480093202
 20
508.3755542426779
 30
0.0
 11
1118.810357231802
 21
508.3755542426779
 31
0.0
  0
LINE
  5
4069
  8
0
  6
CONTINUOUS
 62
     0
 10
1088.228480093202
 20
778.3755542426779
 30
0.0
 11
1118.810357231802
 21
778.3755542426779
 31
0.0
  0
LINE
  5
406A
  8
0
  6
CONTINUOUS
 62
     0
 10
1118.630357231802
 20
508.5555542426779
 30
0.0
 11
1118.630357231802
 21
643.1936642426779
 31
0.0
  0
LINE
  5
406B
  8
0
  6
CONTINUOUS
 62
     0
 10
1118.630357231802
 20
778.195554242678
 30
0.0
 11
1118.630357231802
 21
643.557444242678
 31
0.0
  0
SOLID
  5
406C
  8
0
 62
     0
 10
1118.600357231802
 20
508.5555542426779
 30
0.0
 11
1118.660357231802
 21
508.5555542426779
 31
0.0
 12
1118.630357231802
 22
508.3755542426779
 32
0.0
 13
1118.630357231802
 23
508.3755542426779
 33
0.0
  0
SOLID
  5
406D
  8
0
 62
     0
 10
1118.660357231802
 20
778.195554242678
 30
0.0
 11
1118.600357231802
 21
778.195554242678
 31
0.0
 12
1118.630357231802
 22
778.3755542426779
 32
0.0
 13
1118.630357231802
 23
778.3755542426779
 33
0.0
  0
TEXT
  5
406E
  8
0
  6
CONTINUOUS
 62
     0
 10
1118.108897231802
 20
643.287084242678
 30
0.0
 40
0.18
  1
270.0000
  0
POINT
  5
406F
  8
DEFPOINTS
 62
     0
 10
1088.165980093202
 20
508.3755542426779
 30
0.0
  0
POINT
  5
4070
  8
DEFPOINTS
 62
     0
 10
1088.165980093202
 20
778.3755542426779
 30
0.0
  0
POINT
  5
4071
  8
DEFPOINTS
 62
     0
 10
1118.630357231802
 20
778.3755542426779
 30
0.0
  0
ENDBLK
  5
4067
  8
0
  0
BLOCK
  8
0
  2
*D69
 70
     1
 10
0.0
 20
0.0
 30
0.0
  3
*D69
  1

  0
LINE
  5
4075
  8
DIMENSIONS
  6
BYBLOCK
 62
     0
 10
859.1659800932019
 20
800.8755542426779
 30
0.0
 11
853.092835997002
 21
800.8755542426779
 31
0.0
  0
LINE
  5
4076
  8
DIMENSIONS
  6
BYBLOCK
 62
     0
 10
874.1659800932019
 20
780.8755542426779
 30
0.0
 11
853.092835997002
 21
780.8755542426779
 31
0.0
  0
LINE
  5
4077
  8
DIMENSIONS
  6
BYBLOCK
 62
     0
 10
853.272835997002
 20
795.8755542426779
 30
0.0
 11
853.272835997002
 21
785.8755542426779
 31
0.0
  0
SOLID
  5
4078
  8
DIMENSIONS
 62
     0
 10
854.1061693303353
 20
795.8755542426779
 30
0.0
 11
852.4395026636686
 21
795.8755542426779
 31
0.0
 12
853.272835997002
 22
800.8755542426779
 32
0.0
 13
853.272835997002
 23
800.8755542426779
 33
0.0
  0
SOLID
  5
4079
  8
DIMENSIONS
 62
     0
 10
852.4395026636686
 20
785.8755542426779
 30
0.0
 11
854.1061693303353
 21
785.8755542426779
 31
0.0
 12
853.272835997002
 22
780.8755542426779
 32
0.0
 13
853.272835997002
 23
780.8755542426779
 33
0.0
  0
TEXT
  5
407A
  8
DIMENSIONS
  6
CONTINUOUS
 62
     5
 10
855.080335997002
 20
806.6705542426779
 30
0.0
 40
5.0
  1
20 [0.79]
 50
90.0
  0
POINT
  5
407B
  8
DEFPOINTS
 62
     0
 10
860.6659800932019
 20
800.8755542426779
 30
0.0
  0
POINT
  5
407C
  8
DEFPOINTS
 62
     0
 10
875.6659800932019
 20
780.8755542426779
 30
0.0
  0
POINT
  5
407D
  8
DEFPOINTS
 62
     0
 10
853.272835997002
 20
780.8755542426779
 30
0.0
  0
ENDBLK
  5
4074
  8
0
  0
BLOCK
  8
0
  2
*D70
 70
     1
 10
0.0
 20
0.0
 30
0.0
  3
*D70
  1

  0
LINE
  5
4084
  8
DIMENSIONS
  6
BYBLOCK
 62
     0
 10
874.1659800932019
 20
780.8755542426779
 30
0.0
 11
853.092835997002
 21
780.8755542426779
 31
0.0
  0
LINE
  5
4085
  8
DIMENSIONS
  6
BYBLOCK
 62
     0
 10
874.1659800932019
 20
665.8755542426779
 30
0.0
 11
853.092835997002
 21
665.8755542426779
 31
0.0
  0
LINE
  5
4086
  8
DIMENSIONS
  6
BYBLOCK
 62
     0
 10
853.272835997002
 20
775.8755542426779
 30
0.0
 11
853.272835997002
 21
740.1608705692779
 31
0.0
  0
LINE
  5
4087
  8
DIMENSIONS
  6
BYBLOCK
 62
     0
 10
853.272835997002
 20
670.8755542426779
 30
0.0
 11
853.272835997002
 21
708.3358705692779
 31
0.0
  0
SOLID
  5
4088
  8
DIMENSIONS
 62
     0
 10
854.1061693303353
 20
775.8755542426779
 30
0.0
 11
852.4395026636686
 21
775.8755542426779
 31
0.0
 12
853.272835997002
 22
780.8755542426779
 32
0.0
 13
853.272835997002
 23
780.8755542426779
 33
0.0
  0
SOLID
  5
4089
  8
DIMENSIONS
 62
     0
 10
852.4395026636686
 20
670.8755542426779
 30
0.0
 11
854.1061693303353
 21
670.8755542426779
 31
0.0
 12
853.272835997002
 22
665.8755542426779
 32
0.0
 13
853.272835997002
 23
665.8755542426779
 33
0.0
  0
TEXT
  5
408A
  8
DIMENSIONS
  6
CONTINUOUS
 62
     5
 10
855.080335997002
 20
708.575870569278
 30
0.0
 40
5.0
  1
115 [4.53]
 50
90.0
  0
POINT
  5
408B
  8
DEFPOINTS
 62
     0
 10
875.6659800932019
 20
780.8755542426779
 30
0.0
  0
POINT
  5
408C
  8
DEFPOINTS
 62
     0
 10
875.6659800932019
 20
665.8755542426779
 30
0.0
  0
POINT
  5
4148
  8
DEFPOINTS
 62
     0
 10
853.272835997002
 20
665.8755542426779
 30
0.0
  0
ENDBLK
  5
4083
  8
0
  0
BLOCK
  8
0
  2
*D71
 70
     1
 10
0.0
 20
0.0
 30
0.0
  3
*D71
  1

  0
LINE
  5
4091
  8
DIMENSIONS
  6
BYBLOCK
 62
     0
 10
874.1659800932019
 20
665.8755542426779
 30
0.0
 11
853.092835997002
 21
665.8755542426779
 31
0.0
  0
LINE
  5
4092
  8
DIMENSIONS
  6
BYBLOCK
 62
     0
 10
874.1659800932019
 20
488.8755542426779
 30
0.0
 11
853.092835997002
 21
488.8755542426779
 31
0.0
  0
LINE
  5
4093
  8
DIMENSIONS
  6
BYBLOCK
 62
     0
 10
853.272835997002
 20
660.8755542426779
 30
0.0
 11
853.272835997002
 21
593.2880542426778
 31
0.0
  0
LINE
  5
4094
  8
DIMENSIONS
  6
BYBLOCK
 62
     0
 10
853.272835997002
 20
493.8755542426779
 30
0.0
 11
853.272835997002
 21
561.4630542426778
 31
0.0
  0
SOLID
  5
4095
  8
DIMENSIONS
 62
     0
 10
854.1061693303353
 20
660.8755542426779
 30
0.0
 11
852.4395026636686
 21
660.8755542426779
 31
0.0
 12
853.272835997002
 22
665.8755542426779
 32
0.0
 13
853.272835997002
 23
665.8755542426779
 33
0.0
  0
SOLID
  5
4096
  8
DIMENSIONS
 62
     0
 10
852.4395026636686
 20
493.8755542426779
 30
0.0
 11
854.1061693303353
 21
493.8755542426779
 31
0.0
 12
853.272835997002
 22
488.8755542426779
 32
0.0
 13
853.272835997002
 23
488.8755542426779
 33
0.0
  0
TEXT
  5
4097
  8
DIMENSIONS
  6
CONTINUOUS
 62
     5
 10
855.080335997002
 20
561.7030542426779
 30
0.0
 40
5.0
  1
177 [6.97]
 50
90.0
  0
POINT
  5
4098
  8
DEFPOINTS
 62
     0
 10
875.6659800932019
 20
665.8755542426779
 30
0.0
  0
POINT
  5
4099
  8
DEFPOINTS
 62
     0
 10
875.6659800932019
 20
488.8755542426779
 30
0.0
  0
POINT
  5
4149
  8
DEFPOINTS
 62
     0
 10
853.272835997002
 20
488.8755542426779
 30
0.0
  0
ENDBLK
  5
4090
  8
0
  0
BLOCK
  8
0
  2
*D72
 70
     1
 10
0.0
 20
0.0
 30
0.0
  3
*D72
  1

  0
LINE
  5
409E
  8
0
  6
CONTINUOUS
 62
     0
 10
881.0118449966224
 20
480.2928177788779
 30
0.0
 11
880.8318449966224
 21
480.2928177788779
 31
0.0
  0
LINE
  5
409F
  8
0
  6
CONTINUOUS
 62
     0
 10
880.8318449966224
 20
480.2928177788779
 30
0.0
 11
873.9539024086275
 21
491.720055956824
 31
0.0
  0
TEXT
  5
40A0
  8
0
  6
CONTINUOUS
 62
     0
 10
881.0917649966224
 20
480.2064177788779
 30
0.0
 40
0.18
  1
Ø7.0000
  0
SOLID
  5
40A1
  8
0
 62
     0
 10
873.9796057373699
 20
491.7355265383116
 30
0.0
 11
873.9281990798852
 21
491.7045853753364
 31
0.0
 12
873.861078919702
 22
491.8742759292779
 32
0.0
 13
873.861078919702
 23
491.8742759292779
 33
0.0
  0
POINT
  5
40A2
  8
DEFPOINTS
 62
     0
 10
873.861078919702
 20
491.8742759292779
 30
0.0
  0
POINT
  5
40A3
  8
DEFPOINTS
 62
     0
 10
877.4708812668019
 20
485.8768325560779
 30
0.0
  0
ENDBLK
  5
409D
  8
0
  0
BLOCK
  8
0
  2
*D73
 70
     1
 10
0.0
 20
0.0
 30
0.0
  3
*D73
  1

  0
LINE
  5
40A7
  8
DIMENSIONS
  6
BYBLOCK
 62
     0
 10
450.2507439125419
 20
771.261031278766
 30
0.0
 11
450.2507439125419
 21
819.516456303966
 31
0.0
  0
LINE
  5
40A8
  8
DIMENSIONS
  6
BYBLOCK
 62
     0
 10
700.2507439125418
 20
771.261031278766
 30
0.0
 11
700.2507439125418
 21
819.516456303966
 31
0.0
  0
LINE
  5
40A9
  8
DIMENSIONS
  6
BYBLOCK
 62
     0
 10
455.2507439125419
 20
819.3364563039661
 30
0.0
 11
695.2507439125418
 21
819.3364563039661
 31
0.0
  0
SOLID
  5
40AA
  8
DIMENSIONS
 62
     0
 10
455.2507439125419
 20
820.1697896372995
 30
0.0
 11
455.2507439125419
 21
818.5031229706327
 31
0.0
 12
450.2507439125419
 22
819.3364563039661
 32
0.0
 13
450.2507439125419
 23
819.3364563039661
 33
0.0
  0
SOLID
  5
40AB
  8
DIMENSIONS
 62
     0
 10
695.2507439125418
 20
818.5031229706327
 30
0.0
 11
695.2507439125418
 21
820.1697896372995
 31
0.0
 12
700.2507439125418
 22
819.3364563039661
 32
0.0
 13
700.2507439125418
 23
819.3364563039661
 33
0.0
  0
TEXT
  5
40AC
  8
DIMENSIONS
  6
CONTINUOUS
 62
     5
 10
559.8557439125418
 20
821.7314563039661
 30
0.0
 40
5.0
  1
250 [9.84]
  0
POINT
  5
40AD
  8
DEFPOINTS
 62
     0
 10
450.2507439125419
 20
769.761031278766
 30
0.0
  0
POINT
  5
40AE
  8
DEFPOINTS
 62
     0
 10
700.2507439125418
 20
769.761031278766
 30
0.0
  0
POINT
  5
40AF
  8
DEFPOINTS
 62
     0
 10
700.2507439125418
 20
819.3364563039661
 30
0.0
  0
ENDBLK
  5
40A6
  8
0
  0
BLOCK
  8
0
  2
*D74
 70
     1
 10
0.0
 20
0.0
 30
0.0
  3
*D74
  1

  0
LINE
  5
40B4
  8
DIMENSIONS
  6
BYBLOCK
 62
     0
 10
466.2507439125419
 20
749.261031278766
 30
0.0
 11
466.2507439125419
 21
791.5044668159659
 31
0.0
  0
LINE
  5
40B5
  8
DIMENSIONS
  6
BYBLOCK
 62
     0
 10
684.2507439125418
 20
749.261031278766
 30
0.0
 11
684.2507439125418
 21
791.5044668159659
 31
0.0
  0
LINE
  5
40B6
  8
DIMENSIONS
  6
BYBLOCK
 62
     0
 10
471.2507439125419
 20
791.3244668159659
 30
0.0
 11
679.2507439125418
 21
791.3244668159659
 31
0.0
  0
SOLID
  5
40B7
  8
DIMENSIONS
 62
     0
 10
471.2507439125419
 20
792.1578001492993
 30
0.0
 11
471.2507439125419
 21
790.4911334826326
 31
0.0
 12
466.2507439125419
 22
791.3244668159659
 32
0.0
 13
466.2507439125419
 23
791.3244668159659
 33
0.0
  0
SOLID
  5
40B8
  8
DIMENSIONS
 62
     0
 10
679.2507439125418
 20
790.4911334826326
 30
0.0
 11
679.2507439125418
 21
792.1578001492993
 31
0.0
 12
684.2507439125418
 22
791.3244668159659
 32
0.0
 13
684.2507439125418
 23
791.3244668159659
 33
0.0
  0
TEXT
  5
40B9
  8
DIMENSIONS
  6
CONTINUOUS
 62
     5
 10
559.8557439125418
 20
793.7194668159659
 30
0.0
 40
5.0
  1
218 [8.58]
  0
POINT
  5
40BA
  8
DEFPOINTS
 62
     0
 10
466.2507439125419
 20
747.761031278766
 30
0.0
  0
POINT
  5
40BB
  8
DEFPOINTS
 62
     0
 10
684.2507439125418
 20
747.761031278766
 30
0.0
  0
POINT
  5
40BC
  8
DEFPOINTS
 62
     0
 10
684.2507439125418
 20
791.3244668159659
 30
0.0
  0
ENDBLK
  5
40B3
  8
0
  0
BLOCK
  8
0
  2
*D75
 70
     1
 10
0.0
 20
0.0
 30
0.0
  3
*D75
  1

  0
LINE
  5
40C1
  8
DIMENSIONS
  6
BYBLOCK
 62
     0
 10
462.0507439125419
 20
719.4110312787661
 30
0.0
 11
462.0507439125419
 21
805.3593515994659
 31
0.0
  0
LINE
  5
40C2
  8
DIMENSIONS
  6
BYBLOCK
 62
     0
 10
688.4507439125416
 20
719.4110312787661
 30
0.0
 11
688.4507439125416
 21
805.3593515994659
 31
0.0
  0
LINE
  5
40C3
  8
DIMENSIONS
  6
BYBLOCK
 62
     0
 10
467.0507439125419
 20
805.1793515994659
 30
0.0
 11
683.4507439125416
 21
805.1793515994659
 31
0.0
  0
SOLID
  5
40C4
  8
DIMENSIONS
 62
     0
 10
467.0507439125419
 20
806.0126849327993
 30
0.0
 11
467.0507439125419
 21
804.3460182661325
 31
0.0
 12
462.0507439125419
 22
805.1793515994659
 32
0.0
 13
462.0507439125419
 23
805.1793515994659
 33
0.0
  0
SOLID
  5
40C5
  8
DIMENSIONS
 62
     0
 10
683.4507439125416
 20
804.3460182661325
 30
0.0
 11
683.4507439125416
 21
806.0126849327993
 31
0.0
 12
688.4507439125416
 22
805.1793515994659
 32
0.0
 13
688.4507439125416
 23
805.1793515994659
 33
0.0
  0
TEXT
  5
40C6
  8
DIMENSIONS
  6
CONTINUOUS
 62
     5
 10
556.9457439125418
 20
807.5743515994659
 30
0.0
 40
5.0
  1
226.4 [8.91]
  0
POINT
  5
40C7
  8
DEFPOINTS
 62
     0
 10
462.0507439125419
 20
717.9110312787661
 30
0.0
  0
POINT
  5
40C8
  8
DEFPOINTS
 62
     0
 10
688.4507439125416
 20
717.9110312787661
 30
0.0
  0
POINT
  5
40C9
  8
DEFPOINTS
 62
     0
 10
688.4507439125416
 20
805.1793515994659
 30
0.0
  0
ENDBLK
  5
40C0
  8
0
  0
BLOCK
  8
0
  2
*D76
 70
     1
 10
0.0
 20
0.0
 30
0.0
  3
*D76
  1

  0
LINE
  5
40CE
  8
DIMENSIONS
  6
BYBLOCK
 62
     0
 10
448.7507439125419
 20
169.761031278766
 30
0.0
 11
426.9632241684419
 21
169.761031278766
 31
0.0
  0
LINE
  5
40CF
  8
DIMENSIONS
  6
BYBLOCK
 62
     0
 10
448.7507439125419
 20
769.761031278766
 30
0.0
 11
426.9632241684419
 21
769.761031278766
 31
0.0
  0
LINE
  5
40D0
  8
DIMENSIONS
  6
BYBLOCK
 62
     0
 10
427.1432241684419
 20
174.761031278766
 30
0.0
 11
427.1432241684419
 21
764.761031278766
 31
0.0
  0
SOLID
  5
40D1
  8
DIMENSIONS
 62
     0
 10
426.3098908351085
 20
174.761031278766
 30
0.0
 11
427.9765575017752
 21
174.761031278766
 31
0.0
 12
427.1432241684419
 22
169.761031278766
 32
0.0
 13
427.1432241684419
 23
169.761031278766
 33
0.0
  0
SOLID
  5
40D2
  8
DIMENSIONS
 62
     0
 10
427.9765575017752
 20
764.761031278766
 30
0.0
 11
426.3098908351085
 21
764.761031278766
 31
0.0
 12
427.1432241684419
 22
769.761031278766
 32
0.0
 13
427.1432241684419
 23
769.761031278766
 33
0.0
  0
TEXT
  5
40D3
  8
DIMENSIONS
  6
CONTINUOUS
 62
     5
 10
424.7482241684419
 20
452.398531278766
 30
0.0
 40
5.0
  1
600 [23.62]
 50
90.0
  0
POINT
  5
40D4
  8
DEFPOINTS
 62
     0
 10
450.2507439125419
 20
169.761031278766
 30
0.0
  0
POINT
  5
40D5
  8
DEFPOINTS
 62
     0
 10
450.2507439125419
 20
769.761031278766
 30
0.0
  0
POINT
  5
40D6
  8
DEFPOINTS
 62
     0
 10
427.1432241684419
 20
769.761031278766
 30
0.0
  0
ENDBLK
  5
40CD
  8
0
  0
BLOCK
  8
0
  2
*D77
 70
     1
 10
0.0
 20
0.0
 30
0.0
  3
*D77
  1

  0
LINE
  5
40DB
  8
DIMENSIONS
  6
BYBLOCK
 62
     0
 10
448.7507439125419
 20
769.761031278766
 30
0.0
 11
441.4654123537418
 21
769.761031278766
 31
0.0
  0
LINE
  5
40DC
  8
DIMENSIONS
  6
BYBLOCK
 62
     0
 10
464.7507439125419
 20
747.761031278766
 30
0.0
 11
441.4654123537418
 21
747.761031278766
 31
0.0
  0
LINE
  5
40DD
  8
DIMENSIONS
  6
BYBLOCK
 62
     0
 10
441.6454123537418
 20
769.761031278766
 30
0.0
 11
441.6454123537418
 21
803.261031278766
 31
0.0
  0
LINE
  5
40DE
  8
DIMENSIONS
  6
BYBLOCK
 62
     0
 10
441.6454123537418
 20
764.761031278766
 30
0.0
 11
441.6454123537418
 21
752.761031278766
 31
0.0
  0
SOLID
  5
40DF
  8
DIMENSIONS
 62
     0
 10
442.4787456870751
 20
764.761031278766
 30
0.0
 11
440.8120790204085
 21
764.761031278766
 31
0.0
 12
441.6454123537418
 22
769.761031278766
 32
0.0
 13
441.6454123537418
 23
769.761031278766
 33
0.0
  0
SOLID
  5
40E0
  8
DIMENSIONS
 62
     0
 10
440.8120790204085
 20
752.761031278766
 30
0.0
 11
442.4787456870751
 21
752.761031278766
 31
0.0
 12
441.6454123537418
 22
747.761031278766
 32
0.0
 13
441.6454123537418
 23
747.761031278766
 33
0.0
  0
TEXT
  5
40E1
  8
DIMENSIONS
  6
CONTINUOUS
 62
     5
 10
439.2504123537418
 20
775.5560312787661
 30
0.0
 40
5.0
  1
22 [0.87]
 50
90.0
  0
POINT
  5
40E2
  8
DEFPOINTS
 62
     0
 10
450.2507439125419
 20
769.761031278766
 30
0.0
  0
POINT
  5
40E3
  8
DEFPOINTS
 62
     0
 10
466.2507439125419
 20
747.761031278766
 30
0.0
  0
POINT
  5
40E4
  8
DEFPOINTS
 62
     0
 10
441.6454123537418
 20
747.761031278766
 30
0.0
  0
ENDBLK
  5
40DA
  8
0
  0
BLOCK
  8
0
  2
*D78
 70
     1
 10
0.0
 20
0.0
 30
0.0
  3
*D78
  1

  0
LINE
  5
40EA
  8
DIMENSIONS
  6
BYBLOCK
 62
     0
 10
464.7507439125419
 20
747.761031278766
 30
0.0
 11
441.4654123537418
 21
747.761031278766
 31
0.0
  0
LINE
  5
40EB
  8
DIMENSIONS
  6
BYBLOCK
 62
     0
 10
460.5507439125419
 20
717.9110312787661
 30
0.0
 11
441.4654123537418
 21
717.9110312787661
 31
0.0
  0
LINE
  5
40EC
  8
DIMENSIONS
  6
BYBLOCK
 62
     0
 10
441.6454123537418
 20
742.761031278766
 30
0.0
 11
441.6454123537418
 21
722.9110312787661
 31
0.0
  0
SOLID
  5
40ED
  8
DIMENSIONS
 62
     0
 10
442.4787456870751
 20
742.761031278766
 30
0.0
 11
440.8120790204085
 21
742.761031278766
 31
0.0
 12
441.6454123537418
 22
747.761031278766
 32
0.0
 13
441.6454123537418
 23
747.761031278766
 33
0.0
  0
SOLID
  5
40EE
  8
DIMENSIONS
 62
     0
 10
440.8120790204085
 20
722.9110312787661
 30
0.0
 11
442.4787456870751
 21
722.9110312787661
 31
0.0
 12
441.6454123537418
 22
717.9110312787661
 32
0.0
 13
441.6454123537418
 23
717.9110312787661
 33
0.0
  0
TEXT
  5
40EF
  8
DIMENSIONS
  6
CONTINUOUS
 62
     5
 10
439.2504123537418
 20
714.531031278766
 30
0.0
 40
5.0
  1
29.85 [1.18]
 50
90.0
  0
POINT
  5
40F0
  8
DEFPOINTS
 62
     0
 10
466.2507439125419
 20
747.761031278766
 30
0.0
  0
POINT
  5
40F1
  8
DEFPOINTS
 62
     0
 10
462.0507439125419
 20
717.9110312787661
 30
0.0
  0
POINT
  5
40F2
  8
DEFPOINTS
 62
     0
 10
441.6454123537418
 20
717.9110312787661
 30
0.0
  0
ENDBLK
  5
40E9
  8
0
  0
BLOCK
  8
0
  2
*D79
 70
     1
 10
0.0
 20
0.0
 30
0.0
  3
*D79
  1

  0
LINE
  5
40F7
  8
DIMENSIONS
  6
BYBLOCK
 62
     0
 10
460.5507439125419
 20
717.9110312787661
 30
0.0
 11
441.4654123537418
 21
717.9110312787661
 31
0.0
  0
LINE
  5
40F8
  8
DIMENSIONS
  6
BYBLOCK
 62
     0
 10
460.5507439125419
 20
572.911031278766
 30
0.0
 11
441.4654123537418
 21
572.911031278766
 31
0.0
  0
LINE
  5
40F9
  8
DIMENSIONS
  6
BYBLOCK
 62
     0
 10
441.6454123537418
 20
712.9110312787661
 30
0.0
 11
441.6454123537418
 21
577.911031278766
 31
0.0
  0
SOLID
  5
40FA
  8
DIMENSIONS
 62
     0
 10
442.4787456870751
 20
712.9110312787661
 30
0.0
 11
440.8120790204085
 21
712.9110312787661
 31
0.0
 12
441.6454123537418
 22
717.9110312787661
 32
0.0
 13
441.6454123537418
 23
717.9110312787661
 33
0.0
  0
SOLID
  5
40FB
  8
DIMENSIONS
 62
     0
 10
440.8120790204085
 20
577.911031278766
 30
0.0
 11
442.4787456870751
 21
577.911031278766
 31
0.0
 12
441.6454123537418
 22
572.911031278766
 32
0.0
 13
441.6454123537418
 23
572.911031278766
 33
0.0
  0
TEXT
  5
40FC
  8
DIMENSIONS
  6
CONTINUOUS
 62
     5
 10
439.2504123537417
 20
629.738531278766
 30
0.0
 40
5.0
  1
145 [5.71]
 50
90.0
  0
POINT
  5
40FD
  8
DEFPOINTS
 62
     0
 10
462.0507439125419
 20
717.9110312787661
 30
0.0
  0
POINT
  5
40FE
  8
DEFPOINTS
 62
     0
 10
462.0507439125419
 20
572.911031278766
 30
0.0
  0
POINT
  5
40FF
  8
DEFPOINTS
 62
     0
 10
441.6454123537418
 20
572.911031278766
 30
0.0
  0
ENDBLK
  5
40F6
  8
0
  0
BLOCK
  8
0
  2
*D80
 70
     1
 10
0.0
 20
0.0
 30
0.0
  3
*D80
  1

  0
LINE
  5
4104
  8
DIMENSIONS
  6
BYBLOCK
 62
     0
 10
464.7507439125419
 20
494.761031278766
 30
0.0
 11
441.4654123537418
 21
494.761031278766
 31
0.0
  0
LINE
  5
4105
  8
DIMENSIONS
  6
BYBLOCK
 62
     0
 10
460.5507439125419
 20
572.911031278766
 30
0.0
 11
441.4654123537418
 21
572.911031278766
 31
0.0
  0
LINE
  5
4106
  8
DIMENSIONS
  6
BYBLOCK
 62
     0
 10
441.6454123537418
 20
499.761031278766
 30
0.0
 11
441.6454123537418
 21
567.911031278766
 31
0.0
  0
SOLID
  5
4107
  8
DIMENSIONS
 62
     0
 10
440.8120790204085
 20
499.761031278766
 30
0.0
 11
442.4787456870751
 21
499.761031278766
 31
0.0
 12
441.6454123537418
 22
494.761031278766
 32
0.0
 13
441.6454123537418
 23
494.761031278766
 33
0.0
  0
SOLID
  5
4108
  8
DIMENSIONS
 62
     0
 10
442.4787456870751
 20
567.911031278766
 30
0.0
 11
440.8120790204085
 21
567.911031278766
 31
0.0
 12
441.6454123537418
 22
572.911031278766
 32
0.0
 13
441.6454123537418
 23
572.911031278766
 33
0.0
  0
TEXT
  5
4109
  8
DIMENSIONS
  6
CONTINUOUS
 62
     5
 10
439.2504123537418
 20
515.468531278766
 30
0.0
 40
5.0
  1
78.15 [3.08]
 50
90.0
  0
POINT
  5
410A
  8
DEFPOINTS
 62
     0
 10
466.2507439125419
 20
494.761031278766
 30
0.0
  0
POINT
  5
410B
  8
DEFPOINTS
 62
     0
 10
462.0507439125419
 20
572.911031278766
 30
0.0
  0
POINT
  5
410C
  8
DEFPOINTS
 62
     0
 10
441.6454123537418
 20
572.911031278766
 30
0.0
  0
ENDBLK
  5
4103
  8
0
  0
BLOCK
  8
0
  2
*D81
 70
     1
 10
0.0
 20
0.0
 30
0.0
  3
*D81
  1

  0
LINE
  5
4111
  8
0
  6
CONTINUOUS
 62
     0
 10
1049.804502238226
 20
520.1571126046779
 30
0.0
 11
1049.624502238226
 21
520.1571126046779
 31
0.0
  0
LINE
  5
4112
  8
0
  6
CONTINUOUS
 62
     0
 10
1049.624502238226
 20
520.1571126046779
 30
0.0
 11
1035.505403520922
 21
527.3891050655105
 31
0.0
  0
TEXT
  5
4113
  8
0
  6
CONTINUOUS
 62
     0
 10
1049.884422238226
 20
520.070712604678
 30
0.0
 40
0.18
  1
Ø7.0000
  0
SOLID
  5
4114
  8
0
 62
     0
 10
1035.519080184984
 20
527.4158061677379
 30
0.0
 11
1035.491726856861
 21
527.3624039632832
 31
0.0
 12
1035.345196907558
 22
527.471165049878
 32
0.0
 13
1035.345196907558
 23
527.471165049878
 33
0.0
  0
POINT
  5
4115
  8
DEFPOINTS
 62
     0
 10
1035.345196907558
 20
527.471165049878
 30
0.0
  0
POINT
  5
4116
  8
DEFPOINTS
 62
     0
 10
1041.575454093958
 20
524.2799434355779
 30
0.0
  0
ENDBLK
  5
4110
  8
0
  0
BLOCK
  8
0
  2
*D82
 70
     1
 10
0.0
 20
0.0
 30
0.0
  3
*D82
  1

  0
LINE
  5
411A
  8
DIMENSIONS
  6
BYBLOCK
 62
     0
 10
477.2507439125419
 20
177.261031278766
 30
0.0
 11
477.2507439125419
 21
158.6894055014956
 31
0.0
  0
LINE
  5
411B
  8
DIMENSIONS
  6
BYBLOCK
 62
     0
 10
673.2507439125418
 20
177.261031278766
 30
0.0
 11
673.2507439125418
 21
158.6894055014956
 31
0.0
  0
LINE
  5
411C
  8
DIMENSIONS
  6
BYBLOCK
 62
     0
 10
482.2507439125419
 20
158.8694055014956
 30
0.0
 11
668.2507439125418
 21
158.8694055014956
 31
0.0
  0
SOLID
  5
411D
  8
DIMENSIONS
 62
     0
 10
482.2507439125419
 20
159.7027388348289
 30
0.0
 11
482.2507439125419
 21
158.0360721681623
 31
0.0
 12
477.2507439125419
 22
158.8694055014956
 32
0.0
 13
477.2507439125419
 23
158.8694055014956
 33
0.0
  0
SOLID
  5
411E
  8
DIMENSIONS
 62
     0
 10
668.2507439125418
 20
158.0360721681623
 30
0.0
 11
668.2507439125418
 21
159.7027388348289
 31
0.0
 12
673.2507439125418
 22
158.8694055014956
 32
0.0
 13
673.2507439125418
 23
158.8694055014956
 33
0.0
  0
TEXT
  5
411F
  8
DIMENSIONS
  6
CONTINUOUS
 62
     5
 10
559.5782439125418
 20
161.2644055014956
 30
0.0
 40
5.0
  1
196 [7.72]
  0
POINT
  5
4120
  8
DEFPOINTS
 62
     0
 10
477.2507439125419
 20
178.761031278766
 30
0.0
  0
POINT
  5
4121
  8
DEFPOINTS
 62
     0
 10
673.2507439125418
 20
178.761031278766
 30
0.0
  0
POINT
  5
4122
  8
DEFPOINTS
 62
     0
 10
673.2507439125418
 20
158.8694055014956
 30
0.0
  0
ENDBLK
  5
4119
  8
0
  0
BLOCK
  8
0
  2
*D83
 70
     1
 10
0.0
 20
0.0
 30
0.0
  3
*D83
  1

  0
LINE
  5
4127
  8
DIMENSIONS
  6
BYBLOCK
 62
     0
 10
448.7507439125419
 20
169.761031278766
 30
0.0
 11
441.4654123537418
 21
169.761031278766
 31
0.0
  0
LINE
  5
4128
  8
DIMENSIONS
  6
BYBLOCK
 62
     0
 10
475.7507439125419
 20
178.761031278766
 30
0.0
 11
441.4654123537418
 21
178.761031278766
 31
0.0
  0
LINE
  5
4129
  8
DIMENSIONS
  6
BYBLOCK
 62
     0
 10
441.6454123537418
 20
169.761031278766
 30
0.0
 11
441.6454123537418
 21
135.226031278766
 31
0.0
  0
LINE
  5
412A
  8
DIMENSIONS
  6
BYBLOCK
 62
     0
 10
441.6454123537418
 20
164.761031278766
 30
0.0
 11
441.6454123537418
 21
159.761031278766
 31
0.0
  0
LINE
  5
412B
  8
DIMENSIONS
  6
BYBLOCK
 62
     0
 10
441.6454123537418
 20
183.761031278766
 30
0.0
 11
441.6454123537418
 21
188.761031278766
 31
0.0
  0
SOLID
  5
412C
  8
DIMENSIONS
 62
     0
 10
442.4787456870751
 20
164.761031278766
 30
0.0
 11
440.8120790204085
 21
164.761031278766
 31
0.0
 12
441.6454123537418
 22
169.761031278766
 32
0.0
 13
441.6454123537418
 23
169.761031278766
 33
0.0
  0
SOLID
  5
412D
  8
DIMENSIONS
 62
     0
 10
440.8120790204085
 20
183.761031278766
 30
0.0
 11
442.4787456870751
 21
183.761031278766
 31
0.0
 12
441.6454123537418
 22
178.761031278766
 32
0.0
 13
441.6454123537418
 23
178.761031278766
 33
0.0
  0
TEXT
  5
412E
  8
DIMENSIONS
  6
CONTINUOUS
 62
     5
 10
439.2504123537419
 20
135.936031278766
 30
0.0
 40
5.0
  1
9 [0.35]
 50
90.0
  0
POINT
  5
412F
  8
DEFPOINTS
 62
     0
 10
450.2507439125419
 20
169.761031278766
 30
0.0
  0
POINT
  5
4130
  8
DEFPOINTS
 62
     0
 10
477.2507439125419
 20
178.761031278766
 30
0.0
  0
POINT
  5
4131
  8
DEFPOINTS
 62
     0
 10
441.6454123537418
 20
178.761031278766
 30
0.0
  0
ENDBLK
  5
4126
  8
0
  0
BLOCK
  8
0
  2
*D84
 70
     1
 10
0.0
 20
0.0
 30
0.0
  3
*D84
  1

  0
LINE
  5
4136
  8
DIMENSIONS
  6
BYBLOCK
 62
     0
 10
472.7507439125419
 20
757.261031278766
 30
0.0
 11
472.7507439125419
 21
777.464892764866
 31
0.0
  0
LINE
  5
4137
  8
DIMENSIONS
  6
BYBLOCK
 62
     0
 10
677.7507439125418
 20
757.261031278766
 30
0.0
 11
677.7507439125418
 21
777.464892764866
 31
0.0
  0
LINE
  5
4138
  8
DIMENSIONS
  6
BYBLOCK
 62
     0
 10
477.7507439125419
 20
777.2848927648661
 30
0.0
 11
672.7507439125418
 21
777.2848927648661
 31
0.0
  0
SOLID
  5
4139
  8
DIMENSIONS
 62
     0
 10
477.7507439125419
 20
778.1182260981994
 30
0.0
 11
477.7507439125419
 21
776.4515594315327
 31
0.0
 12
472.7507439125419
 22
777.2848927648661
 32
0.0
 13
472.7507439125419
 23
777.2848927648661
 33
0.0
  0
SOLID
  5
413A
  8
DIMENSIONS
 62
     0
 10
672.7507439125418
 20
776.4515594315327
 30
0.0
 11
672.7507439125418
 21
778.1182260981994
 31
0.0
 12
677.7507439125418
 22
777.2848927648661
 32
0.0
 13
677.7507439125418
 23
777.2848927648661
 33
0.0
  0
TEXT
  5
413B
  8
DIMENSIONS
  6
CONTINUOUS
 62
     5
 10
559.8557439125418
 20
779.679892764866
 30
0.0
 40
5.0
  1
205 [8.07]
  0
POINT
  5
413C
  8
DEFPOINTS
 62
     0
 10
472.7507439125419
 20
755.761031278766
 30
0.0
  0
POINT
  5
413D
  8
DEFPOINTS
 62
     0
 10
677.7507439125418
 20
755.761031278766
 30
0.0
  0
POINT
  5
413E
  8
DEFPOINTS
 62
     0
 10
677.7507439125418
 20
777.2848927648661
 30
0.0
  0
ENDBLK
  5
4135
  8
0
  0
BLOCK
  8
0
  2
*D85
 70
     1
 10
0.0
 20
0.0
 30
0.0
  3
*D85
  1

  0
LINE
  5
4167
  8
DIMENSIONS
  6
BYBLOCK
 62
     0
 10
472.3358689354149
 20
488.8262816247365
 30
0.0
 11
501.2616897059071
 21
460.6152745928462
 31
0.0
  0
TEXT
  5
4168
  8
DIMENSIONS
  6
CONTINUOUS
 62
     5
 10
478.1588595853628
 20
486.6043894377435
 30
0.0
 40
5.0
  1
Ø7 [Ø0.28]
 50
315.7167649205382
  0
SOLID
  5
4169
  8
DIMENSIONS
 62
     0
 10
472.9177071367903
 20
489.4228625093318
 30
0.0
 11
471.7540307340394
 21
488.2297007401411
 31
0.0
 12
468.7563836278425
 22
492.3173108329892
 32
0.0
 13
468.7563836278425
 23
492.3173108329892
 33
0.0
  0
LINE
  5
416A
  8
DIMENSIONS
  6
BYBLOCK
 62
     0
 10
465.0007439125419
 20
494.761031278766
 30
0.0
 11
467.5007439125419
 21
494.761031278766
 31
0.0
  0
LINE
  5
416B
  8
DIMENSIONS
  6
BYBLOCK
 62
     0
 10
466.2507439125419
 20
493.511031278766
 30
0.0
 11
466.2507439125419
 21
496.011031278766
 31
0.0
  0
POINT
  5
416C
  8
DEFPOINTS
 62
     0
 10
468.7563836278425
 20
492.3173108329892
 30
0.0
  0
POINT
  5
416D
  8
DEFPOINTS
 62
     0
 10
463.7451041972413
 20
497.2047517245429
 30
0.0
  0
ENDBLK
  5
4166
  8
0
  0
BLOCK
  8
0
  2
*D87
 70
     1
 10
0.0
 20
0.0
 30
0.0
  3
*D87
  1

  0
LINE
  5
42FC
  8
0
  6
CONTINUOUS
 62
     0
 10
27.9664762817
 20
955.0625
 30
0.0
 11
27.96647628170001
 21
998.9176414428999
 31
0.0
  0
LINE
  5
42FD
  8
0
  6
CONTINUOUS
 62
     0
 10
332.9664762817
 20
955.0625
 30
0.0
 11
332.9664762817
 21
998.9176414428999
 31
0.0
  0
LINE
  5
42FE
  8
0
  6
CONTINUOUS
 62
     0
 10
28.14647628170001
 20
998.7376414429
 30
0.0
 11
179.8640162817
 21
998.7376414429
 31
0.0
  0
LINE
  5
42FF
  8
0
  6
CONTINUOUS
 62
     0
 10
332.7864762817
 20
998.7376414429
 30
0.0
 11
181.0689362817
 21
998.7376414429
 31
0.0
  0
SOLID
  5
4300
  8
0
 62
     0
 10
28.14647628170001
 20
998.7676414429
 30
0.0
 11
28.14647628170001
 21
998.7076414429
 31
0.0
 12
27.96647628170001
 22
998.7376414429
 32
0.0
 13
27.96647628170001
 23
998.7376414429
 33
0.0
  0
SOLID
  5
4301
  8
0
 62
     0
 10
332.7864762817
 20
998.7076414429
 30
0.0
 11
332.7864762817
 21
998.7676414429
 31
0.0
 12
332.9664762817
 22
998.7376414429
 32
0.0
 13
332.9664762817
 23
998.7376414429
 33
0.0
  0
TEXT
  5
4302
  8
0
  6
CONTINUOUS
 62
     0
 10
179.9433962817
 20
998.6491714429001
 30
0.0
 40
0.18
  1
305.0000
  0
POINT
  5
4303
  8
DEFPOINTS
 62
     0
 10
27.9664762817
 20
955.0
 30
0.0
  0
POINT
  5
4304
  8
DEFPOINTS
 62
     0
 10
332.9664762817
 20
955.0
 30
0.0
  0
POINT
  5
4309
  8
DEFPOINTS
 62
     0
 10
332.9664762817
 20
998.7376414429
 30
0.0
  0
ENDBLK
  5
430A
  8
0
  6
BYBLOCK
 62
     0
  0
BLOCK
  8
0
  2
*D88
 70
     1
 10
0.0
 20
0.0
 30
0.0
  3
*D88
  1

  0
LINE
  5
430E
  8
0
  6
CONTINUOUS
 62
     0
 10
47.46647628169999
 20
932.0625
 30
0.0
 11
47.46647628170001
 21
985.5781205377999
 31
0.0
  0
LINE
  5
430F
  8
0
  6
CONTINUOUS
 62
     0
 10
313.4664762817
 20
932.0625
 30
0.0
 11
313.4664762817
 21
985.5781205377999
 31
0.0
  0
LINE
  5
4310
  8
0
  6
CONTINUOUS
 62
     0
 10
47.64647628170001
 20
985.3981205378
 30
0.0
 11
179.8623962817
 21
985.3981205378
 31
0.0
  0
LINE
  5
4311
  8
0
  6
CONTINUOUS
 62
     0
 10
313.2864762817
 20
985.3981205378
 30
0.0
 11
181.0705562817
 21
985.3981205378
 31
0.0
  0
SOLID
  5
4312
  8
0
 62
     0
 10
47.64647628170001
 20
985.4281205377999
 30
0.0
 11
47.64647628170001
 21
985.3681205378
 31
0.0
 12
47.46647628170001
 22
985.3981205378
 32
0.0
 13
47.46647628170001
 23
985.3981205378
 33
0.0
  0
SOLID
  5
4313
  8
0
 62
     0
 10
313.2864762817
 20
985.3681205378
 30
0.0
 11
313.2864762817
 21
985.4281205377999
 31
0.0
 12
313.4664762817
 22
985.3981205378
 32
0.0
 13
313.4664762817
 23
985.3981205378
 33
0.0
  0
TEXT
  5
4314
  8
0
  6
CONTINUOUS
 62
     0
 10
179.9450162817
 20
985.3096505378
 30
0.0
 40
0.18
  1
266.0000
  0
POINT
  5
4315
  8
DEFPOINTS
 62
     0
 10
47.46647628169999
 20
932.0
 30
0.0
  0
POINT
  5
4316
  8
DEFPOINTS
 62
     0
 10
313.4664762817
 20
932.0
 30
0.0
  0
POINT
  5
4317
  8
DEFPOINTS
 62
     0
 10
313.4664762817
 20
985.3981205378
 30
0.0
  0
ENDBLK
  5
4318
  8
0
  6
BYBLOCK
 62
     0
  0
BLOCK
  8
0
  2
*D89
 70
     1
 10
0.0
 20
0.0
 30
0.0
  3
*D89
  1

  0
LINE
  5
431C
  8
0
  6
CONTINUOUS
 62
     0
 10
52.96647628169999
 20
925.0625
 30
0.0
 11
52.96647628169998
 21
972.8299972514
 31
0.0
  0
LINE
  5
431D
  8
0
  6
CONTINUOUS
 62
     0
 10
307.9664762817
 20
925.0625
 30
0.0
 11
307.9664762817
 21
972.8299972514
 31
0.0
  0
LINE
  5
431E
  8
0
  6
CONTINUOUS
 62
     0
 10
53.14647628169998
 20
972.6499972514
 30
0.0
 11
179.8623962817
 21
972.6499972514
 31
0.0
  0
LINE
  5
431F
  8
0
  6
CONTINUOUS
 62
     0
 10
307.7864762817
 20
972.6499972514
 30
0.0
 11
181.0705562817
 21
972.6499972514
 31
0.0
  0
SOLID
  5
4320
  8
0
 62
     0
 10
53.14647628169998
 20
972.6799972514
 30
0.0
 11
53.14647628169998
 21
972.6199972514
 31
0.0
 12
52.96647628169998
 22
972.6499972514
 32
0.0
 13
52.96647628169998
 23
972.6499972514
 33
0.0
  0
SOLID
  5
4321
  8
0
 62
     0
 10
307.7864762817
 20
972.6199972514
 30
0.0
 11
307.7864762817
 21
972.6799972514
 31
0.0
 12
307.9664762817
 22
972.6499972514
 32
0.0
 13
307.9664762817
 23
972.6499972514
 33
0.0
  0
TEXT
  5
4322
  8
0
  6
CONTINUOUS
 62
     0
 10
179.9450162817
 20
972.5615272514001
 30
0.0
 40
0.18
  1
255.0000
  0
POINT
  5
4323
  8
DEFPOINTS
 62
     0
 10
52.96647628169999
 20
925.0
 30
0.0
  0
POINT
  5
4324
  8
DEFPOINTS
 62
     0
 10
307.9664762817
 20
925.0
 30
0.0
  0
POINT
  5
4325
  8
DEFPOINTS
 62
     0
 10
307.9664762817
 20
972.6499972514
 30
0.0
  0
ENDBLK
  5
4326
  8
0
  6
BYBLOCK
 62
     0
  0
BLOCK
  8
0
  2
*D90
 70
     1
 10
0.0
 20
0.0
 30
0.0
  3
*D90
  1

  0
LINE
  5
432A
  8
0
  6
CONTINUOUS
 62
     0
 10
52.96647628169999
 20
925.0625
 30
0.0
 11
52.96647628169998
 21
962.5724236199
 31
0.0
  0
LINE
  5
432B
  8
0
  6
CONTINUOUS
 62
     0
 10
180.4664762817
 20
932.0625
 30
0.0
 11
180.4664762817
 21
962.5724236199
 31
0.0
  0
LINE
  5
432C
  8
0
  6
CONTINUOUS
 62
     0
 10
53.14647628169998
 20
962.3924236199
 30
0.0
 11
116.1223862817
 21
962.3924236199
 31
0.0
  0
LINE
  5
432D
  8
0
  6
CONTINUOUS
 62
     0
 10
180.2864762817
 20
962.3924236199
 30
0.0
 11
117.3105662817
 21
962.3924236199
 31
0.0
  0
SOLID
  5
432E
  8
0
 62
     0
 10
53.14647628169998
 20
962.4224236199
 30
0.0
 11
53.14647628169998
 21
962.3624236199
 31
0.0
 12
52.96647628169998
 22
962.3924236199
 32
0.0
 13
52.96647628169998
 23
962.3924236199
 33
0.0
  0
SOLID
  5
432F
  8
0
 62
     0
 10
180.2864762817
 20
962.3624236199
 30
0.0
 11
180.2864762817
 21
962.4224236199
 31
0.0
 12
180.4664762817
 22
962.3924236199
 32
0.0
 13
180.4664762817
 23
962.3924236199
 33
0.0
  0
TEXT
  5
4330
  8
0
  6
CONTINUOUS
 62
     0
 10
116.1850262817
 20
962.3039536199001
 30
0.0
 40
0.18
  1
127.5000
  0
POINT
  5
4331
  8
DEFPOINTS
 62
     0
 10
52.96647628169999
 20
925.0
 30
0.0
  0
POINT
  5
4332
  8
DEFPOINTS
 62
     0
 10
180.4664762817
 20
932.0
 30
0.0
  0
POINT
  5
4333
  8
DEFPOINTS
 62
     0
 10
180.4664762817
 20
962.3924236199
 30
0.0
  0
ENDBLK
  5
4334
  8
0
  6
BYBLOCK
 62
     0
  0
BLOCK
  8
0
  2
*D91
 70
     1
 10
0.0
 20
0.0
 30
0.0
  3
*D91
  1

  0
LINE
  5
4338
  8
0
  6
CONTINUOUS
 62
     0
 10
15.15402358159999
 20
961.3257349037
 30
0.0
 11
14.97402358159999
 21
961.3257349037
 31
0.0
  0
LINE
  5
4339
  8
0
  6
CONTINUOUS
 62
     0
 10
14.97402358159999
 20
961.3257349037
 30
0.0
 11
14.97402358159999
 21
955.0
 31
0.0
  0
LINE
  5
433A
  8
0
  6
CONTINUOUS
 62
     0
 10
27.9039762817
 20
955.0
 30
0.0
 11
14.79402358159999
 21
955.0
 31
0.0
  0
LINE
  5
433B
  8
0
  6
CONTINUOUS
 62
     0
 10
52.90397628169999
 20
925.0
 30
0.0
 11
14.79402358159999
 21
925.0
 31
0.0
  0
LINE
  5
433C
  8
0
  6
CONTINUOUS
 62
     0
 10
14.97402358159999
 20
954.82
 30
0.0
 11
14.97402358159999
 21
925.18
 31
0.0
  0
LINE
  5
433D
  8
0
  6
CONTINUOUS
 62
     0
 10
14.97402358159999
 20
925.18
 30
0.0
 11
14.97402358159999
 21
954.82
 31
0.0
  0
SOLID
  5
433E
  8
0
 62
     0
 10
15.00402358159999
 20
954.82
 30
0.0
 11
14.94402358159999
 21
954.82
 31
0.0
 12
14.97402358159999
 22
955.0
 32
0.0
 13
14.97402358159999
 23
955.0
 33
0.0
  0
SOLID
  5
433F
  8
0
 62
     0
 10
14.94402358159999
 20
925.18
 30
0.0
 11
15.00402358159999
 21
925.18
 31
0.0
 12
14.97402358159999
 22
925.0
 32
0.0
 13
14.97402358159999
 23
925.0
 33
0.0
  0
TEXT
  5
4340
  8
0
  6
CONTINUOUS
 62
     0
 10
15.2334035816
 20
961.2372649037001
 30
0.0
 40
0.18
  1
30.0000
  0
POINT
  5
4341
  8
DEFPOINTS
 62
     0
 10
27.9664762817
 20
955.0
 30
0.0
  0
POINT
  5
4342
  8
DEFPOINTS
 62
     0
 10
52.96647628169999
 20
925.0
 30
0.0
  0
POINT
  5
4481
  8
DEFPOINTS
 62
     0
 10
15.68664358159999
 20
925.0
 30
0.0
  0
ENDBLK
  5
4343
  8
0
  6
BYBLOCK
 62
     0
  0
BLOCK
  8
0
  2
*D92
 70
     1
 10
0.0
 20
0.0
 30
0.0
  3
*D92
  1

  0
LINE
  5
4347
  8
0
  6
CONTINUOUS
 62
     0
 10
345.6717874098001
 20
960.3493858422
 30
0.0
 11
345.4917874098001
 21
960.3493858422
 31
0.0
  0
LINE
  5
4348
  8
0
  6
CONTINUOUS
 62
     0
 10
345.4917874098001
 20
960.3493858422
 30
0.0
 11
345.4917874098001
 21
955.0
 31
0.0
  0
LINE
  5
4349
  8
0
  6
CONTINUOUS
 62
     0
 10
333.0289762817
 20
955.0
 30
0.0
 11
345.6717874098001
 21
955.0
 31
0.0
  0
LINE
  5
434A
  8
0
  6
CONTINUOUS
 62
     0
 10
313.5289762817
 20
932.0
 30
0.0
 11
345.6717874098001
 21
932.0
 31
0.0
  0
LINE
  5
434B
  8
0
  6
CONTINUOUS
 62
     0
 10
345.4917874098001
 20
954.82
 30
0.0
 11
345.4917874098001
 21
932.18
 31
0.0
  0
LINE
  5
434C
  8
0
  6
CONTINUOUS
 62
     0
 10
345.4917874098001
 20
932.18
 30
0.0
 11
345.4917874098001
 21
954.82
 31
0.0
  0
SOLID
  5
434D
  8
0
 62
     0
 10
345.5217874098
 20
954.82
 30
0.0
 11
345.4617874098001
 21
954.82
 31
0.0
 12
345.4917874098001
 22
955.0
 32
0.0
 13
345.4917874098001
 23
955.0
 33
0.0
  0
SOLID
  5
434E
  8
0
 62
     0
 10
345.4617874098001
 20
932.18
 30
0.0
 11
345.5217874098
 21
932.18
 31
0.0
 12
345.4917874098001
 22
932.0
 32
0.0
 13
345.4917874098001
 23
932.0
 33
0.0
  0
TEXT
  5
434F
  8
0
  6
CONTINUOUS
 62
     0
 10
345.7544074098
 20
960.2609158422001
 30
0.0
 40
0.18
  1
23.0000
  0
POINT
  5
4350
  8
DEFPOINTS
 62
     0
 10
332.9664762817
 20
955.0
 30
0.0
  0
POINT
  5
4351
  8
DEFPOINTS
 62
     0
 10
313.4664762817
 20
932.0
 30
0.0
  0
POINT
  5
4482
  8
DEFPOINTS
 62
     0
 10
346.2060274098
 20
932.0
 30
0.0
  0
ENDBLK
  5
4352
  8
0
  6
BYBLOCK
 62
     0
  0
BLOCK
  8
0
  2
*D93
 70
     1
 10
0.0
 20
0.0
 30
0.0
  3
*D93
  1

  0
LINE
  5
4356
  8
0
  6
CONTINUOUS
 62
     0
 10
52.90397628169999
 20
925.0
 30
0.0
 11
15.50664358160003
 21
925.0
 31
0.0
  0
LINE
  5
4357
  8
0
  6
CONTINUOUS
 62
     0
 10
52.90397628169999
 20
435.0
 30
0.0
 11
15.50664358159996
 21
435.0
 31
0.0
  0
LINE
  5
4358
  8
0
  6
CONTINUOUS
 62
     0
 10
15.68664358160003
 20
924.82
 30
0.0
 11
15.68664358159999
 21
680.1818900000001
 31
0.0
  0
LINE
  5
4359
  8
0
  6
CONTINUOUS
 62
     0
 10
15.68664358159996
 20
435.18
 30
0.0
 11
15.68664358159999
 21
679.8181099999999
 31
0.0
  0
SOLID
  5
435A
  8
0
 62
     0
 10
15.71664358160003
 20
924.82
 30
0.0
 11
15.65664358160003
 21
924.82
 31
0.0
 12
15.68664358160003
 22
925.0
 32
0.0
 13
15.68664358160003
 23
925.0
 33
0.0
  0
SOLID
  5
435B
  8
0
 62
     0
 10
15.65664358159996
 20
435.18
 30
0.0
 11
15.71664358159996
 21
435.18
 31
0.0
 12
15.68664358159996
 22
435.0
 32
0.0
 13
15.68664358159996
 23
435.0
 33
0.0
  0
TEXT
  5
435C
  8
0
  6
CONTINUOUS
 62
     0
 10
15.1672535816
 20
679.9115300000001
 30
0.0
 40
0.18
  1
490.0000
  0
POINT
  5
435D
  8
DEFPOINTS
 62
     0
 10
52.96647628169999
 20
925.0
 30
0.0
  0
POINT
  5
435E
  8
DEFPOINTS
 62
     0
 10
52.96647628169999
 20
435.0
 30
0.0
  0
POINT
  5
435F
  8
DEFPOINTS
 62
     0
 10
15.68664358159999
 20
435.0
 30
0.0
  0
ENDBLK
  5
4360
  8
0
  6
BYBLOCK
 62
     0
  0
BLOCK
  8
0
  2
*D94
 70
     1
 10
0.0
 20
0.0
 30
0.0
  3
*D94
  1

  0
LINE
  5
4364
  8
0
  6
CONTINUOUS
 62
     0
 10
313.5289762817
 20
932.0
 30
0.0
 11
346.3860274098001
 21
932.0
 31
0.0
  0
LINE
  5
4365
  8
0
  6
CONTINUOUS
 62
     0
 10
313.5289762817
 20
710.0
 30
0.0
 11
346.3860274098
 21
710.0
 31
0.0
  0
LINE
  5
4366
  8
0
  6
CONTINUOUS
 62
     0
 10
346.2060274098001
 20
931.82
 30
0.0
 11
346.2060274098
 21
821.1818900000001
 31
0.0
  0
LINE
  5
4367
  8
0
  6
CONTINUOUS
 62
     0
 10
346.2060274098
 20
710.18
 30
0.0
 11
346.2060274098
 21
820.8181099999999
 31
0.0
  0
SOLID
  5
4368
  8
0
 62
     0
 10
346.2360274098
 20
931.82
 30
0.0
 11
346.1760274098001
 21
931.82
 31
0.0
 12
346.2060274098001
 22
932.0
 32
0.0
 13
346.2060274098001
 23
932.0
 33
0.0
  0
SOLID
  5
4369
  8
0
 62
     0
 10
346.1760274098
 20
710.18
 30
0.0
 11
346.2360274097999
 21
710.18
 31
0.0
 12
346.2060274098
 22
710.0
 32
0.0
 13
346.2060274098
 23
710.0
 33
0.0
  0
TEXT
  5
436A
  8
0
  6
CONTINUOUS
 62
     0
 10
345.6845674098
 20
820.9115300000001
 30
0.0
 40
0.18
  1
222.0000
  0
POINT
  5
436B
  8
DEFPOINTS
 62
     0
 10
313.4664762817
 20
932.0
 30
0.0
  0
POINT
  5
436C
  8
DEFPOINTS
 62
     0
 10
313.4664762817
 20
710.0
 30
0.0
  0
POINT
  5
436D
  8
DEFPOINTS
 62
     0
 10
346.2060274098
 20
710.0
 30
0.0
  0
ENDBLK
  5
436E
  8
0
  6
BYBLOCK
 62
     0
  0
BLOCK
  8
0
  2
*D95
 70
     1
 10
0.0
 20
0.0
 30
0.0
  3
*D95
  1

  0
LINE
  5
4372
  8
0
  6
CONTINUOUS
 62
     0
 10
313.5289762817
 20
710.0
 30
0.0
 11
346.3860274098
 21
710.0
 31
0.0
  0
LINE
  5
4373
  8
0
  6
CONTINUOUS
 62
     0
 10
313.5289762817
 20
600.0
 30
0.0
 11
346.3860274098
 21
600.0
 31
0.0
  0
LINE
  5
4374
  8
0
  6
CONTINUOUS
 62
     0
 10
346.2060274098
 20
709.82
 30
0.0
 11
346.2060274098
 21
655.1818900000001
 31
0.0
  0
LINE
  5
4375
  8
0
  6
CONTINUOUS
 62
     0
 10
346.2060274098
 20
600.18
 30
0.0
 11
346.2060274098
 21
654.8181099999999
 31
0.0
  0
SOLID
  5
4376
  8
0
 62
     0
 10
346.2360274098
 20
709.82
 30
0.0
 11
346.1760274098
 21
709.82
 31
0.0
 12
346.2060274098
 22
710.0
 32
0.0
 13
346.2060274098
 23
710.0
 33
0.0
  0
SOLID
  5
4377
  8
0
 62
     0
 10
346.1760274098
 20
600.18
 30
0.0
 11
346.2360274098
 21
600.18
 31
0.0
 12
346.2060274098
 22
600.0
 32
0.0
 13
346.2060274098
 23
600.0
 33
0.0
  0
TEXT
  5
4378
  8
0
  6
CONTINUOUS
 62
     0
 10
345.6745774098
 20
654.9115300000001
 30
0.0
 40
0.18
  1
110.0000
  0
POINT
  5
4379
  8
DEFPOINTS
 62
     0
 10
313.4664762817
 20
710.0
 30
0.0
  0
POINT
  5
437A
  8
DEFPOINTS
 62
     0
 10
313.4664762817
 20
600.0
 30
0.0
  0
POINT
  5
437B
  8
DEFPOINTS
 62
     0
 10
346.2060274098
 20
600.0
 30
0.0
  0
ENDBLK
  5
437C
  8
0
  6
BYBLOCK
 62
     0
  0
BLOCK
  8
0
  2
*D96
 70
     1
 10
0.0
 20
0.0
 30
0.0
  3
*D96
  1

  0
LINE
  5
4380
  8
0
  6
CONTINUOUS
 62
     0
 10
313.5289762817
 20
600.0
 30
0.0
 11
346.3860274098
 21
600.0
 31
0.0
  0
LINE
  5
4381
  8
0
  6
CONTINUOUS
 62
     0
 10
313.5289762817
 20
425.0
 30
0.0
 11
346.3860274098
 21
425.0
 31
0.0
  0
LINE
  5
4382
  8
0
  6
CONTINUOUS
 62
     0
 10
346.2060274098
 20
599.82
 30
0.0
 11
346.2060274098
 21
512.6818900000001
 31
0.0
  0
LINE
  5
4383
  8
0
  6
CONTINUOUS
 62
     0
 10
346.2060274098
 20
425.18
 30
0.0
 11
346.2060274098
 21
512.3181099999999
 31
0.0
  0
SOLID
  5
4384
  8
0
 62
     0
 10
346.2360274098
 20
599.82
 30
0.0
 11
346.1760274098
 21
599.82
 31
0.0
 12
346.2060274098
 22
600.0
 32
0.0
 13
346.2060274098
 23
600.0
 33
0.0
  0
SOLID
  5
4385
  8
0
 62
     0
 10
346.1760274098
 20
425.18
 30
0.0
 11
346.2360274098
 21
425.18
 31
0.0
 12
346.2060274098
 22
425.0
 32
0.0
 13
346.2060274098
 23
425.0
 33
0.0
  0
TEXT
  5
4386
  8
0
  6
CONTINUOUS
 62
     0
 10
345.6745774098
 20
512.4115300000001
 30
0.0
 40
0.18
  1
175.0000
  0
POINT
  5
4387
  8
DEFPOINTS
 62
     0
 10
313.4664762817
 20
600.0
 30
0.0
  0
POINT
  5
4388
  8
DEFPOINTS
 62
     0
 10
313.4664762817
 20
425.0
 30
0.0
  0
POINT
  5
4389
  8
DEFPOINTS
 62
     0
 10
346.2060274098
 20
425.0
 30
0.0
  0
ENDBLK
  5
438A
  8
0
  6
BYBLOCK
 62
     0
  0
BLOCK
  8
0
  2
*D97
 70
     1
 10
0.0
 20
0.0
 30
0.0
  3
*D97
  1

  0
LINE
  5
438E
  8
0
  6
CONTINUOUS
 62
     0
 10
54.1160090042338
 20
416.7202744132
 30
0.0
 11
53.9360090042338
 21
416.7202744132
 31
0.0
  0
LINE
  5
438F
  8
0
  6
CONTINUOUS
 62
     0
 10
53.9360090042338
 20
416.7202744132
 30
0.0
 11
45.42234242803742
 21
427.6160880696389
 31
0.0
  0
TEXT
  5
4390
  8
0
  6
CONTINUOUS
 62
     0
 10
54.1959290042338
 20
416.6338744132
 30
0.0
 40
0.18
  1
Ø7.0000
  0
SOLID
  5
4391
  8
0
 62
     0
 10
45.44598177806427
 20
427.6345591586784
 30
0.0
 11
45.39870307801056
 21
427.5976169805993
 31
0.0
 12
45.31151589379999
 22
427.7579241698
 32
0.0
 13
45.31151589379999
 23
427.7579241698
 33
0.0
  0
POINT
  5
4392
  8
DEFPOINTS
 62
     0
 10
45.31151589379999
 20
427.7579241698
 30
0.0
  0
POINT
  5
4393
  8
DEFPOINTS
 62
     0
 10
49.62143666969999
 20
422.2420758302
 30
0.0
  0
ENDBLK
  5
4398
  8
0
  6
BYBLOCK
 62
     0
  0
BLOCK
  8
0
  2
*D98
 70
     1
 10
0.0
 20
0.0
 30
0.0
  3
*D98
  1

  0
LINE
  5
439C
  8
0
  6
CONTINUOUS
 62
     0
 10
27.9039762817
 20
955.0
 30
0.0
 11
4.209000000000072
 21
955.0
 31
0.0
  0
LINE
  5
439D
  8
0
  6
CONTINUOUS
 62
     0
 10
27.9039762817
 20
5.0
 30
0.0
 11
4.20899999999992
 21
5.0
 31
0.0
  0
LINE
  5
439E
  8
0
  6
CONTINUOUS
 62
     0
 10
4.389000000000072
 20
954.82
 30
0.0
 11
4.388999999999996
 21
480.18189
 31
0.0
  0
LINE
  5
439F
  8
0
  6
CONTINUOUS
 62
     0
 10
4.388999999999919
 20
5.18
 30
0.0
 11
4.388999999999996
 21
479.8181100000001
 31
0.0
  0
SOLID
  5
43A0
  8
0
 62
     0
 10
4.419000000000072
 20
954.82
 30
0.0
 11
4.359000000000072
 21
954.82
 31
0.0
 12
4.389000000000072
 22
955.0
 32
0.0
 13
4.389000000000072
 23
955.0
 33
0.0
  0
SOLID
  5
43A1
  8
0
 62
     0
 10
4.358999999999919
 20
5.18
 30
0.0
 11
4.41899999999992
 21
5.18
 31
0.0
 12
4.388999999999919
 22
5.0
 32
0.0
 13
4.388999999999919
 23
5.0
 33
0.0
  0
TEXT
  5
43A2
  8
0
  6
CONTINUOUS
 62
     0
 10
3.866009999999996
 20
479.91153
 30
0.0
 40
0.18
  1
950.0000
  0
POINT
  5
43A3
  8
DEFPOINTS
 62
     0
 10
27.9664762817
 20
955.0
 30
0.0
  0
POINT
  5
43A4
  8
DEFPOINTS
 62
     0
 10
27.9664762817
 20
5.0
 30
0.0
  0
POINT
  5
43A5
  8
DEFPOINTS
 62
     0
 10
4.388999999999996
 20
5.000000000000004
 30
0.0
  0
ENDBLK
  5
43A6
  8
0
  6
BYBLOCK
 62
     0
  0
BLOCK
  8
0
  2
*D99
 70
     1
 10
0.0
 20
0.0
 30
0.0
  3
*D99
  1

  0
LINE
  5
43AA
  8
0
  6
CONTINUOUS
 62
     0
 10
313.5289762817
 20
425.0
 30
0.0
 11
346.3860274098001
 21
425.0
 31
0.0
  0
LINE
  5
43AB
  8
0
  6
CONTINUOUS
 62
     0
 10
323.5289762817
 20
45.0
 30
0.0
 11
346.3860274098
 21
45.0
 31
0.0
  0
LINE
  5
43AC
  8
0
  6
CONTINUOUS
 62
     0
 10
346.2060274098001
 20
424.82
 30
0.0
 11
346.2060274098
 21
235.18189
 31
0.0
  0
LINE
  5
43AD
  8
0
  6
CONTINUOUS
 62
     0
 10
346.2060274098
 20
45.18
 30
0.0
 11
346.2060274098
 21
234.81811
 31
0.0
  0
SOLID
  5
43AE
  8
0
 62
     0
 10
346.2360274098
 20
424.82
 30
0.0
 11
346.1760274098001
 21
424.82
 31
0.0
 12
346.2060274098001
 22
425.0
 32
0.0
 13
346.2060274098001
 23
425.0
 33
0.0
  0
SOLID
  5
43AF
  8
0
 62
     0
 10
346.1760274098
 20
45.18
 30
0.0
 11
346.2360274097999
 21
45.18
 31
0.0
 12
346.2060274098
 22
45.0
 32
0.0
 13
346.2060274098
 23
45.0
 33
0.0
  0
TEXT
  5
43B0
  8
0
  6
CONTINUOUS
 62
     0
 10
345.6829474098
 20
234.91153
 30
0.0
 40
0.18
  1
380.0000
  0
POINT
  5
43B1
  8
DEFPOINTS
 62
     0
 10
313.4664762817
 20
425.0
 30
0.0
  0
POINT
  5
43B2
  8
DEFPOINTS
 62
     0
 10
323.4664762817
 20
45.0
 30
0.0
  0
POINT
  5
43B3
  8
DEFPOINTS
 62
     0
 10
346.2060274098
 20
44.99999999999999
 30
0.0
  0
ENDBLK
  5
43B4
  8
0
  6
BYBLOCK
 62
     0
  0
BLOCK
  8
0
  2
*D100
 70
     1
 10
0.0
 20
0.0
 30
0.0
  3
*D100
  1

  0
LINE
  5
43B8
  8
0
  6
CONTINUOUS
 62
     0
 10
333.0289762817
 20
5.0
 30
0.0
 11
346.3860274098
 21
5.0
 31
0.0
  0
LINE
  5
43B9
  8
0
  6
CONTINUOUS
 62
     0
 10
323.5289762817
 20
45.0
 30
0.0
 11
346.3860274098
 21
45.0
 31
0.0
  0
LINE
  5
43BA
  8
0
  6
CONTINUOUS
 62
     0
 10
346.2060274098
 20
5.18
 30
0.0
 11
346.2060274098
 21
24.81811
 31
0.0
  0
LINE
  5
43BB
  8
0
  6
CONTINUOUS
 62
     0
 10
346.2060274098
 20
44.82
 30
0.0
 11
346.2060274098
 21
25.18189
 31
0.0
  0
SOLID
  5
43BC
  8
0
 62
     0
 10
346.1760274098
 20
5.18
 30
0.0
 11
346.2360274098
 21
5.18
 31
0.0
 12
346.2060274098
 22
5.0
 32
0.0
 13
346.2060274098
 23
5.0
 33
0.0
  0
SOLID
  5
43BD
  8
0
 62
     0
 10
346.2360274098
 20
44.82
 30
0.0
 11
346.1760274098
 21
44.82
 31
0.0
 12
346.2060274098
 22
45.0
 32
0.0
 13
346.2060274098
 23
45.0
 33
0.0
  0
TEXT
  5
43BE
  8
0
  6
CONTINUOUS
 62
     0
 10
345.7564774098
 20
24.91153
 30
0.0
 40
0.18
  1
40.0000
  0
POINT
  5
43BF
  8
DEFPOINTS
 62
     0
 10
332.9664762817
 20
5.0
 30
0.0
  0
POINT
  5
43C0
  8
DEFPOINTS
 62
     0
 10
323.4664762817
 20
45.0
 30
0.0
  0
POINT
  5
43C1
  8
DEFPOINTS
 62
     0
 10
346.2060274098
 20
45.0
 30
0.0
  0
ENDBLK
  5
43C4
  8
0
  6
BYBLOCK
 62
     0
  0
BLOCK
  8
0
  2
*D101
 70
     1
 10
0.0
 20
0.0
 30
0.0
  3
*D101
  1

  0
LINE
  5
43C8
  8
0
  6
CONTINUOUS
 62
     0
 10
525.0598887827
 20
955.0625
 30
0.0
 11
525.0598887827
 21
999.6042604003
 31
0.0
  0
LINE
  5
43C9
  8
0
  6
CONTINUOUS
 62
     0
 10
830.0598887827
 20
955.0625
 30
0.0
 11
830.0598887827
 21
999.6042604003
 31
0.0
  0
LINE
  5
43CA
  8
0
  6
CONTINUOUS
 62
     0
 10
525.2398887827
 20
999.4242604003
 30
0.0
 11
676.9574287826999
 21
999.4242604003
 31
0.0
  0
LINE
  5
43CB
  8
0
  6
CONTINUOUS
 62
     0
 10
829.8798887827
 20
999.4242604003
 30
0.0
 11
678.1623487827001
 21
999.4242604003
 31
0.0
  0
SOLID
  5
43CC
  8
0
 62
     0
 10
525.2398887827
 20
999.4542604003
 30
0.0
 11
525.2398887827
 21
999.3942604003
 31
0.0
 12
525.0598887827
 22
999.4242604003
 32
0.0
 13
525.0598887827
 23
999.4242604003
 33
0.0
  0
SOLID
  5
43CD
  8
0
 62
     0
 10
829.8798887827
 20
999.3942604003
 30
0.0
 11
829.8798887827
 21
999.4542604003
 31
0.0
 12
830.0598887827
 22
999.4242604003
 32
0.0
 13
830.0598887827
 23
999.4242604003
 33
0.0
  0
TEXT
  5
43CE
  8
0
  6
CONTINUOUS
 62
     0
 10
677.0368087827
 20
999.3357904003001
 30
0.0
 40
0.18
  1
305.0000
  0
POINT
  5
43CF
  8
DEFPOINTS
 62
     0
 10
525.0598887827
 20
955.0
 30
0.0
  0
POINT
  5
43D0
  8
DEFPOINTS
 62
     0
 10
830.0598887827
 20
955.0
 30
0.0
  0
POINT
  5
43D1
  8
DEFPOINTS
 62
     0
 10
830.0598887827
 20
999.4242604003
 30
0.0
  0
ENDBLK
  5
43D2
  8
0
  6
BYBLOCK
 62
     0
  0
BLOCK
  8
0
  2
*D102
 70
     1
 10
0.0
 20
0.0
 30
0.0
  3
*D102
  1

  0
LINE
  5
43D6
  8
0
  6
CONTINUOUS
 62
     0
 10
544.0598887827
 20
925.0625
 30
0.0
 11
544.0598887827
 21
986.2647394951
 31
0.0
  0
LINE
  5
43D7
  8
0
  6
CONTINUOUS
 62
     0
 10
811.0598887827
 20
925.0625
 30
0.0
 11
811.0598887827
 21
986.2647394951
 31
0.0
  0
LINE
  5
43D8
  8
0
  6
CONTINUOUS
 62
     0
 10
544.2398887827
 20
986.0847394951
 30
0.0
 11
676.9558087826999
 21
986.0847394951
 31
0.0
  0
LINE
  5
43D9
  8
0
  6
CONTINUOUS
 62
     0
 10
810.8798887827
 20
986.0847394951
 30
0.0
 11
678.1639687827001
 21
986.0847394951
 31
0.0
  0
SOLID
  5
43DA
  8
0
 62
     0
 10
544.2398887827
 20
986.1147394951
 30
0.0
 11
544.2398887827
 21
986.0547394951001
 31
0.0
 12
544.0598887827
 22
986.0847394951
 32
0.0
 13
544.0598887827
 23
986.0847394951
 33
0.0
  0
SOLID
  5
43DB
  8
0
 62
     0
 10
810.8798887827
 20
986.0547394951001
 30
0.0
 11
810.8798887827
 21
986.1147394951
 31
0.0
 12
811.0598887827
 22
986.0847394951
 32
0.0
 13
811.0598887827
 23
986.0847394951
 33
0.0
  0
TEXT
  5
43DC
  8
0
  6
CONTINUOUS
 62
     0
 10
677.0384287827
 20
985.9962694951001
 30
0.0
 40
0.18
  1
267.0000
  0
POINT
  5
43DD
  8
DEFPOINTS
 62
     0
 10
544.0598887827
 20
925.0
 30
0.0
  0
POINT
  5
43DE
  8
DEFPOINTS
 62
     0
 10
811.0598887827
 20
925.0
 30
0.0
  0
POINT
  5
43DF
  8
DEFPOINTS
 62
     0
 10
811.0598887827
 20
986.0847394951
 30
0.0
  0
ENDBLK
  5
43E0
  8
0
  6
BYBLOCK
 62
     0
  0
BLOCK
  8
0
  2
*D103
 70
     1
 10
0.0
 20
0.0
 30
0.0
  3
*D103
  1

  0
LINE
  5
43E4
  8
0
  6
CONTINUOUS
 62
     0
 10
551.0598887827
 20
938.0625
 30
0.0
 11
551.0598887827
 21
973.5166162086999
 31
0.0
  0
LINE
  5
43E5
  8
0
  6
CONTINUOUS
 62
     0
 10
804.0598887827
 20
938.0625
 30
0.0
 11
804.0598887827
 21
973.5166162086999
 31
0.0
  0
LINE
  5
43E6
  8
0
  6
CONTINUOUS
 62
     0
 10
551.2398887827
 20
973.3366162087
 30
0.0
 11
676.9558087826999
 21
973.3366162087
 31
0.0
  0
LINE
  5
43E7
  8
0
  6
CONTINUOUS
 62
     0
 10
803.8798887827
 20
973.3366162087
 30
0.0
 11
678.1639687827001
 21
973.3366162087
 31
0.0
  0
SOLID
  5
43E8
  8
0
 62
     0
 10
551.2398887827
 20
973.3666162087
 30
0.0
 11
551.2398887827
 21
973.3066162087
 31
0.0
 12
551.0598887827
 22
973.3366162087
 32
0.0
 13
551.0598887827
 23
973.3366162087
 33
0.0
  0
SOLID
  5
43E9
  8
0
 62
     0
 10
803.8798887827
 20
973.3066162087
 30
0.0
 11
803.8798887827
 21
973.3666162087
 31
0.0
 12
804.0598887827
 22
973.3366162087
 32
0.0
 13
804.0598887827
 23
973.3366162087
 33
0.0
  0
TEXT
  5
43EA
  8
0
  6
CONTINUOUS
 62
     0
 10
677.0384287827
 20
973.2481462087001
 30
0.0
 40
0.18
  1
253.0000
  0
POINT
  5
43EB
  8
DEFPOINTS
 62
     0
 10
551.0598887827
 20
938.0
 30
0.0
  0
POINT
  5
43EC
  8
DEFPOINTS
 62
     0
 10
804.0598887827
 20
938.0
 30
0.0
  0
POINT
  5
43ED
  8
DEFPOINTS
 62
     0
 10
804.0598887827
 20
973.3366162087
 30
0.0
  0
ENDBLK
  5
43EE
  8
0
  6
BYBLOCK
 62
     0
  0
BLOCK
  8
0
  2
*D104
 70
     1
 10
0.0
 20
0.0
 30
0.0
  3
*D104
  1

  0
LINE
  5
43F2
  8
0
  6
CONTINUOUS
 62
     0
 10
843.3664547353
 20
962.6053502133
 30
0.0
 11
843.1864547353
 21
962.6053502133
 31
0.0
  0
LINE
  5
43F3
  8
0
  6
CONTINUOUS
 62
     0
 10
843.1864547353
 20
962.6053502133
 30
0.0
 11
843.1864547353
 21
955.0
 31
0.0
  0
LINE
  5
43F4
  8
0
  6
CONTINUOUS
 62
     0
 10
830.1223887827
 20
955.0
 30
0.0
 11
843.3664547353
 21
955.0
 31
0.0
  0
LINE
  5
43F5
  8
0
  6
CONTINUOUS
 62
     0
 10
811.1223887827
 20
925.0
 30
0.0
 11
843.3664547353
 21
925.0
 31
0.0
  0
LINE
  5
43F6
  8
0
  6
CONTINUOUS
 62
     0
 10
843.1864547353
 20
954.82
 30
0.0
 11
843.1864547353
 21
925.18
 31
0.0
  0
LINE
  5
43F7
  8
0
  6
CONTINUOUS
 62
     0
 10
843.1864547353
 20
925.18
 30
0.0
 11
843.1864547353
 21
954.82
 31
0.0
  0
SOLID
  5
43F8
  8
0
 62
     0
 10
843.2164547353
 20
954.82
 30
0.0
 11
843.1564547353
 21
954.82
 31
0.0
 12
843.1864547353
 22
955.0
 32
0.0
 13
843.1864547353
 23
955.0
 33
0.0
  0
SOLID
  5
43F9
  8
0
 62
     0
 10
843.1564547353
 20
925.18
 30
0.0
 11
843.2164547353
 21
925.18
 31
0.0
 12
843.1864547353
 22
925.0
 32
0.0
 13
843.1864547353
 23
925.0
 33
0.0
  0
TEXT
  5
43FA
  8
0
  6
CONTINUOUS
 62
     0
 10
843.4458347353
 20
962.5168802133
 30
0.0
 40
0.18
  1
30.0000
  0
POINT
  5
43FB
  8
DEFPOINTS
 62
     0
 10
830.0598887827
 20
955.0
 30
0.0
  0
POINT
  5
43FC
  8
DEFPOINTS
 62
     0
 10
811.0598887827
 20
925.0
 30
0.0
  0
POINT
  5
4483
  8
DEFPOINTS
 62
     0
 10
843.8990747353
 20
925.0
 30
0.0
  0
ENDBLK
  5
43FD
  8
0
  6
BYBLOCK
 62
     0
  0
BLOCK
  8
0
  2
*D105
 70
     1
 10
0.0
 20
0.0
 30
0.0
  3
*D105
  1

  0
LINE
  5
4401
  8
0
  6
CONTINUOUS
 62
     0
 10
811.1223887827
 20
925.0
 30
0.0
 11
844.0790747353
 21
925.0
 31
0.0
  0
LINE
  5
4402
  8
0
  6
CONTINUOUS
 62
     0
 10
811.1223887827
 20
632.0
 30
0.0
 11
844.0790747353
 21
632.0
 31
0.0
  0
LINE
  5
4403
  8
0
  6
CONTINUOUS
 62
     0
 10
843.8990747353
 20
924.82
 30
0.0
 11
843.8990747353
 21
778.6818900000001
 31
0.0
  0
LINE
  5
4404
  8
0
  6
CONTINUOUS
 62
     0
 10
843.8990747353
 20
632.18
 30
0.0
 11
843.8990747353
 21
778.3181099999999
 31
0.0
  0
SOLID
  5
4405
  8
0
 62
     0
 10
843.9290747353
 20
924.82
 30
0.0
 11
843.8690747353
 21
924.82
 31
0.0
 12
843.8990747353
 22
925.0
 32
0.0
 13
843.8990747353
 23
925.0
 33
0.0
  0
SOLID
  5
4406
  8
0
 62
     0
 10
843.8690747353
 20
632.18
 30
0.0
 11
843.9290747353
 21
632.18
 31
0.0
 12
843.8990747353
 22
632.0
 32
0.0
 13
843.8990747353
 23
632.0
 33
0.0
  0
TEXT
  5
4407
  8
0
  6
CONTINUOUS
 62
     0
 10
843.3776147353
 20
778.4115300000001
 30
0.0
 40
0.18
  1
293.0000
  0
POINT
  5
4408
  8
DEFPOINTS
 62
     0
 10
811.0598887827
 20
925.0
 30
0.0
  0
POINT
  5
4409
  8
DEFPOINTS
 62
     0
 10
811.0598887827
 20
632.0
 30
0.0
  0
POINT
  5
440A
  8
DEFPOINTS
 62
     0
 10
843.8990747353
 20
632.0
 30
0.0
  0
ENDBLK
  5
440B
  8
0
  6
BYBLOCK
 62
     0
  0
BLOCK
  8
0
  2
*D106
 70
     1
 10
0.0
 20
0.0
 30
0.0
  3
*D106
  1

  0
LINE
  5
440F
  8
0
  6
CONTINUOUS
 62
     0
 10
811.1223887827
 20
632.0
 30
0.0
 11
844.0790747353
 21
632.0
 31
0.0
  0
LINE
  5
4410
  8
0
  6
CONTINUOUS
 62
     0
 10
811.1223887827
 20
339.0
 30
0.0
 11
844.0790747353
 21
339.0
 31
0.0
  0
LINE
  5
4411
  8
0
  6
CONTINUOUS
 62
     0
 10
843.8990747353
 20
631.82
 30
0.0
 11
843.8990747353
 21
485.68189
 31
0.0
  0
LINE
  5
4412
  8
0
  6
CONTINUOUS
 62
     0
 10
843.8990747353
 20
339.18
 30
0.0
 11
843.8990747353
 21
485.31811
 31
0.0
  0
SOLID
  5
4413
  8
0
 62
     0
 10
843.9290747353
 20
631.82
 30
0.0
 11
843.8690747353
 21
631.82
 31
0.0
 12
843.8990747353
 22
632.0
 32
0.0
 13
843.8990747353
 23
632.0
 33
0.0
  0
SOLID
  5
4414
  8
0
 62
     0
 10
843.8690747353
 20
339.18
 30
0.0
 11
843.9290747353
 21
339.18
 31
0.0
 12
843.8990747353
 22
339.0
 32
0.0
 13
843.8990747353
 23
339.0
 33
0.0
  0
TEXT
  5
4415
  8
0
  6
CONTINUOUS
 62
     0
 10
843.3776147353
 20
485.41153
 30
0.0
 40
0.18
  1
293.0000
  0
POINT
  5
4416
  8
DEFPOINTS
 62
     0
 10
811.0598887827
 20
632.0
 30
0.0
  0
POINT
  5
4417
  8
DEFPOINTS
 62
     0
 10
811.0598887827
 20
339.0
 30
0.0
  0
POINT
  5
4418
  8
DEFPOINTS
 62
     0
 10
843.8990747353
 20
339.0
 30
0.0
  0
ENDBLK
  5
4419
  8
0
  6
BYBLOCK
 62
     0
  0
BLOCK
  8
0
  2
*D107
 70
     1
 10
0.0
 20
0.0
 30
0.0
  3
*D107
  1

  0
LINE
  5
441D
  8
0
  6
CONTINUOUS
 62
     0
 10
811.1223887827
 20
339.0
 30
0.0
 11
844.0790747353
 21
339.0
 31
0.0
  0
LINE
  5
441E
  8
0
  6
CONTINUOUS
 62
     0
 10
811.1223887827
 20
46.0
 30
0.0
 11
844.0790747353
 21
46.0
 31
0.0
  0
LINE
  5
441F
  8
0
  6
CONTINUOUS
 62
     0
 10
843.8990747353
 20
338.82
 30
0.0
 11
843.8990747353
 21
192.68189
 31
0.0
  0
LINE
  5
4420
  8
0
  6
CONTINUOUS
 62
     0
 10
843.8990747353
 20
46.18
 30
0.0
 11
843.8990747353
 21
192.31811
 31
0.0
  0
SOLID
  5
4421
  8
0
 62
     0
 10
843.9290747353
 20
338.82
 30
0.0
 11
843.8690747353
 21
338.82
 31
0.0
 12
843.8990747353
 22
339.0
 32
0.0
 13
843.8990747353
 23
339.0
 33
0.0
  0
SOLID
  5
4422
  8
0
 62
     0
 10
843.8690747353
 20
46.18
 30
0.0
 11
843.9290747353
 21
46.18
 31
0.0
 12
843.8990747353
 22
46.0
 32
0.0
 13
843.8990747353
 23
46.0
 33
0.0
  0
TEXT
  5
4423
  8
0
  6
CONTINUOUS
 62
     0
 10
843.3776147353
 20
192.41153
 30
0.0
 40
0.18
  1
293.0000
  0
POINT
  5
4424
  8
DEFPOINTS
 62
     0
 10
811.0598887827
 20
339.0
 30
0.0
  0
POINT
  5
4425
  8
DEFPOINTS
 62
     0
 10
811.0598887827
 20
46.0
 30
0.0
  0
POINT
  5
4426
  8
DEFPOINTS
 62
     0
 10
843.8990747353
 20
45.99999999999999
 30
0.0
  0
ENDBLK
  5
4427
  8
0
  6
BYBLOCK
 62
     0
  0
BLOCK
  8
0
  2
*D108
 70
     1
 10
0.0
 20
0.0
 30
0.0
  3
*D108
  1

  0
LINE
  5
442B
  8
0
  6
CONTINUOUS
 62
     0
 10
511.2320034201999
 20
961.8415650597
 30
0.0
 11
511.0520034201999
 21
961.8415650597
 31
0.0
  0
LINE
  5
442C
  8
0
  6
CONTINUOUS
 62
     0
 10
511.0520034201999
 20
961.8415650597
 30
0.0
 11
511.0520034202
 21
955.0
 31
0.0
  0
LINE
  5
442D
  8
0
  6
CONTINUOUS
 62
     0
 10
524.9973887827
 20
955.0
 30
0.0
 11
510.8720034202
 21
955.0
 31
0.0
  0
LINE
  5
442E
  8
0
  6
CONTINUOUS
 62
     0
 10
550.9973887827
 20
938.0
 30
0.0
 11
510.8720034202
 21
938.0
 31
0.0
  0
LINE
  5
442F
  8
0
  6
CONTINUOUS
 62
     0
 10
511.0520034202
 20
954.82
 30
0.0
 11
511.0520034202
 21
938.18
 31
0.0
  0
LINE
  5
4430
  8
0
  6
CONTINUOUS
 62
     0
 10
511.0520034202
 20
938.18
 30
0.0
 11
511.0520034202
 21
954.82
 31
0.0
  0
SOLID
  5
4431
  8
0
 62
     0
 10
511.0820034202
 20
954.82
 30
0.0
 11
511.0220034202
 21
954.82
 31
0.0
 12
511.0520034202
 22
955.0
 32
0.0
 13
511.0520034202
 23
955.0
 33
0.0
  0
SOLID
  5
4432
  8
0
 62
     0
 10
511.0220034202
 20
938.18
 30
0.0
 11
511.0820034202
 21
938.18
 31
0.0
 12
511.0520034202
 22
938.0
 32
0.0
 13
511.0520034202
 23
938.0
 33
0.0
  0
TEXT
  5
4433
  8
0
  6
CONTINUOUS
 62
     0
 10
511.2946434202
 20
961.7530950597001
 30
0.0
 40
0.18
  1
17.0000
  0
POINT
  5
4434
  8
DEFPOINTS
 62
     0
 10
525.0598887827
 20
955.0
 30
0.0
  0
POINT
  5
4435
  8
DEFPOINTS
 62
     0
 10
551.0598887827
 20
938.0
 30
0.0
  0
POINT
  5
4436
  8
DEFPOINTS
 62
     0
 10
511.7562534202
 20
938.0
 30
0.0
  0
ENDBLK
  5
4437
  8
0
  6
BYBLOCK
 62
     0
  0
BLOCK
  8
0
  2
*D109
 70
     1
 10
0.0
 20
0.0
 30
0.0
  3
*D109
  1

  0
LINE
  5
443B
  8
0
  6
CONTINUOUS
 62
     0
 10
550.9973887827
 20
938.0
 30
0.0
 11
511.5762534202001
 21
938.0
 31
0.0
  0
LINE
  5
443C
  8
0
  6
CONTINUOUS
 62
     0
 10
550.9973887827
 20
28.0
 30
0.0
 11
511.5762534201999
 21
28.0
 31
0.0
  0
LINE
  5
443D
  8
0
  6
CONTINUOUS
 62
     0
 10
511.7562534202001
 20
937.82
 30
0.0
 11
511.7562534202
 21
483.18189
 31
0.0
  0
LINE
  5
443E
  8
0
  6
CONTINUOUS
 62
     0
 10
511.7562534201999
 20
28.18
 30
0.0
 11
511.7562534202
 21
482.81811
 31
0.0
  0
SOLID
  5
443F
  8
0
 62
     0
 10
511.7862534202001
 20
937.82
 30
0.0
 11
511.7262534202001
 21
937.82
 31
0.0
 12
511.7562534202001
 22
938.0
 32
0.0
 13
511.7562534202001
 23
938.0
 33
0.0
  0
SOLID
  5
4440
  8
0
 62
     0
 10
511.7262534201999
 20
28.18
 30
0.0
 11
511.7862534201998
 21
28.18
 31
0.0
 12
511.7562534201999
 22
28.0
 32
0.0
 13
511.7562534201999
 23
28.0
 33
0.0
  0
TEXT
  5
4441
  8
0
  6
CONTINUOUS
 62
     0
 10
511.2332634202
 20
482.91153
 30
0.0
 40
0.18
  1
910.0000
  0
POINT
  5
4442
  8
DEFPOINTS
 62
     0
 10
551.0598887827
 20
938.0
 30
0.0
  0
POINT
  5
4443
  8
DEFPOINTS
 62
     0
 10
551.0598887827
 20
28.0
 30
0.0
  0
POINT
  5
4444
  8
DEFPOINTS
 62
     0
 10
511.7562534202
 20
28.00000000000001
 30
0.0
  0
ENDBLK
  5
4445
  8
0
  6
BYBLOCK
 62
     0
  0
BLOCK
  8
0
  2
*D110
 70
     1
 10
0.0
 20
0.0
 30
0.0
  3
*D110
  1

  0
LINE
  5
4449
  8
0
  6
CONTINUOUS
 62
     0
 10
524.9973887827
 20
955.0
 30
0.0
 11
495.9731700574001
 21
955.0
 31
0.0
  0
LINE
  5
444A
  8
0
  6
CONTINUOUS
 62
     0
 10
524.9973887827
 20
5.0
 30
0.0
 11
495.9731700573998
 21
5.0
 31
0.0
  0
LINE
  5
444B
  8
0
  6
CONTINUOUS
 62
     0
 10
496.1531700574001
 20
954.82
 30
0.0
 11
496.1531700574
 21
480.1818899999998
 31
0.0
  0
LINE
  5
444C
  8
0
  6
CONTINUOUS
 62
     0
 10
496.1531700573998
 20
5.18
 30
0.0
 11
496.1531700574
 21
479.8181100000001
 31
0.0
  0
SOLID
  5
444D
  8
0
 62
     0
 10
496.1831700574
 20
954.82
 30
0.0
 11
496.1231700574001
 21
954.82
 31
0.0
 12
496.1531700574001
 22
955.0
 32
0.0
 13
496.1531700574001
 23
955.0
 33
0.0
  0
SOLID
  5
444E
  8
0
 62
     0
 10
496.1231700573999
 20
5.18
 30
0.0
 11
496.1831700573998
 21
5.18
 31
0.0
 12
496.1531700573998
 22
5.0
 32
0.0
 13
496.1531700573998
 23
5.0
 33
0.0
  0
TEXT
  5
444F
  8
0
  6
CONTINUOUS
 62
     0
 10
495.6301800574
 20
479.91153
 30
0.0
 40
0.18
  1
950.0000
  0
POINT
  5
4450
  8
DEFPOINTS
 62
     0
 10
525.0598887827
 20
955.0
 30
0.0
  0
POINT
  5
4451
  8
DEFPOINTS
 62
     0
 10
525.0598887827
 20
5.0
 30
0.0
  0
POINT
  5
4452
  8
DEFPOINTS
 62
     0
 10
496.1531700574
 20
5.000000000000004
 30
0.0
  0
ENDBLK
  5
4453
  8
0
  6
BYBLOCK
 62
     0
  0
BLOCK
  8
0
  2
*D111
 70
     1
 10
0.0
 20
0.0
 30
0.0
  3
*D111
  1

  0
LINE
  5
44CB
  8
DIMENSIONS
  6
BYBLOCK
 62
     0
 10
135.6873517077406
 20
1128.905805336854
 30
0.0
 11
135.6873517077406
 21
1171.323446779754
 31
0.0
  0
LINE
  5
44CC
  8
DIMENSIONS
  6
BYBLOCK
 62
     0
 10
440.6873517077404
 20
1128.905805336854
 30
0.0
 11
440.6873517077404
 21
1171.323446779754
 31
0.0
  0
LINE
  5
44CD
  8
DIMENSIONS
  6
BYBLOCK
 62
     0
 10
140.6873517077406
 20
1171.143446779754
 30
0.0
 11
435.6873517077404
 21
1171.143446779754
 31
0.0
  0
SOLID
  5
44CE
  8
DIMENSIONS
 62
     0
 10
140.6873517077406
 20
1171.976780113087
 30
0.0
 11
140.6873517077406
 21
1170.31011344642
 31
0.0
 12
135.6873517077406
 22
1171.143446779754
 32
0.0
 13
135.6873517077406
 23
1171.143446779754
 33
0.0
  0
SOLID
  5
44CF
  8
DIMENSIONS
 62
     0
 10
435.6873517077404
 20
1170.31011344642
 30
0.0
 11
435.6873517077404
 21
1171.976780113087
 31
0.0
 12
440.6873517077404
 22
1171.143446779754
 32
0.0
 13
440.6873517077404
 23
1171.143446779754
 33
0.0
  0
TEXT
  5
44D0
  8
DIMENSIONS
  6
CONTINUOUS
 62
     5
 10
270.8073517077404
 20
1173.538446779754
 30
0.0
 40
5.0
  1
305 [12.01]
  0
POINT
  5
44D1
  8
DEFPOINTS
 62
     0
 10
135.6873517077406
 20
1127.405805336854
 30
0.0
  0
POINT
  5
44D2
  8
DEFPOINTS
 62
     0
 10
440.6873517077404
 20
1127.405805336854
 30
0.0
  0
POINT
  5
44D3
  8
DEFPOINTS
 62
     0
 10
440.6873517077404
 20
1171.143446779754
 30
0.0
  0
ENDBLK
  5
44CA
  8
0
  0
BLOCK
  8
0
  2
*D112
 70
     1
 10
0.0
 20
0.0
 30
0.0
  3
*D112
  1

  0
LINE
  5
44D8
  8
DIMENSIONS
  6
BYBLOCK
 62
     0
 10
155.1873517077406
 20
1105.905805336854
 30
0.0
 11
155.1873517077406
 21
1157.983925874654
 31
0.0
  0
LINE
  5
44D9
  8
DIMENSIONS
  6
BYBLOCK
 62
     0
 10
421.1873517077404
 20
1105.905805336854
 30
0.0
 11
421.1873517077404
 21
1157.983925874654
 31
0.0
  0
LINE
  5
44DA
  8
DIMENSIONS
  6
BYBLOCK
 62
     0
 10
160.1873517077406
 20
1157.803925874653
 30
0.0
 11
416.1873517077404
 21
1157.803925874653
 31
0.0
  0
SOLID
  5
44DB
  8
DIMENSIONS
 62
     0
 10
160.1873517077406
 20
1158.637259207987
 30
0.0
 11
160.1873517077406
 21
1156.97059254132
 31
0.0
 12
155.1873517077406
 22
1157.803925874653
 32
0.0
 13
155.1873517077406
 23
1157.803925874653
 33
0.0
  0
SOLID
  5
44DC
  8
DIMENSIONS
 62
     0
 10
416.1873517077404
 20
1156.97059254132
 30
0.0
 11
416.1873517077404
 21
1158.637259207987
 31
0.0
 12
421.1873517077404
 22
1157.803925874653
 32
0.0
 13
421.1873517077404
 23
1157.803925874653
 33
0.0
  0
TEXT
  5
44DD
  8
DIMENSIONS
  6
CONTINUOUS
 62
     5
 10
270.8523517077404
 20
1160.198925874654
 30
0.0
 40
5.0
  1
266 [10.47]
  0
POINT
  5
44DE
  8
DEFPOINTS
 62
     0
 10
155.1873517077406
 20
1104.405805336854
 30
0.0
  0
POINT
  5
44DF
  8
DEFPOINTS
 62
     0
 10
421.1873517077404
 20
1104.405805336854
 30
0.0
  0
POINT
  5
44E0
  8
DEFPOINTS
 62
     0
 10
421.1873517077404
 20
1157.803925874653
 30
0.0
  0
ENDBLK
  5
44D7
  8
0
  0
BLOCK
  8
0
  2
*D113
 70
     1
 10
0.0
 20
0.0
 30
0.0
  3
*D113
  1

  0
LINE
  5
44E5
  8
DIMENSIONS
  6
BYBLOCK
 62
     0
 10
160.6873517077406
 20
1098.905805336854
 30
0.0
 11
160.6873517077406
 21
1145.235802588254
 31
0.0
  0
LINE
  5
44E6
  8
DIMENSIONS
  6
BYBLOCK
 62
     0
 10
415.6873517077404
 20
1098.905805336854
 30
0.0
 11
415.6873517077404
 21
1145.235802588254
 31
0.0
  0
LINE
  5
44E7
  8
DIMENSIONS
  6
BYBLOCK
 62
     0
 10
165.6873517077406
 20
1145.055802588254
 30
0.0
 11
410.6873517077404
 21
1145.055802588254
 31
0.0
  0
SOLID
  5
44E8
  8
DIMENSIONS
 62
     0
 10
165.6873517077406
 20
1145.889135921587
 30
0.0
 11
165.6873517077406
 21
1144.22246925492
 31
0.0
 12
160.6873517077406
 22
1145.055802588254
 32
0.0
 13
160.6873517077406
 23
1145.055802588254
 33
0.0
  0
SOLID
  5
44E9
  8
DIMENSIONS
 62
     0
 10
410.6873517077404
 20
1144.22246925492
 30
0.0
 11
410.6873517077404
 21
1145.889135921587
 31
0.0
 12
415.6873517077404
 22
1145.055802588254
 32
0.0
 13
415.6873517077404
 23
1145.055802588254
 33
0.0
  0
TEXT
  5
44EA
  8
DIMENSIONS
  6
CONTINUOUS
 62
     5
 10
270.8523517077404
 20
1147.450802588254
 30
0.0
 40
5.0
  1
255 [10.04]
  0
POINT
  5
44EB
  8
DEFPOINTS
 62
     0
 10
160.6873517077406
 20
1097.405805336854
 30
0.0
  0
POINT
  5
44EC
  8
DEFPOINTS
 62
     0
 10
415.6873517077404
 20
1097.405805336854
 30
0.0
  0
POINT
  5
44ED
  8
DEFPOINTS
 62
     0
 10
415.6873517077404
 20
1145.055802588254
 30
0.0
  0
ENDBLK
  5
44E4
  8
0
  0
BLOCK
  8
0
  2
*D114
 70
     1
 10
0.0
 20
0.0
 30
0.0
  3
*D114
  1

  0
LINE
  5
44F2
  8
DIMENSIONS
  6
BYBLOCK
 62
     0
 10
160.6873517077406
 20
1098.905805336854
 30
0.0
 11
160.6873517077406
 21
1134.978228956754
 31
0.0
  0
LINE
  5
44F3
  8
DIMENSIONS
  6
BYBLOCK
 62
     0
 10
288.1873517077404
 20
1105.905805336854
 30
0.0
 11
288.1873517077404
 21
1134.978228956754
 31
0.0
  0
LINE
  5
44F4
  8
DIMENSIONS
  6
BYBLOCK
 62
     0
 10
165.6873517077406
 20
1134.798228956754
 30
0.0
 11
283.1873517077404
 21
1134.798228956754
 31
0.0
  0
SOLID
  5
44F5
  8
DIMENSIONS
 62
     0
 10
165.6873517077406
 20
1135.631562290087
 30
0.0
 11
165.6873517077406
 21
1133.96489562342
 31
0.0
 12
160.6873517077406
 22
1134.798228956754
 32
0.0
 13
160.6873517077406
 23
1134.798228956754
 33
0.0
  0
SOLID
  5
44F6
  8
DIMENSIONS
 62
     0
 10
283.1873517077404
 20
1133.96489562342
 30
0.0
 11
283.1873517077404
 21
1135.631562290087
 31
0.0
 12
288.1873517077404
 22
1134.798228956754
 32
0.0
 13
288.1873517077404
 23
1134.798228956754
 33
0.0
  0
TEXT
  5
44F7
  8
DIMENSIONS
  6
CONTINUOUS
 62
     5
 10
205.8548517077406
 20
1137.193228956754
 30
0.0
 40
5.0
  1
127.5 [5.02]
  0
POINT
  5
44F8
  8
DEFPOINTS
 62
     0
 10
160.6873517077406
 20
1097.405805336854
 30
0.0
  0
POINT
  5
44F9
  8
DEFPOINTS
 62
     0
 10
288.1873517077404
 20
1104.405805336854
 30
0.0
  0
POINT
  5
44FA
  8
DEFPOINTS
 62
     0
 10
288.1873517077404
 20
1134.798228956754
 30
0.0
  0
ENDBLK
  5
44F1
  8
0
  0
BLOCK
  8
0
  2
*D115
 70
     1
 10
0.0
 20
0.0
 30
0.0
  3
*D115
  1

  0
LINE
  5
44FF
  8
DIMENSIONS
  6
BYBLOCK
 62
     0
 10
134.1873517077406
 20
1127.405805336854
 30
0.0
 11
123.2275190076405
 21
1127.405805336854
 31
0.0
  0
LINE
  5
4500
  8
DIMENSIONS
  6
BYBLOCK
 62
     0
 10
159.1873517077406
 20
1097.405805336854
 30
0.0
 11
123.2275190076405
 21
1097.405805336854
 31
0.0
  0
LINE
  5
4501
  8
DIMENSIONS
  6
BYBLOCK
 62
     0
 10
123.4075190076405
 20
1127.405805336854
 30
0.0
 11
123.4075190076405
 21
1160.815805336853
 31
0.0
  0
LINE
  5
4502
  8
DIMENSIONS
  6
BYBLOCK
 62
     0
 10
123.4075190076405
 20
1122.405805336854
 30
0.0
 11
123.4075190076405
 21
1102.405805336854
 31
0.0
  0
SOLID
  5
4503
  8
DIMENSIONS
 62
     0
 10
124.2408523409739
 20
1122.405805336854
 30
0.0
 11
122.5741856743072
 21
1122.405805336854
 31
0.0
 12
123.4075190076405
 22
1127.405805336854
 32
0.0
 13
123.4075190076405
 23
1127.405805336854
 33
0.0
  0
SOLID
  5
4504
  8
DIMENSIONS
 62
     0
 10
122.5741856743072
 20
1102.405805336854
 30
0.0
 11
124.2408523409739
 21
1102.405805336854
 31
0.0
 12
123.4075190076405
 22
1097.405805336854
 32
0.0
 13
123.4075190076405
 23
1097.405805336854
 33
0.0
  0
TEXT
  5
4505
  8
DIMENSIONS
  6
CONTINUOUS
 62
     5
 10
121.0125190076403
 20
1133.110805336853
 30
0.0
 40
5.0
  1
30 [1.18]
 50
90.0
  0
POINT
  5
4506
  8
DEFPOINTS
 62
     0
 10
135.6873517077406
 20
1127.405805336854
 30
0.0
  0
POINT
  5
4507
  8
DEFPOINTS
 62
     0
 10
160.6873517077406
 20
1097.405805336854
 30
0.0
  0
POINT
  5
4508
  8
DEFPOINTS
 62
     0
 10
123.4075190076405
 20
1097.405805336854
 30
0.0
  0
ENDBLK
  5
44FE
  8
0
  0
BLOCK
  8
0
  2
*D116
 70
     1
 10
0.0
 20
0.0
 30
0.0
  3
*D116
  1

  0
LINE
  5
450E
  8
DIMENSIONS
  6
BYBLOCK
 62
     0
 10
442.1873517077404
 20
1127.405805336854
 30
0.0
 11
454.1069028358406
 21
1127.405805336854
 31
0.0
  0
LINE
  5
450F
  8
DIMENSIONS
  6
BYBLOCK
 62
     0
 10
422.6873517077404
 20
1104.405805336854
 30
0.0
 11
454.1069028358406
 21
1104.405805336854
 31
0.0
  0
LINE
  5
4510
  8
DIMENSIONS
  6
BYBLOCK
 62
     0
 10
453.9269028358406
 20
1127.405805336854
 30
0.0
 11
453.9269028358406
 21
1160.905805336854
 31
0.0
  0
LINE
  5
4511
  8
DIMENSIONS
  6
BYBLOCK
 62
     0
 10
453.9269028358406
 20
1122.405805336854
 30
0.0
 11
453.9269028358406
 21
1109.405805336854
 31
0.0
  0
SOLID
  5
4512
  8
DIMENSIONS
 62
     0
 10
454.7602361691739
 20
1122.405805336854
 30
0.0
 11
453.0935695025073
 21
1122.405805336854
 31
0.0
 12
453.9269028358406
 22
1127.405805336854
 32
0.0
 13
453.9269028358406
 23
1127.405805336854
 33
0.0
  0
SOLID
  5
4513
  8
DIMENSIONS
 62
     0
 10
453.0935695025073
 20
1109.405805336854
 30
0.0
 11
454.7602361691739
 21
1109.405805336854
 31
0.0
 12
453.9269028358406
 22
1104.405805336854
 32
0.0
 13
453.9269028358406
 23
1104.405805336854
 33
0.0
  0
TEXT
  5
4514
  8
DIMENSIONS
  6
CONTINUOUS
 62
     5
 10
451.5319028358404
 20
1133.200805336854
 30
0.0
 40
5.0
  1
23 [0.91]
 50
90.0
  0
POINT
  5
4515
  8
DEFPOINTS
 62
     0
 10
440.6873517077404
 20
1127.405805336854
 30
0.0
  0
POINT
  5
4516
  8
DEFPOINTS
 62
     0
 10
421.1873517077404
 20
1104.405805336854
 30
0.0
  0
POINT
  5
4517
  8
DEFPOINTS
 62
     0
 10
453.9269028358406
 20
1104.405805336854
 30
0.0
  0
ENDBLK
  5
450D
  8
0
  0
BLOCK
  8
0
  2
*D117
 70
     1
 10
0.0
 20
0.0
 30
0.0
  3
*D117
  1

  0
LINE
  5
451D
  8
DIMENSIONS
  6
BYBLOCK
 62
     0
 10
159.1873517077406
 20
1097.405805336854
 30
0.0
 11
123.2275190076406
 21
1097.405805336854
 31
0.0
  0
LINE
  5
451E
  8
DIMENSIONS
  6
BYBLOCK
 62
     0
 10
159.1873517077406
 20
607.4058053368535
 30
0.0
 11
123.2275190076405
 21
607.4058053368535
 31
0.0
  0
LINE
  5
451F
  8
DIMENSIONS
  6
BYBLOCK
 62
     0
 10
123.4075190076406
 20
1092.405805336854
 30
0.0
 11
123.4075190076405
 21
612.4058053368535
 31
0.0
  0
SOLID
  5
4520
  8
DIMENSIONS
 62
     0
 10
124.2408523409739
 20
1092.405805336854
 30
0.0
 11
122.5741856743072
 21
1092.405805336854
 31
0.0
 12
123.4075190076406
 22
1097.405805336854
 32
0.0
 13
123.4075190076406
 23
1097.405805336854
 33
0.0
  0
SOLID
  5
4521
  8
DIMENSIONS
 62
     0
 10
122.5741856743072
 20
612.4058053368535
 30
0.0
 11
124.2408523409738
 21
612.4058053368535
 31
0.0
 12
123.4075190076405
 22
607.4058053368535
 32
0.0
 13
123.4075190076405
 23
607.4058053368535
 33
0.0
  0
TEXT
  5
4522
  8
DIMENSIONS
  6
CONTINUOUS
 62
     5
 10
121.0125190076405
 20
835.1283053368536
 30
0.0
 40
5.0
  1
490 [19.29]
 50
89.99999999999999
  0
POINT
  5
4523
  8
DEFPOINTS
 62
     0
 10
160.6873517077406
 20
1097.405805336854
 30
0.0
  0
POINT
  5
4524
  8
DEFPOINTS
 62
     0
 10
160.6873517077406
 20
607.4058053368535
 30
0.0
  0
POINT
  5
4525
  8
DEFPOINTS
 62
     0
 10
123.4075190076405
 20
607.4058053368535
 30
0.0
  0
ENDBLK
  5
451C
  8
0
  0
BLOCK
  8
0
  2
*D118
 70
     1
 10
0.0
 20
0.0
 30
0.0
  3
*D118
  1

  0
LINE
  5
452A
  8
DIMENSIONS
  6
BYBLOCK
 62
     0
 10
422.6873517077404
 20
1104.405805336854
 30
0.0
 11
454.1069028358406
 21
1104.405805336854
 31
0.0
  0
LINE
  5
452B
  8
DIMENSIONS
  6
BYBLOCK
 62
     0
 10
422.6873517077404
 20
882.4058053368535
 30
0.0
 11
454.1069028358406
 21
882.4058053368535
 31
0.0
  0
LINE
  5
452C
  8
DIMENSIONS
  6
BYBLOCK
 62
     0
 10
453.9269028358406
 20
1099.405805336854
 30
0.0
 11
453.9269028358406
 21
887.4058053368535
 31
0.0
  0
SOLID
  5
452D
  8
DIMENSIONS
 62
     0
 10
454.7602361691739
 20
1099.405805336854
 30
0.0
 11
453.0935695025073
 21
1099.405805336854
 31
0.0
 12
453.9269028358406
 22
1104.405805336854
 32
0.0
 13
453.9269028358406
 23
1104.405805336854
 33
0.0
  0
SOLID
  5
452E
  8
DIMENSIONS
 62
     0
 10
453.0935695025073
 20
887.4058053368535
 30
0.0
 11
454.7602361691739
 21
887.4058053368535
 31
0.0
 12
453.9269028358406
 22
882.4058053368535
 32
0.0
 13
453.9269028358406
 23
882.4058053368535
 33
0.0
  0
TEXT
  5
452F
  8
DIMENSIONS
  6
CONTINUOUS
 62
     5
 10
451.5319028358406
 20
978.0108053368535
 30
0.0
 40
5.0
  1
222 [8.74]
 50
89.99999999999999
  0
POINT
  5
4530
  8
DEFPOINTS
 62
     0
 10
421.1873517077404
 20
1104.405805336854
 30
0.0
  0
POINT
  5
4531
  8
DEFPOINTS
 62
     0
 10
421.1873517077404
 20
882.4058053368535
 30
0.0
  0
POINT
  5
4532
  8
DEFPOINTS
 62
     0
 10
453.9269028358406
 20
882.4058053368535
 30
0.0
  0
ENDBLK
  5
4529
  8
0
  0
BLOCK
  8
0
  2
*D119
 70
     1
 10
0.0
 20
0.0
 30
0.0
  3
*D119
  1

  0
LINE
  5
4537
  8
DIMENSIONS
  6
BYBLOCK
 62
     0
 10
422.6873517077404
 20
882.4058053368535
 30
0.0
 11
454.1069028358406
 21
882.4058053368535
 31
0.0
  0
LINE
  5
4538
  8
DIMENSIONS
  6
BYBLOCK
 62
     0
 10
422.6873517077404
 20
772.4058053368535
 30
0.0
 11
454.1069028358406
 21
772.4058053368535
 31
0.0
  0
LINE
  5
4539
  8
DIMENSIONS
  6
BYBLOCK
 62
     0
 10
453.9269028358406
 20
877.4058053368535
 30
0.0
 11
453.9269028358406
 21
777.4058053368535
 31
0.0
  0
SOLID
  5
453A
  8
DIMENSIONS
 62
     0
 10
454.7602361691739
 20
877.4058053368535
 30
0.0
 11
453.0935695025073
 21
877.4058053368535
 31
0.0
 12
453.9269028358406
 22
882.4058053368535
 32
0.0
 13
453.9269028358406
 23
882.4058053368535
 33
0.0
  0
SOLID
  5
453B
  8
DIMENSIONS
 62
     0
 10
453.0935695025073
 20
777.4058053368535
 30
0.0
 11
454.7602361691739
 21
777.4058053368535
 31
0.0
 12
453.9269028358406
 22
772.4058053368535
 32
0.0
 13
453.9269028358406
 23
772.4058053368535
 33
0.0
  0
TEXT
  5
453C
  8
DIMENSIONS
  6
CONTINUOUS
 62
     5
 10
451.5319028358405
 20
811.7333053368535
 30
0.0
 40
5.0
  1
110 [4.33]
 50
90.0
  0
POINT
  5
453D
  8
DEFPOINTS
 62
     0
 10
421.1873517077404
 20
882.4058053368535
 30
0.0
  0
POINT
  5
453E
  8
DEFPOINTS
 62
     0
 10
421.1873517077404
 20
772.4058053368535
 30
0.0
  0
POINT
  5
453F
  8
DEFPOINTS
 62
     0
 10
453.9269028358406
 20
772.4058053368535
 30
0.0
  0
ENDBLK
  5
4536
  8
0
  0
BLOCK
  8
0
  2
*D120
 70
     1
 10
0.0
 20
0.0
 30
0.0
  3
*D120
  1

  0
LINE
  5
4544
  8
DIMENSIONS
  6
BYBLOCK
 62
     0
 10
422.6873517077404
 20
772.4058053368535
 30
0.0
 11
454.1069028358406
 21
772.4058053368535
 31
0.0
  0
LINE
  5
4545
  8
DIMENSIONS
  6
BYBLOCK
 62
     0
 10
422.6873517077404
 20
597.4058053368535
 30
0.0
 11
454.1069028358406
 21
597.4058053368535
 31
0.0
  0
LINE
  5
4546
  8
DIMENSIONS
  6
BYBLOCK
 62
     0
 10
453.9269028358406
 20
767.4058053368535
 30
0.0
 11
453.9269028358406
 21
602.4058053368535
 31
0.0
  0
SOLID
  5
4547
  8
DIMENSIONS
 62
     0
 10
454.7602361691739
 20
767.4058053368535
 30
0.0
 11
453.0935695025073
 21
767.4058053368535
 31
0.0
 12
453.9269028358406
 22
772.4058053368535
 32
0.0
 13
453.9269028358406
 23
772.4058053368535
 33
0.0
  0
SOLID
  5
4548
  8
DIMENSIONS
 62
     0
 10
453.0935695025073
 20
602.4058053368535
 30
0.0
 11
454.7602361691739
 21
602.4058053368535
 31
0.0
 12
453.9269028358406
 22
597.4058053368535
 32
0.0
 13
453.9269028358406
 23
597.4058053368535
 33
0.0
  0
TEXT
  5
4549
  8
DIMENSIONS
  6
CONTINUOUS
 62
     5
 10
451.5319028358405
 20
669.2333053368535
 30
0.0
 40
5.0
  1
175 [6.89]
 50
90.0
  0
POINT
  5
454A
  8
DEFPOINTS
 62
     0
 10
421.1873517077404
 20
772.4058053368535
 30
0.0
  0
POINT
  5
454B
  8
DEFPOINTS
 62
     0
 10
421.1873517077404
 20
597.4058053368535
 30
0.0
  0
POINT
  5
454C
  8
DEFPOINTS
 62
     0
 10
453.9269028358406
 20
597.4058053368535
 30
0.0
  0
ENDBLK
  5
4543
  8
0
  0
BLOCK
  8
0
  2
*D121
 70
     1
 10
0.0
 20
0.0
 30
0.0
  3
*D121
  1

  0
LINE
  5
4551
  8
DIMENSIONS
  6
BYBLOCK
 62
     0
 10
162.4990526623029
 20
593.071173962471
 30
0.0
 11
197.255438199606
 21
572.4663762351855
 31
0.0
  0
TEXT
  5
4552
  8
DIMENSIONS
  6
CONTINUOUS
 62
     5
 10
168.6815399695275
 20
592.2832173037593
 30
0.0
 40
5.0
  1
Ø7 [Ø0.28]
 50
329.3390589162012
  0
SOLID
  5
4553
  8
DIMENSIONS
 62
     0
 10
162.9240165225364
 20
593.788007389384
 30
0.0
 11
162.0740888020693
 21
592.354340535558
 31
0.0
 12
158.198052100825
 22
595.6209571238725
 32
0.0
 13
158.198052100825
 23
595.6209571238725
 33
0.0
  0
LINE
  5
4554
  8
DIMENSIONS
  6
BYBLOCK
 62
     0
 10
153.9373517077904
 20
597.4058053368535
 30
0.0
 11
156.4373517077904
 21
597.4058053368535
 31
0.0
  0
LINE
  5
4555
  8
DIMENSIONS
  6
BYBLOCK
 62
     0
 10
155.1873517077904
 20
596.1558053368535
 30
0.0
 11
155.1873517077904
 21
598.6558053368535
 31
0.0
  0
POINT
  5
4615
  8
DEFPOINTS
 62
     0
 10
158.198052100825
 20
595.6209571238725
 30
0.0
  0
POINT
  5
4616
  8
DEFPOINTS
 62
     0
 10
152.1766513147559
 20
599.1906535498346
 30
0.0
  0
ENDBLK
  5
4550
  8
0
  0
BLOCK
  8
0
  2
*D122
 70
     1
 10
0.0
 20
0.0
 30
0.0
  3
*D122
  1

  0
LINE
  5
455A
  8
DIMENSIONS
  6
BYBLOCK
 62
     0
 10
134.1873517077406
 20
1127.405805336854
 30
0.0
 11
111.9298754260407
 21
1127.405805336854
 31
0.0
  0
LINE
  5
455B
  8
DIMENSIONS
  6
BYBLOCK
 62
     0
 10
134.1873517077406
 20
177.4058053368535
 30
0.0
 11
111.9298754260405
 21
177.4058053368535
 31
0.0
  0
LINE
  5
455C
  8
DIMENSIONS
  6
BYBLOCK
 62
     0
 10
112.1098754260407
 20
1122.405805336854
 30
0.0
 11
112.1098754260405
 21
182.4058053368535
 31
0.0
  0
SOLID
  5
455D
  8
DIMENSIONS
 62
     0
 10
112.943208759374
 20
1122.405805336854
 30
0.0
 11
111.2765420927074
 21
1122.405805336854
 31
0.0
 12
112.1098754260407
 22
1127.405805336854
 32
0.0
 13
112.1098754260407
 23
1127.405805336854
 33
0.0
  0
SOLID
  5
455E
  8
DIMENSIONS
 62
     0
 10
111.2765420927072
 20
182.4058053368535
 30
0.0
 11
112.9432087593739
 21
182.4058053368535
 31
0.0
 12
112.1098754260405
 22
177.4058053368535
 32
0.0
 13
112.1098754260405
 23
177.4058053368535
 33
0.0
  0
TEXT
  5
455F
  8
DIMENSIONS
  6
CONTINUOUS
 62
     5
 10
109.7148754260406
 20
635.0283053368535
 30
0.0
 40
5.0
  1
950 [37.40]
 50
90.0
  0
POINT
  5
4560
  8
DEFPOINTS
 62
     0
 10
135.6873517077406
 20
1127.405805336854
 30
0.0
  0
POINT
  5
4561
  8
DEFPOINTS
 62
     0
 10
135.6873517077406
 20
177.4058053368535
 30
0.0
  0
POINT
  5
4562
  8
DEFPOINTS
 62
     0
 10
112.1098754260406
 20
177.4058053368535
 30
0.0
  0
ENDBLK
  5
4559
  8
0
  0
BLOCK
  8
0
  2
*D123
 70
     1
 10
0.0
 20
0.0
 30
0.0
  3
*D123
  1

  0
LINE
  5
4567
  8
DIMENSIONS
  6
BYBLOCK
 62
     0
 10
422.6873517077404
 20
597.4058053368535
 30
0.0
 11
454.1069028358406
 21
597.4058053368535
 31
0.0
  0
LINE
  5
4568
  8
DIMENSIONS
  6
BYBLOCK
 62
     0
 10
432.6873517077404
 20
217.4058053368535
 30
0.0
 11
454.1069028358406
 21
217.4058053368535
 31
0.0
  0
LINE
  5
4569
  8
DIMENSIONS
  6
BYBLOCK
 62
     0
 10
453.9269028358406
 20
592.4058053368535
 30
0.0
 11
453.9269028358406
 21
222.4058053368535
 31
0.0
  0
SOLID
  5
456A
  8
DIMENSIONS
 62
     0
 10
454.7602361691739
 20
592.4058053368535
 30
0.0
 11
453.0935695025073
 21
592.4058053368535
 31
0.0
 12
453.9269028358406
 22
597.4058053368535
 32
0.0
 13
453.9269028358406
 23
597.4058053368535
 33
0.0
  0
SOLID
  5
456B
  8
DIMENSIONS
 62
     0
 10
453.0935695025073
 20
222.4058053368535
 30
0.0
 11
454.7602361691739
 21
222.4058053368535
 31
0.0
 12
453.9269028358406
 22
217.4058053368535
 32
0.0
 13
453.9269028358406
 23
217.4058053368535
 33
0.0
  0
TEXT
  5
456C
  8
DIMENSIONS
  6
CONTINUOUS
 62
     5
 10
451.5319028358405
 20
390.0258053368535
 30
0.0
 40
5.0
  1
380 [14.96]
 50
90.0
  0
POINT
  5
456D
  8
DEFPOINTS
 62
     0
 10
421.1873517077404
 20
597.4058053368535
 30
0.0
  0
POINT
  5
456E
  8
DEFPOINTS
 62
     0
 10
431.1873517077404
 20
217.4058053368535
 30
0.0
  0
POINT
  5
456F
  8
DEFPOINTS
 62
     0
 10
453.9269028358406
 20
217.4058053368535
 30
0.0
  0
ENDBLK
  5
4566
  8
0
  0
BLOCK
  8
0
  2
*D124
 70
     1
 10
0.0
 20
0.0
 30
0.0
  3
*D124
  1

  0
LINE
  5
4574
  8
DIMENSIONS
  6
BYBLOCK
 62
     0
 10
442.1873517077404
 20
177.4058053368535
 30
0.0
 11
454.1069028358406
 21
177.4058053368535
 31
0.0
  0
LINE
  5
4575
  8
DIMENSIONS
  6
BYBLOCK
 62
     0
 10
432.6873517077404
 20
217.4058053368535
 30
0.0
 11
454.1069028358406
 21
217.4058053368535
 31
0.0
  0
LINE
  5
4576
  8
DIMENSIONS
  6
BYBLOCK
 62
     0
 10
453.9269028358406
 20
182.4058053368535
 30
0.0
 11
453.9269028358406
 21
212.4058053368535
 31
0.0
  0
SOLID
  5
4577
  8
DIMENSIONS
 62
     0
 10
453.0935695025073
 20
182.4058053368535
 30
0.0
 11
454.7602361691739
 21
182.4058053368535
 31
0.0
 12
453.9269028358406
 22
177.4058053368535
 32
0.0
 13
453.9269028358406
 23
177.4058053368535
 33
0.0
  0
SOLID
  5
4578
  8
DIMENSIONS
 62
     0
 10
454.7602361691739
 20
212.4058053368535
 30
0.0
 11
453.0935695025073
 21
212.4058053368535
 31
0.0
 12
453.9269028358406
 22
217.4058053368535
 32
0.0
 13
453.9269028358406
 23
217.4058053368535
 33
0.0
  0
TEXT
  5
4579
  8
DIMENSIONS
  6
CONTINUOUS
 62
     5
 10
451.5319028358406
 20
184.0083053368535
 30
0.0
 40
5.0
  1
40 [1.57]
 50
90.0
  0
POINT
  5
457A
  8
DEFPOINTS
 62
     0
 10
440.6873517077404
 20
177.4058053368535
 30
0.0
  0
POINT
  5
457B
  8
DEFPOINTS
 62
     0
 10
431.1873517077404
 20
217.4058053368535
 30
0.0
  0
POINT
  5
457C
  8
DEFPOINTS
 62
     0
 10
453.9269028358406
 20
217.4058053368535
 30
0.0
  0
ENDBLK
  5
4573
  8
0
  0
BLOCK
  8
0
  2
*D125
 70
     1
 10
0.0
 20
0.0
 30
0.0
  3
*D125
  1

  0
LINE
  5
4581
  8
DIMENSIONS
  6
BYBLOCK
 62
     0
 10
632.7807642087405
 20
1128.905805336854
 30
0.0
 11
632.7807642087405
 21
1172.010065737154
 31
0.0
  0
LINE
  5
4582
  8
DIMENSIONS
  6
BYBLOCK
 62
     0
 10
937.7807642087405
 20
1128.905805336854
 30
0.0
 11
937.7807642087405
 21
1172.010065737154
 31
0.0
  0
LINE
  5
4583
  8
DIMENSIONS
  6
BYBLOCK
 62
     0
 10
637.7807642087405
 20
1171.830065737154
 30
0.0
 11
932.7807642087405
 21
1171.830065737154
 31
0.0
  0
SOLID
  5
4584
  8
DIMENSIONS
 62
     0
 10
637.7807642087405
 20
1172.663399070487
 30
0.0
 11
637.7807642087405
 21
1170.99673240382
 31
0.0
 12
632.7807642087405
 22
1171.830065737154
 32
0.0
 13
632.7807642087405
 23
1171.830065737154
 33
0.0
  0
SOLID
  5
4585
  8
DIMENSIONS
 62
     0
 10
932.7807642087405
 20
1170.99673240382
 30
0.0
 11
932.7807642087405
 21
1172.663399070487
 31
0.0
 12
937.7807642087405
 22
1171.830065737154
 32
0.0
 13
937.7807642087405
 23
1171.830065737154
 33
0.0
  0
TEXT
  5
4586
  8
DIMENSIONS
  6
CONTINUOUS
 62
     5
 10
767.9007642087405
 20
1174.225065737154
 30
0.0
 40
5.0
  1
305 [12.01]
  0
POINT
  5
4587
  8
DEFPOINTS
 62
     0
 10
632.7807642087405
 20
1127.405805336854
 30
0.0
  0
POINT
  5
4588
  8
DEFPOINTS
 62
     0
 10
937.7807642087405
 20
1127.405805336854
 30
0.0
  0
POINT
  5
4589
  8
DEFPOINTS
 62
     0
 10
937.7807642087405
 20
1171.830065737154
 30
0.0
  0
ENDBLK
  5
4580
  8
0
  0
BLOCK
  8
0
  2
*D126
 70
     1
 10
0.0
 20
0.0
 30
0.0
  3
*D126
  1

  0
LINE
  5
458E
  8
DIMENSIONS
  6
BYBLOCK
 62
     0
 10
651.7807642087405
 20
1098.905805336854
 30
0.0
 11
651.7807642087405
 21
1158.670544831954
 31
0.0
  0
LINE
  5
458F
  8
DIMENSIONS
  6
BYBLOCK
 62
     0
 10
918.7807642087405
 20
1098.905805336854
 30
0.0
 11
918.7807642087405
 21
1158.670544831954
 31
0.0
  0
LINE
  5
4590
  8
DIMENSIONS
  6
BYBLOCK
 62
     0
 10
656.7807642087405
 20
1158.490544831954
 30
0.0
 11
913.7807642087405
 21
1158.490544831954
 31
0.0
  0
SOLID
  5
4591
  8
DIMENSIONS
 62
     0
 10
656.7807642087405
 20
1159.323878165287
 30
0.0
 11
656.7807642087405
 21
1157.65721149862
 31
0.0
 12
651.7807642087405
 22
1158.490544831954
 32
0.0
 13
651.7807642087405
 23
1158.490544831954
 33
0.0
  0
SOLID
  5
4592
  8
DIMENSIONS
 62
     0
 10
913.7807642087405
 20
1157.65721149862
 30
0.0
 11
913.7807642087405
 21
1159.323878165287
 31
0.0
 12
918.7807642087405
 22
1158.490544831954
 32
0.0
 13
918.7807642087405
 23
1158.490544831954
 33
0.0
  0
TEXT
  5
4593
  8
DIMENSIONS
  6
CONTINUOUS
 62
     5
 10
767.9457642087405
 20
1160.885544831954
 30
0.0
 40
5.0
  1
267 [10.51]
  0
POINT
  5
4594
  8
DEFPOINTS
 62
     0
 10
651.7807642087405
 20
1097.405805336854
 30
0.0
  0
POINT
  5
4595
  8
DEFPOINTS
 62
     0
 10
918.7807642087405
 20
1097.405805336854
 30
0.0
  0
POINT
  5
4596
  8
DEFPOINTS
 62
     0
 10
918.7807642087405
 20
1158.490544831954
 30
0.0
  0
ENDBLK
  5
458D
  8
0
  0
BLOCK
  8
0
  2
*D127
 70
     1
 10
0.0
 20
0.0
 30
0.0
  3
*D127
  1

  0
LINE
  5
459B
  8
DIMENSIONS
  6
BYBLOCK
 62
     0
 10
658.7807642087405
 20
1111.905805336854
 30
0.0
 11
658.7807642087405
 21
1145.922421545554
 31
0.0
  0
LINE
  5
459C
  8
DIMENSIONS
  6
BYBLOCK
 62
     0
 10
911.7807642087405
 20
1111.905805336854
 30
0.0
 11
911.7807642087405
 21
1145.922421545554
 31
0.0
  0
LINE
  5
459D
  8
DIMENSIONS
  6
BYBLOCK
 62
     0
 10
663.7807642087405
 20
1145.742421545553
 30
0.0
 11
906.7807642087405
 21
1145.742421545553
 31
0.0
  0
SOLID
  5
459E
  8
DIMENSIONS
 62
     0
 10
663.7807642087405
 20
1146.575754878887
 30
0.0
 11
663.7807642087405
 21
1144.90908821222
 31
0.0
 12
658.7807642087405
 22
1145.742421545553
 32
0.0
 13
658.7807642087405
 23
1145.742421545553
 33
0.0
  0
SOLID
  5
459F
  8
DIMENSIONS
 62
     0
 10
906.7807642087405
 20
1144.90908821222
 30
0.0
 11
906.7807642087405
 21
1146.575754878887
 31
0.0
 12
911.7807642087405
 22
1145.742421545553
 32
0.0
 13
911.7807642087405
 23
1145.742421545553
 33
0.0
  0
TEXT
  5
45A0
  8
DIMENSIONS
  6
CONTINUOUS
 62
     5
 10
769.8857642087404
 20
1148.137421545554
 30
0.0
 40
5.0
  1
253 [9.96]
  0
POINT
  5
45A1
  8
DEFPOINTS
 62
     0
 10
658.7807642087405
 20
1110.405805336854
 30
0.0
  0
POINT
  5
45A2
  8
DEFPOINTS
 62
     0
 10
911.7807642087405
 20
1110.405805336854
 30
0.0
  0
POINT
  5
45A3
  8
DEFPOINTS
 62
     0
 10
911.7807642087405
 20
1145.742421545553
 30
0.0
  0
ENDBLK
  5
459A
  8
0
  0
BLOCK
  8
0
  2
*D128
 70
     1
 10
0.0
 20
0.0
 30
0.0
  3
*D128
  1

  0
LINE
  5
45A8
  8
DIMENSIONS
  6
BYBLOCK
 62
     0
 10
939.2807642087405
 20
1127.405805336854
 30
0.0
 11
951.7999501613405
 21
1127.405805336854
 31
0.0
  0
LINE
  5
45A9
  8
DIMENSIONS
  6
BYBLOCK
 62
     0
 10
920.2807642087405
 20
1097.405805336854
 30
0.0
 11
951.7999501613405
 21
1097.405805336854
 31
0.0
  0
LINE
  5
45AA
  8
DIMENSIONS
  6
BYBLOCK
 62
     0
 10
951.6199501613405
 20
1127.405805336854
 30
0.0
 11
951.6199501613405
 21
1160.815805336853
 31
0.0
  0
LINE
  5
45AB
  8
DIMENSIONS
  6
BYBLOCK
 62
     0
 10
951.6199501613405
 20
1122.405805336854
 30
0.0
 11
951.6199501613405
 21
1102.405805336854
 31
0.0
  0
SOLID
  5
45AC
  8
DIMENSIONS
 62
     0
 10
952.4532834946739
 20
1122.405805336854
 30
0.0
 11
950.7866168280071
 21
1122.405805336854
 31
0.0
 12
951.6199501613405
 22
1127.405805336854
 32
0.0
 13
951.6199501613405
 23
1127.405805336854
 33
0.0
  0
SOLID
  5
45AD
  8
DIMENSIONS
 62
     0
 10
950.7866168280071
 20
1102.405805336854
 30
0.0
 11
952.4532834946739
 21
1102.405805336854
 31
0.0
 12
951.6199501613405
 22
1097.405805336854
 32
0.0
 13
951.6199501613405
 23
1097.405805336854
 33
0.0
  0
TEXT
  5
45AE
  8
DIMENSIONS
  6
CONTINUOUS
 62
     5
 10
949.2249501613405
 20
1133.110805336853
 30
0.0
 40
5.0
  1
30 [1.18]
 50
90.0
  0
POINT
  5
45AF
  8
DEFPOINTS
 62
     0
 10
937.7807642087405
 20
1127.405805336854
 30
0.0
  0
POINT
  5
45B0
  8
DEFPOINTS
 62
     0
 10
918.7807642087405
 20
1097.405805336854
 30
0.0
  0
POINT
  5
45B1
  8
DEFPOINTS
 62
     0
 10
951.6199501613405
 20
1097.405805336854
 30
0.0
  0
ENDBLK
  5
45A7
  8
0
  0
BLOCK
  8
0
  2
*D129
 70
     1
 10
0.0
 20
0.0
 30
0.0
  3
*D129
  1

  0
LINE
  5
45B7
  8
DIMENSIONS
  6
BYBLOCK
 62
     0
 10
920.2807642087405
 20
1097.405805336854
 30
0.0
 11
951.7999501613405
 21
1097.405805336854
 31
0.0
  0
LINE
  5
45B8
  8
DIMENSIONS
  6
BYBLOCK
 62
     0
 10
920.2807642087405
 20
804.4058053368535
 30
0.0
 11
951.7999501613405
 21
804.4058053368535
 31
0.0
  0
LINE
  5
45B9
  8
DIMENSIONS
  6
BYBLOCK
 62
     0
 10
951.6199501613405
 20
1092.405805336854
 30
0.0
 11
951.6199501613405
 21
809.4058053368535
 31
0.0
  0
SOLID
  5
45BA
  8
DIMENSIONS
 62
     0
 10
952.4532834946739
 20
1092.405805336854
 30
0.0
 11
950.7866168280071
 21
1092.405805336854
 31
0.0
 12
951.6199501613405
 22
1097.405805336854
 32
0.0
 13
951.6199501613405
 23
1097.405805336854
 33
0.0
  0
SOLID
  5
45BB
  8
DIMENSIONS
 62
     0
 10
950.7866168280071
 20
809.4058053368535
 30
0.0
 11
952.4532834946739
 21
809.4058053368535
 31
0.0
 12
951.6199501613405
 22
804.4058053368535
 32
0.0
 13
951.6199501613405
 23
804.4058053368535
 33
0.0
  0
TEXT
  5
45BC
  8
DIMENSIONS
  6
CONTINUOUS
 62
     5
 10
949.2249501613406
 20
933.5708053368535
 30
0.0
 40
5.0
  1
293 [11.54]
 50
90.0
  0
POINT
  5
45BD
  8
DEFPOINTS
 62
     0
 10
918.7807642087405
 20
1097.405805336854
 30
0.0
  0
POINT
  5
45BE
  8
DEFPOINTS
 62
     0
 10
918.7807642087405
 20
804.4058053368535
 30
0.0
  0
POINT
  5
45BF
  8
DEFPOINTS
 62
     0
 10
951.6199501613405
 20
804.4058053368535
 30
0.0
  0
ENDBLK
  5
45B6
  8
0
  0
BLOCK
  8
0
  2
*D130
 70
     1
 10
0.0
 20
0.0
 30
0.0
  3
*D130
  1

  0
LINE
  5
45C4
  8
DIMENSIONS
  6
BYBLOCK
 62
     0
 10
920.2807642087405
 20
804.4058053368535
 30
0.0
 11
951.7999501613405
 21
804.4058053368535
 31
0.0
  0
LINE
  5
45C5
  8
DIMENSIONS
  6
BYBLOCK
 62
     0
 10
920.2807642087405
 20
511.4058053368535
 30
0.0
 11
951.7999501613405
 21
511.4058053368535
 31
0.0
  0
LINE
  5
45C6
  8
DIMENSIONS
  6
BYBLOCK
 62
     0
 10
951.6199501613405
 20
799.4058053368535
 30
0.0
 11
951.6199501613405
 21
516.4058053368535
 31
0.0
  0
SOLID
  5
45C7
  8
DIMENSIONS
 62
     0
 10
952.4532834946739
 20
799.4058053368535
 30
0.0
 11
950.7866168280071
 21
799.4058053368535
 31
0.0
 12
951.6199501613405
 22
804.4058053368535
 32
0.0
 13
951.6199501613405
 23
804.4058053368535
 33
0.0
  0
SOLID
  5
45C8
  8
DIMENSIONS
 62
     0
 10
950.7866168280071
 20
516.4058053368535
 30
0.0
 11
952.4532834946739
 21
516.4058053368535
 31
0.0
 12
951.6199501613405
 22
511.4058053368535
 32
0.0
 13
951.6199501613405
 23
511.4058053368535
 33
0.0
  0
TEXT
  5
45C9
  8
DIMENSIONS
  6
CONTINUOUS
 62
     5
 10
949.2249501613406
 20
640.5708053368535
 30
0.0
 40
5.0
  1
293 [11.54]
 50
90.0
  0
POINT
  5
45CA
  8
DEFPOINTS
 62
     0
 10
918.7807642087405
 20
804.4058053368535
 30
0.0
  0
POINT
  5
45CB
  8
DEFPOINTS
 62
     0
 10
918.7807642087405
 20
511.4058053368535
 30
0.0
  0
POINT
  5
45CC
  8
DEFPOINTS
 62
     0
 10
951.6199501613405
 20
511.4058053368535
 30
0.0
  0
ENDBLK
  5
45C3
  8
0
  0
BLOCK
  8
0
  2
*D131
 70
     1
 10
0.0
 20
0.0
 30
0.0
  3
*D131
  1

  0
LINE
  5
45D1
  8
DIMENSIONS
  6
BYBLOCK
 62
     0
 10
920.2807642087405
 20
511.4058053368535
 30
0.0
 11
951.7999501613405
 21
511.4058053368535
 31
0.0
  0
LINE
  5
45D2
  8
DIMENSIONS
  6
BYBLOCK
 62
     0
 10
920.2807642087405
 20
218.4058053368535
 30
0.0
 11
951.7999501613405
 21
218.4058053368535
 31
0.0
  0
LINE
  5
45D3
  8
DIMENSIONS
  6
BYBLOCK
 62
     0
 10
951.6199501613405
 20
506.4058053368535
 30
0.0
 11
951.6199501613405
 21
223.4058053368535
 31
0.0
  0
SOLID
  5
45D4
  8
DIMENSIONS
 62
     0
 10
952.4532834946739
 20
506.4058053368535
 30
0.0
 11
950.7866168280071
 21
506.4058053368535
 31
0.0
 12
951.6199501613405
 22
511.4058053368535
 32
0.0
 13
951.6199501613405
 23
511.4058053368535
 33
0.0
  0
SOLID
  5
45D5
  8
DIMENSIONS
 62
     0
 10
950.7866168280071
 20
223.4058053368535
 30
0.0
 11
952.4532834946739
 21
223.4058053368535
 31
0.0
 12
951.6199501613405
 22
218.4058053368535
 32
0.0
 13
951.6199501613405
 23
218.4058053368535
 33
0.0
  0
TEXT
  5
45D6
  8
DIMENSIONS
  6
CONTINUOUS
 62
     5
 10
949.2249501613406
 20
347.5708053368535
 30
0.0
 40
5.0
  1
293 [11.54]
 50
90.0
  0
POINT
  5
45D7
  8
DEFPOINTS
 62
     0
 10
918.7807642087405
 20
511.4058053368535
 30
0.0
  0
POINT
  5
45D8
  8
DEFPOINTS
 62
     0
 10
918.7807642087405
 20
218.4058053368535
 30
0.0
  0
POINT
  5
45D9
  8
DEFPOINTS
 62
     0
 10
951.6199501613405
 20
218.4058053368535
 30
0.0
  0
ENDBLK
  5
45D0
  8
0
  0
BLOCK
  8
0
  2
*D132
 70
     1
 10
0.0
 20
0.0
 30
0.0
  3
*D132
  1

  0
LINE
  5
45DE
  8
DIMENSIONS
  6
BYBLOCK
 62
     0
 10
631.2807642087405
 20
1127.405805336854
 30
0.0
 11
619.2971288462405
 21
1127.405805336854
 31
0.0
  0
LINE
  5
45DF
  8
DIMENSIONS
  6
BYBLOCK
 62
     0
 10
657.2807642087405
 20
1110.405805336854
 30
0.0
 11
619.2971288462405
 21
1110.405805336854
 31
0.0
  0
LINE
  5
45E0
  8
DIMENSIONS
  6
BYBLOCK
 62
     0
 10
619.4771288462405
 20
1127.405805336854
 30
0.0
 11
619.4771288462405
 21
1160.350805336854
 31
0.0
  0
LINE
  5
45E1
  8
DIMENSIONS
  6
BYBLOCK
 62
     0
 10
619.4771288462405
 20
1122.405805336854
 30
0.0
 11
619.4771288462405
 21
1115.405805336854
 31
0.0
  0
SOLID
  5
45E2
  8
DIMENSIONS
 62
     0
 10
620.3104621795738
 20
1122.405805336854
 30
0.0
 11
618.6437955129071
 21
1122.405805336854
 31
0.0
 12
619.4771288462405
 22
1127.405805336854
 32
0.0
 13
619.4771288462405
 23
1127.405805336854
 33
0.0
  0
SOLID
  5
45E3
  8
DIMENSIONS
 62
     0
 10
618.6437955129071
 20
1115.405805336854
 30
0.0
 11
620.3104621795738
 21
1115.405805336854
 31
0.0
 12
619.4771288462405
 22
1110.405805336854
 32
0.0
 13
619.4771288462405
 23
1110.405805336854
 33
0.0
  0
TEXT
  5
45E4
  8
DIMENSIONS
  6
CONTINUOUS
 62
     5
 10
617.0821288462403
 20
1132.645805336854
 30
0.0
 40
5.0
  1
17 [0.67]
 50
90.0
  0
POINT
  5
45E5
  8
DEFPOINTS
 62
     0
 10
632.7807642087405
 20
1127.405805336854
 30
0.0
  0
POINT
  5
45E6
  8
DEFPOINTS
 62
     0
 10
658.7807642087405
 20
1110.405805336854
 30
0.0
  0
POINT
  5
45E7
  8
DEFPOINTS
 62
     0
 10
619.4771288462405
 20
1110.405805336854
 30
0.0
  0
ENDBLK
  5
45DD
  8
0
  0
BLOCK
  8
0
  2
*D133
 70
     1
 10
0.0
 20
0.0
 30
0.0
  3
*D133
  1

  0
LINE
  5
45ED
  8
DIMENSIONS
  6
BYBLOCK
 62
     0
 10
657.2807642087405
 20
1110.405805336854
 30
0.0
 11
619.2971288462405
 21
1110.405805336854
 31
0.0
  0
LINE
  5
45EE
  8
DIMENSIONS
  6
BYBLOCK
 62
     0
 10
657.2807642087405
 20
200.4058053368535
 30
0.0
 11
619.2971288462405
 21
200.4058053368535
 31
0.0
  0
LINE
  5
45EF
  8
DIMENSIONS
  6
BYBLOCK
 62
     0
 10
619.4771288462405
 20
1105.405805336854
 30
0.0
 11
619.4771288462405
 21
205.4058053368535
 31
0.0
  0
SOLID
  5
45F0
  8
DIMENSIONS
 62
     0
 10
620.3104621795738
 20
1105.405805336854
 30
0.0
 11
618.6437955129071
 21
1105.405805336854
 31
0.0
 12
619.4771288462405
 22
1110.405805336854
 32
0.0
 13
619.4771288462405
 23
1110.405805336854
 33
0.0
  0
SOLID
  5
45F1
  8
DIMENSIONS
 62
     0
 10
618.6437955129071
 20
205.4058053368535
 30
0.0
 11
620.3104621795738
 21
205.4058053368535
 31
0.0
 12
619.4771288462405
 22
200.4058053368535
 32
0.0
 13
619.4771288462405
 23
200.4058053368535
 33
0.0
  0
TEXT
  5
45F2
  8
DIMENSIONS
  6
CONTINUOUS
 62
     5
 10
617.0821288462405
 20
638.0283053368536
 30
0.0
 40
5.0
  1
910 [35.83]
 50
90.0
  0
POINT
  5
45F3
  8
DEFPOINTS
 62
     0
 10
658.7807642087405
 20
1110.405805336854
 30
0.0
  0
POINT
  5
45F4
  8
DEFPOINTS
 62
     0
 10
658.7807642087405
 20
200.4058053368535
 30
0.0
  0
POINT
  5
45F5
  8
DEFPOINTS
 62
     0
 10
619.4771288462402
 20
200.4058053368535
 30
0.0
  0
ENDBLK
  5
45EC
  8
0
  0
BLOCK
  8
0
  2
*D134
 70
     1
 10
0.0
 20
0.0
 30
0.0
  3
*D134
  1

  0
LINE
  5
45FA
  8
DIMENSIONS
  6
BYBLOCK
 62
     0
 10
631.2807642087405
 20
1127.405805336854
 30
0.0
 11
603.6940454834404
 21
1127.405805336854
 31
0.0
  0
LINE
  5
45FB
  8
DIMENSIONS
  6
BYBLOCK
 62
     0
 10
631.2807642087405
 20
177.4058053368535
 30
0.0
 11
603.6940454834404
 21
177.4058053368535
 31
0.0
  0
LINE
  5
45FC
  8
DIMENSIONS
  6
BYBLOCK
 62
     0
 10
603.8740454834403
 20
1122.405805336854
 30
0.0
 11
603.8740454834403
 21
182.4058053368535
 31
0.0
  0
SOLID
  5
45FD
  8
DIMENSIONS
 62
     0
 10
604.7073788167737
 20
1122.405805336854
 30
0.0
 11
603.040712150107
 21
1122.405805336854
 31
0.0
 12
603.8740454834403
 22
1127.405805336854
 32
0.0
 13
603.8740454834403
 23
1127.405805336854
 33
0.0
  0
SOLID
  5
45FE
  8
DIMENSIONS
 62
     0
 10
603.040712150107
 20
182.4058053368535
 30
0.0
 11
604.7073788167737
 21
182.4058053368535
 31
0.0
 12
603.8740454834403
 22
177.4058053368535
 32
0.0
 13
603.8740454834403
 23
177.4058053368535
 33
0.0
  0
TEXT
  5
45FF
  8
DIMENSIONS
  6
CONTINUOUS
 62
     5
 10
601.4790454834404
 20
635.0283053368536
 30
0.0
 40
5.0
  1
950 [37.40]
 50
90.0
  0
POINT
  5
4600
  8
DEFPOINTS
 62
     0
 10
632.7807642087405
 20
1127.405805336854
 30
0.0
  0
POINT
  5
4601
  8
DEFPOINTS
 62
     0
 10
632.7807642087405
 20
177.4058053368535
 30
0.0
  0
POINT
  5
4602
  8
DEFPOINTS
 62
     0
 10
603.8740454834401
 20
177.4058053368535
 30
0.0
  0
ENDBLK
  5
45F9
  8
0
  0
BLOCK
  8
0
  2
*D135
 70
     1
 10
0.0
 20
0.0
 30
0.0
  3
*D135
  1

  0
LINE
  5
461E
  8
DIMENSIONS
  6
BYBLOCK
 62
     0
 10
659.2303923331499
 20
222.498853199756
 30
0.0
 11
694.6424187292391
 21
241.9552765998233
 31
0.0
  0
TEXT
  5
461F
  8
DIMENSIONS
  6
CONTINUOUS
 62
     5
 10
663.0517546167896
 20
227.4223900684284
 30
0.0
 40
5.0
  1
Ø7 [Ø0.28]
 50
28.78570614789641
  0
SOLID
  5
4620
  8
DIMENSIONS
 62
     0
 10
658.8291131309046
 20
223.2292088982275
 30
0.0
 11
659.6316715353952
 21
221.7684975012845
 31
0.0
 12
654.8482581423209
 22
220.091177986284
 32
0.0
 13
654.8482581423209
 23
220.091177986284
 33
0.0
  0
LINE
  5
4621
  8
DIMENSIONS
  6
BYBLOCK
 62
     0
 10
650.5307642087405
 20
218.4058053368535
 30
0.0
 11
653.0307642087405
 21
218.4058053368535
 31
0.0
  0
LINE
  5
4622
  8
DIMENSIONS
  6
BYBLOCK
 62
     0
 10
651.7807642087405
 20
217.1558053368535
 30
0.0
 11
651.7807642087405
 21
219.6558053368535
 31
0.0
  0
POINT
  5
4623
  8
DEFPOINTS
 62
     0
 10
654.8482581423209
 20
220.091177986284
 30
0.0
  0
POINT
  5
4624
  8
DEFPOINTS
 62
     0
 10
648.7132702751601
 20
216.7204326874231
 30
0.0
  0
ENDBLK
  5
461D
  8
0
  0
ENDSEC
  0
SECTION
  2
ENTITIES
  0
TEXT
  5
25BF
  8
DIMENSIONS
  6
BYBLOCK
 10
93.43862345982114
 20
126.538440195174
 30
0.0
 40
5.0
  1
Note:
  0
TEXT
  5
25C0
  8
DIMENSIONS
  6
BYBLOCK
 10
93.57254950010665
 20
116.0094723471809
 30
0.0
 40
5.0
  1
Primary dimensions in millimeters.
  0
TEXT
  5
25C1
  8
DIMENSIONS
  6
BYBLOCK
 10
93.79396343649654
 20
105.4374467383966
 30
0.0
 40
5.0
  1
Secondary dimensions in inches.
  0
POLYLINE
  5
3484
  8
0
  6
BYBLOCK
 66
     1
 10
0.0
 20
0.0
 30
0.0
 70
     1
  0
VERTEX
  5
4651
  8
0
  6
BYBLOCK
 10
81.54351413624403
 20
97.48881151042815
 30
0.0
  0
VERTEX
  5
4652
  8
0
  6
BYBLOCK
 10
81.54351413624411
 20
1200.261626907785
 30
0.0
  0
VERTEX
  5
4653
  8
0
  6
BYBLOCK
 10
1003.91952444171
 20
1200.261626907785
 30
0.0
  0
VERTEX
  5
4654
  8
0
  6
BYBLOCK
 10
1003.91952444171
 20
97.48881151042815
 30
0.0
  0
SEQEND
  5
4667
  8
0
  6
BYBLOCK
  0
TEXT
  5
37D9
  8
TEXT
  6
BYBLOCK
 10
997.6177007143426
 20
105.5994653839684
 30
0.0
 40
5.0
  1
596046127/a
 50
89.99999999999999
  0
POLYLINE
  5
37DA
  8
CENTERS
 66
     1
 10
0.0
 20
0.0
 30
0.0
  0
VERTEX
  5
4655
  8
CENTERS
 10
288.1873517077404
 20
1127.405805336854
 30
0.0
  0
VERTEX
  5
4656
  8
CENTERS
 10
288.1873517077404
 20
177.4058053368535
 30
0.0
  0
SEQEND
  5
4668
  8
CENTERS
  0
TEXT
  5
37DB
  8
DIMENSIONS
  6
BYBLOCK
 10
294.887127885434
 20
964.4913424760201
 30
0.0
 40
5.0
  1
Centerline
 50
89.99999999999999
  0
POLYLINE
  5
37DC
  8
DIMENSIONS
  6
BYBLOCK
 62
     1
 66
     1
 10
0.0
 20
0.0
 30
0.0
 40
1.0
 41
1.0
  0
VERTEX
  5
4657
  8
DIMENSIONS
  6
BYBLOCK
 62
     1
 10
293.0579473956477
 20
1001.755786183091
 30
0.0
  0
VERTEX
  5
4658
  8
DIMENSIONS
  6
BYBLOCK
 62
     1
 10
283.0579473956477
 20
1001.755786183091
 30
0.0
  0
SEQEND
  5
4669
  8
DIMENSIONS
  6
BYBLOCK
 62
     1
  0
POLYLINE
  5
37DD
  8
DIMENSIONS
 62
     1
 66
     1
 10
0.0
 20
0.0
 30
0.0
 40
1.0
 41
1.0
  0
VERTEX
  5
4659
  8
DIMENSIONS
 62
     1
 10
288.1873517077402
 20
1029.939706710061
 30
0.0
  0
VERTEX
  5
465A
  8
DIMENSIONS
 62
     1
 10
288.1873517077402
 20
1004.939706710061
 30
0.0
  0
SEQEND
  5
466A
  8
DIMENSIONS
 62
     1
  0
POLYLINE
  5
37DE
  8
DIMENSIONS
 62
     1
 66
     1
 10
0.0
 20
0.0
 30
0.0
 40
1.0
 41
1.0
  0
VERTEX
  5
465B
  8
DIMENSIONS
 62
     1
 10
299.2945839610438
 20
1018.832474456759
 30
0.0
  0
VERTEX
  5
465C
  8
DIMENSIONS
 62
     1
 10
288.1873517077402
 20
1029.939706710061
 30
0.0
  0
VERTEX
  5
465D
  8
DIMENSIONS
 62
     1
 10
277.0746539767842
 20
1018.827008979105
 30
0.0
  0
SEQEND
  5
466B
  8
DIMENSIONS
 62
     1
  0
TEXT
  5
3C44
  8
TEXT
  6
CONTINUOUS
 10
248.2686191209747
 20
143.7000792614551
 30
0.0
 40
5.0
  1
CUTOUT FOR EXTERNAL
  0
TEXT
  5
3D14
  8
TEXT
  6
CONTINUOUS
 10
746.0322884526319
 20
143.7000792614553
 30
0.0
 40
5.0
  1
CUTOUT FOR INTERNAL
  0
DIMENSION
  5
4485
  8
DIMENSIONS
  6
BYBLOCK
  2
*D111
 10
440.6873517077404
 20
1171.143446779754
 30
0.0
 11
288.1873517077404
 21
1171.143446779754
 31
0.0
 70
   160
  3
DUAL-DIM
 13
135.6873517077406
 23
1127.405805336854
 33
0.0
 14
440.6873517077404
 24
1127.405805336854
 34
0.0
  0
DIMENSION
  5
4486
  8
DIMENSIONS
  6
BYBLOCK
  2
*D112
 10
421.1873517077404
 20
1157.803925874653
 30
0.0
 11
288.1873517077404
 21
1157.803925874653
 31
0.0
 70
   160
  3
DUAL-DIM
 13
155.1873517077406
 23
1104.405805336854
 33
0.0
 14
421.1873517077404
 24
1104.405805336854
 34
0.0
  0
DIMENSION
  5
4487
  8
DIMENSIONS
  6
BYBLOCK
  2
*D113
 10
415.6873517077404
 20
1145.055802588254
 30
0.0
 11
288.1873517077404
 21
1145.055802588254
 31
0.0
 70
   160
  3
DUAL-DIM
 13
160.6873517077406
 23
1097.405805336854
 33
0.0
 14
415.6873517077404
 24
1097.405805336854
 34
0.0
  0
DIMENSION
  5
4488
  8
DIMENSIONS
  6
BYBLOCK
  2
*D114
 10
288.1873517077404
 20
1134.798228956754
 30
0.0
 11
224.4373517077406
 21
1134.798228956754
 31
0.0
 70
   160
  3
DUAL-DIM
 13
160.6873517077406
 23
1097.405805336854
 33
0.0
 14
288.1873517077404
 24
1104.405805336854
 34
0.0
  0
DIMENSION
  5
4489
  8
DIMENSIONS
  6
BYBLOCK
  2
*D115
 10
123.4075190076405
 20
1097.405805336854
 30
0.0
 11
123.4075190076405
 21
1146.610805336853
 31
0.0
 70
   160
  3
DUAL-DIM
 13
135.6873517077406
 23
1127.405805336854
 33
0.0
 14
160.6873517077406
 24
1097.405805336854
 34
0.0
 50
-90.00000000000001
  0
DIMENSION
  5
448A
  8
DIMENSIONS
  6
BYBLOCK
  2
*D116
 10
453.9269028358406
 20
1104.405805336854
 30
0.0
 11
453.9269028358406
 21
1146.655805336854
 31
0.0
 70
   160
  3
DUAL-DIM
 13
440.6873517077404
 23
1127.405805336854
 33
0.0
 14
421.1873517077404
 24
1104.405805336854
 34
0.0
 50
-90.00000000000001
  0
DIMENSION
  5
448B
  8
DIMENSIONS
  6
BYBLOCK
  2
*D117
 10
123.4075190076405
 20
607.4058053368535
 30
0.0
 11
123.4075190076405
 21
852.4058053368535
 31
0.0
 70
   160
  3
DUAL-DIM
 13
160.6873517077406
 23
1097.405805336854
 33
0.0
 14
160.6873517077406
 24
607.4058053368535
 34
0.0
 50
-90.00000000000001
  0
DIMENSION
  5
448C
  8
DIMENSIONS
  6
BYBLOCK
  2
*D118
 10
453.9269028358406
 20
882.4058053368535
 30
0.0
 11
453.9269028358406
 21
993.4058053368535
 31
0.0
 70
   160
  3
DUAL-DIM
 13
421.1873517077404
 23
1104.405805336854
 33
0.0
 14
421.1873517077404
 24
882.4058053368535
 34
0.0
 50
-90.00000000000001
  0
DIMENSION
  5
448D
  8
DIMENSIONS
  6
BYBLOCK
  2
*D119
 10
453.9269028358406
 20
772.4058053368535
 30
0.0
 11
453.9269028358406
 21
827.4058053368535
 31
0.0
 70
   160
  3
DUAL-DIM
 13
421.1873517077404
 23
882.4058053368535
 33
0.0
 14
421.1873517077404
 24
772.4058053368535
 34
0.0
 50
-90.00000000000001
  0
DIMENSION
  5
448E
  8
DIMENSIONS
  6
BYBLOCK
  2
*D120
 10
453.9269028358406
 20
597.4058053368535
 30
0.0
 11
453.9269028358406
 21
684.9058053368535
 31
0.0
 70
   160
  3
DUAL-DIM
 13
421.1873517077404
 23
772.4058053368535
 33
0.0
 14
421.1873517077404
 24
597.4058053368535
 34
0.0
 50
-90.00000000000001
  0
DIMENSION
  5
448F
  8
DIMENSIONS
  6
BYBLOCK
  2
*D121
 10
152.1766513147559
 20
599.1906535498346
 30
0.0
 11
182.0277457116934
 21
581.4938835181275
 31
0.0
 70
   163
  3
DUAL-DIM
 15
158.198052100825
 25
595.6209571238725
 35
0.0
 40
0.0
1001
ACAD
1000
DSTYLE
1002
{
1070
   287
1070
     3
1070
   279
1070
     0
1002
}
  0
DIMENSION
  5
4490
  8
DIMENSIONS
  6
BYBLOCK
  2
*D122
 10
112.1098754260405
 20
177.4058053368535
 30
0.0
 11
112.1098754260406
 21
652.4058053368535
 31
0.0
 70
   160
  3
DUAL-DIM
 13
135.6873517077406
 23
1127.405805336854
 33
0.0
 14
135.6873517077406
 24
177.4058053368535
 34
0.0
 50
-90.00000000000001
  0
DIMENSION
  5
4491
  8
DIMENSIONS
  6
BYBLOCK
  2
*D123
 10
453.9269028358406
 20
217.4058053368535
 30
0.0
 11
453.9269028358406
 21
407.4058053368535
 31
0.0
 70
   160
  3
DUAL-DIM
 13
421.1873517077404
 23
597.4058053368535
 33
0.0
 14
431.1873517077404
 24
217.4058053368535
 34
0.0
 50
-90.00000000000001
  0
DIMENSION
  5
4492
  8
DIMENSIONS
  6
BYBLOCK
  2
*D124
 10
453.9269028358406
 20
217.4058053368535
 30
0.0
 11
453.9269028358406
 21
197.4058053368535
 31
0.0
 70
   160
  3
DUAL-DIM
 13
440.6873517077404
 23
177.4058053368535
 33
0.0
 14
431.1873517077404
 24
217.4058053368535
 34
0.0
 50
90.0
  0
DIMENSION
  5
4493
  8
DIMENSIONS
  6
BYBLOCK
  2
*D125
 10
937.7807642087405
 20
1171.830065737154
 30
0.0
 11
785.2807642087405
 21
1171.830065737154
 31
0.0
 70
   160
  3
DUAL-DIM
 13
632.7807642087405
 23
1127.405805336854
 33
0.0
 14
937.7807642087405
 24
1127.405805336854
 34
0.0
  0
DIMENSION
  5
4494
  8
DIMENSIONS
  6
BYBLOCK
  2
*D126
 10
918.7807642087405
 20
1158.490544831954
 30
0.0
 11
785.2807642087405
 21
1158.490544831954
 31
0.0
 70
   160
  3
DUAL-DIM
 13
651.7807642087405
 23
1097.405805336854
 33
0.0
 14
918.7807642087405
 24
1097.405805336854
 34
0.0
  0
DIMENSION
  5
4495
  8
DIMENSIONS
  6
BYBLOCK
  2
*D127
 10
911.7807642087405
 20
1145.742421545553
 30
0.0
 11
785.2807642087405
 21
1145.742421545553
 31
0.0
 70
   160
  3
DUAL-DIM
 13
658.7807642087405
 23
1110.405805336854
 33
0.0
 14
911.7807642087405
 24
1110.405805336854
 34
0.0
  0
DIMENSION
  5
4496
  8
DIMENSIONS
  6
BYBLOCK
  2
*D128
 10
951.6199501613405
 20
1097.405805336854
 30
0.0
 11
951.6199501613405
 21
1146.610805336853
 31
0.0
 70
   160
  3
DUAL-DIM
 13
937.7807642087405
 23
1127.405805336854
 33
0.0
 14
918.7807642087405
 24
1097.405805336854
 34
0.0
 50
-90.00000000000001
  0
DIMENSION
  5
4497
  8
DIMENSIONS
  6
BYBLOCK
  2
*D129
 10
951.6199501613405
 20
804.4058053368535
 30
0.0
 11
951.6199501613405
 21
950.9058053368535
 31
0.0
 70
   160
  3
DUAL-DIM
 13
918.7807642087405
 23
1097.405805336854
 33
0.0
 14
918.7807642087405
 24
804.4058053368535
 34
0.0
 50
-90.00000000000001
  0
DIMENSION
  5
4498
  8
DIMENSIONS
  6
BYBLOCK
  2
*D130
 10
951.6199501613405
 20
511.4058053368535
 30
0.0
 11
951.6199501613405
 21
657.9058053368535
 31
0.0
 70
   160
  3
DUAL-DIM
 13
918.7807642087405
 23
804.4058053368535
 33
0.0
 14
918.7807642087405
 24
511.4058053368535
 34
0.0
 50
-90.00000000000001
  0
DIMENSION
  5
4499
  8
DIMENSIONS
  6
BYBLOCK
  2
*D131
 10
951.6199501613405
 20
218.4058053368535
 30
0.0
 11
951.6199501613405
 21
364.9058053368535
 31
0.0
 70
   160
  3
DUAL-DIM
 13
918.7807642087405
 23
511.4058053368535
 33
0.0
 14
918.7807642087405
 24
218.4058053368535
 34
0.0
 50
-90.00000000000001
  0
DIMENSION
  5
449A
  8
DIMENSIONS
  6
BYBLOCK
  2
*D132
 10
619.4771288462405
 20
1110.405805336854
 30
0.0
 11
619.4771288462405
 21
1146.378305336854
 31
0.0
 70
   160
  3
DUAL-DIM
 13
632.7807642087405
 23
1127.405805336854
 33
0.0
 14
658.7807642087405
 24
1110.405805336854
 34
0.0
 50
-90.00000000000001
  0
DIMENSION
  5
449B
  8
DIMENSIONS
  6
BYBLOCK
  2
*D133
 10
619.4771288462405
 20
200.4058053368535
 30
0.0
 11
619.4771288462405
 21
655.4058053368535
 31
0.0
 70
   160
  3
DUAL-DIM
 13
658.7807642087405
 23
1110.405805336854
 33
0.0
 14
658.7807642087405
 24
200.4058053368535
 34
0.0
 50
-90.00000000000001
  0
DIMENSION
  5
449C
  8
DIMENSIONS
  6
BYBLOCK
  2
*D134
 10
603.8740454834403
 20
177.4058053368535
 30
0.0
 11
603.8740454834403
 21
652.4058053368535
 31
0.0
 70
   160
  3
DUAL-DIM
 13
632.7807642087405
 23
1127.405805336854
 33
0.0
 14
632.7807642087405
 24
177.4058053368535
 34
0.0
 50
-90.00000000000001
  0
LINE
  5
449D
  8
0
  6
CONTINUOUS
 62
     7
 10
160.6873517077406
 20
1097.405805336854
 30
0.0
 11
160.6873517077406
 21
607.4058053368535
 31
0.0
  0
LINE
  5
449E
  8
0
  6
CONTINUOUS
 62
     7
 10
658.7807642087405
 20
200.4058053368535
 30
0.0
 11
911.7807642087405
 21
200.4058053368535
 31
0.0
  0
LINE
  5
449F
  8
0
  6
CONTINUOUS
 62
     7
 10
415.6873517077404
 20
607.4058053368535
 30
0.0
 11
415.6873517077404
 21
1097.405805336854
 31
0.0
  0
LINE
  5
44A0
  8
0
  6
CONTINUOUS
 62
     7
 10
160.6873517077406
 20
607.4058053368535
 30
0.0
 11
415.6873517077404
 21
607.4058053368535
 31
0.0
  0
LINE
  5
44A1
  8
0
  6
CONTINUOUS
 62
     7
 10
658.7807642087405
 20
1110.405805336854
 30
0.0
 11
658.7807642087405
 21
200.4058053368535
 31
0.0
  0
LINE
  5
44A2
  8
0
  6
CONTINUOUS
 62
     7
 10
911.7807642087405
 20
200.4058053368535
 30
0.0
 11
911.7807642087405
 21
1110.405805336854
 31
0.0
  0
LINE
  5
44A3
  8
0
  6
CONTINUOUS
 62
     7
 10
415.6873517077404
 20
1097.405805336854
 30
0.0
 11
160.6873517077406
 21
1097.405805336854
 31
0.0
  0
LINE
  5
44A4
  8
0
  6
CONTINUOUS
 62
     7
 10
911.7807642087405
 20
1110.405805336854
 30
0.0
 11
658.7807642087405
 21
1110.405805336854
 31
0.0
  0
LINE
  5
44A5
  8
0
  6
CONTINUOUS
 62
     7
 10
440.6873517077404
 20
177.4058053368535
 30
0.0
 11
135.6873517077406
 21
177.4058053368535
 31
0.0
  0
LINE
  5
44A6
  8
0
  6
CONTINUOUS
 62
     7
 10
135.6873517077406
 20
177.4058053368535
 30
0.0
 11
135.6873517077406
 21
1127.405805336854
 31
0.0
  0
LINE
  5
44A7
  8
0
  6
CONTINUOUS
 62
     7
 10
160.6873517077406
 20
1097.405805336854
 30
0.0
 11
160.6873517077406
 21
607.4058053368535
 31
0.0
  0
LINE
  5
44A8
  8
0
  6
CONTINUOUS
 62
     7
 10
160.6873517077406
 20
607.4058053368535
 30
0.0
 11
415.6873517077404
 21
607.4058053368535
 31
0.0
  0
LINE
  5
44A9
  8
0
  6
CONTINUOUS
 62
     7
 10
415.6873517077404
 20
607.4058053368535
 30
0.0
 11
415.6873517077404
 21
1097.405805336854
 31
0.0
  0
LINE
  5
44AA
  8
0
  6
CONTINUOUS
 62
     7
 10
440.6873517077404
 20
1127.405805336854
 30
0.0
 11
440.6873517077404
 21
177.4058053368535
 31
0.0
  0
LINE
  5
44AB
  8
0
  6
CONTINUOUS
 62
     7
 10
415.6873517077404
 20
1097.405805336854
 30
0.0
 11
160.6873517077406
 21
1097.405805336854
 31
0.0
  0
LINE
  5
44AC
  8
0
  6
CONTINUOUS
 62
     7
 10
135.6873517077406
 20
1127.405805336854
 30
0.0
 11
440.6873517077404
 21
1127.405805336854
 31
0.0
  0
LINE
  5
44AD
  8
0
  6
CONTINUOUS
 62
     7
 10
937.7807642087405
 20
177.4058053368535
 30
0.0
 11
632.7807642087405
 21
177.4058053368535
 31
0.0
  0
LINE
  5
44AE
  8
0
  6
CONTINUOUS
 62
     7
 10
658.7807642087405
 20
200.4058053368535
 30
0.0
 11
911.7807642087405
 21
200.4058053368535
 31
0.0
  0
LINE
  5
44AF
  8
0
  6
CONTINUOUS
 62
     7
 10
632.7807642087405
 20
177.4058053368535
 30
0.0
 11
632.7807642087405
 21
1127.405805336854
 31
0.0
  0
LINE
  5
44B0
  8
0
  6
CONTINUOUS
 62
     7
 10
658.7807642087405
 20
1110.405805336854
 30
0.0
 11
658.7807642087405
 21
200.4058053368535
 31
0.0
  0
LINE
  5
44B1
  8
0
  6
CONTINUOUS
 62
     7
 10
911.7807642087405
 20
200.4058053368535
 30
0.0
 11
911.7807642087405
 21
1110.405805336854
 31
0.0
  0
LINE
  5
44B2
  8
0
  6
CONTINUOUS
 62
     7
 10
937.7807642087405
 20
1127.405805336854
 30
0.0
 11
937.7807642087405
 21
177.4058053368535
 31
0.0
  0
LINE
  5
44B3
  8
0
  6
CONTINUOUS
 62
     7
 10
911.7807642087405
 20
1110.405805336854
 30
0.0
 11
658.7807642087405
 21
1110.405805336854
 31
0.0
  0
LINE
  5
44B4
  8
0
  6
CONTINUOUS
 62
     7
 10
632.7807642087405
 20
1127.405805336854
 30
0.0
 11
937.7807642087405
 21
1127.405805336854
 31
0.0
  0
CIRCLE
  5
44B5
  8
0
  6
CONTINUOUS
 62
     7
 10
155.1873517077406
 20
1104.405805336854
 30
0.0
 40
3.5
  0
CIRCLE
  5
44B6
  8
0
  6
CONTINUOUS
 62
     7
 10
421.1873517077404
 20
1104.405805336854
 30
0.0
 40
3.5
  0
CIRCLE
  5
44B7
  8
0
  6
CONTINUOUS
 62
     7
 10
155.1873517077406
 20
882.4058053368535
 30
0.0
 40
3.5
  0
CIRCLE
  5
44B8
  8
0
  6
CONTINUOUS
 62
     7
 10
421.1873517077404
 20
882.4058053368535
 30
0.0
 40
3.5
  0
CIRCLE
  5
44B9
  8
0
  6
CONTINUOUS
 62
     7
 10
155.1873517077406
 20
772.4058053368535
 30
0.0
 40
3.5
  0
CIRCLE
  5
44BA
  8
0
  6
CONTINUOUS
 62
     7
 10
421.1873517077404
 20
772.4058053368535
 30
0.0
 40
3.5
  0
CIRCLE
  5
44BB
  8
0
  6
CONTINUOUS
 62
     7
 10
155.1873517077406
 20
597.4058053368535
 30
0.0
 40
3.5
  0
CIRCLE
  5
44BC
  8
0
  6
CONTINUOUS
 62
     7
 10
421.1873517077404
 20
597.4058053368535
 30
0.0
 40
3.5
  0
CIRCLE
  5
44BD
  8
0
  6
CONTINUOUS
 62
     7
 10
288.1873517077404
 20
1104.405805336854
 30
0.0
 40
3.5
  0
CIRCLE
  5
44BE
  8
0
  6
CONTINUOUS
 62
     7
 10
431.1873517077404
 20
217.4058053368535
 30
0.0
 40
3.5
  0
CIRCLE
  5
44BF
  8
0
  6
CONTINUOUS
 62
     7
 10
145.1873517077406
 20
217.4058053368535
 30
0.0
 40
3.5
  0
CIRCLE
  5
44C0
  8
0
  6
CONTINUOUS
 62
     7
 10
918.7807642087405
 20
1097.405805336854
 30
0.0
 40
3.5
  0
CIRCLE
  5
44C1
  8
0
  6
CONTINUOUS
 62
     7
 10
651.7807642087405
 20
1097.405805336854
 30
0.0
 40
3.5
  0
CIRCLE
  5
44C2
  8
0
  6
CONTINUOUS
 62
     7
 10
918.7807642087405
 20
804.4058053368535
 30
0.0
 40
3.5
  0
CIRCLE
  5
44C3
  8
0
  6
CONTINUOUS
 62
     7
 10
651.7807642087405
 20
804.4058053368535
 30
0.0
 40
3.5
  0
CIRCLE
  5
44C4
  8
0
  6
CONTINUOUS
 62
     7
 10
918.7807642087405
 20
511.4058053368535
 30
0.0
 40
3.5
  0
CIRCLE
  5
44C5
  8
0
  6
CONTINUOUS
 62
     7
 10
651.7807642087405
 20
511.4058053368535
 30
0.0
 40
3.5
  0
CIRCLE
  5
44C6
  8
0
  6
CONTINUOUS
 62
     7
 10
918.7807642087405
 20
218.4058053368535
 30
0.0
 40
3.5
  0
CIRCLE
  5
44C7
  8
0
  6
CONTINUOUS
 62
     7
 10
651.7807642087405
 20
218.4058053368535
 30
0.0
 40
3.5
  0
POLYLINE
  5
4604
  8
CENTERS
 66
     1
 10
0.0
 20
0.0
 30
0.0
  0
VERTEX
  5
465E
  8
CENTERS
 10
785.2807642087405
 20
1127.405805336854
 30
0.0
  0
VERTEX
  5
465F
  8
CENTERS
 10
785.2807642087405
 20
177.4058053368535
 30
0.0
  0
SEQEND
  5
466C
  8
CENTERS
  0
TEXT
  5
4605
  8
DIMENSIONS
  6
BYBLOCK
 10
791.9805403864341
 20
964.4913424760201
 30
0.0
 40
5.0
  1
Centerline
 50
89.99999999999999
  0
POLYLINE
  5
4606
  8
DIMENSIONS
  6
BYBLOCK
 62
     1
 66
     1
 10
0.0
 20
0.0
 30
0.0
 40
1.0
 41
1.0
  0
VERTEX
  5
4660
  8
DIMENSIONS
  6
BYBLOCK
 62
     1
 10
790.1513598966478
 20
1001.755786183091
 30
0.0
  0
VERTEX
  5
4661
  8
DIMENSIONS
  6
BYBLOCK
 62
     1
 10
780.1513598966478
 20
1001.755786183091
 30
0.0
  0
SEQEND
  5
466D
  8
DIMENSIONS
  6
BYBLOCK
 62
     1
  0
POLYLINE
  5
4607
  8
DIMENSIONS
 62
     1
 66
     1
 10
0.0
 20
0.0
 30
0.0
 40
1.0
 41
1.0
  0
VERTEX
  5
4662
  8
DIMENSIONS
 62
     1
 10
785.2807642087403
 20
1029.939706710061
 30
0.0
  0
VERTEX
  5
4663
  8
DIMENSIONS
 62
     1
 10
785.2807642087403
 20
1004.939706710061
 30
0.0
  0
SEQEND
  5
466E
  8
DIMENSIONS
 62
     1
  0
POLYLINE
  5
4608
  8
DIMENSIONS
 62
     1
 66
     1
 10
0.0
 20
0.0
 30
0.0
 40
1.0
 41
1.0
  0
VERTEX
  5
4664
  8
DIMENSIONS
 62
     1
 10
796.3879964620439
 20
1018.832474456759
 30
0.0
  0
VERTEX
  5
4665
  8
DIMENSIONS
 62
     1
 10
785.2807642087403
 20
1029.939706710061
 30
0.0
  0
VERTEX
  5
4666
  8
DIMENSIONS
 62
     1
 10
774.1680664777844
 20
1018.827008979105
 30
0.0
  0
SEQEND
  5
466F
  8
DIMENSIONS
 62
     1
  0
DIMENSION
  5
4618
  8
DIMENSIONS
  6
BYBLOCK
  2
*D135
 10
648.7132702751601
 20
216.7204326874231
 30
0.0
 11
679.127472626609
 21
233.4309025065256
 31
0.0
 70
   163
  3
DUAL-DIM
 15
654.8482581423209
 25
220.091177986284
 35
0.0
 40
0.0
1001
ACAD
1000
DSTYLE
1002
{
1070
   287
1070
     3
1070
   279
1070
     0
1002
}
1001
ACAD_DSTYLE_DIMRADIAL_EXT4
1070
   387
1070
     1
1070
   388
1040
0.0
1070
   390
1040
6.283185307179586
  0
VIEWPORT
  5
B1C
 67
     1
  8
0
 10
0.0
 20
0.0
 30
0.0
 40
8.976000000000003
 41
6.936000000000003
 68
     1
 69
     1
1001
ACAD
1000
MVIEW
1002
{
1070
    16
1010
0.0
1020
0.0
1030
0.0
1010
0.0
1020
0.0
1030
1.0
1040
0.0
1040
6.936000000000003
1040
5.250000000000001
1040
3.5
1040
50.0
1040
0.0
1040
0.0
1070
     0
1070
   100
1070
     0
1070
     3
1070
     0
1070
     0
1070
     0
1070
     0
1040
0.0
1040
0.0
1040
0.0
1040
0.5
1040
0.5
1040
0.0
1040
0.0
1070
     0
1002
{
1002
}
1002
}
  0
VIEWPORT
  5
B1D
 67
     1
  8
0
 10
5.25
 20
3.5
 30
0.0
 40
8.4
 41
5.600000000000001
 68
     2
 69
     2
1001
ACAD
1000
MVIEW
1002
{
1070
    16
1010
0.0
1020
0.0
1030
0.0
1010
0.0
1020
0.0
1030
1.0
1040
0.0
1040
278.6419840998563
1040
207.1268606538857
1040
36.27547653054833
1040
50.0
1040
0.0
1040
0.0
1070
     0
1070
   100
1070
     0
1070
     3
1070
     0
1070
     0
1070
     0
1070
     0
1040
0.0
1040
0.0
1040
0.0
1040
0.5
1040
0.5
1040
0.0
1040
0.0
1070
     0
1002
{
1002
}
1002
}
  0
ENDSEC
  0
EOF
