  0
SECTION
  2
HEADER
  9
$ACADVER
  1
AC1009
  9
$DWGCODEPAGE
  3
ansi_1252
  9
$INSBASE
 10
0.0
 20
0.0
 30
0.0
  9
$EXTMIN
 10
-714.4339626883001
 20
-359.7247637024
 30
0.0
  9
$EXTMAX
 10
7.516918760400017
 20
847.4916836853001
 30
0.0
  9
$LIMMIN
 10
0.0
 20
0.0
  9
$LIMMAX
 10
594.0
 20
420.0
  9
$ORTHOMODE
 70
     0
  9
$REGENMODE
 70
     1
  9
$FILLMODE
 70
     1
  9
$QTEXTMODE
 70
     0
  9
$MIRRTEXT
 70
     1
  9
$DRAGMODE
 70
     2
  9
$LTSCALE
 40
32.67
  9
$OSMODE
 70
 15359
  9
$ATTMODE
 70
     1
  9
$TEXTSIZE
 40
0.2
  9
$TRACEWID
 40
0.05
  9
$TEXTSTYLE
  7
STANDARD
  9
$CLAYER
  8
0
  9
$CELTYPE
  6
BYLAYER
  9
$CECOLOR
 62
   256
  9
$DIMSCALE
 40
1.0
  9
$DIMASZ
 40
10.0
  9
$DIMEXO
 40
0.0625
  9
$DIMDLI
 40
22.572
  9
$DIMRND
 40
0.0
  9
$DIMDLE
 40
0.0
  9
$DIMEXE
 40
1.0
  9
$DIMTP
 40
0.0
  9
$DIMTM
 40
0.0
  9
$DIMTXT
 40
3.5
  9
$DIMCEN
 40
5.346
  9
$DIMTSZ
 40
0.0
  9
$DIMTOL
 70
     0
  9
$DIMLIM
 70
     0
  9
$DIMTIH
 70
     1
  9
$DIMTOH
 70
     1
  9
$DIMSE1
 70
     0
  9
$DIMSE2
 70
     0
  9
$DIMTAD
 70
     0
  9
$DIMZIN
 70
     0
  9
$DIMBLK
  1
FILLED
  9
$DIMASO
 70
     1
  9
$DIMSHO
 70
     1
  9
$DIMPOST
  1

  9
$DIMAPOST
  1

  9
$DIMALT
 70
     0
  9
$DIMALTD
 70
     2
  9
$DIMALTF
 40
0.0393700787
  9
$DIMLFAC
 40
1.0
  9
$DIMTOFL
 70
     0
  9
$DIMTVP
 40
0.0
  9
$DIMTIX
 70
     0
  9
$DIMSOXD
 70
     0
  9
$DIMSAH
 70
     0
  9
$DIMBLK1
  1

  9
$DIMBLK2
  1

  9
$DIMSTYLE
  2
STANDARD
  9
$DIMCLRD
 70
     0
  9
$DIMCLRE
 70
     0
  9
$DIMCLRT
 70
     0
  9
$DIMTFAC
 40
1.0
  9
$DIMGAP
 40
0.09
  9
$LUNITS
 70
     2
  9
$LUPREC
 70
     4
  9
$SKETCHINC
 40
0.1
  9
$FILLETRAD
 40
0.5
  9
$AUNITS
 70
     0
  9
$AUPREC
 70
     0
  9
$MENU
  1
.
  9
$ELEVATION
 40
0.0
  9
$PELEVATION
 40
0.0
  9
$THICKNESS
 40
0.0
  9
$LIMCHECK
 70
     0
  9
$CHAMFERA
 40
0.0
  9
$CHAMFERB
 40
0.0
  9
$SKPOLY
 70
     0
  9
$TDCREATE
 40
2457948.423807963
  9
$TDUPDATE
 40
2457948.424863276
  9
$TDINDWG
 40
0.0010534722
  9
$TDUSRTIMER
 40
2457948.340476632
  9
$USRTIMER
 70
     1
  9
$ANGBASE
 50
0.0
  9
$ANGDIR
 70
     0
  9
$PDMODE
 70
     3
  9
$PDSIZE
 40
0.3125
  9
$PLINEWID
 40
0.0
  9
$COORDS
 70
     1
  9
$SPLFRAME
 70
     0
  9
$SPLINETYPE
 70
     6
  9
$SPLINESEGS
 70
     8
  9
$ATTDIA
 70
     0
  9
$ATTREQ
 70
     1
  9
$HANDLING
 70
     1
  9
$HANDSEED
  5
1ED
  9
$SURFTAB1
 70
     6
  9
$SURFTAB2
 70
     6
  9
$SURFTYPE
 70
     6
  9
$SURFU
 70
     6
  9
$SURFV
 70
     6
  9
$UCSNAME
  2

  9
$UCSORG
 10
0.0
 20
0.0
 30
0.0
  9
$UCSXDIR
 10
1.0
 20
0.0
 30
0.0
  9
$UCSYDIR
 10
0.0
 20
1.0
 30
0.0
  9
$PUCSNAME
  2

  9
$PUCSORG
 10
0.0
 20
0.0
 30
0.0
  9
$PUCSXDIR
 10
1.0
 20
0.0
 30
0.0
  9
$PUCSYDIR
 10
0.0
 20
1.0
 30
0.0
  9
$USERI1
 70
     0
  9
$USERI2
 70
     0
  9
$USERI3
 70
     0
  9
$USERI4
 70
     0
  9
$USERI5
 70
     0
  9
$USERR1
 40
0.0
  9
$USERR2
 40
0.0
  9
$USERR3
 40
0.0
  9
$USERR4
 40
0.0
  9
$USERR5
 40
0.0
  9
$WORLDVIEW
 70
     1
  9
$SHADEDGE
 70
     3
  9
$SHADEDIF
 70
    70
  9
$TILEMODE
 70
     1
  9
$MAXACTVP
 70
    64
  9
$PLIMCHECK
 70
     0
  9
$PEXTMIN
 10
1.000000000000000E+20
 20
1.000000000000000E+20
 30
1.000000000000000E+20
  9
$PEXTMAX
 10
-1.000000000000000E+20
 20
-1.000000000000000E+20
 30
-1.000000000000000E+20
  9
$PLIMMIN
 10
0.0
 20
0.0
  9
$PLIMMAX
 10
0.0
 20
0.0
  9
$UNITMODE
 70
     0
  9
$VISRETAIN
 70
     1
  9
$PLINEGEN
 70
     0
  9
$PSLTSCALE
 70
     1
  0
ENDSEC
  0
SECTION
  2
TABLES
  0
TABLE
  2
VPORT
 70
     1
  0
VPORT
  2
*ACTIVE
 70
     0
 10
0.0
 20
0.0
 11
1.0
 21
1.0
 12
776.7900429702747
 22
-150.6813062807316
 13
0.0
 23
0.0
 14
0.5
 24
0.5
 15
0.5
 25
0.5
 16
0.0
 26
0.0
 36
1.0
 17
0.0
 27
0.0
 37
0.0
 40
2405.001516280182
 41
1.806763285024155
 42
50.0
 43
0.0
 44
0.0
 50
0.0
 51
0.0
 71
    16
 72
   100
 73
     1
 74
     3
 75
     0
 76
     0
 77
     0
 78
     0
  0
ENDTAB
  0
TABLE
  2
LTYPE
 70
     6
  0
LTYPE
  2
CONTINUOUS
 70
     0
  3
Solid line
 72
    65
 73
     0
 40
0.0
  0
LTYPE
  2
CENTER
 70
     0
  3
____ _ ____ _ ____ _ ____ _ ____ _ ____ _ ____
 72
    65
 73
     4
 40
0.6
 49
0.375
 49
-0.075
 49
0.075
 49
-0.075
  0
LTYPE
  2
HIDDEN
 70
     0
  3
- - - - - - - - - - - - - - - - - - - -
 72
    65
 73
     2
 40
0.2
 49
0.1
 49
-0.1
  0
LTYPE
  2
PHANTOM
 70
     0
  3
_____ _ _ _____ _ _ _____ _ _ _____
 72
    65
 73
     6
 40
0.8
 49
0.45
 49
-0.05
 49
0.1
 49
-0.05
 49
0.1
 49
-0.05
  0
LTYPE
  2
DOT
 70
     0
  3
. . . . . . . . . . . . . . . . . . . .
 72
    65
 73
     2
 40
0.2
 49
0.1
 49
-0.1
  0
LTYPE
  2
DASHED
 70
     0
  3
- - - - - - - - - - - - - - - - - - - -
 72
    65
 73
     2
 40
0.2
 49
0.1
 49
-0.1
  0
ENDTAB
  0
TABLE
  2
LAYER
 70
    82
  0
LAYER
  2
0
 70
     0
 62
     7
  6
CONTINUOUS
  0
LAYER
  2
DEFAULT_1
 70
     0
 62
     7
  6
CENTER
  0
LAYER
  2
DEFAULT_2
 70
     0
 62
     8
  6
HIDDEN
  0
LAYER
  2
DEFAULT_3
 70
     0
 62
     7
  6
PHANTOM
  0
LAYER
  2
01_ALL_DTM_PLN
 70
     0
 62
     7
  6
CONTINUOUS
  0
LAYER
  2
01__ASM_ALL_DTM_PLN
 70
     0
 62
     7
  6
CONTINUOUS
  0
LAYER
  2
01__ASM_DEF_DTM_PLN
 70
     0
 62
     7
  6
CONTINUOUS
  0
LAYER
  2
01___PRT_ALL_DTM_PLN
 70
     0
 62
     7
  6
CONTINUOUS
  0
LAYER
  2
01___PRT_DEF_DTM_PLN
 70
     0
 62
     7
  6
CONTINUOUS
  0
LAYER
  2
02_ALL_AXES
 70
     0
 62
     7
  6
CONTINUOUS
  0
LAYER
  2
02__ASM_ALL_AXES
 70
     0
 62
     7
  6
CONTINUOUS
  0
LAYER
  2
02___PRT_ALL_AXES
 70
     0
 62
     7
  6
CONTINUOUS
  0
LAYER
  2
03_ALL_CURVES
 70
     0
 62
     7
  6
CONTINUOUS
  0
LAYER
  2
03__ASM_ALL_CURVES
 70
     0
 62
     7
  6
CONTINUOUS
  0
LAYER
  2
03___PRT_ALL_CURVES
 70
     0
 62
     7
  6
CONTINUOUS
  0
LAYER
  2
04_ALL_DTM_PNT
 70
     0
 62
     7
  6
CONTINUOUS
  0
LAYER
  2
04__ASM_ALL_DTM_PNT
 70
     0
 62
     7
  6
CONTINUOUS
  0
LAYER
  2
04___PRT_ALL_DTM_PNT
 70
     0
 62
     7
  6
CONTINUOUS
  0
LAYER
  2
05_ALL_DTM_CSYS
 70
     0
 62
     7
  6
CONTINUOUS
  0
LAYER
  2
05__ASM_ALL_DTM_CSYS
 70
     0
 62
     7
  6
CONTINUOUS
  0
LAYER
  2
05__ASM_DEF_DTM_CSYS
 70
     0
 62
     7
  6
CONTINUOUS
  0
LAYER
  2
05___PRT_ALL_DTM_CSYS
 70
     0
 62
     7
  6
CONTINUOUS
  0
LAYER
  2
05___PRT_DEF_DTM_CSYS
 70
     0
 62
     7
  6
CONTINUOUS
  0
LAYER
  2
06_ALL_SURFS
 70
     0
 62
     7
  6
CONTINUOUS
  0
LAYER
  2
06__ASM_ALL_SURFS
 70
     0
 62
     7
  6
CONTINUOUS
  0
LAYER
  2
06___PRT_ALL_SURFS
 70
     0
 62
     7
  6
CONTINUOUS
  0
LAYER
  2
07__ASM_ALL_SKELETONS
 70
     0
 62
     7
  6
CONTINUOUS
  0
LAYER
  2
1
 70
     0
 62
     7
  6
CONTINUOUS
  0
LAYER
  2
10
 70
     0
 62
     7
  6
CONTINUOUS
  0
LAYER
  2
11
 70
     0
 62
     7
  6
CONTINUOUS
  0
LAYER
  2
12
 70
     0
 62
     7
  6
CONTINUOUS
  0
LAYER
  2
13
 70
     0
 62
     7
  6
CONTINUOUS
  0
LAYER
  2
14
 70
     0
 62
     7
  6
CONTINUOUS
  0
LAYER
  2
15
 70
     0
 62
     7
  6
CONTINUOUS
  0
LAYER
  2
16
 70
     0
 62
     7
  6
CONTINUOUS
  0
LAYER
  2
17
 70
     0
 62
     7
  6
CONTINUOUS
  0
LAYER
  2
18
 70
     0
 62
     7
  6
CONTINUOUS
  0
LAYER
  2
19
 70
     0
 62
     7
  6
CONTINUOUS
  0
LAYER
  2
2
 70
     0
 62
     7
  6
CONTINUOUS
  0
LAYER
  2
20
 70
     0
 62
     7
  6
CONTINUOUS
  0
LAYER
  2
21
 70
     0
 62
     7
  6
CONTINUOUS
  0
LAYER
  2
22
 70
     0
 62
     7
  6
CONTINUOUS
  0
LAYER
  2
23
 70
     0
 62
     7
  6
CONTINUOUS
  0
LAYER
  2
24
 70
     0
 62
     7
  6
CONTINUOUS
  0
LAYER
  2
25
 70
     0
 62
     7
  6
CONTINUOUS
  0
LAYER
  2
26
 70
     0
 62
     7
  6
CONTINUOUS
  0
LAYER
  2
27
 70
     0
 62
     7
  6
CONTINUOUS
  0
LAYER
  2
28
 70
     0
 62
     7
  6
CONTINUOUS
  0
LAYER
  2
29
 70
     0
 62
     7
  6
CONTINUOUS
  0
LAYER
  2
3
 70
     0
 62
     7
  6
CONTINUOUS
  0
LAYER
  2
30
 70
     0
 62
     7
  6
CONTINUOUS
  0
LAYER
  2
31
 70
     0
 62
     7
  6
CONTINUOUS
  0
LAYER
  2
32
 70
     0
 62
     7
  6
CONTINUOUS
  0
LAYER
  2
4
 70
     0
 62
     7
  6
CONTINUOUS
  0
LAYER
  2
5
 70
     0
 62
     7
  6
CONTINUOUS
  0
LAYER
  2
6
 70
     0
 62
     7
  6
CONTINUOUS
  0
LAYER
  2
7
 70
     0
 62
     7
  6
CONTINUOUS
  0
LAYER
  2
8
 70
     0
 62
     7
  6
CONTINUOUS
  0
LAYER
  2
9
 70
     0
 62
     7
  6
CONTINUOUS
  0
LAYER
  2
CLOSED_SHELL
 70
     0
 62
     7
  6
CONTINUOUS
  0
LAYER
  2
DATUM
 70
     0
 62
     7
  6
CONTINUOUS
  0
LAYER
  2
DATUMS
 70
     0
 62
     7
  6
CONTINUOUS
  0
LAYER
  2
HIDE-FOR-DRAWING
 70
     0
 62
     7
  6
CONTINUOUS
  0
LAYER
  2
INSULATION
 70
     0
 62
     7
  6
CONTINUOUS
  0
LAYER
  2
LAYER_AXIS
 70
     0
 62
     7
  6
CONTINUOUS
  0
LAYER
  2
LAYER_CURVE
 70
     0
 62
     7
  6
CONTINUOUS
  0
LAYER
  2
LAYER_CURVE_ENT
 70
     0
 62
     7
  6
CONTINUOUS
  0
LAYER
  2
LAYER_DATUM
 70
     0
 62
     7
  6
CONTINUOUS
  0
LAYER
  2
LAYER_DEF_DATUM
 70
     0
 62
     7
  6
CONTINUOUS
  0
LAYER
  2
LAYER_DIM
 70
     0
 62
     7
  6
CONTINUOUS
  0
LAYER
  2
LAYER_FEATURE
 70
     0
 62
     7
  6
CONTINUOUS
  0
LAYER
  2
LAYER_GEOM_FEAT
 70
     0
 62
     7
  6
CONTINUOUS
  0
LAYER
  2
LAYER_NOGEOM_FEAT
 70
     0
 62
     7
  6
CONTINUOUS
  0
LAYER
  2
LAYER_PARAMETER_DIM
 70
     0
 62
     7
  6
CONTINUOUS
  0
LAYER
  2
LAYER_PROTRUSION_FEAT
 70
     0
 62
     7
  6
CONTINUOUS
  0
LAYER
  2
LAYER_ROUND_FEAT
 70
     0
 62
     7
  6
CONTINUOUS
  0
LAYER
  2
LAYER_THREAD_CURVE
 70
     0
 62
     7
  6
CONTINUOUS
  0
LAYER
  2
MOUNTING_ACCESSORIES
 70
     0
 62
     7
  6
CONTINUOUS
  0
LAYER
  2
NEW-1PC-HOUSING
 70
     0
 62
     7
  6
CONTINUOUS
  0
LAYER
  2
NONE
 70
     0
 62
     7
  6
CONTINUOUS
  0
LAYER
  2
XSEC_DATUMS
 70
     0
 62
     7
  6
CONTINUOUS
  0
LAYER
  2
DEFPOINTS
 70
     0
 62
     7
  6
CONTINUOUS
  0
ENDTAB
  0
TABLE
  2
STYLE
 70
     2
  0
STYLE
  2
STANDARD
 70
     0
 40
0.0
 41
1.0
 50
0.0
 71
     0
 42
0.2
  3
arial.ttf
  4

  0
STYLE
  2
TEXTSTYLE_1
 70
     0
 40
0.0
 41
0.8
 50
0.0
 71
     0
 42
0.2
  3
gdt
  4

  0
ENDTAB
  0
TABLE
  2
VIEW
 70
     0
  0
ENDTAB
  0
TABLE
  2
UCS
 70
     0
  0
ENDTAB
  0
TABLE
  2
APPID
 70
     1
  0
APPID
  2
ACAD
 70
     0
  0
ENDTAB
  0
TABLE
  2
DIMSTYLE
 70
     1
  0
DIMSTYLE
  2
STANDARD
 70
     0
  3

  4

  5

  6

  7

 40
1.0
 41
0.18
 42
0.0625
 43
0.38
 44
0.18
 45
0.0
 46
0.0
 47
0.0
 48
0.0
140
0.18
141
0.09
142
0.0
143
25.4
144
1.0
145
0.0
146
1.0
147
0.09
 71
     0
 72
     0
 73
     1
 74
     1
 75
     0
 76
     0
 77
     0
 78
     0
170
     0
171
     2
172
     0
173
     0
174
     0
175
     0
176
     0
177
     0
178
     0
  0
ENDTAB
  0
ENDSEC
  0
SECTION
  2
BLOCKS
  0
BLOCK
  8
0
  2
$MODEL_SPACE
 70
     0
 10
0.0
 20
0.0
 30
0.0
  3
$MODEL_SPACE
  1

  0
ENDBLK
  5
1C8
  8
0
  0
BLOCK
 67
     1
  8
0
  2
$PAPER_SPACE
 70
     0
 10
0.0
 20
0.0
 30
0.0
  3
$PAPER_SPACE
  1

  0
ENDBLK
  5
1CA
 67
     1
  8
0
  0
BLOCK
  8
0
  2
_FILLED
 70
     0
 10
0.0
 20
0.0
 30
0.0
  3
_FILLED
  1

  0
SOLID
  5
83
  8
0
  6
BYBLOCK
 62
     0
 10
0.0
 20
0.0
 30
0.0
 11
-1.0
 21
0.1
 31
0.0
 12
-1.0
 22
-0.1
 32
0.0
 13
-1.0
 23
-0.1
 33
0.0
  0
ENDBLK
  5
84
  8
0
  6
BYBLOCK
 62
     0
  0
BLOCK
  8
0
  2
*D1
 70
     1
 10
0.0
 20
0.0
 30
0.0
  3
*D1
  1

  0
TEXT
  5
87
  8
0
  6
CONTINUOUS
 62
     5
 10
-497.7388922706
 20
787.8189751299
 30
0.0
 40
15.0
  1
244
 72
     1
 11
-480.2788922706
 21
787.8189751299
 31
0.0
  0
TEXT
  5
88
  8
0
  6
CONTINUOUS
 62
     5
 10
-497.7706766572
 20
765.3189751299
 30
0.0
 40
15.0
  1
[
 72
     1
 11
-494.8606766572
 21
765.3189751299
 31
0.0
  0
TEXT
  5
89
  8
0
  6
CONTINUOUS
 62
     5
 10
-491.9571450587
 20
765.3189751299
 30
0.0
 40
15.0
  1
9.6
 72
     1
 11
-477.4071450587
 21
765.3189751299
 31
0.0
  0
TEXT
  5
8A
  8
0
  6
CONTINUOUS
 62
     5
 10
-462.8636134602
 20
765.3189751299
 30
0.0
 40
15.0
  1
]
 72
     1
 11
-459.9536134602
 21
765.3189751299
 31
0.0
  0
LINE
  5
8B
  8
0
  6
CONTINUOUS
 62
     2
 10
-599.4071450587
 20
702.6201208441
 30
0.0
 11
-599.4071450587
 21
785.0689751299
 31
0.0
  0
LINE
  5
8C
  8
0
  6
CONTINUOUS
 62
     2
 10
-355.4071450587
 20
735.6201208441
 30
0.0
 11
-355.4071450587
 21
785.0689751299
 31
0.0
  0
LINE
  5
8D
  8
0
  6
CONTINUOUS
 62
     2
 10
-599.4071450587
 20
784.0689751299
 30
0.0
 11
-477.4071450587
 21
784.0689751299
 31
0.0
  0
LINE
  5
8E
  8
0
  6
CONTINUOUS
 62
     2
 10
-355.4071450587
 20
784.0689751299
 30
0.0
 11
-477.4071450587
 21
784.0689751299
 31
0.0
  0
INSERT
  5
8F
  8
0
  6
CONTINUOUS
 62
     2
  2
_FILLED
 10
-599.4071450587
 20
784.0689751299
 30
0.0
 41
10.0
 42
10.0
 43
10.0
 50
180.0
  0
INSERT
  5
90
  8
0
  6
CONTINUOUS
 62
     2
  2
_FILLED
 10
-355.4071450587
 20
784.0689751299
 30
0.0
 41
10.0
 42
10.0
 43
10.0
  0
ENDBLK
  5
91
  8
0
  6
BYBLOCK
 62
     0
  0
BLOCK
  8
0
  2
*D2
 70
     1
 10
0.0
 20
0.0
 30
0.0
  3
*D2
  1

  0
TEXT
  5
94
  8
0
  6
CONTINUOUS
 62
     5
 10
-381.5660298171
 20
832.4316836853
 30
0.0
 40
15.0
  1
488
 72
     1
 11
-364.1060298171
 21
832.4316836853
 31
0.0
  0
TEXT
  5
95
  8
0
  6
CONTINUOUS
 62
     5
 10
-381.5978142037
 20
809.9316836853
 30
0.0
 40
15.0
  1
[
 72
     1
 11
-378.6878142037
 21
809.9316836853
 31
0.0
  0
TEXT
  5
96
  8
0
  6
CONTINUOUS
 62
     5
 10
-375.7771450587
 20
809.9316836853
 30
0.0
 40
15.0
  1
19.2
 72
     1
 11
-355.4071450587
 21
809.9316836853
 31
0.0
  0
TEXT
  5
97
  8
0
  6
CONTINUOUS
 62
     5
 10
-335.0364759138
 20
809.9316836853
 30
0.0
 40
15.0
  1
]
 72
     1
 11
-332.1264759138
 21
809.9316836853
 31
0.0
  0
LINE
  5
98
  8
0
  6
CONTINUOUS
 62
     2
 10
-599.4071450587
 20
702.6201208441
 30
0.0
 11
-599.4071450587
 21
829.6816836853
 31
0.0
  0
LINE
  5
99
  8
0
  6
CONTINUOUS
 62
     2
 10
-111.4071450587
 20
702.6201208441
 30
0.0
 11
-111.4071450587
 21
829.6816836853
 31
0.0
  0
LINE
  5
9A
  8
0
  6
CONTINUOUS
 62
     2
 10
-599.4071450587
 20
828.6816836853
 30
0.0
 11
-355.4071450587
 21
828.6816836853
 31
0.0
  0
LINE
  5
9B
  8
0
  6
CONTINUOUS
 62
     2
 10
-111.4071450587
 20
828.6816836853
 30
0.0
 11
-355.4071450587
 21
828.6816836853
 31
0.0
  0
INSERT
  5
9C
  8
0
  6
CONTINUOUS
 62
     2
  2
_FILLED
 10
-599.4071450587
 20
828.6816836853
 30
0.0
 41
10.0
 42
10.0
 43
10.0
 50
180.0
  0
INSERT
  5
9D
  8
0
  6
CONTINUOUS
 62
     2
  2
_FILLED
 10
-111.4071450587
 20
828.6816836853
 30
0.0
 41
10.0
 42
10.0
 43
10.0
  0
ENDBLK
  5
9E
  8
0
  6
BYBLOCK
 62
     0
  0
BLOCK
  8
0
  2
*D3
 70
     1
 10
0.0
 20
0.0
 30
0.0
  3
*D3
  1

  0
TEXT
  5
A1
  8
0
  6
CONTINUOUS
 62
     5
 10
-656.9796046099
 20
755.6205690513
 30
0.0
 40
15.0
  1
33
 50
90.0
  0
TEXT
  5
A2
  8
0
  6
CONTINUOUS
 62
     5
 10
-634.4796046099
 20
755.6205690513
 30
0.0
 40
15.0
  1
[
 50
90.0
  0
TEXT
  5
A3
  8
0
  6
CONTINUOUS
 62
     5
 10
-634.4796046099
 20
761.4198255569
 30
0.0
 40
15.0
  1
1.3
 50
90.0
  0
TEXT
  5
A4
  8
0
  6
CONTINUOUS
 62
     5
 10
-634.4796046099
 20
790.5276322483
 30
0.0
 40
15.0
  1
]
 50
90.0
  0
LINE
  5
A5
  8
0
  6
CONTINUOUS
 62
     2
 10
-599.4696450587
 20
702.5576208441
 30
0.0
 11
-654.2296046099
 21
702.5576208441
 31
0.0
  0
LINE
  5
A6
  8
0
  6
CONTINUOUS
 62
     2
 10
-355.4696450587
 20
735.5576208441
 30
0.0
 11
-654.2296046099
 21
735.5576208441
 31
0.0
  0
LINE
  5
A7
  8
0
  6
CONTINUOUS
 62
     2
 10
-653.2296046099
 20
702.5576208441
 30
0.0
 11
-653.2296046099
 21
719.0576208441
 31
0.0
  0
LINE
  5
A8
  8
0
  6
CONTINUOUS
 62
     2
 10
-653.2296046099
 20
735.5576208441
 30
0.0
 11
-653.2296046099
 21
719.0576208441
 31
0.0
  0
LINE
  5
A9
  8
0
  6
CONTINUOUS
 62
     2
 10
-653.2296046099
 20
719.0576208441
 30
0.0
 11
-653.2296046099
 21
796.3268887539
 31
0.0
  0
INSERT
  5
AA
  8
0
  6
CONTINUOUS
 62
     2
  2
_FILLED
 10
-653.2296046099
 20
702.5576208441
 30
0.0
 41
10.0
 42
10.0
 43
10.0
 50
270.0
  0
INSERT
  5
AB
  8
0
  6
CONTINUOUS
 62
     2
  2
_FILLED
 10
-653.2296046099
 20
735.5576208441
 30
0.0
 41
10.0
 42
10.0
 43
10.0
 50
90.0
  0
ENDBLK
  5
AC
  8
0
  6
BYBLOCK
 62
     0
  0
BLOCK
  8
0
  2
*D4
 70
     1
 10
0.0
 20
0.0
 30
0.0
  3
*D4
  1

  0
TEXT
  5
AF
  8
0
  6
CONTINUOUS
 62
     5
 10
-656.9796046099
 20
572.2258736322
 30
0.0
 40
15.0
  1
220
 50
90.0
 72
     1
 11
-656.9796046099
 21
589.6858736322
 31
0.0
  0
TEXT
  5
B0
  8
0
  6
CONTINUOUS
 62
     5
 10
-634.4796046099
 20
572.1940892456
 30
0.0
 40
15.0
  1
[
 50
90.0
 72
     1
 11
-634.4796046099
 21
575.1040892456
 31
0.0
  0
TEXT
  5
B1
  8
0
  6
CONTINUOUS
 62
     5
 10
-634.4796046099
 20
578.0076208441001
 30
0.0
 40
15.0
  1
8.7
 50
90.0
 72
     1
 11
-634.4796046099
 21
592.5576208441
 31
0.0
  0
TEXT
  5
B2
  8
0
  6
CONTINUOUS
 62
     5
 10
-634.4796046099
 20
607.1011524426
 30
0.0
 40
15.0
  1
]
 50
90.0
 72
     1
 11
-634.4796046099
 21
610.0111524426
 31
0.0
  0
LINE
  5
B3
  8
0
  6
CONTINUOUS
 62
     2
 10
-599.4696450587
 20
702.5576208441
 30
0.0
 11
-654.2296046099
 21
702.5576208441
 31
0.0
  0
LINE
  5
B4
  8
0
  6
CONTINUOUS
 62
     2
 10
-599.4696450587
 20
482.5576208441
 30
0.0
 11
-654.2296046099
 21
482.5576208441
 31
0.0
  0
LINE
  5
B5
  8
0
  6
CONTINUOUS
 62
     2
 10
-653.2296046099
 20
702.5576208441
 30
0.0
 11
-653.2296046099
 21
592.5576208441
 31
0.0
  0
LINE
  5
B6
  8
0
  6
CONTINUOUS
 62
     2
 10
-653.2296046099
 20
482.5576208441
 30
0.0
 11
-653.2296046099
 21
592.5576208441
 31
0.0
  0
INSERT
  5
B7
  8
0
  6
CONTINUOUS
 62
     2
  2
_FILLED
 10
-653.2296046099
 20
702.5576208441
 30
0.0
 41
10.0
 42
10.0
 43
10.0
 50
90.0
  0
INSERT
  5
B8
  8
0
  6
CONTINUOUS
 62
     2
  2
_FILLED
 10
-653.2296046099
 20
482.5576208441
 30
0.0
 41
10.0
 42
10.0
 43
10.0
 50
270.0
  0
ENDBLK
  5
B9
  8
0
  6
BYBLOCK
 62
     0
  0
BLOCK
  8
0
  2
*D5
 70
     1
 10
0.0
 20
0.0
 30
0.0
  3
*D5
  1

  0
TEXT
  5
BC
  8
0
  6
CONTINUOUS
 62
     5
 10
-656.9796046099
 20
352.2258736322
 30
0.0
 40
15.0
  1
220
 50
90.0
 72
     1
 11
-656.9796046099
 21
369.6858736322
 31
0.0
  0
TEXT
  5
BD
  8
0
  6
CONTINUOUS
 62
     5
 10
-634.4796046099
 20
352.1940892456
 30
0.0
 40
15.0
  1
[
 50
90.0
 72
     1
 11
-634.4796046099
 21
355.1040892456
 31
0.0
  0
TEXT
  5
BE
  8
0
  6
CONTINUOUS
 62
     5
 10
-634.4796046099
 20
358.0076208441
 30
0.0
 40
15.0
  1
8.7
 50
90.0
 72
     1
 11
-634.4796046099
 21
372.5576208441
 31
0.0
  0
TEXT
  5
BF
  8
0
  6
CONTINUOUS
 62
     5
 10
-634.4796046099
 20
387.1011524426
 30
0.0
 40
15.0
  1
]
 50
90.0
 72
     1
 11
-634.4796046099
 21
390.0111524426
 31
0.0
  0
LINE
  5
C0
  8
0
  6
CONTINUOUS
 62
     2
 10
-599.4696450587
 20
482.5576208441
 30
0.0
 11
-654.2296046099
 21
482.5576208441
 31
0.0
  0
LINE
  5
C1
  8
0
  6
CONTINUOUS
 62
     2
 10
-599.4696450587
 20
262.5576208441
 30
0.0
 11
-654.2296046099
 21
262.5576208441
 31
0.0
  0
LINE
  5
C2
  8
0
  6
CONTINUOUS
 62
     2
 10
-653.2296046099
 20
482.5576208441
 30
0.0
 11
-653.2296046099
 21
372.5576208441
 31
0.0
  0
LINE
  5
C3
  8
0
  6
CONTINUOUS
 62
     2
 10
-653.2296046099
 20
262.5576208441
 30
0.0
 11
-653.2296046099
 21
372.5576208441
 31
0.0
  0
INSERT
  5
C4
  8
0
  6
CONTINUOUS
 62
     2
  2
_FILLED
 10
-653.2296046099
 20
482.5576208441
 30
0.0
 41
10.0
 42
10.0
 43
10.0
 50
90.0
  0
INSERT
  5
C5
  8
0
  6
CONTINUOUS
 62
     2
  2
_FILLED
 10
-653.2296046099
 20
262.5576208441
 30
0.0
 41
10.0
 42
10.0
 43
10.0
 50
270.0
  0
ENDBLK
  5
C6
  8
0
  6
BYBLOCK
 62
     0
  0
BLOCK
  8
0
  2
*D6
 70
     1
 10
0.0
 20
0.0
 30
0.0
  3
*D6
  1

  0
TEXT
  5
C9
  8
0
  6
CONTINUOUS
 62
     5
 10
-656.9796046099
 20
132.2258736322
 30
0.0
 40
15.0
  1
220
 50
90.0
 72
     1
 11
-656.9796046099
 21
149.6858736322
 31
0.0
  0
TEXT
  5
CA
  8
0
  6
CONTINUOUS
 62
     5
 10
-634.4796046099
 20
132.1940892456
 30
0.0
 40
15.0
  1
[
 50
90.0
 72
     1
 11
-634.4796046099
 21
135.1040892456
 31
0.0
  0
TEXT
  5
CB
  8
0
  6
CONTINUOUS
 62
     5
 10
-634.4796046099
 20
138.0076208441
 30
0.0
 40
15.0
  1
8.7
 50
90.0
 72
     1
 11
-634.4796046099
 21
152.5576208441
 31
0.0
  0
TEXT
  5
CC
  8
0
  6
CONTINUOUS
 62
     5
 10
-634.4796046099
 20
167.1011524426
 30
0.0
 40
15.0
  1
]
 50
90.0
 72
     1
 11
-634.4796046099
 21
170.0111524426
 31
0.0
  0
LINE
  5
CD
  8
0
  6
CONTINUOUS
 62
     2
 10
-599.4696450587
 20
262.5576208441
 30
0.0
 11
-654.2296046099
 21
262.5576208441
 31
0.0
  0
LINE
  5
CE
  8
0
  6
CONTINUOUS
 62
     2
 10
-599.4696450587
 20
42.5576208441
 30
0.0
 11
-654.2296046099
 21
42.5576208441
 31
0.0
  0
LINE
  5
CF
  8
0
  6
CONTINUOUS
 62
     2
 10
-653.2296046099
 20
262.5576208441
 30
0.0
 11
-653.2296046099
 21
152.5576208441
 31
0.0
  0
LINE
  5
D0
  8
0
  6
CONTINUOUS
 62
     2
 10
-653.2296046099
 20
42.5576208441
 30
0.0
 11
-653.2296046099
 21
152.5576208441
 31
0.0
  0
INSERT
  5
D1
  8
0
  6
CONTINUOUS
 62
     2
  2
_FILLED
 10
-653.2296046099
 20
262.5576208441
 30
0.0
 41
10.0
 42
10.0
 43
10.0
 50
90.0
  0
INSERT
  5
D2
  8
0
  6
CONTINUOUS
 62
     2
  2
_FILLED
 10
-653.2296046099
 20
42.5576208441
 30
0.0
 41
10.0
 42
10.0
 43
10.0
 50
270.0
  0
ENDBLK
  5
D3
  8
0
  6
BYBLOCK
 62
     0
  0
BLOCK
  8
0
  2
*D7
 70
     1
 10
0.0
 20
0.0
 30
0.0
  3
*D7
  1

  0
TEXT
  5
D6
  8
0
  6
CONTINUOUS
 62
     5
 10
-656.9796046099
 20
-87.7741263678
 30
0.0
 40
15.0
  1
220
 50
90.0
 72
     1
 11
-656.9796046099
 21
-70.3141263678
 31
0.0
  0
TEXT
  5
D7
  8
0
  6
CONTINUOUS
 62
     5
 10
-634.4796046099
 20
-87.8059107544
 30
0.0
 40
15.0
  1
[
 50
90.0
 72
     1
 11
-634.4796046099
 21
-84.8959107544
 31
0.0
  0
TEXT
  5
D8
  8
0
  6
CONTINUOUS
 62
     5
 10
-634.4796046099
 20
-81.9923791559
 30
0.0
 40
15.0
  1
8.7
 50
90.0
 72
     1
 11
-634.4796046099
 21
-67.4423791559
 31
0.0
  0
TEXT
  5
D9
  8
0
  6
CONTINUOUS
 62
     5
 10
-634.4796046099
 20
-52.8988475574
 30
0.0
 40
15.0
  1
]
 50
90.0
 72
     1
 11
-634.4796046099
 21
-49.9888475574
 31
0.0
  0
LINE
  5
DA
  8
0
  6
CONTINUOUS
 62
     2
 10
-599.4696450587
 20
42.5576208441
 30
0.0
 11
-654.2296046099
 21
42.5576208441
 31
0.0
  0
LINE
  5
DB
  8
0
  6
CONTINUOUS
 62
     2
 10
-599.4696450587
 20
-177.4423791559
 30
0.0
 11
-654.2296046099
 21
-177.4423791559
 31
0.0
  0
LINE
  5
DC
  8
0
  6
CONTINUOUS
 62
     2
 10
-653.2296046099
 20
42.5576208441
 30
0.0
 11
-653.2296046099
 21
-67.4423791559
 31
0.0
  0
LINE
  5
DD
  8
0
  6
CONTINUOUS
 62
     2
 10
-653.2296046099
 20
-177.4423791559
 30
0.0
 11
-653.2296046099
 21
-67.4423791559
 31
0.0
  0
INSERT
  5
DE
  8
0
  6
CONTINUOUS
 62
     2
  2
_FILLED
 10
-653.2296046099
 20
42.5576208441
 30
0.0
 41
10.0
 42
10.0
 43
10.0
 50
90.0
  0
INSERT
  5
DF
  8
0
  6
CONTINUOUS
 62
     2
  2
_FILLED
 10
-653.2296046099
 20
-177.4423791559
 30
0.0
 41
10.0
 42
10.0
 43
10.0
 50
270.0
  0
ENDBLK
  5
E0
  8
0
  6
BYBLOCK
 62
     0
  0
BLOCK
  8
0
  2
*D8
 70
     1
 10
0.0
 20
0.0
 30
0.0
  3
*D8
  1

  0
TEXT
  5
E3
  8
0
  6
CONTINUOUS
 62
     5
 10
-699.3739626883
 20
236.3987360858
 30
0.0
 40
15.0
  1
946
 50
90.0
 72
     1
 11
-699.3739626883
 21
253.8587360858
 31
0.0
  0
TEXT
  5
E4
  8
0
  6
CONTINUOUS
 62
     5
 10
-676.8739626883
 20
236.3669516991
 30
0.0
 40
15.0
  1
[
 50
90.0
 72
     1
 11
-676.8739626883
 21
239.2769516991
 31
0.0
  0
TEXT
  5
E5
  8
0
  6
CONTINUOUS
 62
     5
 10
-676.8739626883
 20
242.1876208441
 30
0.0
 40
15.0
  1
37.2
 50
90.0
 72
     1
 11
-676.8739626883
 21
262.5576208441
 31
0.0
  0
TEXT
  5
E6
  8
0
  6
CONTINUOUS
 62
     5
 10
-676.8739626883
 20
282.9282899891
 30
0.0
 40
15.0
  1
]
 50
90.0
 72
     1
 11
-676.8739626883
 21
285.8382899891
 31
0.0
  0
LINE
  5
E7
  8
0
  6
CONTINUOUS
 62
     2
 10
-355.4696450587
 20
-210.4423791559
 30
0.0
 11
-696.6239626883
 21
-210.4423791559
 31
0.0
  0
LINE
  5
E8
  8
0
  6
CONTINUOUS
 62
     2
 10
-355.4696450587
 20
735.5576208441
 30
0.0
 11
-696.6239626883
 21
735.5576208441
 31
0.0
  0
LINE
  5
E9
  8
0
  6
CONTINUOUS
 62
     2
 10
-695.6239626883
 20
-210.4423791559
 30
0.0
 11
-695.6239626883
 21
262.5576208441
 31
0.0
  0
LINE
  5
EA
  8
0
  6
CONTINUOUS
 62
     2
 10
-695.6239626883
 20
735.5576208441
 30
0.0
 11
-695.6239626883
 21
262.5576208441
 31
0.0
  0
INSERT
  5
EB
  8
0
  6
CONTINUOUS
 62
     2
  2
_FILLED
 10
-695.6239626883
 20
-210.4423791559
 30
0.0
 41
10.0
 42
10.0
 43
10.0
 50
270.0
  0
INSERT
  5
EC
  8
0
  6
CONTINUOUS
 62
     2
  2
_FILLED
 10
-695.6239626883
 20
735.5576208441
 30
0.0
 41
10.0
 42
10.0
 43
10.0
 50
90.0
  0
ENDBLK
  5
ED
  8
0
  6
BYBLOCK
 62
     0
  0
BLOCK
  8
0
  2
*D9
 70
     1
 10
0.0
 20
0.0
 30
0.0
  3
*D9
  1

  0
TEXT
  5
F0
  8
0
  6
CONTINUOUS
 62
     5
 10
-381.5660298171
 20
-286.090725804
 30
0.0
 40
15.0
  1
464
 72
     1
 11
-364.1060298171
 21
-286.090725804
 31
0.0
  0
TEXT
  5
F1
  8
0
  6
CONTINUOUS
 62
     5
 10
-381.5978142037
 20
-308.590725804
 30
0.0
 40
15.0
  1
[
 72
     1
 11
-378.6878142037
 21
-308.590725804
 31
0.0
  0
TEXT
  5
F2
  8
0
  6
CONTINUOUS
 62
     5
 10
-375.7771450587
 20
-308.590725804
 30
0.0
 40
15.0
  1
18.3
 72
     1
 11
-355.4071450587
 21
-308.590725804
 31
0.0
  0
TEXT
  5
F3
  8
0
  6
CONTINUOUS
 62
     5
 10
-335.0364759138
 20
-308.590725804
 30
0.0
 40
15.0
  1
]
 72
     1
 11
-332.1264759138
 21
-308.590725804
 31
0.0
  0
LINE
  5
F4
  8
0
  6
CONTINUOUS
 62
     2
 10
-587.4071450587
 20
-198.5048791559
 30
0.0
 11
-587.4071450587
 21
-290.840725804
 31
0.0
  0
LINE
  5
F5
  8
0
  6
CONTINUOUS
 62
     2
 10
-123.4071450587
 20
-198.5048791559
 30
0.0
 11
-123.4071450587
 21
-290.840725804
 31
0.0
  0
LINE
  5
F6
  8
0
  6
CONTINUOUS
 62
     2
 10
-587.4071450587
 20
-289.840725804
 30
0.0
 11
-355.4071450587
 21
-289.840725804
 31
0.0
  0
LINE
  5
F7
  8
0
  6
CONTINUOUS
 62
     2
 10
-123.4071450587
 20
-289.840725804
 30
0.0
 11
-355.4071450587
 21
-289.840725804
 31
0.0
  0
INSERT
  5
F8
  8
0
  6
CONTINUOUS
 62
     2
  2
_FILLED
 10
-587.4071450587
 20
-289.840725804
 30
0.0
 41
10.0
 42
10.0
 43
10.0
 50
180.0
  0
INSERT
  5
F9
  8
0
  6
CONTINUOUS
 62
     2
  2
_FILLED
 10
-123.4071450587
 20
-289.840725804
 30
0.0
 41
10.0
 42
10.0
 43
10.0
  0
ENDBLK
  5
FA
  8
0
  6
BYBLOCK
 62
     0
  0
BLOCK
  8
0
  2
*D10
 70
     1
 10
0.0
 20
0.0
 30
0.0
  3
*D10
  1

  0
TEXT
  5
FD
  8
0
  6
CONTINUOUS
 62
     5
 10
-69.3673730591
 20
236.3987360858
 30
0.0
 40
15.0
  1
922
 50
90.0
 72
     1
 11
-69.3673730591
 21
253.8587360858
 31
0.0
  0
TEXT
  5
FE
  8
0
  6
CONTINUOUS
 62
     5
 10
-46.8673730591
 20
236.3669516991
 30
0.0
 40
15.0
  1
[
 50
90.0
 72
     1
 11
-46.8673730591
 21
239.2769516991
 31
0.0
  0
TEXT
  5
FF
  8
0
  6
CONTINUOUS
 62
     5
 10
-46.8673730591
 20
242.1876208441
 30
0.0
 40
15.0
  1
36.3
 50
90.0
 72
     1
 11
-46.8673730591
 21
262.5576208441
 31
0.0
  0
TEXT
  5
100
  8
0
  6
CONTINUOUS
 62
     5
 10
-46.8673730591
 20
282.9282899891
 30
0.0
 40
15.0
  1
]
 50
90.0
 72
     1
 11
-46.8673730591
 21
285.8382899891
 31
0.0
  0
LINE
  5
101
  8
0
  6
CONTINUOUS
 62
     2
 10
-123.3446450587
 20
723.5576208441
 30
0.0
 11
-64.6173730591
 21
723.5576208441
 31
0.0
  0
LINE
  5
102
  8
0
  6
CONTINUOUS
 62
     2
 10
-123.3446450587
 20
-198.4423791559
 30
0.0
 11
-64.6173730591
 21
-198.4423791559
 31
0.0
  0
LINE
  5
103
  8
0
  6
CONTINUOUS
 62
     2
 10
-65.6173730591
 20
723.5576208441
 30
0.0
 11
-65.6173730591
 21
262.5576208441
 31
0.0
  0
LINE
  5
104
  8
0
  6
CONTINUOUS
 62
     2
 10
-65.6173730591
 20
-198.4423791559
 30
0.0
 11
-65.6173730591
 21
262.5576208441
 31
0.0
  0
INSERT
  5
105
  8
0
  6
CONTINUOUS
 62
     2
  2
_FILLED
 10
-65.6173730591
 20
723.5576208441
 30
0.0
 41
10.0
 42
10.0
 43
10.0
 50
90.0
  0
INSERT
  5
106
  8
0
  6
CONTINUOUS
 62
     2
  2
_FILLED
 10
-65.6173730591
 20
-198.4423791559
 30
0.0
 41
10.0
 42
10.0
 43
10.0
 50
270.0
  0
ENDBLK
  5
107
  8
0
  6
BYBLOCK
 62
     0
  0
BLOCK
  8
0
  2
*D11
 70
     1
 10
0.0
 20
0.0
 30
0.0
  3
*D11
  1

  0
TEXT
  5
10A
  8
0
  6
CONTINUOUS
 62
     5
 10
-381.5660298171
 20
-333.0697637024
 30
0.0
 40
15.0
  1
512
 72
     1
 11
-364.1060298171
 21
-333.0697637024
 31
0.0
  0
TEXT
  5
10B
  8
0
  6
CONTINUOUS
 62
     5
 10
-381.5978142037
 20
-355.5697637024
 30
0.0
 40
15.0
  1
[
 72
     1
 11
-378.6878142037
 21
-355.5697637024
 31
0.0
  0
TEXT
  5
10C
  8
0
  6
CONTINUOUS
 62
     5
 10
-375.7771450587
 20
-355.5697637024
 30
0.0
 40
15.0
  1
20.2
 72
     1
 11
-355.4071450587
 21
-355.5697637024
 31
0.0
  0
TEXT
  5
10D
  8
0
  6
CONTINUOUS
 62
     5
 10
-335.0364759138
 20
-355.5697637024
 30
0.0
 40
15.0
  1
]
 72
     1
 11
-332.1264759138
 21
-355.5697637024
 31
0.0
  0
LINE
  5
10E
  8
0
  6
CONTINUOUS
 62
     2
 10
-99.4071450587
 20
-222.5048791559
 30
0.0
 11
-99.4071450587
 21
-337.8197637024
 31
0.0
  0
LINE
  5
10F
  8
0
  6
CONTINUOUS
 62
     2
 10
-611.4071450587
 20
-222.5048791559
 30
0.0
 11
-611.4071450587
 21
-337.8197637024
 31
0.0
  0
LINE
  5
110
  8
0
  6
CONTINUOUS
 62
     2
 10
-99.4071450587
 20
-336.8197637024
 30
0.0
 11
-355.4071450587
 21
-336.8197637024
 31
0.0
  0
LINE
  5
111
  8
0
  6
CONTINUOUS
 62
     2
 10
-611.4071450587
 20
-336.8197637024
 30
0.0
 11
-355.4071450587
 21
-336.8197637024
 31
0.0
  0
INSERT
  5
112
  8
0
  6
CONTINUOUS
 62
     2
  2
_FILLED
 10
-99.4071450587
 20
-336.8197637024
 30
0.0
 41
10.0
 42
10.0
 43
10.0
  0
INSERT
  5
113
  8
0
  6
CONTINUOUS
 62
     2
  2
_FILLED
 10
-611.4071450587
 20
-336.8197637024
 30
0.0
 41
10.0
 42
10.0
 43
10.0
 50
180.0
  0
ENDBLK
  5
114
  8
0
  6
BYBLOCK
 62
     0
  0
BLOCK
  8
0
  2
*D12
 70
     1
 10
0.0
 20
0.0
 30
0.0
  3
*D12
  1

  0
TEXT
  5
117
  8
0
  6
CONTINUOUS
 62
     5
 10
-19.1380812396
 20
236.3987360858
 30
0.0
 40
15.0
  1
970
 50
90.0
 72
     1
 11
-19.1380812396
 21
253.8587360858
 31
0.0
  0
TEXT
  5
118
  8
0
  6
CONTINUOUS
 62
     5
 10
3.3619187604
 20
236.3669516991
 30
0.0
 40
15.0
  1
[
 50
90.0
 72
     1
 11
3.3619187604
 21
239.2769516991
 31
0.0
  0
TEXT
  5
119
  8
0
  6
CONTINUOUS
 62
     5
 10
3.361918760399999
 20
242.1876208441
 30
0.0
 40
15.0
  1
38.2
 50
90.0
 72
     1
 11
3.3619187604
 21
262.5576208441
 31
0.0
  0
TEXT
  5
11A
  8
0
  6
CONTINUOUS
 62
     5
 10
3.3619187604
 20
282.9282899891
 30
0.0
 40
15.0
  1
]
 50
90.0
 72
     1
 11
3.3619187604
 21
285.8382899891
 31
0.0
  0
LINE
  5
11B
  8
0
  6
CONTINUOUS
 62
     2
 10
-99.3446450587
 20
747.5576208441
 30
0.0
 11
-14.3880812396
 21
747.5576208441
 31
0.0
  0
LINE
  5
11C
  8
0
  6
CONTINUOUS
 62
     2
 10
-99.3446450587
 20
-222.4423791559
 30
0.0
 11
-14.3880812396
 21
-222.4423791559
 31
0.0
  0
LINE
  5
11D
  8
0
  6
CONTINUOUS
 62
     2
 10
-15.3880812396
 20
747.5576208441
 30
0.0
 11
-15.3880812396
 21
262.5576208441
 31
0.0
  0
LINE
  5
11E
  8
0
  6
CONTINUOUS
 62
     2
 10
-15.3880812396
 20
-222.4423791559
 30
0.0
 11
-15.3880812396
 21
262.5576208441
 31
0.0
  0
INSERT
  5
11F
  8
0
  6
CONTINUOUS
 62
     2
  2
_FILLED
 10
-15.3880812396
 20
747.5576208441
 30
0.0
 41
10.0
 42
10.0
 43
10.0
 50
90.0
  0
INSERT
  5
120
  8
0
  6
CONTINUOUS
 62
     2
  2
_FILLED
 10
-15.3880812396
 20
-222.4423791559
 30
0.0
 41
10.0
 42
10.0
 43
10.0
 50
270.0
  0
ENDBLK
  5
121
  8
0
  6
BYBLOCK
 62
     0
  0
ENDSEC
  0
SECTION
  2
ENTITIES
  0
DIMENSION
  5
122
  8
0
  6
CONTINUOUS
 62
     2
  2
*D1
 10
-355.4071450587
 20
784.0689751299
 30
0.0
 11
-477.4071450587
 21
784.0689751299
 31
0.0
 70
   160
  3
STANDARD
 13
-599.4071450587
 23
702.5576208441
 33
0.0
 14
-355.4071450587
 24
735.5576208441
 34
0.0
  0
DIMENSION
  5
123
  8
0
  6
CONTINUOUS
 62
     2
  2
*D2
 10
-111.4071450587
 20
828.6816836853
 30
0.0
 11
-355.4071450587
 21
828.6816836853
 31
0.0
 70
   160
  3
STANDARD
 13
-599.4071450587
 23
702.5576208441
 33
0.0
 14
-111.4071450587
 24
702.5576208441
 34
0.0
  0
DIMENSION
  5
124
  8
0
  6
CONTINUOUS
 62
     2
  2
*D3
 10
-653.2296046099
 20
735.5576208441
 30
0.0
 11
-653.2296046099
 21
775.9737289026
 31
0.0
 70
   160
  3
STANDARD
 13
-599.4071450587
 23
702.5576208441
 33
0.0
 14
-355.4071450587
 24
735.5576208441
 34
0.0
 50
90.0
  0
DIMENSION
  5
125
  8
0
  6
CONTINUOUS
 62
     2
  2
*D4
 10
-653.2296046099
 20
482.5576208441
 30
0.0
 11
-653.2296046099
 21
592.5576208441
 31
0.0
 70
   160
  3
STANDARD
 13
-599.4071450587
 23
702.5576208441
 33
0.0
 14
-599.4071450587
 24
482.5576208441
 34
0.0
 50
270.0
  0
DIMENSION
  5
126
  8
0
  6
CONTINUOUS
 62
     2
  2
*D5
 10
-653.2296046099
 20
262.5576208441
 30
0.0
 11
-653.2296046099
 21
372.5576208441
 31
0.0
 70
   160
  3
STANDARD
 13
-599.4071450587
 23
482.5576208441
 33
0.0
 14
-599.4071450587
 24
262.5576208441
 34
0.0
 50
270.0
  0
DIMENSION
  5
127
  8
0
  6
CONTINUOUS
 62
     2
  2
*D6
 10
-653.2296046099
 20
42.5576208441
 30
0.0
 11
-653.2296046099
 21
152.5576208441
 31
0.0
 70
   160
  3
STANDARD
 13
-599.4071450587
 23
262.5576208441
 33
0.0
 14
-599.4071450587
 24
42.5576208441
 34
0.0
 50
270.0
  0
DIMENSION
  5
128
  8
0
  6
CONTINUOUS
 62
     2
  2
*D7
 10
-653.2296046099
 20
-177.4423791559
 30
0.0
 11
-653.2296046099
 21
-67.4423791559
 31
0.0
 70
   160
  3
STANDARD
 13
-599.4071450587
 23
42.5576208441
 33
0.0
 14
-599.4071450587
 24
-177.4423791559
 34
0.0
 50
270.0
  0
DIMENSION
  5
129
  8
0
  6
CONTINUOUS
 62
     2
  2
*D8
 10
-695.6239626883
 20
735.5576208441
 30
0.0
 11
-695.6239626883
 21
262.5576208441
 31
0.0
 70
   160
  3
STANDARD
 13
-355.4071450587
 23
-210.4423791559
 33
0.0
 14
-355.4071450587
 24
735.5576208441
 34
0.0
 50
90.0
  0
DIMENSION
  5
12A
  8
0
  6
CONTINUOUS
 62
     2
  2
*D9
 10
-123.4071450587
 20
-289.840725804
 30
0.0
 11
-355.4071450587
 21
-289.840725804
 31
0.0
 70
   160
  3
STANDARD
 13
-587.4071450587
 23
-198.4423791559
 33
0.0
 14
-123.4071450587
 24
-198.4423791559
 34
0.0
  0
DIMENSION
  5
12B
  8
0
  6
CONTINUOUS
 62
     2
  2
*D10
 10
-65.6173730591
 20
-198.4423791559
 30
0.0
 11
-65.6173730591
 21
262.5576208441
 31
0.0
 70
   160
  3
STANDARD
 13
-123.4071450587
 23
723.5576208441
 33
0.0
 14
-123.4071450587
 24
-198.4423791559
 34
0.0
 50
270.0
  0
DIMENSION
  5
12C
  8
0
  6
CONTINUOUS
 62
     2
  2
*D11
 10
-611.4071450587
 20
-336.8197637024
 30
0.0
 11
-355.4071450587
 21
-336.8197637024
 31
0.0
 70
   160
  3
STANDARD
 13
-99.4071450587
 23
-222.4423791559
 33
0.0
 14
-611.4071450587
 24
-222.4423791559
 34
0.0
 50
180.0
  0
DIMENSION
  5
12D
  8
0
  6
CONTINUOUS
 62
     2
  2
*D12
 10
-15.3880812396
 20
-222.4423791559
 30
0.0
 11
-15.3880812396
 21
262.5576208441
 31
0.0
 70
   160
  3
STANDARD
 13
-99.4071450587
 23
747.5576208441
 33
0.0
 14
-99.4071450587
 24
-222.4423791559
 34
0.0
 50
270.0
  0
TEXT
  5
167
  8
0
  6
CONTINUOUS
 62
     5
 10
476.4005886671
 20
340.8262254562
 30
0.0
 40
3.0
  1
 
 72
     1
 11
476.9825886671
 21
340.8262254562
 31
0.0
  0
TEXT
  5
173
  8
0
  6
CONTINUOUS
 62
     5
 10
533.5205886671
 20
340.8262254562
 30
0.0
 40
3.0
  1
 
 72
     1
 11
534.1025886671
 21
340.8262254562
 31
0.0
  0
TEXT
  5
174
  8
0
  6
CONTINUOUS
 62
     5
 10
533.5205886671
 20
336.3262254562
 30
0.0
 40
3.0
  1
 
 72
     1
 11
534.1025886671
 21
336.3262254562
 31
0.0
  0
TEXT
  5
180
  8
0
  6
CONTINUOUS
 62
     5
 10
519.1634968184001
 20
404.7628351343
 30
0.0
 40
3.5
  1
  
 72
     1
 11
520.5214968184
 21
404.7628351343
 31
0.0
  0
TEXT
  5
188
  8
0
  6
CONTINUOUS
 62
     5
 10
-505.1813131414
 20
-160.5378768661
 30
0.0
 40
15.0
  1
DIMENSIONS CENTRED TO CUTOUT
  0
TEXT
  5
189
  8
0
  6
CONTINUOUS
 62
     5
 10
-287.3138237451
 20
-187.7668064912
 30
0.0
 40
15.0
  1
IN "MM[INCH]"
  0
TEXT
  5
18A
  8
0
  6
CONTINUOUS
 62
     5
 10
-297.3409452422
 20
779.2106382203
 30
0.0
 40
15.0
  1
n
  7
TEXTSTYLE_1
  0
TEXT
  5
18B
  8
0
  6
CONTINUOUS
 62
     5
 10
-274.8409452422
 20
779.2106382203
 30
0.0
 40
15.0
  1
7mm (x12)
  0
LINE
  5
18C
  8
0
  6
CONTINUOUS
 62
     2
 10
-353.9067335077
 20
739.2621338188
 30
0.0
 11
-301.3409452422
 21
786.7106382203
 31
0.0
  0
LINE
  5
18D
  8
0
  6
CONTINUOUS
 62
     2
 10
-301.3409452422
 20
786.7106382203
 30
0.0
 11
-297.3409452422
 21
786.7106382203
 31
0.0
  0
SOLID
  5
18E
  8
0
  6
CONTINUOUS
 62
     2
 10
-347.1536318168
 20
746.7049570434
 30
0.0
 11
-353.9067335077
 21
739.2621338188
 31
0.0
 12
-345.8135302217
 22
745.2203265457
 32
0.0
 13
-345.8135302217
 23
745.2203265457
 33
0.0
  0
TEXT
  5
18F
  8
0
  6
CONTINUOUS
 62
     5
 10
-417.3998141871
 20
-255.1320317953
 30
0.0
 40
15.0
  1
SCALE  
 72
     2
 11
-337.1048141871
 21
-255.1320317953
 31
0.0
  0
TEXT
  5
190
  8
0
  6
CONTINUOUS
 62
     5
 10
-337.0684573097
 20
-255.1320317953
 30
0.0
 40
15.0
  1
1.000
 72
     2
 11
-284.6884573097
 21
-255.1320317953
 31
0.0
  0
LINE
  5
191
  8
0
  6
CONTINUOUS
 62
     7
 10
-99.4071450587
 20
-222.4423791559
 30
0.0
 11
-611.4071450587
 21
-222.4423791559
 31
0.0
  0
LINE
  5
192
  8
0
  6
CONTINUOUS
 62
     7
 10
-587.4071450587
 20
-198.4423791559
 30
0.0
 11
-123.4071450587
 21
-198.4423791559
 31
0.0
  0
LINE
  5
193
  8
0
  6
CONTINUOUS
 62
     7
 10
-611.4071450587
 20
-222.4423791559
 30
0.0
 11
-611.4071450587
 21
747.5576208441
 31
0.0
  0
LINE
  5
194
  8
0
  6
CONTINUOUS
 62
     7
 10
-587.4071450587
 20
723.5576208441
 30
0.0
 11
-587.4071450587
 21
-198.4423791559
 31
0.0
  0
LINE
  5
195
  8
0
  6
CONTINUOUS
 62
     7
 10
-123.4071450587
 20
-198.4423791559
 30
0.0
 11
-123.4071450587
 21
723.5576208441
 31
0.0
  0
LINE
  5
196
  8
0
  6
CONTINUOUS
 62
     7
 10
-99.4071450587
 20
747.5576208441
 30
0.0
 11
-99.4071450587
 21
-222.4423791559
 31
0.0
  0
LINE
  5
197
  8
0
  6
CONTINUOUS
 62
     7
 10
-123.4071450587
 20
723.5576208441
 30
0.0
 11
-587.4071450587
 21
723.5576208441
 31
0.0
  0
LINE
  5
198
  8
0
  6
CONTINUOUS
 62
     7
 10
-611.4071450587
 20
747.5576208441
 30
0.0
 11
-99.4071450587
 21
747.5576208441
 31
0.0
  0
CIRCLE
  5
199
  8
0
  6
CONTINUOUS
 62
     7
 10
-355.4071450587
 20
735.5576208441
 30
0.0
 40
4.0
  0
CIRCLE
  5
19A
  8
0
  6
CONTINUOUS
 62
     7
 10
-111.4071450587
 20
482.5576208441
 30
0.0
 40
4.0
  0
CIRCLE
  5
19B
  8
0
  6
CONTINUOUS
 62
     7
 10
-111.4071450587
 20
262.5576208441
 30
0.0
 40
4.0
  0
CIRCLE
  5
19C
  8
0
  6
CONTINUOUS
 62
     7
 10
-111.4071450587
 20
42.5576208441
 30
0.0
 40
4.0
  0
CIRCLE
  5
19D
  8
0
  6
CONTINUOUS
 62
     7
 10
-355.4071450587
 20
-210.4423791559
 30
0.0
 40
4.0
  0
CIRCLE
  5
19E
  8
0
  6
CONTINUOUS
 62
     7
 10
-599.4071450587
 20
42.5576208441
 30
0.0
 40
4.0
  0
CIRCLE
  5
19F
  8
0
  6
CONTINUOUS
 62
     7
 10
-599.4071450587
 20
262.5576208441
 30
0.0
 40
4.0
  0
CIRCLE
  5
1A0
  8
0
  6
CONTINUOUS
 62
     7
 10
-599.4071450587
 20
482.5576208441
 30
0.0
 40
4.0
  0
CIRCLE
  5
1A1
  8
0
  6
CONTINUOUS
 62
     7
 10
-111.4071450587
 20
-177.4423791559
 30
0.0
 40
4.0
  0
CIRCLE
  5
1A2
  8
0
  6
CONTINUOUS
 62
     7
 10
-599.4071450587
 20
-177.4423791559
 30
0.0
 40
4.0
  0
CIRCLE
  5
1A3
  8
0
  6
CONTINUOUS
 62
     7
 10
-111.4071450587
 20
702.5576208441
 30
0.0
 40
4.0
  0
CIRCLE
  5
1A4
  8
0
  6
CONTINUOUS
 62
     7
 10
-599.4071450587
 20
702.5576208441
 30
0.0
 40
4.0
  0
ENDSEC
  0
EOF
