  0
SECTION
  2
HEADER
  9
$ACADVER
  1
AC1014
  9
$ACADMAINTVER
 70
     9
  9
$DWGCODEPAGE
  3
ANSI_1252
  9
$INSBASE
 10
0.0
 20
0.0
 30
0.0
  9
$EXTMIN
 10
-207.2838991497251
 20
76.62505647210537
 30
0.0
  9
$EXTMAX
 10
102.5829824947498
 20
448.6536833704871
 30
0.0
  9
$LIMMIN
 10
0.0
 20
0.0
  9
$LIMMAX
 10
594.0
 20
420.0
  9
$ORTHOMODE
 70
     1
  9
$REGENMODE
 70
     1
  9
$FILLMODE
 70
     1
  9
$QTEXTMODE
 70
     0
  9
$MIRRTEXT
 70
     1
  9
$DRAGMODE
 70
     2
  9
$LTSCALE
 40
32.67
  9
$OSMODE
 70
   511
  9
$ATTMODE
 70
     1
  9
$TEXTSIZE
 40
0.2
  9
$TRACEWID
 40
0.05
  9
$TEXTSTYLE
  7
STANDARD
  9
$CLAYER
  8
0
  9
$CELTYPE
  6
BYLAYER
  9
$CECOLOR
 62
   256
  9
$CELTSCALE
 40
1.0
  9
$DELOBJ
 70
     1
  9
$DISPSILH
 70
     0
  9
$DIMSCALE
 40
1.0
  9
$DIMASZ
 40
2.5
  9
$DIMEXO
 40
0.0625
  9
$DIMDLI
 40
22.572
  9
$DIMRND
 40
0.0
  9
$DIMDLE
 40
0.0
  9
$DIMEXE
 40
1.0
  9
$DIMTP
 40
0.0
  9
$DIMTM
 40
0.0
  9
$DIMTXT
 40
3.5
  9
$DIMCEN
 40
5.346
  9
$DIMTSZ
 40
0.0
  9
$DIMTOL
 70
     0
  9
$DIMLIM
 70
     0
  9
$DIMTIH
 70
     1
  9
$DIMTOH
 70
     1
  9
$DIMSE1
 70
     0
  9
$DIMSE2
 70
     0
  9
$DIMTAD
 70
     0
  9
$DIMZIN
 70
     0
  9
$DIMBLK
  1
FILLED
  9
$DIMASO
 70
     1
  9
$DIMSHO
 70
     1
  9
$DIMPOST
  1

  9
$DIMAPOST
  1

  9
$DIMALT
 70
     0
  9
$DIMALTD
 70
     2
  9
$DIMALTF
 40
0.0393700787
  9
$DIMLFAC
 40
1.0
  9
$DIMTOFL
 70
     0
  9
$DIMTVP
 40
0.0
  9
$DIMTIX
 70
     0
  9
$DIMSOXD
 70
     0
  9
$DIMSAH
 70
     0
  9
$DIMBLK1
  1

  9
$DIMBLK2
  1

  9
$DIMSTYLE
  2
STANDARD
  9
$DIMCLRD
 70
     0
  9
$DIMCLRE
 70
     0
  9
$DIMCLRT
 70
     0
  9
$DIMTFAC
 40
1.0
  9
$DIMGAP
 40
0.09
  9
$DIMJUST
 70
     0
  9
$DIMSD1
 70
     0
  9
$DIMSD2
 70
     0
  9
$DIMTOLJ
 70
     1
  9
$DIMTZIN
 70
     0
  9
$DIMALTZ
 70
     0
  9
$DIMALTTZ
 70
     0
  9
$DIMFIT
 70
     5
  9
$DIMUPT
 70
     0
  9
$DIMUNIT
 70
     2
  9
$DIMDEC
 70
     4
  9
$DIMTDEC
 70
     4
  9
$DIMALTU
 70
     2
  9
$DIMALTTD
 70
     2
  9
$DIMTXSTY
  7
STANDARD
  9
$DIMAUNIT
 70
     0
  9
$LUNITS
 70
     2
  9
$LUPREC
 70
     4
  9
$SKETCHINC
 40
0.1
  9
$FILLETRAD
 40
0.5
  9
$AUNITS
 70
     0
  9
$AUPREC
 70
     0
  9
$MENU
  1
.
  9
$ELEVATION
 40
0.0
  9
$PELEVATION
 40
0.0
  9
$THICKNESS
 40
0.0
  9
$LIMCHECK
 70
     0
  9
$CHAMFERA
 40
0.0
  9
$CHAMFERB
 40
0.0
  9
$CHAMFERC
 40
0.0
  9
$CHAMFERD
 40
0.0
  9
$SKPOLY
 70
     0
  9
$TDCREATE
 40
2457872.646037627
  9
$TDUPDATE
 40
2457872.669247975
  9
$TDINDWG
 40
0.0026381366
  9
$TDUSRTIMER
 40
2457872.585731366
  9
$USRTIMER
 70
     1
  9
$ANGBASE
 50
0.0
  9
$ANGDIR
 70
     0
  9
$PDMODE
 70
     3
  9
$PDSIZE
 40
0.3125
  9
$PLINEWID
 40
0.0
  9
$COORDS
 70
     1
  9
$SPLFRAME
 70
     0
  9
$SPLINETYPE
 70
     6
  9
$SPLINESEGS
 70
     8
  9
$ATTDIA
 70
     0
  9
$ATTREQ
 70
     1
  9
$HANDLING
 70
     1
  9
$HANDSEED
  5
1E9
  9
$SURFTAB1
 70
     6
  9
$SURFTAB2
 70
     6
  9
$SURFTYPE
 70
     6
  9
$SURFU
 70
     6
  9
$SURFV
 70
     6
  9
$UCSNAME
  2

  9
$UCSORG
 10
0.0
 20
0.0
 30
0.0
  9
$UCSXDIR
 10
1.0
 20
0.0
 30
0.0
  9
$UCSYDIR
 10
0.0
 20
1.0
 30
0.0
  9
$PUCSNAME
  2

  9
$PUCSORG
 10
0.0
 20
0.0
 30
0.0
  9
$PUCSXDIR
 10
1.0
 20
0.0
 30
0.0
  9
$PUCSYDIR
 10
0.0
 20
1.0
 30
0.0
  9
$USERI1
 70
     0
  9
$USERI2
 70
     0
  9
$USERI3
 70
     0
  9
$USERI4
 70
     0
  9
$USERI5
 70
     0
  9
$USERR1
 40
0.0
  9
$USERR2
 40
0.0
  9
$USERR3
 40
0.0
  9
$USERR4
 40
0.0
  9
$USERR5
 40
0.0
  9
$WORLDVIEW
 70
     1
  9
$SHADEDGE
 70
     3
  9
$SHADEDIF
 70
    70
  9
$TILEMODE
 70
     1
  9
$MAXACTVP
 70
    64
  9
$PINSBASE
 10
0.0
 20
0.0
 30
0.0
  9
$PLIMCHECK
 70
     0
  9
$PEXTMIN
 10
1.000000000000000E+20
 20
1.000000000000000E+20
 30
1.000000000000000E+20
  9
$PEXTMAX
 10
-1.000000000000000E+20
 20
-1.000000000000000E+20
 30
-1.000000000000000E+20
  9
$PLIMMIN
 10
0.0
 20
0.0
  9
$PLIMMAX
 10
0.0
 20
0.0
  9
$UNITMODE
 70
     0
  9
$VISRETAIN
 70
     1
  9
$PLINEGEN
 70
     0
  9
$PSLTSCALE
 70
     1
  9
$TREEDEPTH
 70
  3020
  9
$PICKSTYLE
 70
     1
  9
$CMLSTYLE
  2
STANDARD
  9
$CMLJUST
 70
     0
  9
$CMLSCALE
 40
1.0
  9
$PROXYGRAPHICS
 70
     1
  9
$MEASUREMENT
 70
     0
  0
ENDSEC
  0
SECTION
  2
CLASSES
  0
CLASS
  1
ACDBDICTIONARYWDFLT
  2
AcDbDictionaryWithDefault
  3
ObjectDBX Classes
 90
        0
280
     0
281
     0
  0
CLASS
  1
MATERIAL
  2
AcDbMaterial
  3
ObjectDBX Classes
 90
     1153
280
     0
281
     0
  0
CLASS
  1
SCALE
  2
AcDbScale
  3
ObjectDBX Classes
 90
     1153
280
     0
281
     0
  0
CLASS
  1
VISUALSTYLE
  2
AcDbVisualStyle
  3
ObjectDBX Classes
 90
     4095
280
     0
281
     0
  0
CLASS
  1
TABLESTYLE
  2
AcDbTableStyle
  3
ObjectDBX Classes
 90
     4095
280
     0
281
     0
  0
CLASS
  1
MLEADERSTYLE
  2
AcDbMLeaderStyle
  3
ACDB_MLEADERSTYLE_CLASS
 90
     4095
280
     0
281
     0
  0
CLASS
  1
SUN
  2
AcDbSun
  3
SCENEOE
 90
     1153
280
     0
281
     0
  0
CLASS
  1
RASTERVARIABLES
  2
AcDbRasterVariables
  3
ISM
 90
        0
280
     0
281
     0
  0
CLASS
  1
DICTIONARYVAR
  2
AcDbDictionaryVar
  3
ObjectDBX Classes
 90
        0
280
     0
281
     0
  0
CLASS
  1
CELLSTYLEMAP
  2
AcDbCellStyleMap
  3
ObjectDBX Classes
 90
     1152
280
     0
281
     0
  0
CLASS
  1
XRECORD
  2
AcDbXrecord
  3
ObjectDBX Classes
 90
        0
280
     0
281
     0
  0
CLASS
  1
LWPOLYLINE
  2
AcDbPolyline
  3
ObjectDBX Classes
 90
        0
280
     0
281
     1
  0
CLASS
  1
HATCH
  2
AcDbHatch
  3
ObjectDBX Classes
 90
        0
280
     0
281
     1
  0
ENDSEC
  0
SECTION
  2
TABLES
  0
TABLE
  2
VPORT
  5
8
330
0
100
AcDbSymbolTable
 70
     1
  0
VPORT
  5
3B
330
8
100
AcDbSymbolTableRecord
100
AcDbViewportTableRecord
  2
*ACTIVE
 70
     0
 10
0.0
 20
0.0
 11
1.0
 21
1.0
 12
-52.35045832748767
 22
262.6393699212962
 13
0.0
 23
0.0
 14
0.5
 24
0.5
 15
0.5
 25
0.5
 16
0.0
 26
0.0
 36
1.0
 17
0.0
 27
0.0
 37
0.0
 40
379.4691994363494
 41
2.099315068493151
 42
50.0
 43
0.0
 44
0.0
 50
0.0
 51
0.0
 71
    16
 72
   100
 73
     1
 74
     3
 75
     0
 76
     0
 77
     0
 78
     0
  0
ENDTAB
  0
TABLE
  2
LTYPE
  5
5
330
0
100
AcDbSymbolTable
 70
     6
  0
LTYPE
  5
14
330
5
100
AcDbSymbolTableRecord
100
AcDbLinetypeTableRecord
  2
BYBLOCK
 70
     0
  3

 72
    65
 73
     0
 40
0.0
  0
LTYPE
  5
15
330
5
100
AcDbSymbolTableRecord
100
AcDbLinetypeTableRecord
  2
BYLAYER
 70
     0
  3

 72
    65
 73
     0
 40
0.0
  0
LTYPE
  5
16
330
5
100
AcDbSymbolTableRecord
100
AcDbLinetypeTableRecord
  2
CONTINUOUS
 70
     0
  3
Solid line
 72
    65
 73
     0
 40
0.0
  0
LTYPE
  5
23
330
5
100
AcDbSymbolTableRecord
100
AcDbLinetypeTableRecord
  2
CENTER
 70
     0
  3
____ _ ____ _ ____ _ ____ _ ____ _ ____ _ ____
 72
    65
 73
     4
 40
0.6
 49
0.375
 74
     0
 49
-0.075
 74
     0
 49
0.075
 74
     0
 49
-0.075
 74
     0
  0
LTYPE
  5
24
330
5
100
AcDbSymbolTableRecord
100
AcDbLinetypeTableRecord
  2
HIDDEN
 70
     0
  3
- - - - - - - - - - - - - - - - - - - -
 72
    65
 73
     2
 40
0.2
 49
0.1
 74
     0
 49
-0.1
 74
     0
  0
LTYPE
  5
25
330
5
100
AcDbSymbolTableRecord
100
AcDbLinetypeTableRecord
  2
PHANTOM
 70
     0
  3
_____ _ _ _____ _ _ _____ _ _ _____
 72
    65
 73
     6
 40
0.8
 49
0.45
 74
     0
 49
-0.05
 74
     0
 49
0.1
 74
     0
 49
-0.05
 74
     0
 49
0.1
 74
     0
 49
-0.05
 74
     0
  0
LTYPE
  5
26
330
5
100
AcDbSymbolTableRecord
100
AcDbLinetypeTableRecord
  2
DOT
 70
     0
  3
. . . . . . . . . . . . . . . . . . . .
 72
    65
 73
     2
 40
0.2
 49
0.1
 74
     0
 49
-0.1
 74
     0
  0
LTYPE
  5
27
330
5
100
AcDbSymbolTableRecord
100
AcDbLinetypeTableRecord
  2
DASHED
 70
     0
  3
- - - - - - - - - - - - - - - - - - - -
 72
    65
 73
     2
 40
0.2
 49
0.1
 74
     0
 49
-0.1
 74
     0
  0
ENDTAB
  0
TABLE
  2
LAYER
  5
2
330
0
100
AcDbSymbolTable
 70
    14
  0
LAYER
  5
10
330
2
100
AcDbSymbolTableRecord
100
AcDbLayerTableRecord
  2
0
 70
     0
 62
     7
  6
CONTINUOUS
  0
LAYER
  5
2D
330
2
100
AcDbSymbolTableRecord
100
AcDbLayerTableRecord
  2
DEFAULT_1
 70
     0
 62
     7
  6
CENTER
  0
LAYER
  5
2E
330
2
100
AcDbSymbolTableRecord
100
AcDbLayerTableRecord
  2
DEFAULT_2
 70
     0
 62
     8
  6
HIDDEN
  0
LAYER
  5
2F
330
2
100
AcDbSymbolTableRecord
100
AcDbLayerTableRecord
  2
DEFAULT_3
 70
     0
 62
     7
  6
PHANTOM
  0
LAYER
  5
30
330
2
100
AcDbSymbolTableRecord
100
AcDbLayerTableRecord
  2
01___PRT_ALL_DTM_PLN
 70
     0
 62
     7
  6
CONTINUOUS
  0
LAYER
  5
31
330
2
100
AcDbSymbolTableRecord
100
AcDbLayerTableRecord
  2
01___PRT_DEF_DTM_PLN
 70
     0
 62
     7
  6
CONTINUOUS
  0
LAYER
  5
32
330
2
100
AcDbSymbolTableRecord
100
AcDbLayerTableRecord
  2
02___PRT_ALL_AXES
 70
     0
 62
     7
  6
CONTINUOUS
  0
LAYER
  5
33
330
2
100
AcDbSymbolTableRecord
100
AcDbLayerTableRecord
  2
03___PRT_ALL_CURVES
 70
     0
 62
     7
  6
CONTINUOUS
  0
LAYER
  5
34
330
2
100
AcDbSymbolTableRecord
100
AcDbLayerTableRecord
  2
04___PRT_ALL_DTM_PNT
 70
     0
 62
     7
  6
CONTINUOUS
  0
LAYER
  5
35
330
2
100
AcDbSymbolTableRecord
100
AcDbLayerTableRecord
  2
05___PRT_ALL_DTM_CSYS
 70
     0
 62
     7
  6
CONTINUOUS
  0
LAYER
  5
36
330
2
100
AcDbSymbolTableRecord
100
AcDbLayerTableRecord
  2
05___PRT_DEF_DTM_CSYS
 70
     0
 62
     7
  6
CONTINUOUS
  0
LAYER
  5
37
330
2
100
AcDbSymbolTableRecord
100
AcDbLayerTableRecord
  2
06___PRT_ALL_SURFS
 70
     0
 62
     7
  6
CONTINUOUS
  0
LAYER
  5
F3
330
2
100
AcDbSymbolTableRecord
100
AcDbLayerTableRecord
  2
DEFPOINTS
 70
     0
 62
     7
  6
CONTINUOUS
  0
LAYER
  5
F5
330
2
100
AcDbSymbolTableRecord
100
AcDbLayerTableRecord
  2
DIMENSIONS
 70
     0
 62
     2
  6
CONTINUOUS
  0
ENDTAB
  0
TABLE
  2
STYLE
  5
3
330
0
100
AcDbSymbolTable
 70
     2
  0
STYLE
  5
11
330
3
100
AcDbSymbolTableRecord
100
AcDbTextStyleTableRecord
  2
STANDARD
 70
     0
 40
0.0
 41
0.8
 50
0.0
 71
     0
 42
0.2
  3
txt
  4

  0
STYLE
  5
39
330
3
100
AcDbSymbolTableRecord
100
AcDbTextStyleTableRecord
  2
TEXTSTYLE_1
 70
     0
 40
0.0
 41
0.8
 50
0.0
 71
     0
 42
0.2
  3
gdt
  4

  0
ENDTAB
  0
TABLE
  2
VIEW
  5
6
330
0
100
AcDbSymbolTable
 70
     0
  0
ENDTAB
  0
TABLE
  2
UCS
  5
7
330
0
100
AcDbSymbolTable
 70
     0
  0
ENDTAB
  0
TABLE
  2
APPID
  5
9
330
0
100
AcDbSymbolTable
 70
     2
  0
APPID
  5
12
330
9
100
AcDbSymbolTableRecord
100
AcDbRegAppTableRecord
  2
ACAD
 70
     0
  0
APPID
  5
1E6
330
9
100
AcDbSymbolTableRecord
100
AcDbRegAppTableRecord
  2
ACAD_MLEADERVER
 70
     0
  0
ENDTAB
  0
TABLE
  2
DIMSTYLE
  5
A
330
0
100
AcDbSymbolTable
 70
     2
  0
DIMSTYLE
105
3A
330
A
100
AcDbSymbolTableRecord
100
AcDbDimStyleTableRecord
  2
STANDARD
 70
     0
  3

  4

  5

  6

  7

 40
1.0
 41
0.18
 42
0.0625
 43
0.38
 44
0.18
 45
0.0
 46
0.0
 47
0.0
 48
0.0
140
0.18
141
0.09
142
0.0
143
25.4
144
1.0
145
0.0
146
1.0
147
0.09
 71
     0
 72
     0
 73
     1
 74
     1
 75
     0
 76
     0
 77
     0
 78
     0
170
     0
171
     2
172
     0
173
     0
174
     0
175
     0
176
     0
177
     0
178
     0
270
     2
271
     4
272
     4
273
     2
274
     2
340
11
275
     0
280
     0
281
     0
282
     0
283
     1
284
     0
285
     0
286
     0
287
     3
288
     0
  0
DIMSTYLE
105
F7
102
{ACAD_REACTORS
330
17B
330
17C
330
17D
330
17E
330
17F
330
180
102
}
330
A
100
AcDbSymbolTableRecord
100
AcDbDimStyleTableRecord
  2
DUAL-DIM
 70
     0
  3

  4

  5

  6

  7

 40
1.0
 41
5.0
 42
1.5
 43
1.0
 44
0.18
 45
0.0
 46
0.0
 47
0.0
 48
0.0
140
5.0
141
2.5
142
0.0
143
0.03937
144
1.0
145
0.0
146
1.0
147
1.0
 71
     0
 72
     0
 73
     0
 74
     0
 75
     0
 76
     0
 77
     1
 78
     8
170
     1
171
     2
172
     0
173
     0
174
     0
175
     0
176
     0
177
     0
178
     5
270
     2
271
     4
272
     4
273
     2
274
     2
340
11
275
     0
280
     0
281
     0
282
     0
283
     1
284
     0
285
     0
286
     0
287
     3
288
     0
  0
ENDTAB
  0
TABLE
  2
BLOCK_RECORD
  5
1
330
0
100
AcDbSymbolTable
 70
    23
  0
BLOCK_RECORD
  5
1D
330
1
100
AcDbSymbolTableRecord
100
AcDbBlockTableRecord
  2
*MODEL_SPACE
  0
BLOCK_RECORD
  5
1B
330
1
100
AcDbSymbolTableRecord
100
AcDbBlockTableRecord
  2
*PAPER_SPACE
  0
BLOCK_RECORD
  5
3D
330
1
100
AcDbSymbolTableRecord
100
AcDbBlockTableRecord
  2
_FILLED
  0
BLOCK_RECORD
  5
182
330
1
100
AcDbSymbolTableRecord
100
AcDbBlockTableRecord
  2
*D15
  0
BLOCK_RECORD
  5
18E
330
1
100
AcDbSymbolTableRecord
100
AcDbBlockTableRecord
  2
*D16
  0
BLOCK_RECORD
  5
19A
330
1
100
AcDbSymbolTableRecord
100
AcDbBlockTableRecord
  2
*D17
  0
BLOCK_RECORD
  5
1A6
330
1
100
AcDbSymbolTableRecord
100
AcDbBlockTableRecord
  2
*D18
  0
BLOCK_RECORD
  5
1B2
330
1
100
AcDbSymbolTableRecord
100
AcDbBlockTableRecord
  2
*D19
  0
BLOCK_RECORD
  5
1BE
330
1
100
AcDbSymbolTableRecord
100
AcDbBlockTableRecord
  2
*D20
  0
BLOCK_RECORD
  5
1CA
330
1
100
AcDbSymbolTableRecord
100
AcDbBlockTableRecord
  2
STICKER1
  0
BLOCK_RECORD
  5
1D2
330
1
100
AcDbSymbolTableRecord
100
AcDbBlockTableRecord
  2
STICKER2
  0
ENDTAB
  0
ENDSEC
  0
SECTION
  2
BLOCKS
  0
BLOCK
  5
CF
330
1D
100
AcDbEntity
  8
0
100
AcDbBlockBegin
  2
*MODEL_SPACE
 70
     0
 10
0.0
 20
0.0
 30
0.0
  3
*MODEL_SPACE
  1

  0
ENDBLK
  5
D0
330
1D
100
AcDbEntity
  8
0
100
AcDbBlockEnd
  0
BLOCK
  5
D1
330
1B
100
AcDbEntity
 67
     1
  8
0
100
AcDbBlockBegin
  2
*PAPER_SPACE
 70
     0
 10
0.0
 20
0.0
 30
0.0
  3
*PAPER_SPACE
  1

  0
ENDBLK
  5
D2
330
1B
100
AcDbEntity
 67
     1
  8
0
100
AcDbBlockEnd
  0
BLOCK
  5
3C
330
3D
100
AcDbEntity
  8
0
100
AcDbBlockBegin
  2
_FILLED
 70
     0
 10
0.0
 20
0.0
 30
0.0
  3
_FILLED
  1

  0
SOLID
  5
3E
330
3D
100
AcDbEntity
  8
0
  6
BYBLOCK
 62
     0
100
AcDbTrace
 10
0.0
 20
0.0
 30
0.0
 11
-1.0
 21
0.2
 31
0.0
 12
-1.0
 22
-0.2
 32
0.0
 13
-1.0
 23
-0.2
 33
0.0
  0
ENDBLK
  5
3F
330
3D
100
AcDbEntity
  8
0
  6
BYBLOCK
 62
     0
100
AcDbBlockEnd
  0
BLOCK
  5
183
330
182
100
AcDbEntity
  8
0
100
AcDbBlockBegin
  2
*D15
 70
     1
 10
0.0
 20
0.0
 30
0.0
  3
*D15
  1

  0
LINE
  5
185
330
182
100
AcDbEntity
  8
DIMENSIONS
  6
BYBLOCK
 62
     0
100
AcDbLine
 10
-122.0069058663377
 20
373.1537959250448
 30
0.0
 11
-122.0069058663377
 21
395.2278159946958
 31
0.0
  0
LINE
  5
186
330
182
100
AcDbEntity
  8
DIMENSIONS
  6
BYBLOCK
 62
     0
100
AcDbLine
 10
57.19309413366227
 20
373.1537959250448
 30
0.0
 11
57.19309413366227
 21
395.2278159946958
 31
0.0
  0
LINE
  5
187
330
182
100
AcDbEntity
  8
DIMENSIONS
  6
BYBLOCK
 62
     0
100
AcDbLine
 10
-117.0069058663377
 20
395.0478159946958
 30
0.0
 11
52.19309413366227
 21
395.0478159946958
 31
0.0
  0
SOLID
  5
188
330
182
100
AcDbEntity
  8
DIMENSIONS
 62
     0
100
AcDbTrace
 10
-117.0069058663377
 20
395.8811493280292
 30
0.0
 11
-117.0069058663377
 21
394.2144826613625
 31
0.0
 12
-122.0069058663377
 22
395.0478159946958
 32
0.0
 13
-122.0069058663377
 23
395.0478159946958
 33
0.0
  0
SOLID
  5
189
330
182
100
AcDbEntity
  8
DIMENSIONS
 62
     0
100
AcDbTrace
 10
52.19309413366227
 20
394.2144826613625
 30
0.0
 11
52.19309413366227
 21
395.8811493280292
 31
0.0
 12
57.19309413366227
 22
395.0478159946958
 32
0.0
 13
57.19309413366227
 23
395.0478159946958
 33
0.0
  0
MTEXT
  5
18A
330
182
100
AcDbEntity
  8
DIMENSIONS
 62
     5
100
AcDbMText
 10
-32.40690586633774
 20
398.5478159946958
 30
0.0
 40
5.0
 41
0.0
 71
     5
 72
     1
  1
\A1;179.2 [7.06]
  0
POINT
  5
18B
330
182
100
AcDbEntity
  8
DEFPOINTS
 62
     0
100
AcDbPoint
 10
-122.0069058663377
 20
371.6537959250448
 30
0.0
  0
POINT
  5
18C
330
182
100
AcDbEntity
  8
DEFPOINTS
 62
     0
100
AcDbPoint
 10
57.19309413366227
 20
371.6537959250448
 30
0.0
  0
POINT
  5
18D
330
182
100
AcDbEntity
  8
DEFPOINTS
 62
     0
100
AcDbPoint
 10
57.19309413366227
 20
395.0478159946958
 30
0.0
  0
ENDBLK
  5
184
330
182
100
AcDbEntity
  8
0
100
AcDbBlockEnd
  0
BLOCK
  5
18F
330
18E
100
AcDbEntity
  8
0
100
AcDbBlockBegin
  2
*D16
 70
     1
 10
0.0
 20
0.0
 30
0.0
  3
*D16
  1

  0
LINE
  5
191
330
18E
100
AcDbEntity
  8
DIMENSIONS
  6
BYBLOCK
 62
     0
100
AcDbLine
 10
-125.0069058663378
 20
375.153795925045
 30
0.0
 11
-125.0069058663378
 21
407.7302602267937
 31
0.0
  0
LINE
  5
192
330
18E
100
AcDbEntity
  8
DIMENSIONS
  6
BYBLOCK
 62
     0
100
AcDbLine
 10
60.19309413366221
 20
375.153795925045
 30
0.0
 11
60.19309413366221
 21
407.7302602267937
 31
0.0
  0
LINE
  5
193
330
18E
100
AcDbEntity
  8
DIMENSIONS
  6
BYBLOCK
 62
     0
100
AcDbLine
 10
-120.0069058663378
 20
407.5502602267937
 30
0.0
 11
55.19309413366221
 21
407.5502602267937
 31
0.0
  0
SOLID
  5
194
330
18E
100
AcDbEntity
  8
DIMENSIONS
 62
     0
100
AcDbTrace
 10
-120.0069058663378
 20
408.3835935601271
 30
0.0
 11
-120.0069058663378
 21
406.7169268934604
 31
0.0
 12
-125.0069058663378
 22
407.5502602267937
 32
0.0
 13
-125.0069058663378
 23
407.5502602267937
 33
0.0
  0
SOLID
  5
195
330
18E
100
AcDbEntity
  8
DIMENSIONS
 62
     0
100
AcDbTrace
 10
55.19309413366221
 20
406.7169268934604
 30
0.0
 11
55.19309413366221
 21
408.3835935601271
 31
0.0
 12
60.19309413366221
 22
407.5502602267937
 32
0.0
 13
60.19309413366221
 23
407.5502602267937
 33
0.0
  0
MTEXT
  5
196
330
18E
100
AcDbEntity
  8
DIMENSIONS
 62
     5
100
AcDbMText
 10
-32.40690586633778
 20
411.0502602267937
 30
0.0
 40
5.0
 41
0.0
 71
     5
 72
     1
  1
\A1;185.2 [7.29]
  0
POINT
  5
197
330
18E
100
AcDbEntity
  8
DEFPOINTS
 62
     0
100
AcDbPoint
 10
-125.0069058663378
 20
373.653795925045
 30
0.0
  0
POINT
  5
198
330
18E
100
AcDbEntity
  8
DEFPOINTS
 62
     0
100
AcDbPoint
 10
60.19309413366221
 20
373.653795925045
 30
0.0
  0
POINT
  5
199
330
18E
100
AcDbEntity
  8
DEFPOINTS
 62
     0
100
AcDbPoint
 10
60.19309413366221
 20
407.5502602267937
 30
0.0
  0
ENDBLK
  5
190
330
18E
100
AcDbEntity
  8
0
100
AcDbBlockEnd
  0
BLOCK
  5
19B
330
19A
100
AcDbEntity
  8
0
100
AcDbBlockBegin
  2
*D17
 70
     1
 10
0.0
 20
0.0
 30
0.0
  3
*D17
  1

  0
LINE
  5
19D
330
19A
100
AcDbEntity
  8
DIMENSIONS
  6
BYBLOCK
 62
     0
100
AcDbLine
 10
69.19309413366227
 20
384.153795925045
 30
0.0
 11
69.19309413366227
 21
420.0752060963696
 31
0.0
  0
LINE
  5
19E
330
19A
100
AcDbEntity
  8
DIMENSIONS
  6
BYBLOCK
 62
     0
100
AcDbLine
 10
-134.0069058663377
 20
384.153795925045
 30
0.0
 11
-134.0069058663377
 21
420.0752060963696
 31
0.0
  0
LINE
  5
19F
330
19A
100
AcDbEntity
  8
DIMENSIONS
  6
BYBLOCK
 62
     0
100
AcDbLine
 10
64.19309413366227
 20
419.8952060963696
 30
0.0
 11
-129.0069058663377
 21
419.8952060963696
 31
0.0
  0
SOLID
  5
1A0
330
19A
100
AcDbEntity
  8
DIMENSIONS
 62
     0
100
AcDbTrace
 10
64.19309413366227
 20
419.0618727630363
 30
0.0
 11
64.19309413366227
 21
420.7285394297029
 31
0.0
 12
69.19309413366227
 22
419.8952060963696
 32
0.0
 13
69.19309413366227
 23
419.8952060963696
 33
0.0
  0
SOLID
  5
1A1
330
19A
100
AcDbEntity
  8
DIMENSIONS
 62
     0
100
AcDbTrace
 10
-129.0069058663377
 20
420.7285394297029
 30
0.0
 11
-129.0069058663377
 21
419.0618727630363
 31
0.0
 12
-134.0069058663377
 22
419.8952060963696
 32
0.0
 13
-134.0069058663377
 23
419.8952060963696
 33
0.0
  0
MTEXT
  5
1A2
330
19A
100
AcDbEntity
  8
DIMENSIONS
 62
     5
100
AcDbMText
 10
-32.40690586633774
 20
423.3952060963696
 30
0.0
 40
5.0
 41
0.0
 71
     5
 72
     1
  1
\A1;203.2 [8.00]
  0
POINT
  5
1A3
330
19A
100
AcDbEntity
  8
DEFPOINTS
 62
     0
100
AcDbPoint
 10
69.19309413366227
 20
382.653795925045
 30
0.0
  0
POINT
  5
1A4
330
19A
100
AcDbEntity
  8
DEFPOINTS
 62
     0
100
AcDbPoint
 10
-134.0069058663377
 20
382.653795925045
 30
0.0
  0
POINT
  5
1A5
330
19A
100
AcDbEntity
  8
DEFPOINTS
 62
     0
100
AcDbPoint
 10
-134.0069058663377
 20
419.8952060963696
 30
0.0
  0
ENDBLK
  5
19C
330
19A
100
AcDbEntity
  8
0
100
AcDbBlockEnd
  0
BLOCK
  5
1A7
330
1A6
100
AcDbEntity
  8
0
100
AcDbBlockBegin
  2
*D18
 70
     1
 10
0.0
 20
0.0
 30
0.0
  3
*D18
  1

  0
LINE
  5
1A9
330
1A6
100
AcDbEntity
  8
DIMENSIONS
  6
BYBLOCK
 62
     0
100
AcDbLine
 10
-123.5069058663377
 20
371.6537959250448
 30
0.0
 11
-147.3182484770812
 21
371.6537959250448
 31
0.0
  0
LINE
  5
1AA
330
1A6
100
AcDbEntity
  8
DIMENSIONS
  6
BYBLOCK
 62
     0
100
AcDbLine
 10
-123.5069058663377
 20
133.653795925045
 30
0.0
 11
-147.3182484770813
 21
133.653795925045
 31
0.0
  0
LINE
  5
1AB
330
1A6
100
AcDbEntity
  8
DIMENSIONS
  6
BYBLOCK
 62
     0
100
AcDbLine
 10
-147.1382484770812
 20
366.6537959250448
 30
0.0
 11
-147.1382484770812
 21
138.653795925045
 31
0.0
  0
SOLID
  5
1AC
330
1A6
100
AcDbEntity
  8
DIMENSIONS
 62
     0
100
AcDbTrace
 10
-146.3049151437479
 20
366.6537959250448
 30
0.0
 11
-147.9715818104146
 21
366.6537959250448
 31
0.0
 12
-147.1382484770812
 22
371.6537959250448
 32
0.0
 13
-147.1382484770812
 23
371.6537959250448
 33
0.0
  0
SOLID
  5
1AD
330
1A6
100
AcDbEntity
  8
DIMENSIONS
 62
     0
100
AcDbTrace
 10
-147.9715818104146
 20
138.653795925045
 30
0.0
 11
-146.3049151437479
 21
138.653795925045
 31
0.0
 12
-147.1382484770812
 22
133.653795925045
 32
0.0
 13
-147.1382484770812
 23
133.653795925045
 33
0.0
  0
MTEXT
  5
1AE
330
1A6
100
AcDbEntity
  8
DIMENSIONS
 62
     5
100
AcDbMText
 10
-150.6382484770812
 20
252.6537959250449
 30
0.0
 40
5.0
 41
0.0
 71
     5
 72
     1
  1
\A1;238 [9.37]
 11
1.194189471865715E-16
 21
1.0
 31
0.0
  0
POINT
  5
1AF
330
1A6
100
AcDbEntity
  8
DEFPOINTS
 62
     0
100
AcDbPoint
 10
-122.0069058663377
 20
371.6537959250448
 30
0.0
  0
POINT
  5
1B0
330
1A6
100
AcDbEntity
  8
DEFPOINTS
 62
     0
100
AcDbPoint
 10
-122.0069058663377
 20
133.653795925045
 30
0.0
  0
POINT
  5
1B1
330
1A6
100
AcDbEntity
  8
DEFPOINTS
 62
     0
100
AcDbPoint
 10
-147.1382484770812
 20
133.653795925045
 30
0.0
  0
ENDBLK
  5
1A8
330
1A6
100
AcDbEntity
  8
0
100
AcDbBlockEnd
  0
BLOCK
  5
1B3
330
1B2
100
AcDbEntity
  8
0
100
AcDbBlockBegin
  2
*D19
 70
     1
 10
0.0
 20
0.0
 30
0.0
  3
*D19
  1

  0
LINE
  5
1B5
330
1B2
100
AcDbEntity
  8
DIMENSIONS
  6
BYBLOCK
 62
     0
100
AcDbLine
 10
-126.5069058663378
 20
373.653795925045
 30
0.0
 11
-160.9638997970025
 21
373.653795925045
 31
0.0
  0
LINE
  5
1B6
330
1B2
100
AcDbEntity
  8
DIMENSIONS
  6
BYBLOCK
 62
     0
100
AcDbLine
 10
-126.5069058663378
 20
131.653795925045
 30
0.0
 11
-160.9638997970025
 21
131.653795925045
 31
0.0
  0
LINE
  5
1B7
330
1B2
100
AcDbEntity
  8
DIMENSIONS
  6
BYBLOCK
 62
     0
100
AcDbLine
 10
-160.7838997970025
 20
368.653795925045
 30
0.0
 11
-160.7838997970025
 21
136.653795925045
 31
0.0
  0
SOLID
  5
1B8
330
1B2
100
AcDbEntity
  8
DIMENSIONS
 62
     0
100
AcDbTrace
 10
-159.9505664636692
 20
368.653795925045
 30
0.0
 11
-161.6172331303358
 21
368.653795925045
 31
0.0
 12
-160.7838997970025
 22
373.653795925045
 32
0.0
 13
-160.7838997970025
 23
373.653795925045
 33
0.0
  0
SOLID
  5
1B9
330
1B2
100
AcDbEntity
  8
DIMENSIONS
 62
     0
100
AcDbTrace
 10
-161.6172331303359
 20
136.653795925045
 30
0.0
 11
-159.9505664636692
 21
136.653795925045
 31
0.0
 12
-160.7838997970025
 22
131.653795925045
 32
0.0
 13
-160.7838997970025
 23
131.653795925045
 33
0.0
  0
MTEXT
  5
1BA
330
1B2
100
AcDbEntity
  8
DIMENSIONS
 62
     5
100
AcDbMText
 10
-164.2838997970025
 20
252.653795925045
 30
0.0
 40
5.0
 41
0.0
 71
     5
 72
     1
  1
\A1;242 [9.53]
 11
1.174450802909257E-16
 21
1.0
 31
0.0
  0
POINT
  5
1BB
330
1B2
100
AcDbEntity
  8
DEFPOINTS
 62
     0
100
AcDbPoint
 10
-125.0069058663378
 20
373.653795925045
 30
0.0
  0
POINT
  5
1BC
330
1B2
100
AcDbEntity
  8
DEFPOINTS
 62
     0
100
AcDbPoint
 10
-125.0069058663378
 20
131.653795925045
 30
0.0
  0
POINT
  5
1BD
330
1B2
100
AcDbEntity
  8
DEFPOINTS
 62
     0
100
AcDbPoint
 10
-160.7838997970025
 20
131.653795925045
 30
0.0
  0
ENDBLK
  5
1B4
330
1B2
100
AcDbEntity
  8
0
100
AcDbBlockEnd
  0
BLOCK
  5
1BF
330
1BE
100
AcDbEntity
  8
0
100
AcDbBlockBegin
  2
*D20
 70
     1
 10
0.0
 20
0.0
 30
0.0
  3
*D20
  1

  0
LINE
  5
1C1
330
1BE
100
AcDbEntity
  8
DIMENSIONS
  6
BYBLOCK
 62
     0
100
AcDbLine
 10
-135.5069058663377
 20
122.653795925045
 30
0.0
 11
-175.5632449611203
 21
122.653795925045
 31
0.0
  0
LINE
  5
1C2
330
1BE
100
AcDbEntity
  8
DIMENSIONS
  6
BYBLOCK
 62
     0
100
AcDbLine
 10
-135.5069058663377
 20
382.653795925045
 30
0.0
 11
-175.5632449611203
 21
382.653795925045
 31
0.0
  0
LINE
  5
1C3
330
1BE
100
AcDbEntity
  8
DIMENSIONS
  6
BYBLOCK
 62
     0
100
AcDbLine
 10
-175.3832449611203
 20
127.653795925045
 30
0.0
 11
-175.3832449611203
 21
377.653795925045
 31
0.0
  0
SOLID
  5
1C4
330
1BE
100
AcDbEntity
  8
DIMENSIONS
 62
     0
100
AcDbTrace
 10
-176.2165782944536
 20
127.653795925045
 30
0.0
 11
-174.5499116277869
 21
127.653795925045
 31
0.0
 12
-175.3832449611203
 22
122.653795925045
 32
0.0
 13
-175.3832449611203
 23
122.653795925045
 33
0.0
  0
SOLID
  5
1C5
330
1BE
100
AcDbEntity
  8
DIMENSIONS
 62
     0
100
AcDbTrace
 10
-174.5499116277869
 20
377.653795925045
 30
0.0
 11
-176.2165782944536
 21
377.653795925045
 31
0.0
 12
-175.3832449611203
 22
382.653795925045
 32
0.0
 13
-175.3832449611203
 23
382.653795925045
 33
0.0
  0
MTEXT
  5
1C6
330
1BE
100
AcDbEntity
  8
DIMENSIONS
 62
     5
100
AcDbMText
 10
-178.8832449611203
 20
252.653795925045
 30
0.0
 40
5.0
 41
0.0
 71
     5
 72
     1
  1
\A1;260 [10.24]
 11
1.093142670400154E-16
 21
1.0
 31
0.0
  0
POINT
  5
1C7
330
1BE
100
AcDbEntity
  8
DEFPOINTS
 62
     0
100
AcDbPoint
 10
-134.0069058663377
 20
122.653795925045
 30
0.0
  0
POINT
  5
1C8
330
1BE
100
AcDbEntity
  8
DEFPOINTS
 62
     0
100
AcDbPoint
 10
-134.0069058663377
 20
382.653795925045
 30
0.0
  0
POINT
  5
1C9
330
1BE
100
AcDbEntity
  8
DEFPOINTS
 62
     0
100
AcDbPoint
 10
-175.3832449611203
 20
382.653795925045
 30
0.0
  0
ENDBLK
  5
1C0
330
1BE
100
AcDbEntity
  8
0
100
AcDbBlockEnd
  0
BLOCK
  5
1CF
330
1CA
100
AcDbEntity
  8
0
100
AcDbBlockBegin
  2
STICKER1
 70
     0
 10
0.0
 20
0.0
 30
0.0
  3
STICKER1
  1

  0
LINE
  5
1CB
330
1CA
100
AcDbEntity
  8
02___PRT_ALL_AXES
  6
CONTINUOUS
 62
     7
100
AcDbLine
 10
402.4291065365
 20
335.3199808998
 30
0.0
 11
199.2291065365
 21
335.3199808998
 31
0.0
  0
LINE
  5
1CC
330
1CA
100
AcDbEntity
  8
02___PRT_ALL_AXES
  6
CONTINUOUS
 62
     7
100
AcDbLine
 10
199.2291065365
 20
335.3199808998
 30
0.0
 11
199.2291065365
 21
75.3199808998
 31
0.0
  0
LINE
  5
1CD
330
1CA
100
AcDbEntity
  8
02___PRT_ALL_AXES
  6
CONTINUOUS
 62
     7
100
AcDbLine
 10
402.4291065365
 20
75.3199808998
 30
0.0
 11
402.4291065365
 21
335.3199808998
 31
0.0
  0
LINE
  5
1CE
330
1CA
100
AcDbEntity
  8
0
  6
BYBLOCK
100
AcDbLine
 10
199.2291065365
 20
75.3199808998
 30
0.0
 11
402.4291065365
 21
75.3199808998
 31
0.0
  0
ENDBLK
  5
1D0
330
1CA
100
AcDbEntity
  8
0
100
AcDbBlockEnd
  0
BLOCK
  5
1D7
330
1D2
100
AcDbEntity
  8
0
100
AcDbBlockBegin
  2
STICKER2
 70
     0
 10
0.0
 20
0.0
 30
0.0
  3
STICKER2
  1

  0
LINE
  5
1D3
330
1D2
100
AcDbEntity
  8
02___PRT_ALL_AXES
  6
CONTINUOUS
 62
     7
100
AcDbLine
 10
211.2291065365
 20
324.3199808998
 30
0.0
 11
390.4291065365
 21
324.3199808998
 31
0.0
  0
LINE
  5
1D4
330
1D2
100
AcDbEntity
  8
02___PRT_ALL_AXES
  6
CONTINUOUS
 62
     7
100
AcDbLine
 10
390.4291065365
 20
324.3199808998
 30
0.0
 11
390.4291065365
 21
86.3199808998
 31
0.0
  0
LINE
  5
1D5
330
1D2
100
AcDbEntity
  8
02___PRT_ALL_AXES
  6
CONTINUOUS
 62
     7
100
AcDbLine
 10
390.4291065365
 20
86.3199808998
 30
0.0
 11
211.2291065365
 21
86.3199808998
 31
0.0
  0
LINE
  5
1D6
330
1D2
100
AcDbEntity
  8
02___PRT_ALL_AXES
  6
CONTINUOUS
 62
     7
100
AcDbLine
 10
211.2291065365
 20
86.3199808998
 30
0.0
 11
211.2291065365
 21
324.3199808998
 31
0.0
  0
ENDBLK
  5
1D8
330
1D2
100
AcDbEntity
  8
0
100
AcDbBlockEnd
  0
ENDSEC
  0
SECTION
  2
ENTITIES
  0
CIRCLE
  5
A9
330
1D
100
AcDbEntity
  8
02___PRT_ALL_AXES
  6
CONTINUOUS
 62
     7
100
AcDbCircle
 10
-125.0069058663378
 20
131.653795925045
 30
0.0
 40
3.0
  0
CIRCLE
  5
AA
330
1D
100
AcDbEntity
  8
02___PRT_ALL_AXES
  6
CONTINUOUS
 62
     7
100
AcDbCircle
 10
60.19309413366221
 20
131.653795925045
 30
0.0
 40
3.0
  0
CIRCLE
  5
AB
330
1D
100
AcDbEntity
  8
02___PRT_ALL_AXES
  6
CONTINUOUS
 62
     7
100
AcDbCircle
 10
60.19309413366221
 20
373.653795925045
 30
0.0
 40
3.0
  0
CIRCLE
  5
AC
330
1D
100
AcDbEntity
  8
02___PRT_ALL_AXES
  6
CONTINUOUS
 62
     7
100
AcDbCircle
 10
-125.0069058663378
 20
373.653795925045
 30
0.0
 40
3.0
  0
TEXT
  5
172
330
1D
100
AcDbEntity
  8
DIMENSIONS
  6
BYBLOCK
100
AcDbText
 10
-135.1207490324389
 20
106.5351084845126
 30
0.0
 40
5.0
  1
Note:
100
AcDbText
  0
TEXT
  5
173
330
1D
100
AcDbEntity
  8
DIMENSIONS
  6
BYBLOCK
100
AcDbText
 10
-134.9868229921534
 20
96.00614063651949
 30
0.0
 40
5.0
  1
Primary dimensions in millimeters.
100
AcDbText
  0
TEXT
  5
174
330
1D
100
AcDbEntity
  8
DIMENSIONS
  6
BYBLOCK
100
AcDbText
 10
-134.7654090557635
 20
85.43411502773546
 30
0.0
 40
5.0
  1
Secondary dimensions in inches.
100
AcDbText
  0
DIMENSION
  5
17B
330
1D
100
AcDbEntity
  8
DIMENSIONS
  6
BYBLOCK
100
AcDbDimension
  2
*D15
 10
57.19309413366227
 20
395.0478159946958
 30
0.0
 11
-32.40690586633774
 21
398.5478159946958
 31
0.0
 70
    32
  3
DUAL-DIM
100
AcDbAlignedDimension
 13
-122.0069058663377
 23
371.6537959250448
 33
0.0
 14
57.19309413366227
 24
371.6537959250448
 34
0.0
100
AcDbRotatedDimension
1001
ACAD
1000
DSTYLE
1002
{
1070
   287
1070
     5
1070
   279
1070
     2
1002
}
  0
DIMENSION
  5
17C
330
1D
100
AcDbEntity
  8
DIMENSIONS
  6
BYBLOCK
100
AcDbDimension
  2
*D16
 10
60.19309413366221
 20
407.5502602267937
 30
0.0
 11
-32.40690586633778
 21
411.0502602267937
 31
0.0
 70
    32
  3
DUAL-DIM
100
AcDbAlignedDimension
 13
-125.0069058663378
 23
373.653795925045
 33
0.0
 14
60.19309413366221
 24
373.653795925045
 34
0.0
100
AcDbRotatedDimension
1001
ACAD
1000
DSTYLE
1002
{
1070
   287
1070
     5
1070
   279
1070
     2
1002
}
  0
DIMENSION
  5
17D
330
1D
100
AcDbEntity
  8
DIMENSIONS
  6
BYBLOCK
100
AcDbDimension
  2
*D17
 10
-134.0069058663377
 20
419.8952060963696
 30
0.0
 11
-32.40690586633774
 21
423.3952060963696
 31
0.0
 70
    32
  3
DUAL-DIM
100
AcDbAlignedDimension
 13
69.19309413366227
 23
382.653795925045
 33
0.0
 14
-134.0069058663377
 24
382.653795925045
 34
0.0
100
AcDbRotatedDimension
1001
ACAD
1000
DSTYLE
1002
{
1070
   287
1070
     5
1070
   279
1070
     2
1002
}
  0
DIMENSION
  5
17E
330
1D
100
AcDbEntity
  8
DIMENSIONS
  6
BYBLOCK
100
AcDbDimension
  2
*D18
 10
-147.1382484770812
 20
133.653795925045
 30
0.0
 11
-150.6382484770812
 21
252.6537959250449
 31
0.0
 70
    32
  3
DUAL-DIM
100
AcDbAlignedDimension
 13
-122.0069058663377
 23
371.6537959250448
 33
0.0
 14
-122.0069058663377
 24
133.653795925045
 34
0.0
 50
90.0
100
AcDbRotatedDimension
1001
ACAD
1000
DSTYLE
1002
{
1070
   287
1070
     5
1070
   279
1070
     2
1002
}
  0
DIMENSION
  5
17F
330
1D
100
AcDbEntity
  8
DIMENSIONS
  6
BYBLOCK
100
AcDbDimension
  2
*D19
 10
-160.7838997970025
 20
131.653795925045
 30
0.0
 11
-164.2838997970025
 21
252.653795925045
 31
0.0
 70
    32
  3
DUAL-DIM
100
AcDbAlignedDimension
 13
-125.0069058663378
 23
373.653795925045
 33
0.0
 14
-125.0069058663378
 24
131.653795925045
 34
0.0
 50
90.0
100
AcDbRotatedDimension
1001
ACAD
1000
DSTYLE
1002
{
1070
   287
1070
     5
1070
   279
1070
     2
1002
}
  0
DIMENSION
  5
180
330
1D
100
AcDbEntity
  8
DIMENSIONS
  6
BYBLOCK
100
AcDbDimension
  2
*D20
 10
-175.3832449611203
 20
382.653795925045
 30
0.0
 11
-178.8832449611203
 21
252.653795925045
 31
0.0
 70
    32
  3
DUAL-DIM
100
AcDbAlignedDimension
 13
-134.0069058663377
 23
122.653795925045
 33
0.0
 14
-134.0069058663377
 24
382.653795925045
 34
0.0
 50
90.0
100
AcDbRotatedDimension
1001
ACAD
1000
DSTYLE
1002
{
1070
   287
1070
     5
1070
   279
1070
     2
1002
}
  0
LWPOLYLINE
  5
181
330
1D
100
AcDbEntity
  8
0
  6
BYBLOCK
100
AcDbPolyline
 90
        4
 70
     1
 43
0.0
 10
-207.2838991497251
 20
76.62505647210537
 10
-207.2838991497251
 20
448.6536833704871
 10
102.5829824947497
 20
448.6536833704871
 10
102.5829824947497
 20
76.62505647210537
  0
INSERT
  5
1D1
330
1D
100
AcDbEntity
  8
0
100
AcDbBlockReference
  2
STICKER1
 10
-333.2360124028378
 20
47.33381502524496
 30
0.0
  0
INSERT
  5
1D9
330
1D
100
AcDbEntity
  8
0
100
AcDbBlockReference
  2
STICKER2
 10
-333.2360124028378
 20
47.33381502524496
 30
0.0
  0
ENDSEC
  0
SECTION
  2
OBJECTS
  0
DICTIONARY
  5
C
330
0
100
AcDbDictionary
  3
ACAD_DETAILVIEWSTYLE
350
1E2
  3
ACAD_GROUP
350
D
  3
ACAD_IMAGE_VARS
350
F2
  3
ACAD_MLINESTYLE
350
17
  3
ACAD_SCALELIST
350
AD
  3
ACAD_SECTIONVIEWSTYLE
350
1E3
  3
ACDBVARIABLEDICTIONARY
350
1DD
  3
APPDATA
350
F0
  3
DWGPROPS
350
1E8
  0
DICTIONARY
  5
1E2
102
{ACAD_REACTORS
330
C
102
}
330
C
100
AcDbDictionary
  0
DICTIONARY
  5
D
102
{ACAD_REACTORS
330
C
102
}
330
C
100
AcDbDictionary
  0
RASTERVARIABLES
  5
F2
102
{ACAD_REACTORS
330
C
102
}
330
C
100
AcDbRasterVariables
 90
        0
 70
     1
 71
     1
 72
     0
  0
DICTIONARY
  5
17
102
{ACAD_REACTORS
330
C
102
}
330
C
100
AcDbDictionary
  3
STANDARD
350
18
  0
DICTIONARY
  5
AD
102
{ACAD_REACTORS
330
C
102
}
330
C
100
AcDbDictionary
  0
DICTIONARY
  5
1E3
102
{ACAD_REACTORS
330
C
102
}
330
C
100
AcDbDictionary
  0
DICTIONARY
  5
1DD
102
{ACAD_REACTORS
330
C
102
}
330
C
100
AcDbDictionary
  0
DICTIONARY
  5
F0
102
{ACAD_REACTORS
330
C
102
}
330
C
100
AcDbDictionary
  0
XRECORD
  5
1E8
102
{ACAD_REACTORS
330
C
102
}
330
C
100
AcDbXrecord
  1
DWGPROPS COOKIE
  2

  3

  4

  6

  7

  8
briang
  9

300
=
301
=
302
=
303
=
304
=
305
=
306
=
307
=
308
=
309
=
 40
0.0
 41
2457872.562704294
 42
2457872.585914641
  1

 90
        0
  0
MLINESTYLE
  5
18
102
{ACAD_REACTORS
330
17
102
}
330
17
100
AcDbMlineStyle
  2
Standard
 70
     0
  3

 62
   256
 51
90.0
 52
90.0
 71
     2
 49
0.5
 62
   256
  6
BYLAYER
 49
-0.5
 62
   256
  6
BYLAYER
  0
ENDSEC
  0
EOF
