  0
SECTION
  2
HEADER
  9
$ACADVER
  1
AC1027
  9
$ACADMAINTVER
 70
     8
  9
$DWGCODEPAGE
  3
ANSI_1252
  9
$LASTSAVEDBY
  1
darrels
  9
$REQUIREDVERSIONS
160
                 0
  9
$INSBASE
 10
0.0
 20
0.0
 30
0.0
  9
$EXTMIN
 10
397.1091812153606
 20
-111.6991145011338
 30
-0.0000000349181948
  9
$EXTMAX
 10
623.1770096425082
 20
203.3223485831272
 30
0.0000000814935747
  9
$LIMMIN
 10
0.0
 20
0.0
  9
$LIMMAX
 10
594.0
 20
420.0
  9
$ORTHOMODE
 70
     0
  9
$REGENMODE
 70
     1
  9
$FILLMODE
 70
     1
  9
$QTEXTMODE
 70
     0
  9
$MIRRTEXT
 70
     1
  9
$LTSCALE
 40
32.67
  9
$ATTMODE
 70
     1
  9
$TEXTSIZE
 40
0.2
  9
$TRACEWID
 40
0.05
  9
$TEXTSTYLE
  7
STANDARD
  9
$CLAYER
  8
DIMENSIONS
  9
$CELTYPE
  6
ByBlock
  9
$CECOLOR
 62
   256
  9
$CELTSCALE
 40
1.0
  9
$DISPSILH
 70
     0
  9
$DIMSCALE
 40
1.0
  9
$DIMASZ
 40
5.0
  9
$DIMEXO
 40
1.5
  9
$DIMDLI
 40
1.0
  9
$DIMRND
 40
0.0
  9
$DIMDLE
 40
0.0
  9
$DIMEXE
 40
0.18
  9
$DIMTP
 40
0.0
  9
$DIMTM
 40
0.0
  9
$DIMTXT
 40
5.0
  9
$DIMCEN
 40
2.5
  9
$DIMTSZ
 40
0.0
  9
$DIMTOL
 70
     0
  9
$DIMLIM
 70
     0
  9
$DIMTIH
 70
     0
  9
$DIMTOH
 70
     0
  9
$DIMSE1
 70
     0
  9
$DIMSE2
 70
     0
  9
$DIMTAD
 70
     1
  9
$DIMZIN
 70
     8
  9
$DIMBLK
  1

  9
$DIMASO
 70
     1
  9
$DIMSHO
 70
     1
  9
$DIMPOST
  1

  9
$DIMAPOST
  1

  9
$DIMALT
 70
     1
  9
$DIMALTD
 70
     2
  9
$DIMALTF
 40
0.03937
  9
$DIMLFAC
 40
1.0
  9
$DIMTOFL
 70
     0
  9
$DIMTVP
 40
0.0
  9
$DIMTIX
 70
     0
  9
$DIMSOXD
 70
     0
  9
$DIMSAH
 70
     0
  9
$DIMBLK1
  1

  9
$DIMBLK2
  1

  9
$DIMSTYLE
  2
DUAL-DIM
  9
$DIMCLRD
 70
     0
  9
$DIMCLRE
 70
     0
  9
$DIMCLRT
 70
     5
  9
$DIMTFAC
 40
1.0
  9
$DIMGAP
 40
1.0
  9
$DIMJUST
 70
     0
  9
$DIMSD1
 70
     0
  9
$DIMSD2
 70
     0
  9
$DIMTOLJ
 70
     1
  9
$DIMTZIN
 70
     0
  9
$DIMALTZ
 70
     0
  9
$DIMALTTZ
 70
     0
  9
$DIMUPT
 70
     0
  9
$DIMDEC
 70
     4
  9
$DIMTDEC
 70
     4
  9
$DIMALTU
 70
     2
  9
$DIMALTTD
 70
     2
  9
$DIMTXSTY
  7
STANDARD
  9
$DIMAUNIT
 70
     0
  9
$DIMADEC
 70
     0
  9
$DIMALTRND
 40
0.0
  9
$DIMAZIN
 70
     0
  9
$DIMDSEP
 70
    46
  9
$DIMATFIT
 70
     3
  9
$DIMFRAC
 70
     0
  9
$DIMLDRBLK
  1

  9
$DIMLUNIT
 70
     2
  9
$DIMLWD
 70
    -2
  9
$DIMLWE
 70
    -2
  9
$DIMTMOVE
 70
     0
  9
$DIMFXL
 40
1.0
  9
$DIMFXLON
 70
     0
  9
$DIMJOGANG
 40
0.7853981633974483
  9
$DIMTFILL
 70
     0
  9
$DIMTFILLCLR
 70
     0
  9
$DIMARCSYM
 70
     0
  9
$DIMLTYPE
  6

  9
$DIMLTEX1
  6

  9
$DIMLTEX2
  6

  9
$DIMTXTDIRECTION
 70
     0
  9
$LUNITS
 70
     2
  9
$LUPREC
 70
     4
  9
$SKETCHINC
 40
0.1
  9
$FILLETRAD
 40
15.0
  9
$AUNITS
 70
     0
  9
$AUPREC
 70
     0
  9
$MENU
  1
.
  9
$ELEVATION
 40
0.0
  9
$PELEVATION
 40
0.0
  9
$THICKNESS
 40
0.0
  9
$LIMCHECK
 70
     0
  9
$CHAMFERA
 40
0.0
  9
$CHAMFERB
 40
0.0
  9
$CHAMFERC
 40
0.0
  9
$CHAMFERD
 40
0.0
  9
$SKPOLY
 70
     0
  9
$TDCREATE
 40
2457428.396344525
  9
$TDUCREATE
 40
2457428.313011192
  9
$TDUPDATE
 40
2457507.400292292
  9
$TDUUPDATE
 40
2457507.316958958
  9
$TDINDWG
 40
0.0534645486
  9
$TDUSRTIMER
 40
2457431.392010035
  9
$USRTIMER
 70
     1
  9
$ANGBASE
 50
0.0
  9
$ANGDIR
 70
     0
  9
$PDMODE
 70
     3
  9
$PDSIZE
 40
0.3125
  9
$PLINEWID
 40
0.0
  9
$SPLFRAME
 70
     0
  9
$SPLINETYPE
 70
     6
  9
$SPLINESEGS
 70
     8
  9
$HANDSEED
  5
D0F
  9
$SURFTAB1
 70
     6
  9
$SURFTAB2
 70
     6
  9
$SURFTYPE
 70
     6
  9
$SURFU
 70
     6
  9
$SURFV
 70
     6
  9
$UCSBASE
  2

  9
$UCSNAME
  2

  9
$UCSORG
 10
0.0
 20
0.0
 30
0.0
  9
$UCSXDIR
 10
1.0
 20
0.0
 30
0.0
  9
$UCSYDIR
 10
0.0
 20
1.0
 30
0.0
  9
$UCSORTHOREF
  2

  9
$UCSORTHOVIEW
 70
     0
  9
$UCSORGTOP
 10
0.0
 20
0.0
 30
0.0
  9
$UCSORGBOTTOM
 10
0.0
 20
0.0
 30
0.0
  9
$UCSORGLEFT
 10
0.0
 20
0.0
 30
0.0
  9
$UCSORGRIGHT
 10
0.0
 20
0.0
 30
0.0
  9
$UCSORGFRONT
 10
0.0
 20
0.0
 30
0.0
  9
$UCSORGBACK
 10
0.0
 20
0.0
 30
0.0
  9
$PUCSBASE
  2

  9
$PUCSNAME
  2

  9
$PUCSORG
 10
0.0
 20
0.0
 30
0.0
  9
$PUCSXDIR
 10
1.0
 20
0.0
 30
0.0
  9
$PUCSYDIR
 10
0.0
 20
1.0
 30
0.0
  9
$PUCSORTHOREF
  2

  9
$PUCSORTHOVIEW
 70
     0
  9
$PUCSORGTOP
 10
0.0
 20
0.0
 30
0.0
  9
$PUCSORGBOTTOM
 10
0.0
 20
0.0
 30
0.0
  9
$PUCSORGLEFT
 10
0.0
 20
0.0
 30
0.0
  9
$PUCSORGRIGHT
 10
0.0
 20
0.0
 30
0.0
  9
$PUCSORGFRONT
 10
0.0
 20
0.0
 30
0.0
  9
$PUCSORGBACK
 10
0.0
 20
0.0
 30
0.0
  9
$USERI1
 70
     0
  9
$USERI2
 70
     0
  9
$USERI3
 70
     0
  9
$USERI4
 70
     0
  9
$USERI5
 70
     0
  9
$USERR1
 40
0.0
  9
$USERR2
 40
0.0
  9
$USERR3
 40
0.0
  9
$USERR4
 40
0.0
  9
$USERR5
 40
0.0
  9
$WORLDVIEW
 70
     1
  9
$SHADEDGE
 70
     3
  9
$SHADEDIF
 70
    70
  9
$TILEMODE
 70
     1
  9
$MAXACTVP
 70
    64
  9
$PINSBASE
 10
0.0
 20
0.0
 30
0.0
  9
$PLIMCHECK
 70
     0
  9
$PEXTMIN
 10
1.000000000000000E+20
 20
1.000000000000000E+20
 30
1.000000000000000E+20
  9
$PEXTMAX
 10
-1.000000000000000E+20
 20
-1.000000000000000E+20
 30
-1.000000000000000E+20
  9
$PLIMMIN
 10
0.0
 20
0.0
  9
$PLIMMAX
 10
0.0
 20
0.0
  9
$UNITMODE
 70
     0
  9
$VISRETAIN
 70
     1
  9
$PLINEGEN
 70
     0
  9
$PSLTSCALE
 70
     1
  9
$TREEDEPTH
 70
  3020
  9
$CMLSTYLE
  2
Standard
  9
$CMLJUST
 70
     0
  9
$CMLSCALE
 40
1.0
  9
$PROXYGRAPHICS
 70
     1
  9
$MEASUREMENT
 70
     0
  9
$CELWEIGHT
370
    -1
  9
$ENDCAPS
280
     0
  9
$JOINSTYLE
280
     0
  9
$LWDISPLAY
290
     0
  9
$INSUNITS
 70
     0
  9
$HYPERLINKBASE
  1

  9
$STYLESHEET
  1
MONOCHROME.CTB
  9
$XEDIT
290
     1
  9
$CEPSNTYPE
380
     0
  9
$PSTYLEMODE
290
     1
  9
$FINGERPRINTGUID
  2
{29D0FD0F-511F-417A-9A9F-9029C9846FF3}
  9
$VERSIONGUID
  2
{9AF8AD6A-C3EC-4D7D-98C0-7A5AC7A3B552}
  9
$EXTNAMES
290
     1
  9
$PSVPSCALE
 40
0.0
  9
$OLESTARTUP
290
     0
  9
$SORTENTS
280
   127
  9
$INDEXCTL
280
     0
  9
$HIDETEXT
280
     0
  9
$XCLIPFRAME
280
     2
  9
$HALOGAP
280
     0
  9
$OBSCOLOR
 70
   257
  9
$OBSLTYPE
280
     0
  9
$INTERSECTIONDISPLAY
280
     0
  9
$INTERSECTIONCOLOR
 70
   257
  9
$DIMASSOC
280
     1
  9
$PROJECTNAME
  1

  9
$CAMERADISPLAY
290
     0
  9
$LENSLENGTH
 40
50.0
  9
$CAMERAHEIGHT
 40
0.0
  9
$STEPSPERSEC
 40
2.0
  9
$STEPSIZE
 40
6.0
  9
$3DDWFPREC
 40
2.0
  9
$PSOLWIDTH
 40
0.25
  9
$PSOLHEIGHT
 40
4.0
  9
$LOFTANG1
 40
1.570796326794896
  9
$LOFTANG2
 40
1.570796326794896
  9
$LOFTMAG1
 40
0.0
  9
$LOFTMAG2
 40
0.0
  9
$LOFTPARAM
 70
     7
  9
$LOFTNORMALS
280
     1
  9
$LATITUDE
 40
37.795
  9
$LONGITUDE
 40
-122.394
  9
$NORTHDIRECTION
 40
0.0
  9
$TIMEZONE
 70
 -8000
  9
$LIGHTGLYPHDISPLAY
280
     1
  9
$TILEMODELIGHTSYNCH
280
     1
  9
$CMATERIAL
347
B31
  9
$SOLIDHIST
280
     0
  9
$SHOWHIST
280
     1
  9
$DWFFRAME
280
     2
  9
$DGNFRAME
280
     0
  9
$REALWORLDSCALE
290
     1
  9
$INTERFERECOLOR
 62
     1
  9
$INTERFEREOBJVS
345
B53
  9
$INTERFEREVPVS
346
B50
  9
$CSHADOW
280
     0
  9
$SHADOWPLANELOCATION
 40
0.0
  0
ENDSEC
  0
SECTION
  2
CLASSES
  0
CLASS
  1
ACDBDICTIONARYWDFLT
  2
AcDbDictionaryWithDefault
  3
ObjectDBX Classes
 90
        0
 91
        1
280
     0
281
     0
  0
CLASS
  1
MATERIAL
  2
AcDbMaterial
  3
ObjectDBX Classes
 90
     1153
 91
        3
280
     0
281
     0
  0
CLASS
  1
VISUALSTYLE
  2
AcDbVisualStyle
  3
ObjectDBX Classes
 90
     4095
 91
       24
280
     0
281
     0
  0
CLASS
  1
SCALE
  2
AcDbScale
  3
ObjectDBX Classes
 90
     1153
 91
       17
280
     0
281
     0
  0
CLASS
  1
TABLESTYLE
  2
AcDbTableStyle
  3
ObjectDBX Classes
 90
     4095
 91
        1
280
     0
281
     0
  0
CLASS
  1
MLEADERSTYLE
  2
AcDbMLeaderStyle
  3
ACDB_MLEADERSTYLE_CLASS
 90
     4095
 91
        1
280
     0
281
     0
  0
CLASS
  1
ACDBSECTIONVIEWSTYLE
  2
AcDbSectionViewStyle
  3
ObjectDBX Classes
 90
     1025
 91
        1
280
     0
281
     0
  0
CLASS
  1
ACDBDETAILVIEWSTYLE
  2
AcDbDetailViewStyle
  3
ObjectDBX Classes
 90
     1025
 91
        1
280
     0
281
     0
  0
CLASS
  1
EXACXREFPANELOBJECT
  2
ExAcXREFPanelObject
  3
EXAC_ESW
 90
     1025
 91
        1
280
     0
281
     0
  0
CLASS
  1
NPOCOLLECTION
  2
AcDbImpNonPersistentObjectsCollection
  3
ObjectDBX Classes
 90
     1153
 91
        1
280
     0
281
     0
  0
CLASS
  1
DICTIONARYVAR
  2
AcDbDictionaryVar
  3
ObjectDBX Classes
 90
        0
 91
        9
280
     0
281
     0
  0
CLASS
  1
SORTENTSTABLE
  2
AcDbSortentsTable
  3
ObjectDBX Classes
 90
        0
 91
        1
280
     0
281
     0
  0
CLASS
  1
CELLSTYLEMAP
  2
AcDbCellStyleMap
  3
ObjectDBX Classes
 90
     1152
 91
        2
280
     0
281
     0
  0
CLASS
  1
AMGSETTINGSOBJ
  2
AmgSettingsObj
  3
"AcadM|Product Description: AutoCAD Mechanical|Company: Autodesk, Inc."
 90
     1024
 91
        2
280
     0
281
     0
  0
CLASS
  1
ACME_DOCUMENT
  2
AcMeDbDoc
  3
AcMeServices
 90
     1024
 91
        1
280
     0
281
     0
  0
CLASS
  1
ACMESCOPE
  2
AcMeScope
  3
AcMeServices
 90
     1024
 91
        1
280
     0
281
     0
  0
CLASS
  1
ACMECOMMANDHISTORY
  2
AcMeCommandHistory
  3
AcMeServices
 90
     1024
 91
        1
280
     0
281
     0
  0
CLASS
  1
ACIMSYSVARMAN
  2
AcImSysVarManager
  3
AcMeServices
 90
     1024
 91
        3
280
     0
281
     0
  0
CLASS
  1
ACIMINTSYSVAR
  2
AcImIntSysVar
  3
AcMeServices
 90
     1024
 91
        2
280
     0
281
     0
  0
CLASS
  1
ACMESTATEMGR
  2
AcMeStateMgr
  3
AcMeServices
 90
     1024
 91
        1
280
     0
281
     0
  0
CLASS
  1
ACDBENTITYCACHE
  2
AcMeEntityCache
  3
AcMeServices
 90
     1024
 91
        1
280
     0
281
     0
  0
CLASS
  1
ACGREFMASTER
  2
AcGrefMaster
  3
AcAttribServices
 90
     1024
 91
        1
280
     0
281
     0
  0
CLASS
  1
ACME_DATABASE
  2
AcMeDbDatabase
  3
AcMeServices
 90
     1024
 91
        1
280
     0
281
     0
  0
CLASS
  1
ACRFINSADJUSTERMGR
  2
AcRfInsAdjusterMgr
  3
AcMeServices
 90
     1024
 91
        1
280
     0
281
     0
  0
CLASS
  1
ACGREFACADMASTER
  2
AcGrefacadMaster
  3
AcGrefServices
 90
     1024
 91
        1
280
     0
281
     0
  0
CLASS
  1
AMDTMENUSTATEMGR
  2
AmdtMenuStateMgr
  3
McadcomServices
 90
     1024
 91
        1
280
     0
281
     0
  0
CLASS
  1
AMDTMCOMMENUSTATE
  2
AmdtMcomMenuState
  3
McadcomServices
 90
     1024
 91
        1
280
     0
281
     0
  0
CLASS
  1
AMIMASTER
  2
AmiMaster
  3
AmiServices
 90
     1024
 91
        1
280
     0
281
     0
  0
CLASS
  1
MAPIAMMOUDLE
  2
MApiAmModule
  3
MApiAmServices
 90
     1024
 91
        1
280
     0
281
     0
  0
CLASS
  1
ACIMSTRSYSVAR
  2
AcImStrSysVar
  3
AcMeServices
 90
     1024
 91
        5
280
     0
281
     0
  0
CLASS
  1
AMDTAMMENUSTATE
  2
AmdtAmMenuState
  3
DesignerAssemblies
 90
     1024
 91
        1
280
     0
281
     0
  0
CLASS
  1
ACAMPROJECT
  2
AcAmProject
  3
DesignerAssemblies
 90
     1024
 91
        1
280
     0
281
     0
  0
CLASS
  1
ACAMGRCOMPDEF
  2
AcAmGrCompDef
  3
DesignerAssemblies
 90
     1024
 91
        1
280
     0
281
     0
  0
CLASS
  1
ACAMCOMPDEF
  2
AcAmCompDef
  3
DesignerAssemblies
 90
     1024
 91
        1
280
     0
281
     0
  0
CLASS
  1
ACAMCOMPDEFMGR
  2
AcAmCompDefMgr
  3
DesignerAssemblies
 90
     1024
 91
        1
280
     0
281
     0
  0
CLASS
  1
AMCONTEXTMGR
  2
AcAmContextMgr
  3
DesignerAssemblies
 90
     1024
 91
        1
280
     0
281
     0
  0
CLASS
  1
ACAMCONTEXTMODELER
  2
AcAmContextModeler
  3
DesignerAssemblies
 90
     1024
 91
        1
280
     0
281
     0
  0
CLASS
  1
ACMDATADICTIONARY
  2
AcmDataDictionary
  3
"AcmSymBB|Product Description: AutoCAD Mechanical|Company: Autodesk, Inc."
 90
     1024
 91
        1
280
     0
281
     0
  0
CLASS
  1
ACAMGRCOMPDEFSET
  2
AcAmGrCompDefSet
  3
DesignerAssemblies
 90
     1024
 91
        1
280
     0
281
     0
  0
CLASS
  1
AMDTBROWSERDBTAB
  2
AmdtBrowserDbTab
  3
McadcomServices
 90
     1024
 91
        1
280
     0
281
     0
  0
CLASS
  1
CBROWSERAPPOBJECT
  2
CBrowserAppObject
  3
McadcomServices
 90
     1024
 91
        2
280
     0
281
     0
  0
CLASS
  1
DM_PLACEHOLDER
  2
AcDmSelsetPlaceholder
  3
McadcomServices
 90
     1024
 91
        1
280
     0
281
     0
  0
CLASS
  1
ACMSTANDARDANSI
  2
AcmStandardANSI
  3
"Amdt_StdImp|Product Description: AutoCAD Mechanical|Company: Autodesk, Inc."
 90
     1024
 91
        1
280
     0
281
     0
  0
CLASS
  1
ACMSURFSTANDARDANSI
  2
AcmSurfTextStdANSI
  3
"Amdt_StdImp|Product Description: AutoCAD Mechanical|Company: Autodesk, Inc."
 90
     1024
 91
        1
280
     0
281
     0
  0
CLASS
  1
ACMFCFSTANDARDANSI
  2
AcmFCFStdANSI
  3
"Amdt_StdImp|Product Description: AutoCAD Mechanical|Company: Autodesk, Inc."
 90
     1024
 91
        1
280
     0
281
     0
  0
CLASS
  1
ACMWELDSTANDARDANSI
  2
AcmWeldingStdANSI
  3
"Amdt_StdImp|Product Description: AutoCAD Mechanical|Company: Autodesk, Inc."
 90
     1024
 91
        1
280
     0
281
     0
  0
CLASS
  1
ACMIDSTANDARDANSI
  2
AcmIdStdANSI
  3
"Amdt_StdImp|Product Description: AutoCAD Mechanical|Company: Autodesk, Inc."
 90
     1024
 91
        1
280
     0
281
     0
  0
CLASS
  1
ACMDATUMSTANDARDANSI
  2
AcmDatumStdANSI
  3
"Amdt_StdImp|Product Description: AutoCAD Mechanical|Company: Autodesk, Inc."
 90
     1024
 91
        1
280
     0
281
     0
  0
CLASS
  1
ACMBOMSTANDARDANSI
  2
AcmBOMStdANSI
  3
"Amdt_StdImp|Product Description: AutoCAD Mechanical|Company: Autodesk, Inc."
 90
     1024
 91
        1
280
     0
281
     0
  0
CLASS
  1
ACMDETAILSTANDARDANSI
  2
AmdtDetailSymStdANSI
  3
"Amdt_StdImp|Product Description: AutoCAD Mechanical|Company: Autodesk, Inc."
 90
     1024
 91
        1
280
     0
281
     0
  0
CLASS
  1
ACMSECTIONSTANDARDANSI
  2
AmdtSectionSymStdANSI
  3
"Amdt_StdImp|Product Description: AutoCAD Mechanical|Company: Autodesk, Inc."
 90
     1024
 91
        1
280
     0
281
     0
  0
CLASS
  1
ACMCENTERLINESTANDARDANSI
  2
AmdtCenterLineStdANSI
  3
"Amdt_StdImp|Product Description: AutoCAD Mechanical|Company: Autodesk, Inc."
 90
     1024
 91
        1
280
     0
281
     0
  0
CLASS
  1
ACMTHREADLINESTANDARDANSI
  2
AmdtThreadLineStdANSI
  3
"Amdt_StdImp|Product Description: AutoCAD Mechanical|Company: Autodesk, Inc."
 90
     1024
 91
        1
280
     0
281
     0
  0
CLASS
  1
ACMNOTESTANDARDANSI
  2
AmdtNoteStdANSI
  3
"Amdt_StdImp|Product Description: AutoCAD Mechanical|Company: Autodesk, Inc."
 90
     1024
 91
        1
280
     0
281
     0
  0
CLASS
  1
ACMTAPERSTANDARDANSI
  2
AcmTaperStdANSI
  3
"Amdt_StdImp|Product Description: AutoCAD Mechanical|Company: Autodesk, Inc."
 90
     1024
 91
        1
280
     0
281
     0
  0
CLASS
  1
ACMANOOTATIONVIEWSTANDARDANSI
  2
AmdtAnViewStdANSI
  3
"Amdt_StdImp|Product Description: AutoCAD Mechanical|Company: Autodesk, Inc."
 90
     1024
 91
        1
280
     0
281
     0
  0
CLASS
  1
ACAMGLAYSTD
  2
AcAmgLayStd
  3
"AmgLay|Product Description: AutoCAD Mechanical|Company: Autodesk, Inc."
 90
     1024
 91
        1
280
     0
281
     0
  0
CLASS
  1
ACAMGDIMSTD
  2
AcAmgDimStd
  3
"AmgDim|Product Description: AutoCAD Mechanical|Company: Autodesk, Inc."
 90
     1024
 91
        1
280
     0
281
     0
  0
CLASS
  1
AMGOBJPROPCFG
  2
AmgObjPropCfg
  3
"AmgLay|Product Description: AutoCAD Mechanical|Company: Autodesk, Inc."
 90
     1024
 91
        1
280
     0
281
     0
  0
CLASS
  1
ACAMGHOLECHARTSTDANSI
  2
AcAmgHoleChartStdANSI
  3
AmgDim|Product Description: AutoCAD Mechanical|Company: Autodesk, Inc.
 90
     1024
 91
        1
280
     0
281
     0
  0
CLASS
  1
ACAMGTITLESTD
  2
AcAmgTitleStd
  3
"AmgTitle|Product Description: AutoCAD Mechanical|Company: Autodesk, Inc."
 90
     1024
 91
        1
280
     0
281
     0
  0
CLASS
  1
AMDTNOTETEMPLATEDB
  2
AmdtNoteTemplateDB
  3
AcmSymBB|Product Description: AutoCAD Mechanical|Company: Autodesk, Inc.
 90
     1024
 91
        7
280
     0
281
     0
  0
CLASS
  1
ACAMGFILTERDAT
  2
AcAmgFilterDat
  3
"AcadM|Product Description: AutoCAD Mechanical|Company: Autodesk, Inc."
 90
     1024
 91
        6
280
     0
281
     0
  0
ENDSEC
  0
SECTION
  2
TABLES
  0
TABLE
  2
VPORT
  5
B28
330
0
100
AcDbSymbolTable
 70
     1
  0
VPORT
  5
B95
330
B28
100
AcDbSymbolTableRecord
100
AcDbViewportTableRecord
  2
*ACTIVE
 70
     0
 10
0.0
 20
0.0
 11
1.0
 21
1.0
 12
681.7590292291521
 22
22.9374391166659
 13
0.0
 23
0.0
 14
0.5
 24
0.5
 15
0.5
 25
0.5
 16
0.0
 26
0.0
 36
1.0
 17
0.0
 27
0.0
 37
0.0
 40
430.5481748979897
 41
2.235571260306242
 42
50.0
 43
0.0
 44
0.0
 50
0.0
 51
0.0
 71
    16
 72
   100
 73
     1
 74
     3
 75
     0
 76
     0
 77
     0
 78
     0
281
     0
 65
     0
110
0.0
120
0.0
130
0.0
111
1.0
121
0.0
131
0.0
112
0.0
122
1.0
132
0.0
 79
     0
146
0.0
348
B4F
 60
     3
 61
     5
292
     1
282
     0
141
0.0
142
0.0
 63
   250
421
  3355443
1001
ACAD_NAV_VCDISPLAY
1070
     3
  0
ENDTAB
  0
TABLE
  2
LTYPE
  5
B25
330
0
100
AcDbSymbolTable
 70
    11
  0
LTYPE
  5
B7A
330
B25
100
AcDbSymbolTableRecord
100
AcDbLinetypeTableRecord
  2
ByBlock
 70
     0
  3

 72
    65
 73
     0
 40
0.0
  0
LTYPE
  5
B7B
330
B25
100
AcDbSymbolTableRecord
100
AcDbLinetypeTableRecord
  2
ByLayer
 70
     0
  3

 72
    65
 73
     0
 40
0.0
  0
LTYPE
  5
B7C
330
B25
100
AcDbSymbolTableRecord
100
AcDbLinetypeTableRecord
  2
CONTINUOUS
 70
     0
  3
Solid line
 72
    65
 73
     0
 40
0.0
  0
LTYPE
  5
B88
330
B25
100
AcDbSymbolTableRecord
100
AcDbLinetypeTableRecord
  2
PHANTOM2
 70
     0
  3
Phantom (.5x) ___ _ _ ___ _ _ ___ _ _ ___ _ _
 72
    65
 73
     6
 40
1.25
 49
0.625
 74
     0
 49
-0.125
 74
     0
 49
0.125
 74
     0
 49
-0.125
 74
     0
 49
0.125
 74
     0
 49
-0.125
 74
     0
  0
LTYPE
  5
B96
330
B25
100
AcDbSymbolTableRecord
100
AcDbLinetypeTableRecord
  2
CENTER
 70
     0
  3
____ _ ____ _ ____ _ ____ _ ____ _ ____ _ ____
 72
    65
 73
     4
 40
0.6
 49
0.375
 74
     0
 49
-0.075
 74
     0
 49
0.075
 74
     0
 49
-0.075
 74
     0
  0
LTYPE
  5
B97
330
B25
100
AcDbSymbolTableRecord
100
AcDbLinetypeTableRecord
  2
HIDDEN
 70
     0
  3
- - - - - - - - - - - - - - - - - - - -
 72
    65
 73
     2
 40
0.2
 49
0.1
 74
     0
 49
-0.1
 74
     0
  0
LTYPE
  5
B98
330
B25
100
AcDbSymbolTableRecord
100
AcDbLinetypeTableRecord
  2
PHANTOM
 70
     0
  3
_____ _ _ _____ _ _ _____ _ _ _____
 72
    65
 73
     6
 40
0.8
 49
0.45
 74
     0
 49
-0.05
 74
     0
 49
0.1
 74
     0
 49
-0.05
 74
     0
 49
0.1
 74
     0
 49
-0.05
 74
     0
  0
LTYPE
  5
B99
330
B25
100
AcDbSymbolTableRecord
100
AcDbLinetypeTableRecord
  2
DOT
 70
     0
  3
. . . . . . . . . . . . . . . . . . . .
 72
    65
 73
     2
 40
0.2
 49
0.1
 74
     0
 49
-0.1
 74
     0
  0
LTYPE
  5
B9A
330
B25
100
AcDbSymbolTableRecord
100
AcDbLinetypeTableRecord
  2
DASHED
 70
     0
  3
- - - - - - - - - - - - - - - - - - - -
 72
    65
 73
     2
 40
0.2
 49
0.1
 74
     0
 49
-0.1
 74
     0
  0
LTYPE
  5
CE6
330
B25
100
AcDbSymbolTableRecord
100
AcDbLinetypeTableRecord
  2
CENTER2
 70
     0
  3
Center (.5x) ___ _ ___ _ ___ _ ___ _ ___ _ ___
 72
    65
 73
     4
 40
1.125
 49
0.75
 74
     0
 49
-0.125
 74
     0
 49
0.125
 74
     0
 49
-0.125
 74
     0
  0
LTYPE
  5
CE7
330
B25
100
AcDbSymbolTableRecord
100
AcDbLinetypeTableRecord
  2
HIDDEN2
 70
     0
  3
Hidden (.5x) _ _ _ _ _ _ _ _ _ _ _ _ _ _ _ _ _
 72
    65
 73
     2
 40
0.1875
 49
0.125
 74
     0
 49
-0.0625
 74
     0
  0
LTYPE
  5
CF5
330
B25
100
AcDbSymbolTableRecord
100
AcDbLinetypeTableRecord
  2
ACANSTGB
 70
     0
  3
__ . . __ . .
 72
    65
 73
     6
 40
0.35433070866
 49
0.15748031496
 74
     0
 49
-0.03937007874
 74
     0
 49
0.03937007874
 74
     0
 49
-0.03937007874
 74
     0
 49
0.03937007874
 74
     0
 49
-0.03937007874
 74
     0
  0
LTYPE
  5
CF6
330
B25
100
AcDbSymbolTableRecord
100
AcDbLinetypeTableRecord
  2
ACANSTGL
 70
     0
  3
_ _ _ _ _
 72
    65
 73
     2
 40
0.11811023622
 49
0.07874015748
 74
     0
 49
-0.03937007874
 74
     0
  0
ENDTAB
  0
TABLE
  2
LAYER
  5
B22
330
0
100
AcDbSymbolTable
 70
    15
  0
LAYER
  5
B74
102
{ACAD_XDICTIONARY
360
C48
102
}
330
B22
100
AcDbSymbolTableRecord
100
AcDbLayerTableRecord
  2
0
 70
     0
 62
     7
  6
CONTINUOUS
370
    -3
390
B2F
347
B41
348
0
  0
LAYER
  5
B94
102
{ACAD_XDICTIONARY
360
C4A
102
}
330
B22
100
AcDbSymbolTableRecord
100
AcDbLayerTableRecord
  2
DIMENSIONS
 70
     0
 62
     2
  6
CONTINUOUS
370
    -3
390
B2F
347
B41
348
0
  0
LAYER
  5
B9B
102
{ACAD_XDICTIONARY
360
C4C
102
}
330
B22
100
AcDbSymbolTableRecord
100
AcDbLayerTableRecord
  2
DEFAULT_1
 70
     0
 62
     7
  6
CENTER
370
    -3
390
B2F
347
B41
348
0
  0
LAYER
  5
B9C
102
{ACAD_XDICTIONARY
360
C4E
102
}
330
B22
100
AcDbSymbolTableRecord
100
AcDbLayerTableRecord
  2
DEFAULT_2
 70
     0
 62
     8
  6
HIDDEN
370
    -3
390
B2F
347
B41
348
0
  0
LAYER
  5
B9D
102
{ACAD_XDICTIONARY
360
C50
102
}
330
B22
100
AcDbSymbolTableRecord
100
AcDbLayerTableRecord
  2
DEFAULT_3
 70
     0
 62
     7
  6
PHANTOM
370
    -3
390
B2F
347
B41
348
0
  0
LAYER
  5
B9E
102
{ACAD_XDICTIONARY
360
C52
102
}
330
B22
100
AcDbSymbolTableRecord
100
AcDbLayerTableRecord
  2
01___PRT_ALL_DTM_PLN
 70
     0
 62
     7
  6
CONTINUOUS
370
    -3
390
B2F
347
B41
348
0
  0
LAYER
  5
B9F
102
{ACAD_XDICTIONARY
360
C54
102
}
330
B22
100
AcDbSymbolTableRecord
100
AcDbLayerTableRecord
  2
01___PRT_DEF_DTM_PLN
 70
     0
 62
     7
  6
CONTINUOUS
370
    -3
390
B2F
347
B41
348
0
  0
LAYER
  5
BA0
102
{ACAD_XDICTIONARY
360
C56
102
}
330
B22
100
AcDbSymbolTableRecord
100
AcDbLayerTableRecord
  2
02___PRT_ALL_AXES
 70
     0
 62
     7
  6
CONTINUOUS
370
    -3
390
B2F
347
B41
348
0
  0
LAYER
  5
BA1
102
{ACAD_XDICTIONARY
360
C58
102
}
330
B22
100
AcDbSymbolTableRecord
100
AcDbLayerTableRecord
  2
03___PRT_ALL_CURVES
 70
     0
 62
     7
  6
CONTINUOUS
370
    -3
390
B2F
347
B41
348
0
  0
LAYER
  5
BA2
102
{ACAD_XDICTIONARY
360
C5A
102
}
330
B22
100
AcDbSymbolTableRecord
100
AcDbLayerTableRecord
  2
04___PRT_ALL_DTM_PNT
 70
     0
 62
     7
  6
CONTINUOUS
370
    -3
390
B2F
347
B41
348
0
  0
LAYER
  5
BA3
102
{ACAD_XDICTIONARY
360
C5C
102
}
330
B22
100
AcDbSymbolTableRecord
100
AcDbLayerTableRecord
  2
05___PRT_ALL_DTM_CSYS
 70
     0
 62
     7
  6
CONTINUOUS
370
    -3
390
B2F
347
B41
348
0
  0
LAYER
  5
BA4
102
{ACAD_XDICTIONARY
360
C5E
102
}
330
B22
100
AcDbSymbolTableRecord
100
AcDbLayerTableRecord
  2
05___PRT_DEF_DTM_CSYS
 70
     0
 62
     7
  6
CONTINUOUS
370
    -3
390
B2F
347
B41
348
0
  0
LAYER
  5
BA5
102
{ACAD_XDICTIONARY
360
C60
102
}
330
B22
100
AcDbSymbolTableRecord
100
AcDbLayerTableRecord
  2
06___PRT_ALL_SURFS
 70
     0
 62
     7
  6
CONTINUOUS
370
    -3
390
B2F
347
B41
348
0
  0
LAYER
  5
BA6
330
B22
100
AcDbSymbolTableRecord
100
AcDbLayerTableRecord
  2
DEFPOINTS
 70
     0
 62
     7
  6
CONTINUOUS
290
     0
370
    -3
390
B2F
347
B41
348
0
  0
LAYER
  5
BA7
102
{ACAD_XDICTIONARY
360
C62
102
}
330
B22
100
AcDbSymbolTableRecord
100
AcDbLayerTableRecord
  2
AM_5
 70
     0
 62
     3
  6
CONTINUOUS
370
    -3
390
B2F
347
B41
348
0
  0
ENDTAB
  0
TABLE
  2
STYLE
  5
B23
330
0
100
AcDbSymbolTable
 70
     6
  0
STYLE
  5
B75
330
B23
100
AcDbSymbolTableRecord
100
AcDbTextStyleTableRecord
  2
STANDARD
 70
     0
 40
0.0
 41
1.0
 50
0.0
 71
     0
 42
0.2
  3
arial.ttf
  4

1001
ACAD
1000
Arial
1071
       34
  0
STYLE
  5
B79
330
B23
100
AcDbSymbolTableRecord
100
AcDbTextStyleTableRecord
  2
Annotative
 70
     0
 40
0.0
 41
1.0
 50
0.0
 71
     0
 42
0.2
  3
txt
  4

1001
AcadAnnotative
1000
AnnotativeData
1002
{
1070
     1
1070
     1
1002
}
  0
STYLE
  5
BA8
330
B23
100
AcDbSymbolTableRecord
100
AcDbTextStyleTableRecord
  2
TEXTSTYLE_1
 70
     0
 40
0.0
 41
0.8
 50
0.0
 71
     0
 42
0.2
  3
gdt
  4

  0
STYLE
  5
CF3
330
B23
100
AcDbSymbolTableRecord
100
AcDbTextStyleTableRecord
  2
ACANSTS
 70
     0
 40
1.0
 41
1.0
 50
0.0
 71
     0
 42
0.2
  3
romans.shx
  4

  0
STYLE
  5
CF4
330
B23
100
AcDbSymbolTableRecord
100
AcDbTextStyleTableRecord
  2
ACANSGDT
 70
     0
 40
0.0
 41
1.0
 50
0.0
 71
     0
 42
0.2
  3
amgdt.shx
  4

  0
ENDTAB
  0
TABLE
  2
VIEW
  5
B26
330
0
100
AcDbSymbolTable
 70
     0
  0
ENDTAB
  0
TABLE
  2
UCS
  5
B27
330
0
100
AcDbSymbolTable
 70
     0
  0
ENDTAB
  0
TABLE
  2
APPID
  5
B29
330
0
100
AcDbSymbolTable
 70
    19
  0
APPID
  5
B76
330
B29
100
AcDbSymbolTableRecord
100
AcDbRegAppTableRecord
  2
ACAD
 70
     0
  0
APPID
  5
B7D
330
B29
100
AcDbSymbolTableRecord
100
AcDbRegAppTableRecord
  2
AcadAnnotative
 70
     0
  0
APPID
  5
BA9
330
B29
100
AcDbSymbolTableRecord
100
AcDbRegAppTableRecord
  2
ACAECLAYERSTANDARD
 70
     0
  0
APPID
  5
BAA
330
B29
100
AcDbSymbolTableRecord
100
AcDbRegAppTableRecord
  2
ACAD_DSTYLE_DIMRADIAL_EXTE
 70
     0
  0
APPID
  5
BAB
330
B29
100
AcDbSymbolTableRecord
100
AcDbRegAppTableRecord
  2
ACAD_DSTYLE_DIMJOGGED_JOGA
 70
     0
  0
APPID
  5
BAC
330
B29
100
AcDbSymbolTableRecord
100
AcDbRegAppTableRecord
  2
ACAD_DSTYLE_DIMJAG
 70
     0
  0
APPID
  5
BAD
330
B29
100
AcDbSymbolTableRecord
100
AcDbRegAppTableRecord
  2
ACAD_DSTYLE_DIMBREAK
 70
     0
  0
APPID
  5
BAE
330
B29
100
AcDbSymbolTableRecord
100
AcDbRegAppTableRecord
  2
ACAD_PSEXT
 70
     0
  0
APPID
  5
BAF
330
B29
100
AcDbSymbolTableRecord
100
AcDbRegAppTableRecord
  2
ACAD_DSTYLE_DIMINSPECT
 70
     0
  0
APPID
  5
BB0
330
B29
100
AcDbSymbolTableRecord
100
AcDbRegAppTableRecord
  2
ACAD_DSTYLE_DIMRADIAL_EXT0
 70
     0
  0
APPID
  5
BB1
330
B29
100
AcDbSymbolTableRecord
100
AcDbRegAppTableRecord
  2
ACAD_DSTYLE_DIMJOGGED_JOG0
 70
     0
  0
APPID
  5
C2F
330
B29
100
AcDbSymbolTableRecord
100
AcDbRegAppTableRecord
  2
GradientColor1ACI
 70
     0
  0
APPID
  5
C30
330
B29
100
AcDbSymbolTableRecord
100
AcDbRegAppTableRecord
  2
GradientColor2ACI
 70
     0
  0
APPID
  5
C32
330
B29
100
AcDbSymbolTableRecord
100
AcDbRegAppTableRecord
  2
ACAD_NAV_VCDISPLAY
 70
     0
  0
APPID
  5
C46
330
B29
100
AcDbSymbolTableRecord
100
AcDbRegAppTableRecord
  2
ACAD_EXEMPT_FROM_CAD_STANDARDS
 70
     0
  0
APPID
  5
CA6
330
B29
100
AcDbSymbolTableRecord
100
AcDbRegAppTableRecord
  2
MCAD_NO_VIS
 70
     0
  0
APPID
  5
CA7
330
B29
100
AcDbSymbolTableRecord
100
AcDbRegAppTableRecord
  2
ACAD_TEMP_GRAPHIC
 70
     0
  0
APPID
  5
CB1
330
B29
100
AcDbSymbolTableRecord
100
AcDbRegAppTableRecord
  2
ACATTRIBSERVICES
 70
     0
  0
APPID
  5
CC9
330
B29
100
AcDbSymbolTableRecord
100
AcDbRegAppTableRecord
  2
DESIGNERASSEMBLIES
 70
     0
  0
ENDTAB
  0
TABLE
  2
DIMSTYLE
  5
B2A
330
0
100
AcDbSymbolTable
 70
    13
100
AcDbDimStyleTable
 71
     1
340
BB2
  0
DIMSTYLE
105
B77
330
B2A
100
AcDbSymbolTableRecord
100
AcDbDimStyleTableRecord
  2
STANDARD
 70
     0
279
     2
284
     8
285
     8
286
     8
340
B75
  0
DIMSTYLE
105
B78
330
B2A
100
AcDbSymbolTableRecord
100
AcDbDimStyleTableRecord
  2
Annotative
 70
     0
340
B75
1001
AcadAnnotative
1000
AnnotativeData
1002
{
1070
     1
1070
     1
1002
}
  0
DIMSTYLE
105
BB2
102
{ACAD_REACTORS
330
A47
330
A57
330
A66
330
A84
330
ACF
330
AFD
330
B0C
102
}
330
B2A
100
AcDbSymbolTableRecord
100
AcDbDimStyleTableRecord
  2
DUAL-DIM
 70
     0
 41
5.0
 42
1.5
 43
1.0
 73
     0
 74
     0
 77
     1
 78
     8
140
5.0
141
2.5
143
0.03937
147
1.0
170
     1
178
     5
279
     2
284
     8
285
     8
286
     8
340
B75
  0
DIMSTYLE
105
BB3
330
B2A
100
AcDbSymbolTableRecord
100
AcDbDimStyleTableRecord
  2
AM_ISO
 70
     0
  4
"
 41
3.5
 42
1.0
 43
10.0
 44
1.0
 47
0.1
 48
0.1
 73
     0
 74
     0
 77
     1
 78
     8
140
3.5
141
0.0
143
0.0393701
146
0.71
147
1.5
172
     1
176
   256
177
   256
178
     2
279
     2
284
     8
285
     8
286
     8
340
B75
  0
DIMSTYLE
105
BB4
330
B2A
100
AcDbSymbolTableRecord
100
AcDbDimStyleTableRecord
  2
AM_ISO$3
 70
     0
  4
"
 41
3.5
 42
1.0
 43
10.0
 44
1.0
 47
0.1
 48
0.1
 73
     0
 77
     1
 78
     8
140
3.5
141
0.0
143
0.0393701
146
0.71
147
1.5
176
   256
177
   256
178
     2
279
     2
284
     8
285
     8
286
     8
340
B75
  0
DIMSTYLE
105
BB5
330
B2A
100
AcDbSymbolTableRecord
100
AcDbDimStyleTableRecord
  2
AM_ISO$0
 70
     0
  4
"
 41
3.5
 42
1.0
 43
10.0
 44
1.0
 47
0.1
 48
0.1
 73
     0
 74
     0
 77
     1
 78
     8
140
3.5
141
0.0
143
0.0393701
146
0.71
147
1.5
172
     1
176
   256
177
   256
178
     2
279
     2
284
     8
285
     8
286
     8
340
B75
  0
DIMSTYLE
105
CE4
102
{ACAD_REACTORS
330
CD4
102
}
330
B2A
100
AcDbSymbolTableRecord
100
AcDbDimStyleTableRecord
  2
AM_ANSI
 70
     0
  4
mm
 41
0.12
 42
0.05
 43
0.5
 44
0.1
 47
0.1
 48
0.1
 78
     7
 79
     2
 90
     1
140
0.12
141
0.0
146
0.71
147
0.06
176
   256
177
   256
178
     2
274
     4
284
     7
340
B75
345
B7A
346
B7A
347
B7A
371
    -1
372
    -1
1001
ACAD_DSTYLE_DIMJAG
1070
   388
1040
1.5
1001
ACAD_DSTYLE_DIMBREAK
1070
   391
1040
0.125
  0
DIMSTYLE
105
CE8
330
B2A
100
AcDbSymbolTableRecord
100
AcDbDimStyleTableRecord
  2
AM_ANSI$3
 70
     0
  4
mm
 41
0.12
 42
0.05
 43
0.5
 44
0.1
 47
0.1
 48
0.1
 78
     7
 79
     2
 90
     1
140
0.12
141
0.0
146
0.71
147
0.06
176
   256
177
   256
178
     2
274
     4
284
     7
288
     1
289
     0
340
B75
345
B7A
346
B7A
347
B7A
371
    -1
372
    -1
1001
ACAD_DSTYLE_DIMBREAK
1070
   391
1040
0.125
1001
ACAD_DSTYLE_DIMJAG
1070
   388
1040
1.5
  0
DIMSTYLE
105
CE9
330
B2A
100
AcDbSymbolTableRecord
100
AcDbDimStyleTableRecord
  2
AM_ANSI$4
 70
     0
  4
mm
 41
0.12
 42
0.05
 43
0.5
 44
0.1
 47
0.1
 48
0.1
 78
     7
 79
     2
 90
     1
140
0.12
141
0.0
146
0.71
147
0.06
176
   256
177
   256
178
     2
274
     4
284
     7
288
     1
289
     0
340
B75
345
B7A
346
B7A
347
B7A
371
    -1
372
    -1
1001
ACAD_DSTYLE_DIMBREAK
1070
   391
1040
0.125
1001
ACAD_DSTYLE_DIMJAG
1070
   388
1040
1.5
  0
DIMSTYLE
105
CEA
330
B2A
100
AcDbSymbolTableRecord
100
AcDbDimStyleTableRecord
  2
AM_ANSI$7
 70
     0
  4
mm
 41
0.12
 42
0.05
 43
0.5
 44
0.1
 47
0.1
 48
0.1
 78
     7
 79
     2
 90
     1
140
0.12
141
0.0
146
0.71
147
0.06
176
   256
177
   256
178
     2
274
     4
284
     7
340
B75
345
B7A
346
B7A
347
B7A
371
    -1
372
    -1
1001
ACAD_DSTYLE_DIMBREAK
1070
   391
1040
0.125
1001
ACAD_DSTYLE_DIMJAG
1070
   388
1040
1.5
  0
DIMSTYLE
105
CEB
330
B2A
100
AcDbSymbolTableRecord
100
AcDbDimStyleTableRecord
  2
AM_ANSI$SF
 70
     0
  4
mm
 41
0.12
 42
0.05
 43
0.5
 44
0.1
 47
0.1
 48
0.1
 75
     1
 76
     1
 78
     7
 79
     2
 90
     1
140
0.12
141
0.0
146
0.71
147
0.06
176
   256
177
   256
178
     2
274
     4
284
     7
340
B75
345
B7A
346
B7A
347
B7A
371
    -1
372
    -1
1001
ACAD_DSTYLE_DIMBREAK
1070
   391
1040
0.125
1001
ACAD_DSTYLE_DIMJAG
1070
   388
1040
1.5
  0
DIMSTYLE
105
CF0
330
B2A
100
AcDbSymbolTableRecord
100
AcDbDimStyleTableRecord
  2
AM_ANSI$SH
 70
     0
  4
mm
 41
0.12
 42
0.05
 43
0.5
 44
0.1
 47
0.1
 48
0.1
 75
     1
 76
     1
 78
     7
 79
     2
 90
     1
140
0.12
141
0.0
146
0.71
147
0.06
173
     1
176
   256
177
   256
178
     2
274
     4
284
     7
340
B75
343
CEC
345
B7A
346
B7A
347
B7A
371
    -1
372
    -1
1001
ACAD_DSTYLE_DIMBREAK
1070
   391
1040
0.125
1001
ACAD_DSTYLE_DIMJAG
1070
   388
1040
1.5
  0
ENDTAB
  0
TABLE
  2
BLOCK_RECORD
  5
B21
330
0
100
AcDbSymbolTable
 70
    19
  0
BLOCK_RECORD
  5
B90
102
{ACAD_XDICTIONARY
360
C34
102
}
330
B21
100
AcDbSymbolTableRecord
100
AcDbBlockTableRecord
  2
*Model_Space
340
B93
 70
     0
280
     1
281
     0
  0
BLOCK_RECORD
  5
B8C
330
B21
100
AcDbSymbolTableRecord
100
AcDbBlockTableRecord
  2
*Paper_Space
340
B8F
 70
     0
280
     1
281
     0
  0
BLOCK_RECORD
  5
BB9
330
B21
100
AcDbSymbolTableRecord
100
AcDbBlockTableRecord
  2
$MODEL_SPACE
340
0
 70
     0
280
     1
281
     0
  0
BLOCK_RECORD
  5
BBB
330
B21
100
AcDbSymbolTableRecord
100
AcDbBlockTableRecord
  2
$PAPER_SPACE
340
0
 70
     0
280
     1
281
     0
  0
BLOCK_RECORD
  5
BBD
330
B21
100
AcDbSymbolTableRecord
100
AcDbBlockTableRecord
  2
_FILLED
340
0
 70
     0
280
     1
281
     0
  0
BLOCK_RECORD
  5
BBF
330
B21
100
AcDbSymbolTableRecord
100
AcDbBlockTableRecord
  2
*D3
340
0
 70
     0
280
     1
281
     0
  0
BLOCK_RECORD
  5
BC1
330
B21
100
AcDbSymbolTableRecord
100
AcDbBlockTableRecord
  2
*D4
340
0
 70
     0
280
     1
281
     0
  0
BLOCK_RECORD
  5
BC3
330
B21
100
AcDbSymbolTableRecord
100
AcDbBlockTableRecord
  2
*D5
340
0
 70
     0
280
     1
281
     0
  0
BLOCK_RECORD
  5
BC5
330
B21
100
AcDbSymbolTableRecord
100
AcDbBlockTableRecord
  2
*D6
340
0
 70
     0
280
     1
281
     0
  0
BLOCK_RECORD
  5
BC7
330
B21
100
AcDbSymbolTableRecord
100
AcDbBlockTableRecord
  2
*D7
340
0
 70
     0
280
     1
281
     0
  0
BLOCK_RECORD
  5
BC9
330
B21
100
AcDbSymbolTableRecord
100
AcDbBlockTableRecord
  2
*D8
340
0
 70
     0
280
     1
281
     0
  0
BLOCK_RECORD
  5
BCB
330
B21
100
AcDbSymbolTableRecord
100
AcDbBlockTableRecord
  2
*D9
340
0
 70
     0
280
     1
281
     0
  0
BLOCK_RECORD
  5
BCD
330
B21
100
AcDbSymbolTableRecord
100
AcDbBlockTableRecord
  2
*D10
340
0
 70
     0
280
     1
281
     0
  0
BLOCK_RECORD
  5
BCF
330
B21
100
AcDbSymbolTableRecord
100
AcDbBlockTableRecord
  2
*D11
340
0
 70
     0
280
     1
281
     0
  0
BLOCK_RECORD
  5
BD1
330
B21
100
AcDbSymbolTableRecord
100
AcDbBlockTableRecord
  2
*D12
340
0
 70
     0
280
     1
281
     0
  0
BLOCK_RECORD
  5
BD3
330
B21
100
AcDbSymbolTableRecord
100
AcDbBlockTableRecord
  2
*D13
340
0
 70
     0
280
     1
281
     0
  0
BLOCK_RECORD
  5
BD5
330
B21
100
AcDbSymbolTableRecord
100
AcDbBlockTableRecord
  2
*D14
340
0
 70
     0
280
     1
281
     0
  0
BLOCK_RECORD
  5
BD7
330
B21
100
AcDbSymbolTableRecord
100
AcDbBlockTableRecord
  2
*D15
340
0
 70
     0
280
     1
281
     0
  0
BLOCK_RECORD
  5
CEC
330
B21
100
AcDbSymbolTableRecord
100
AcDbBlockTableRecord
  2
GENAXEH
340
0
 70
     0
280
     1
281
     0
  0
ENDTAB
  0
ENDSEC
  0
SECTION
  2
BLOCKS
  0
BLOCK
  5
B91
330
B90
100
AcDbEntity
  8
0
100
AcDbBlockBegin
  2
*Model_Space
 70
     0
 10
0.0
 20
0.0
 30
0.0
  3
*Model_Space
  1

  0
ENDBLK
  5
B92
330
B90
100
AcDbEntity
  8
0
100
AcDbBlockEnd
  0
BLOCK
  5
B8D
330
B8C
100
AcDbEntity
 67
     1
  8
0
100
AcDbBlockBegin
  2
*Paper_Space
 70
     0
 10
0.0
 20
0.0
 30
0.0
  3
*Paper_Space
  1

  0
ENDBLK
  5
B8E
330
B8C
100
AcDbEntity
 67
     1
  8
0
100
AcDbBlockEnd
  0
BLOCK
  5
BBA
330
BB9
100
AcDbEntity
  8
0
100
AcDbBlockBegin
  2
$MODEL_SPACE
 70
     0
 10
0.0
 20
0.0
 30
0.0
  3
$MODEL_SPACE
  1

  0
ENDBLK
  5
110
330
BB9
100
AcDbEntity
  8
0
100
AcDbBlockEnd
  0
BLOCK
  5
BBC
330
BBB
100
AcDbEntity
  8
0
100
AcDbBlockBegin
  2
$PAPER_SPACE
 70
     0
 10
0.0
 20
0.0
 30
0.0
  3
$PAPER_SPACE
  1

  0
ENDBLK
  5
112
330
BBB
100
AcDbEntity
  8
0
100
AcDbBlockEnd
  0
BLOCK
  5
BBE
330
BBD
100
AcDbEntity
  8
0
100
AcDbBlockBegin
  2
_FILLED
 70
     0
 10
0.0
 20
0.0
 30
0.0
  3
_FILLED
  1

  0
SOLID
  5
3D
330
BBD
100
AcDbEntity
  8
0
  6
ByBlock
 62
     0
100
AcDbTrace
 10
0.0
 20
0.0
 30
0.0
 11
-1.0
 21
0.2
 31
0.0
 12
-1.0
 22
-0.2
 32
0.0
 13
-1.0
 23
-0.2
 33
0.0
  0
ENDBLK
  5
3E
330
BBD
100
AcDbEntity
  8
0
  6
ByBlock
 62
     0
100
AcDbBlockEnd
  0
BLOCK
  5
BC0
330
BBF
100
AcDbEntity
  8
0
100
AcDbBlockBegin
  2
*D3
 70
     1
 10
0.0
 20
0.0
 30
0.0
  3
*D3
  1

  0
LINE
  5
BE5
330
BBF
100
AcDbEntity
  8
DIMENSIONS
  6
ByBlock
 62
     0
440
 16777216
370
    -2
100
AcDbLine
 10
548.4737804242465
 20
120.1760362578612
 30
0.0
 11
578.8520490075264
 21
120.1760362578612
 31
0.0
  0
LINE
  5
BE6
330
BBF
100
AcDbEntity
  8
DIMENSIONS
  6
ByBlock
 62
     0
440
 16777216
370
    -2
100
AcDbLine
 10
548.4737804242465
 20
-49.82396374213891
 30
0.0
 11
578.8520490075264
 21
-49.82396374213892
 31
0.0
  0
LINE
  5
BE7
330
BBF
100
AcDbEntity
  8
DIMENSIONS
  6
ByBlock
 62
     0
440
 16777216
370
    -2
100
AcDbLine
 10
578.6720490075264
 20
115.1760362578612
 30
0.0
 11
578.6720490075264
 21
-44.82396374213892
 31
0.0
  0
SOLID
  5
BE8
330
BBF
100
AcDbEntity
  8
DIMENSIONS
  6
ByBlock
 62
     0
440
 16777216
100
AcDbTrace
 10
577.8387156741929
 20
115.1760362578612
 30
0.0
 11
579.5053823408598
 21
115.1760362578612
 31
0.0
 12
578.6720490075264
 22
120.1760362578612
 32
0.0
 13
578.6720490075264
 23
120.1760362578612
 33
0.0
  0
SOLID
  5
BE9
330
BBF
100
AcDbEntity
  8
DIMENSIONS
  6
ByBlock
 62
     0
440
 16777216
100
AcDbTrace
 10
577.8387156741929
 20
-44.82396374213892
 30
0.0
 11
579.5053823408598
 21
-44.82396374213892
 31
0.0
 12
578.6720490075264
 22
-49.82396374213892
 32
0.0
 13
578.6720490075264
 23
-49.82396374213892
 33
0.0
  0
MTEXT
  5
BEA
330
BBF
100
AcDbEntity
  8
DIMENSIONS
  6
ByBlock
 62
     5
440
 16777216
100
AcDbMText
 10
574.4677515996137
 20
35.17603625786124
 30
0.0
 40
5.0
 41
0.0
 46
0.0
 71
     5
 72
     1
  1
\A1;170 [6.69]
 11
0.0000000000000001
 21
1.0
 31
0.0
 73
     1
 44
1.0
  0
POINT
  5
BEB
330
BBF
100
AcDbEntity
  8
DEFPOINTS
  6
ByBlock
 62
     0
440
 16777216
100
AcDbPoint
 10
546.9737804242465
 20
120.1760362578612
 30
0.0
  0
POINT
  5
BEC
330
BBF
100
AcDbEntity
  8
DEFPOINTS
  6
ByBlock
 62
     0
440
 16777216
100
AcDbPoint
 10
546.9737804242465
 20
-49.82396374213891
 30
0.0
  0
POINT
  5
BED
330
BBF
100
AcDbEntity
  8
DEFPOINTS
  6
ByBlock
 62
     0
440
 16777216
100
AcDbPoint
 10
578.6720490075264
 20
-49.82396374213892
 30
0.0
  0
ENDBLK
  5
A4C
330
BBF
100
AcDbEntity
  8
0
100
AcDbBlockEnd
  0
BLOCK
  5
BC2
330
BC1
100
AcDbEntity
  8
0
100
AcDbBlockBegin
  2
*D4
 70
     1
 10
0.0
 20
0.0
 30
0.0
  3
*D4
  1

  0
LINE
  5
BEE
330
BC1
100
AcDbEntity
  8
DIMENSIONS
  6
ByBlock
 62
     0
440
 16777216
370
    -2
100
AcDbLine
 10
540.9737804242466
 20
127.6760362578611
 30
0.0
 11
595.0259988925637
 21
127.6760362578611
 31
0.0
  0
LINE
  5
BEF
330
BC1
100
AcDbEntity
  8
DIMENSIONS
  6
ByBlock
 62
     0
440
 16777216
370
    -2
100
AcDbLine
 10
540.9737804242466
 20
-57.32396374213879
 30
0.0
 11
595.0259988925637
 21
-57.32396374213881
 31
0.0
  0
LINE
  5
BF0
330
BC1
100
AcDbEntity
  8
DIMENSIONS
  6
ByBlock
 62
     0
440
 16777216
370
    -2
100
AcDbLine
 10
594.8459988925637
 20
122.6760362578611
 30
0.0
 11
594.8459988925637
 21
-52.32396374213881
 31
0.0
  0
SOLID
  5
BF1
330
BC1
100
AcDbEntity
  8
DIMENSIONS
  6
ByBlock
 62
     0
440
 16777216
100
AcDbTrace
 10
594.0126655592305
 20
122.6760362578611
 30
0.0
 11
595.6793322258972
 21
122.6760362578611
 31
0.0
 12
594.8459988925637
 22
127.6760362578611
 32
0.0
 13
594.8459988925637
 23
127.6760362578611
 33
0.0
  0
SOLID
  5
BF2
330
BC1
100
AcDbEntity
  8
DIMENSIONS
  6
ByBlock
 62
     0
440
 16777216
100
AcDbTrace
 10
594.0126655592305
 20
-52.32396374213881
 30
0.0
 11
595.6793322258972
 21
-52.32396374213881
 31
0.0
 12
594.8459988925637
 22
-57.32396374213881
 32
0.0
 13
594.8459988925637
 23
-57.32396374213881
 33
0.0
  0
MTEXT
  5
BF3
330
BC1
100
AcDbEntity
  8
DIMENSIONS
  6
ByBlock
 62
     5
440
 16777216
100
AcDbMText
 10
590.641701484651
 20
35.17603625786125
 30
0.0
 40
5.0
 41
0.0
 46
0.0
 71
     5
 72
     1
  1
\A1;185 [7.28]
 11
0.0000000000000001
 21
1.0
 31
0.0
 73
     1
 44
1.0
  0
POINT
  5
BF4
330
BC1
100
AcDbEntity
  8
DEFPOINTS
  6
ByBlock
 62
     0
440
 16777216
100
AcDbPoint
 10
539.4737804242465
 20
127.6760362578611
 30
0.0
  0
POINT
  5
BF5
330
BC1
100
AcDbEntity
  8
DEFPOINTS
  6
ByBlock
 62
     0
440
 16777216
100
AcDbPoint
 10
539.4737804242465
 20
-57.32396374213879
 30
0.0
  0
POINT
  5
BF6
330
BC1
100
AcDbEntity
  8
DEFPOINTS
  6
ByBlock
 62
     0
440
 16777216
100
AcDbPoint
 10
594.8459988925637
 20
-57.32396374213881
 30
0.0
  0
ENDBLK
  5
A5C
330
BC1
100
AcDbEntity
  8
0
100
AcDbBlockEnd
  0
BLOCK
  5
BC4
330
BC3
100
AcDbEntity
  8
0
100
AcDbBlockBegin
  2
*D5
 70
     1
 10
0.0
 20
0.0
 30
0.0
  3
*D5
  1

  0
LINE
  5
BF7
330
BC3
100
AcDbEntity
  8
DIMENSIONS
  6
ByBlock
 62
     0
440
 16777216
370
    -2
100
AcDbLine
 10
565.4737804242465
 20
138.1760362578612
 30
0.0
 11
611.7775898449242
 21
138.1760362578612
 31
0.0
  0
LINE
  5
BF8
330
BC3
100
AcDbEntity
  8
DIMENSIONS
  6
ByBlock
 62
     0
440
 16777216
370
    -2
100
AcDbLine
 10
565.4737804242465
 20
-67.8239637421388
 30
0.0
 11
611.7775898449242
 21
-67.82396374213881
 31
0.0
  0
LINE
  5
BF9
330
BC3
100
AcDbEntity
  8
DIMENSIONS
  6
ByBlock
 62
     0
440
 16777216
370
    -2
100
AcDbLine
 10
611.5975898449241
 20
133.1760362578612
 30
0.0
 11
611.5975898449241
 21
-62.82396374213881
 31
0.0
  0
SOLID
  5
BFA
330
BC3
100
AcDbEntity
  8
DIMENSIONS
  6
ByBlock
 62
     0
440
 16777216
100
AcDbTrace
 10
610.7642565115909
 20
133.1760362578612
 30
0.0
 11
612.4309231782575
 21
133.1760362578612
 31
0.0
 12
611.5975898449241
 22
138.1760362578612
 32
0.0
 13
611.5975898449241
 23
138.1760362578612
 33
0.0
  0
SOLID
  5
BFB
330
BC3
100
AcDbEntity
  8
DIMENSIONS
  6
ByBlock
 62
     0
440
 16777216
100
AcDbTrace
 10
610.7642565115909
 20
-62.82396374213881
 30
0.0
 11
612.4309231782575
 21
-62.82396374213881
 31
0.0
 12
611.5975898449241
 22
-67.82396374213881
 32
0.0
 13
611.5975898449241
 23
-67.82396374213881
 33
0.0
  0
MTEXT
  5
BFC
330
BC3
100
AcDbEntity
  8
DIMENSIONS
  6
ByBlock
 62
     5
440
 16777216
100
AcDbMText
 10
607.3932924370116
 20
35.17603625786132
 30
0.0
 40
5.0
 41
0.0
 46
0.0
 71
     5
 72
     1
  1
\A1;206 [8.11]
 11
0.0000000000000001
 21
1.0
 31
0.0
 73
     1
 44
1.0
  0
POINT
  5
BFD
330
BC3
100
AcDbEntity
  8
DEFPOINTS
  6
ByBlock
 62
     0
440
 16777216
100
AcDbPoint
 10
563.9737804242465
 20
138.1760362578612
 30
0.0
  0
POINT
  5
BFE
330
BC3
100
AcDbEntity
  8
DEFPOINTS
  6
ByBlock
 62
     0
440
 16777216
100
AcDbPoint
 10
563.9737804242465
 20
-67.8239637421388
 30
0.0
  0
POINT
  5
BFF
330
BC3
100
AcDbEntity
  8
DEFPOINTS
  6
ByBlock
 62
     0
440
 16777216
100
AcDbPoint
 10
611.5975898449241
 20
-67.82396374213881
 30
0.0
  0
ENDBLK
  5
A6B
330
BC3
100
AcDbEntity
  8
0
100
AcDbBlockEnd
  0
BLOCK
  5
BC6
330
BC5
100
AcDbEntity
  8
0
100
AcDbBlockBegin
  2
*D6
 70
     1
 10
0.0
 20
0.0
 30
0.0
  3
*D6
  1

  0
LINE
  5
A7B
330
BC5
100
AcDbEntity
  8
DIMENSIONS
  6
ByBlock
 62
     0
100
AcDbLine
 10
125.1252768296663
 20
98.54500461364285
 30
0.0
 11
101.1949173694778
 21
98.54500461364285
 31
0.0
  0
LINE
  5
A7C
330
BC5
100
AcDbEntity
  8
DIMENSIONS
  6
ByBlock
 62
     0
100
AcDbLine
 10
135.6252768296664
 20
74.04500461364285
 30
0.0
 11
101.1949173694778
 21
74.04500461364285
 31
0.0
  0
LINE
  5
A7D
330
BC5
100
AcDbEntity
  8
DIMENSIONS
  6
ByBlock
 62
     0
100
AcDbLine
 10
101.3749173694779
 20
74.04500461364285
 30
0.0
 11
101.3749173694779
 21
34.72500461364286
 31
0.0
  0
LINE
  5
A7E
330
BC5
100
AcDbEntity
  8
DIMENSIONS
  6
ByBlock
 62
     0
100
AcDbLine
 10
101.3749173694779
 20
93.54500461364285
 30
0.0
 11
101.3749173694779
 21
79.04500461364285
 31
0.0
  0
SOLID
  5
A7F
330
BC5
100
AcDbEntity
  8
DIMENSIONS
 62
     0
100
AcDbTrace
 10
102.2082507028112
 20
93.54500461364285
 30
0.0
 11
100.5415840361445
 21
93.54500461364285
 31
0.0
 12
101.3749173694779
 22
98.54500461364285
 32
0.0
 13
101.3749173694779
 23
98.54500461364285
 33
0.0
  0
SOLID
  5
A80
330
BC5
100
AcDbEntity
  8
DIMENSIONS
 62
     0
100
AcDbTrace
 10
100.5415840361445
 20
79.04500461364285
 30
0.0
 11
102.2082507028112
 21
79.04500461364285
 31
0.0
 12
101.3749173694779
 22
74.04500461364285
 32
0.0
 13
101.3749173694779
 23
74.04500461364285
 33
0.0
  0
TEXT
  5
A81
330
BC5
100
AcDbEntity
  8
DIMENSIONS
  6
Continuous
 62
     5
100
AcDbText
 10
98.97991736947789
 20
35.52000461364285
 30
0.0
 40
5.0
  1
24.5 [0.96]
 50
90.0
100
AcDbText
  0
POINT
  5
A82
330
BC5
100
AcDbEntity
  8
DEFPOINTS
 62
     0
100
AcDbPoint
 10
126.6252768296663
 20
98.54500461364285
 30
0.0
  0
POINT
  5
A83
330
BC5
100
AcDbEntity
  8
DEFPOINTS
 62
     0
100
AcDbPoint
 10
137.1252768296664
 20
74.04500461364285
 30
0.0
  0
POINT
  5
ADE
330
BC5
100
AcDbEntity
  8
DEFPOINTS
 62
     0
100
AcDbPoint
 10
101.3749173694779
 20
74.04500461364285
 30
0.0
  0
ENDBLK
  5
A7A
330
BC5
100
AcDbEntity
  8
0
100
AcDbBlockEnd
  0
BLOCK
  5
BC8
330
BC7
100
AcDbEntity
  8
0
100
AcDbBlockBegin
  2
*D7
 70
     1
 10
0.0
 20
0.0
 30
0.0
  3
*D7
  1

  0
LINE
  5
C00
330
BC7
100
AcDbEntity
  8
DIMENSIONS
  6
ByBlock
 62
     0
440
 16777216
370
    -2
100
AcDbLine
 10
539.4737804242465
 20
129.1760362578611
 30
0.0
 11
539.4737804242465
 21
153.8147451408676
 31
0.0
  0
LINE
  5
C01
330
BC7
100
AcDbEntity
  8
DIMENSIONS
  6
ByBlock
 62
     0
440
 16777216
370
    -2
100
AcDbLine
 10
434.4737804242465
 20
129.1760362578611
 30
0.0
 11
434.4737804242465
 21
153.8147451408676
 31
0.0
  0
LINE
  5
C02
330
BC7
100
AcDbEntity
  8
DIMENSIONS
  6
ByBlock
 62
     0
440
 16777216
370
    -2
100
AcDbLine
 10
534.4737804242465
 20
153.6347451408676
 30
0.0
 11
439.4737804242465
 21
153.6347451408676
 31
0.0
  0
SOLID
  5
C03
330
BC7
100
AcDbEntity
  8
DIMENSIONS
  6
ByBlock
 62
     0
440
 16777216
100
AcDbTrace
 10
534.4737804242465
 20
154.468078474201
 30
0.0
 11
534.4737804242465
 21
152.8014118075343
 31
0.0
 12
539.4737804242465
 22
153.6347451408676
 32
0.0
 13
539.4737804242465
 23
153.6347451408676
 33
0.0
  0
SOLID
  5
C04
330
BC7
100
AcDbEntity
  8
DIMENSIONS
  6
ByBlock
 62
     0
440
 16777216
100
AcDbTrace
 10
439.4737804242465
 20
154.468078474201
 30
0.0
 11
439.4737804242465
 21
152.8014118075343
 31
0.0
 12
434.4737804242465
 22
153.6347451408676
 32
0.0
 13
434.4737804242465
 23
153.6347451408676
 33
0.0
  0
MTEXT
  5
C05
330
BC7
100
AcDbEntity
  8
DIMENSIONS
  6
ByBlock
 62
     5
440
 16777216
100
AcDbMText
 10
486.9737804242466
 20
157.8390425487803
 30
0.0
 40
5.0
 41
0.0
 46
0.0
 71
     5
 72
     1
  1
\A1;105 [4.13]
 73
     1
 44
1.0
  0
POINT
  5
C06
330
BC7
100
AcDbEntity
  8
DEFPOINTS
  6
ByBlock
 62
     0
440
 16777216
100
AcDbPoint
 10
539.4737804242465
 20
127.6760362578611
 30
0.0
  0
POINT
  5
C07
330
BC7
100
AcDbEntity
  8
DEFPOINTS
  6
ByBlock
 62
     0
440
 16777216
100
AcDbPoint
 10
434.4737804242465
 20
127.6760362578611
 30
0.0
  0
POINT
  5
C08
330
BC7
100
AcDbEntity
  8
DEFPOINTS
  6
ByBlock
 62
     0
440
 16777216
100
AcDbPoint
 10
434.4737804242465
 20
153.6347451408676
 30
0.0
  0
ENDBLK
  5
A89
330
BC7
100
AcDbEntity
  8
0
100
AcDbBlockEnd
  0
BLOCK
  5
BCA
330
BC9
100
AcDbEntity
  8
0
100
AcDbBlockBegin
  2
*D8
 70
     1
 10
0.0
 20
0.0
 30
0.0
  3
*D8
  1

  0
LINE
  5
A99
330
BC9
100
AcDbEntity
  8
DIMENSIONS
  6
ByBlock
 62
     0
100
AcDbLine
 10
135.6252768296664
 20
-30.95499538635715
 30
0.0
 11
101.9408765635125
 21
-30.95499538635715
 31
0.0
  0
LINE
  5
A9A
330
BC9
100
AcDbEntity
  8
DIMENSIONS
  6
ByBlock
 62
     0
100
AcDbLine
 10
125.1252768296663
 20
-55.45499538635715
 30
0.0
 11
101.9408765635125
 21
-55.45499538635715
 31
0.0
  0
LINE
  5
A9B
330
BC9
100
AcDbEntity
  8
DIMENSIONS
  6
ByBlock
 62
     0
100
AcDbLine
 10
102.1208765635125
 20
-30.95499538635715
 30
0.0
 11
102.1208765635125
 21
8.365004613642842
 31
0.0
  0
LINE
  5
A9C
330
BC9
100
AcDbEntity
  8
DIMENSIONS
  6
ByBlock
 62
     0
100
AcDbLine
 10
102.1208765635125
 20
-35.95499538635715
 30
0.0
 11
102.1208765635125
 21
-50.45499538635715
 31
0.0
  0
SOLID
  5
A9D
330
BC9
100
AcDbEntity
  8
DIMENSIONS
 62
     0
100
AcDbTrace
 10
102.9542098968458
 20
-35.95499538635715
 30
0.0
 11
101.2875432301792
 21
-35.95499538635715
 31
0.0
 12
102.1208765635125
 22
-30.95499538635715
 32
0.0
 13
102.1208765635125
 23
-30.95499538635715
 33
0.0
  0
SOLID
  5
A9E
330
BC9
100
AcDbEntity
  8
DIMENSIONS
 62
     0
100
AcDbTrace
 10
101.2875432301792
 20
-50.45499538635715
 30
0.0
 11
102.9542098968458
 21
-50.45499538635715
 31
0.0
 12
102.1208765635125
 22
-55.45499538635715
 32
0.0
 13
102.1208765635125
 23
-55.45499538635715
 33
0.0
  0
TEXT
  5
A9F
330
BC9
100
AcDbEntity
  8
DIMENSIONS
  6
Continuous
 62
     5
100
AcDbText
 10
99.72587656351247
 20
-25.15999538635715
 30
0.0
 40
5.0
  1
24.5 [0.96]
 50
90.0
100
AcDbText
  0
POINT
  5
AA0
330
BC9
100
AcDbEntity
  8
DEFPOINTS
 62
     0
100
AcDbPoint
 10
137.1252768296664
 20
-30.95499538635715
 30
0.0
  0
POINT
  5
AA1
330
BC9
100
AcDbEntity
  8
DEFPOINTS
 62
     0
100
AcDbPoint
 10
126.6252768296663
 20
-55.45499538635715
 30
0.0
  0
POINT
  5
ADF
330
BC9
100
AcDbEntity
  8
DEFPOINTS
 62
     0
100
AcDbPoint
 10
102.1208765635125
 20
-55.45499538635715
 30
0.0
  0
ENDBLK
  5
A98
330
BC9
100
AcDbEntity
  8
0
100
AcDbBlockEnd
  0
BLOCK
  5
BCC
330
BCB
100
AcDbEntity
  8
0
100
AcDbBlockBegin
  2
*D9
 70
     1
 10
0.0
 20
0.0
 30
0.0
  3
*D9
  1

  0
LINE
  5
AA8
330
BCB
100
AcDbEntity
  8
DIMENSIONS
  6
ByBlock
 62
     0
100
AcDbLine
 10
334.1252768296663
 20
98.54500461364285
 30
0.0
 11
370.7695107623495
 21
98.54500461364285
 31
0.0
  0
LINE
  5
AA9
330
BCB
100
AcDbEntity
  8
DIMENSIONS
  6
ByBlock
 62
     0
100
AcDbLine
 10
316.1252768296665
 20
81.54500461364284
 30
0.0
 11
370.7695107623495
 21
81.54500461364284
 31
0.0
  0
LINE
  5
AAA
330
BCB
100
AcDbEntity
  8
DIMENSIONS
  6
ByBlock
 62
     0
100
AcDbLine
 10
370.5895107623494
 20
81.54500461364284
 30
0.0
 11
370.5895107623494
 21
48.60000461364279
 31
0.0
  0
LINE
  5
AAB
330
BCB
100
AcDbEntity
  8
DIMENSIONS
  6
ByBlock
 62
     0
100
AcDbLine
 10
370.5895107623494
 20
93.54500461364285
 30
0.0
 11
370.5895107623494
 21
86.54500461364284
 31
0.0
  0
SOLID
  5
AAC
330
BCB
100
AcDbEntity
  8
DIMENSIONS
 62
     0
100
AcDbTrace
 10
371.4228440956828
 20
93.54500461364285
 30
0.0
 11
369.7561774290162
 21
93.54500461364285
 31
0.0
 12
370.5895107623494
 22
98.54500461364285
 32
0.0
 13
370.5895107623494
 23
98.54500461364285
 33
0.0
  0
SOLID
  5
AAD
330
BCB
100
AcDbEntity
  8
DIMENSIONS
 62
     0
100
AcDbTrace
 10
369.7561774290162
 20
86.54500461364284
 30
0.0
 11
371.4228440956828
 21
86.54500461364284
 31
0.0
 12
370.5895107623494
 22
81.54500461364284
 32
0.0
 13
370.5895107623494
 23
81.54500461364284
 33
0.0
  0
TEXT
  5
AAE
330
BCB
100
AcDbEntity
  8
DIMENSIONS
  6
Continuous
 62
     5
100
AcDbText
 10
368.1945107623495
 20
48.8400046136428
 30
0.0
 40
5.0
  1
17 [0.67]
 50
90.0
100
AcDbText
  0
POINT
  5
AAF
330
BCB
100
AcDbEntity
  8
DEFPOINTS
 62
     0
100
AcDbPoint
 10
332.6252768296663
 20
98.54500461364285
 30
0.0
  0
POINT
  5
AB0
330
BCB
100
AcDbEntity
  8
DEFPOINTS
 62
     0
100
AcDbPoint
 10
314.6252768296665
 20
81.54500461364284
 30
0.0
  0
POINT
  5
AE0
330
BCB
100
AcDbEntity
  8
DEFPOINTS
 62
     0
100
AcDbPoint
 10
370.5895107623494
 20
81.54500461364284
 30
0.0
  0
ENDBLK
  5
AA7
330
BCB
100
AcDbEntity
  8
0
100
AcDbBlockEnd
  0
BLOCK
  5
BCE
330
BCD
100
AcDbEntity
  8
0
100
AcDbBlockBegin
  2
*D10
 70
     1
 10
0.0
 20
0.0
 30
0.0
  3
*D10
  1

  0
LINE
  5
AB7
330
BCD
100
AcDbEntity
  8
DIMENSIONS
  6
ByBlock
 62
     0
100
AcDbLine
 10
316.1252768296665
 20
81.54500461364284
 30
0.0
 11
351.7366337894959
 21
81.54500461364284
 31
0.0
  0
LINE
  5
AB8
330
BCD
100
AcDbEntity
  8
DIMENSIONS
  6
ByBlock
 62
     0
100
AcDbLine
 10
316.1252768296663
 20
-38.45499538635715
 30
0.0
 11
351.7366337894959
 21
-38.45499538635715
 31
0.0
  0
LINE
  5
AB9
330
BCD
100
AcDbEntity
  8
DIMENSIONS
  6
ByBlock
 62
     0
100
AcDbLine
 10
351.5566337894958
 20
76.54500461364285
 30
0.0
 11
351.5566337894958
 21
-33.45499538635715
 31
0.0
  0
SOLID
  5
ABA
330
BCD
100
AcDbEntity
  8
DIMENSIONS
 62
     0
100
AcDbTrace
 10
352.3899671228292
 20
76.54500461364285
 30
0.0
 11
350.7233004561626
 21
76.54500461364285
 31
0.0
 12
351.5566337894958
 22
81.54500461364284
 32
0.0
 13
351.5566337894958
 23
81.54500461364284
 33
0.0
  0
SOLID
  5
ABB
330
BCD
100
AcDbEntity
  8
DIMENSIONS
 62
     0
100
AcDbTrace
 10
350.7233004561626
 20
-33.45499538635715
 30
0.0
 11
352.3899671228292
 21
-33.45499538635715
 31
0.0
 12
351.5566337894958
 22
-38.45499538635715
 32
0.0
 13
351.5566337894958
 23
-38.45499538635715
 33
0.0
  0
TEXT
  5
ABC
330
BCD
100
AcDbEntity
  8
DIMENSIONS
  6
Continuous
 62
     5
100
AcDbText
 10
349.1616337894959
 20
5.87250461364283
 30
0.0
 40
5.0
  1
120 [4.72]
 50
90.0
100
AcDbText
  0
POINT
  5
ABD
330
BCD
100
AcDbEntity
  8
DEFPOINTS
 62
     0
100
AcDbPoint
 10
314.6252768296665
 20
81.54500461364284
 30
0.0
  0
POINT
  5
ABE
330
BCD
100
AcDbEntity
  8
DEFPOINTS
 62
     0
100
AcDbPoint
 10
314.6252768296664
 20
-38.45499538635715
 30
0.0
  0
POINT
  5
ABF
330
BCD
100
AcDbEntity
  8
DEFPOINTS
 62
     0
100
AcDbPoint
 10
351.5566337894958
 20
-38.45499538635715
 30
0.0
  0
ENDBLK
  5
AB6
330
BCD
100
AcDbEntity
  8
0
100
AcDbBlockEnd
  0
BLOCK
  5
BD0
330
BCF
100
AcDbEntity
  8
0
100
AcDbBlockBegin
  2
*D11
 70
     1
 10
0.0
 20
0.0
 30
0.0
  3
*D11
  1

  0
LINE
  5
AC6
330
BCF
100
AcDbEntity
  8
DIMENSIONS
  6
ByBlock
 62
     0
100
AcDbLine
 10
316.1252768296663
 20
-38.45499538635715
 30
0.0
 11
370.2282241221782
 21
-38.45499538635715
 31
0.0
  0
LINE
  5
AC7
330
BCF
100
AcDbEntity
  8
DIMENSIONS
  6
ByBlock
 62
     0
100
AcDbLine
 10
334.1252768296663
 20
-55.45499538635715
 30
0.0
 11
370.2282241221782
 21
-55.45499538635715
 31
0.0
  0
LINE
  5
AC8
330
BCF
100
AcDbEntity
  8
DIMENSIONS
  6
ByBlock
 62
     0
100
AcDbLine
 10
370.0482241221782
 20
-38.45499538635715
 30
0.0
 11
370.0482241221782
 21
-5.509995386357106
 31
0.0
  0
LINE
  5
AC9
330
BCF
100
AcDbEntity
  8
DIMENSIONS
  6
ByBlock
 62
     0
100
AcDbLine
 10
370.0482241221782
 20
-43.45499538635714
 30
0.0
 11
370.0482241221782
 21
-50.45499538635715
 31
0.0
  0
SOLID
  5
ACA
330
BCF
100
AcDbEntity
  8
DIMENSIONS
 62
     0
100
AcDbTrace
 10
370.8815574555115
 20
-43.45499538635714
 30
0.0
 11
369.2148907888449
 21
-43.45499538635714
 31
0.0
 12
370.0482241221782
 22
-38.45499538635715
 32
0.0
 13
370.0482241221782
 23
-38.45499538635715
 33
0.0
  0
SOLID
  5
ACB
330
BCF
100
AcDbEntity
  8
DIMENSIONS
 62
     0
100
AcDbTrace
 10
369.2148907888449
 20
-50.45499538635715
 30
0.0
 11
370.8815574555115
 21
-50.45499538635715
 31
0.0
 12
370.0482241221782
 22
-55.45499538635715
 32
0.0
 13
370.0482241221782
 23
-55.45499538635715
 33
0.0
  0
TEXT
  5
ACC
330
BCF
100
AcDbEntity
  8
DIMENSIONS
  6
Continuous
 62
     5
100
AcDbText
 10
367.6532241221782
 20
-33.21499538635715
 30
0.0
 40
5.0
  1
17 [0.67]
 50
90.0
100
AcDbText
  0
POINT
  5
ACD
330
BCF
100
AcDbEntity
  8
DEFPOINTS
 62
     0
100
AcDbPoint
 10
314.6252768296664
 20
-38.45499538635715
 30
0.0
  0
POINT
  5
ACE
330
BCF
100
AcDbEntity
  8
DEFPOINTS
 62
     0
100
AcDbPoint
 10
332.6252768296663
 20
-55.45499538635715
 30
0.0
  0
POINT
  5
AE1
330
BCF
100
AcDbEntity
  8
DEFPOINTS
 62
     0
100
AcDbPoint
 10
370.0482241221782
 20
-55.45499538635715
 30
0.0
  0
ENDBLK
  5
AC5
330
BCF
100
AcDbEntity
  8
0
100
AcDbBlockEnd
  0
BLOCK
  5
BD2
330
BD1
100
AcDbEntity
  8
0
100
AcDbBlockBegin
  2
*D12
 70
     1
 10
0.0
 20
0.0
 30
0.0
  3
*D12
  1

  0
LINE
  5
C09
330
BD1
100
AcDbEntity
  8
DIMENSIONS
  6
ByBlock
 62
     0
440
 16777216
370
    -2
100
AcDbLine
 10
449.2920654399971
 20
-8.674628893896167
 30
0.0
 11
437.0961729554141
 21
-48.71448887938004
 31
0.0
  0
MTEXT
  5
C0A
330
BD1
100
AcDbEntity
  8
DIMENSIONS
  6
ByBlock
 62
     5
440
 16777216
100
AcDbMText
 10
440.0299923971672
 20
-24.37258767751891
 30
0.0
 40
5.0
 41
0.0
 46
0.0
 71
     5
 72
     1
  1
\A1;∅8 [∅0.31]
 11
0.291376947907505
 21
0.9566083180843177
 31
0.0
 73
     1
 44
1.0
  0
SOLID
  5
C0B
330
BD1
100
AcDbEntity
  8
DIMENSIONS
  6
ByBlock
 62
     0
440
 16777216
100
AcDbTrace
 10
436.2989993570105
 20
-48.4716747561238
 30
0.0
 11
437.8933465538175
 21
-48.95730300263631
 31
0.0
 12
435.6392882158766
 22
-53.49753046980165
 32
0.0
 13
435.6392882158766
 23
-53.49753046980165
 33
0.0
  0
LINE
  5
C0C
330
BD1
100
AcDbEntity
  8
DIMENSIONS
  6
ByBlock
 62
     0
440
 16777216
370
    -2
100
AcDbLine
 10
431.9737804242465
 20
-57.32396374213887
 30
0.0
 11
436.9737804242466
 21
-57.32396374213887
 31
0.0
  0
LINE
  5
C0D
330
BD1
100
AcDbEntity
  8
DIMENSIONS
  6
ByBlock
 62
     0
440
 16777216
370
    -2
100
AcDbLine
 10
434.4737804242464
 20
-59.82396374213887
 30
0.0
 11
434.4737804242465
 21
-54.8239637421389
 31
0.0
  0
POINT
  5
C0E
330
BD1
100
AcDbEntity
  8
DEFPOINTS
  6
ByBlock
 62
     0
440
 16777216
100
AcDbPoint
 10
435.6392882158766
 20
-53.49753046980165
 30
0.0
  0
POINT
  5
C0F
330
BD1
100
AcDbEntity
  8
DEFPOINTS
  6
ByBlock
 62
     0
440
 16777216
100
AcDbPoint
 10
433.3082726326166
 20
-61.1503970144761
 30
0.0
  0
ENDBLK
  5
AD4
330
BD1
100
AcDbEntity
  8
0
100
AcDbBlockEnd
  0
BLOCK
  5
BD4
330
BD3
100
AcDbEntity
  8
0
100
AcDbBlockBegin
  2
*D13
 70
     1
 10
0.0
 20
0.0
 30
0.0
  3
*D13
  1

  0
LINE
  5
AEA
330
BD3
100
AcDbEntity
  8
DIMENSIONS
  6
ByBlock
 62
     0
100
AcDbLine
 10
125.1252768296663
 20
98.54500461364285
 30
0.0
 11
85.35769745356438
 21
98.54500461364285
 31
0.0
  0
LINE
  5
AEB
330
BD3
100
AcDbEntity
  8
DIMENSIONS
  6
ByBlock
 62
     0
100
AcDbLine
 10
125.1252768296663
 20
-55.45499538635715
 30
0.0
 11
85.35769745356438
 21
-55.45499538635715
 31
0.0
  0
LINE
  5
AEC
330
BD3
100
AcDbEntity
  8
DIMENSIONS
  6
ByBlock
 62
     0
100
AcDbLine
 10
85.5376974535644
 20
93.54500461364285
 30
0.0
 11
85.53769745356438
 21
-50.45499538635715
 31
0.0
  0
SOLID
  5
AED
330
BD3
100
AcDbEntity
  8
DIMENSIONS
 62
     0
100
AcDbTrace
 10
86.37103078689774
 20
93.54500461364285
 30
0.0
 11
84.70436412023108
 21
93.54500461364285
 31
0.0
 12
85.5376974535644
 22
98.54500461364285
 32
0.0
 13
85.5376974535644
 23
98.54500461364285
 33
0.0
  0
SOLID
  5
AEE
330
BD3
100
AcDbEntity
  8
DIMENSIONS
 62
     0
100
AcDbTrace
 10
84.70436412023106
 20
-50.45499538635715
 30
0.0
 11
86.37103078689772
 21
-50.45499538635715
 31
0.0
 12
85.53769745356438
 22
-55.45499538635715
 32
0.0
 13
85.53769745356438
 23
-55.45499538635715
 33
0.0
  0
TEXT
  5
AEF
330
BD3
100
AcDbEntity
  8
DIMENSIONS
  6
Continuous
 62
     5
100
AcDbText
 10
83.14269745356439
 20
5.872504613642846
 30
0.0
 40
5.0
  1
154 [6.06]
 50
90.0
100
AcDbText
  0
POINT
  5
AF0
330
BD3
100
AcDbEntity
  8
DEFPOINTS
 62
     0
100
AcDbPoint
 10
126.6252768296663
 20
98.54500461364285
 30
0.0
  0
POINT
  5
AF1
330
BD3
100
AcDbEntity
  8
DEFPOINTS
 62
     0
100
AcDbPoint
 10
126.6252768296663
 20
-55.45499538635715
 30
0.0
  0
POINT
  5
AF2
330
BD3
100
AcDbEntity
  8
DEFPOINTS
 62
     0
100
AcDbPoint
 10
85.53769745356438
 20
-55.45499538635715
 30
0.0
  0
ENDBLK
  5
AE9
330
BD3
100
AcDbEntity
  8
0
100
AcDbBlockEnd
  0
BLOCK
  5
BD6
330
BD5
100
AcDbEntity
  8
0
100
AcDbBlockBegin
  2
*D14
 70
     1
 10
0.0
 20
0.0
 30
0.0
  3
*D14
  1

  0
LINE
  5
C10
330
BD5
100
AcDbEntity
  8
DIMENSIONS
  6
ByBlock
 62
     0
440
 16777216
370
    -2
100
AcDbLine
 10
546.9737804242465
 20
121.6760362578612
 30
0.0
 11
546.9737804242465
 21
170.1326025103755
 31
0.0
  0
LINE
  5
C11
330
BD5
100
AcDbEntity
  8
DIMENSIONS
  6
ByBlock
 62
     0
440
 16777216
370
    -2
100
AcDbLine
 10
426.9737804242465
 20
121.6760362578612
 30
0.0
 11
426.9737804242465
 21
170.1326025103755
 31
0.0
  0
LINE
  5
C12
330
BD5
100
AcDbEntity
  8
DIMENSIONS
  6
ByBlock
 62
     0
440
 16777216
370
    -2
100
AcDbLine
 10
541.9737804242465
 20
169.9526025103755
 30
0.0
 11
431.9737804242465
 21
169.9526025103755
 31
0.0
  0
SOLID
  5
C13
330
BD5
100
AcDbEntity
  8
DIMENSIONS
  6
ByBlock
 62
     0
440
 16777216
100
AcDbTrace
 10
541.9737804242465
 20
170.7859358437089
 30
0.0
 11
541.9737804242465
 21
169.1192691770422
 31
0.0
 12
546.9737804242465
 22
169.9526025103755
 32
0.0
 13
546.9737804242465
 23
169.9526025103755
 33
0.0
  0
SOLID
  5
C14
330
BD5
100
AcDbEntity
  8
DIMENSIONS
  6
ByBlock
 62
     0
440
 16777216
100
AcDbTrace
 10
431.9737804242465
 20
170.7859358437089
 30
0.0
 11
431.9737804242465
 21
169.1192691770422
 31
0.0
 12
426.9737804242465
 22
169.9526025103755
 32
0.0
 13
426.9737804242465
 23
169.9526025103755
 33
0.0
  0
MTEXT
  5
C15
330
BD5
100
AcDbEntity
  8
DIMENSIONS
  6
ByBlock
 62
     5
440
 16777216
100
AcDbMText
 10
486.9737804242466
 20
174.1568999182882
 30
0.0
 40
5.0
 41
0.0
 46
0.0
 71
     5
 72
     1
  1
\A1;120 [4.72]
 73
     1
 44
1.0
  0
POINT
  5
C16
330
BD5
100
AcDbEntity
  8
DEFPOINTS
  6
ByBlock
 62
     0
440
 16777216
100
AcDbPoint
 10
546.9737804242465
 20
120.1760362578612
 30
0.0
  0
POINT
  5
C17
330
BD5
100
AcDbEntity
  8
DEFPOINTS
  6
ByBlock
 62
     0
440
 16777216
100
AcDbPoint
 10
426.9737804242465
 20
120.1760362578612
 30
0.0
  0
POINT
  5
C18
330
BD5
100
AcDbEntity
  8
DEFPOINTS
  6
ByBlock
 62
     0
440
 16777216
100
AcDbPoint
 10
426.9737804242465
 20
169.9526025103755
 30
0.0
  0
ENDBLK
  5
B02
330
BD5
100
AcDbEntity
  8
0
100
AcDbBlockEnd
  0
BLOCK
  5
BD8
330
BD7
100
AcDbEntity
  8
0
100
AcDbBlockBegin
  2
*D15
 70
     1
 10
0.0
 20
0.0
 30
0.0
  3
*D15
  1

  0
LINE
  5
C19
330
BD7
100
AcDbEntity
  8
DIMENSIONS
  6
ByBlock
 62
     0
440
 16777216
370
    -2
100
AcDbLine
 10
409.9737804242465
 20
139.6760362578612
 30
0.0
 11
409.9737804242465
 21
186.1299305386966
 31
0.0
  0
LINE
  5
C1A
330
BD7
100
AcDbEntity
  8
DIMENSIONS
  6
ByBlock
 62
     0
440
 16777216
370
    -2
100
AcDbLine
 10
563.9737804242465
 20
139.6760362578612
 30
0.0
 11
563.9737804242465
 21
186.1299305386966
 31
0.0
  0
LINE
  5
C1B
330
BD7
100
AcDbEntity
  8
DIMENSIONS
  6
ByBlock
 62
     0
440
 16777216
370
    -2
100
AcDbLine
 10
414.9737804242465
 20
185.9499305386966
 30
0.0
 11
558.9737804242465
 21
185.9499305386966
 31
0.0
  0
SOLID
  5
C1C
330
BD7
100
AcDbEntity
  8
DIMENSIONS
  6
ByBlock
 62
     0
440
 16777216
100
AcDbTrace
 10
414.9737804242465
 20
186.78326387203
 30
0.0
 11
414.9737804242465
 21
185.1165972053633
 31
0.0
 12
409.9737804242465
 22
185.9499305386966
 32
0.0
 13
409.9737804242465
 23
185.9499305386966
 33
0.0
  0
SOLID
  5
C1D
330
BD7
100
AcDbEntity
  8
DIMENSIONS
  6
ByBlock
 62
     0
440
 16777216
100
AcDbTrace
 10
558.9737804242465
 20
186.78326387203
 30
0.0
 11
558.9737804242465
 21
185.1165972053633
 31
0.0
 12
563.9737804242465
 22
185.9499305386966
 32
0.0
 13
563.9737804242465
 23
185.9499305386966
 33
0.0
  0
MTEXT
  5
C1E
330
BD7
100
AcDbEntity
  8
DIMENSIONS
  6
ByBlock
 62
     5
440
 16777216
100
AcDbMText
 10
486.9737804242466
 20
190.1542279466094
 30
0.0
 40
5.0
 41
0.0
 46
0.0
 71
     5
 72
     1
  1
\A1;154 [6.06]
 73
     1
 44
1.0
  0
POINT
  5
C1F
330
BD7
100
AcDbEntity
  8
DEFPOINTS
  6
ByBlock
 62
     0
440
 16777216
100
AcDbPoint
 10
409.9737804242465
 20
138.1760362578612
 30
0.0
  0
POINT
  5
C20
330
BD7
100
AcDbEntity
  8
DEFPOINTS
  6
ByBlock
 62
     0
440
 16777216
100
AcDbPoint
 10
563.9737804242465
 20
138.1760362578612
 30
0.0
  0
POINT
  5
C21
330
BD7
100
AcDbEntity
  8
DEFPOINTS
  6
ByBlock
 62
     0
440
 16777216
100
AcDbPoint
 10
563.9737804242465
 20
185.9499305386966
 30
0.0
  0
ENDBLK
  5
B11
330
BD7
100
AcDbEntity
  8
0
100
AcDbBlockEnd
  0
BLOCK
  5
CEE
330
CEC
100
AcDbEntity
  8
0
100
AcDbBlockBegin
  2
GENAXEH
 70
     0
 10
0.0
 20
0.0
 30
0.0
  3
GENAXEH
  1

  0
LINE
  5
CED
330
CEC
100
AcDbEntity
  8
0
100
AcDbLine
 10
-1.0
 20
0.0
 30
0.0
 11
1.0
 21
0.0
 31
0.0
  0
ENDBLK
  5
CEF
330
CEC
100
AcDbEntity
  8
0
100
AcDbBlockEnd
  0
ENDSEC
  0
SECTION
  2
ENTITIES
  0
TEXT
  5
698
330
B90
100
AcDbEntity
  8
DIMENSIONS
  6
ByBlock
100
AcDbText
 10
405.2551434473548
 20
-81.30984570443677
 30
0.0
 40
5.0
  1
Note:
100
AcDbText
  0
TEXT
  5
699
330
B90
100
AcDbEntity
  8
DIMENSIONS
  6
ByBlock
100
AcDbText
 10
405.3890694876403
 20
-91.83881355242986
 30
0.0
 40
5.0
  1
Primary dimensions in millimeters.
100
AcDbText
  0
TEXT
  5
69A
330
B90
100
AcDbEntity
  8
DIMENSIONS
  6
ByBlock
100
AcDbText
 10
405.6104834240305
 20
-102.4108391612139
 30
0.0
 40
5.0
  1
Secondary dimensions in inches.
100
AcDbText
  0
LINE
  5
A39
330
B90
100
AcDbEntity
  8
0
100
AcDbLine
 10
546.9737804242465
 20
120.1760362578612
 30
0.0
 11
426.9737804242465
 21
120.1760362578612
 31
0.0
  0
LINE
  5
A3A
330
B90
100
AcDbEntity
  8
0
100
AcDbLine
 10
426.9737804242465
 20
120.1760362578612
 30
0.0
 11
426.9737804242465
 21
-49.82396374213879
 31
0.0
  0
LINE
  5
A3B
330
B90
100
AcDbEntity
  8
0
100
AcDbLine
 10
426.9737804242465
 20
-49.82396374213879
 30
0.0
 11
546.9737804242465
 21
-49.82396374213891
 31
0.0
  0
LINE
  5
A3C
330
B90
100
AcDbEntity
  8
0
100
AcDbLine
 10
546.9737804242465
 20
-49.82396374213891
 30
0.0
 11
546.9737804242465
 21
120.1760362578612
 31
0.0
  0
CIRCLE
  5
A3D
330
B90
100
AcDbEntity
  8
0
100
AcDbCircle
 10
539.4737804242465
 20
-57.32396374213879
 30
0.0
 40
4.0
  0
CIRCLE
  5
A3E
330
B90
100
AcDbEntity
  8
0
100
AcDbCircle
 10
434.4737804242464
 20
-57.32396374213879
 30
0.0
 40
4.0
  0
CIRCLE
  5
A3F
330
B90
100
AcDbEntity
  8
0
100
AcDbCircle
 10
539.4737804242465
 20
127.6760362578611
 30
0.0
 40
4.0
  0
CIRCLE
  5
A40
330
B90
100
AcDbEntity
  8
0
100
AcDbCircle
 10
434.4737804242465
 20
127.6760362578611
 30
0.0
 40
4.0
  0
LINE
  5
A41
330
B90
100
AcDbEntity
  8
0
100
AcDbLine
 10
563.9737804242465
 20
138.1760362578612
 30
0.0
 11
563.9737804242465
 21
-67.8239637421388
 31
0.0
  0
LINE
  5
A42
330
B90
100
AcDbEntity
  8
0
100
AcDbLine
 10
486.9737804242466
 20
-67.8239637421388
 30
0.0
 11
563.9737804242465
 21
-67.8239637421388
 31
0.0
  0
LINE
  5
A43
330
B90
100
AcDbEntity
  8
0
100
AcDbLine
 10
563.9737804242465
 20
138.1760362578612
 30
0.0
 11
486.9737804242466
 21
138.1760362578612
 31
0.0
  0
LINE
  5
A44
330
B90
100
AcDbEntity
  8
0
100
AcDbLine
 10
409.9737804242465
 20
138.1760362578612
 30
0.0
 11
409.9737804242464
 21
-67.8239637421388
 31
0.0
  0
LINE
  5
A45
330
B90
100
AcDbEntity
  8
0
100
AcDbLine
 10
486.9737804242466
 20
-67.8239637421388
 30
0.0
 11
409.9737804242464
 21
-67.8239637421388
 31
0.0
  0
LINE
  5
A46
330
B90
100
AcDbEntity
  8
0
100
AcDbLine
 10
409.9737804242465
 20
138.1760362578612
 30
0.0
 11
486.9737804242466
 21
138.1760362578612
 31
0.0
  0
DIMENSION
  5
A47
330
B90
100
AcDbEntity
  8
DIMENSIONS
  6
ByBlock
100
AcDbDimension
280
     0
  2
*D3
 10
578.6720490075264
 20
-49.82396374213892
 30
0.0
 11
574.4677515996137
 21
35.17603625786124
 31
0.0
 70
    32
 71
     5
 42
170.0000000000001
 73
     0
 74
     0
 75
     0
  3
DUAL-DIM
100
AcDbAlignedDimension
 13
546.9737804242465
 23
120.1760362578612
 33
0.0
 14
546.9737804242465
 24
-49.82396374213891
 34
0.0
 50
270.0
100
AcDbRotatedDimension
1001
ACAD
1000
DSTYLE
1002
{
1070
   287
1070
     5
1070
   279
1070
     2
1002
}
  0
DIMENSION
  5
A57
330
B90
100
AcDbEntity
  8
DIMENSIONS
  6
ByBlock
100
AcDbDimension
280
     0
  2
*D4
 10
594.8459988925637
 20
-57.32396374213881
 30
0.0
 11
590.641701484651
 21
35.17603625786125
 31
0.0
 70
    32
 71
     5
 42
184.9999999999999
 73
     0
 74
     0
 75
     0
  3
DUAL-DIM
100
AcDbAlignedDimension
 13
539.4737804242465
 23
127.6760362578611
 33
0.0
 14
539.4737804242465
 24
-57.32396374213879
 34
0.0
 50
270.0
100
AcDbRotatedDimension
1001
ACAD
1000
DSTYLE
1002
{
1070
   287
1070
     5
1070
   279
1070
     2
1002
}
  0
DIMENSION
  5
A66
330
B90
100
AcDbEntity
  8
DIMENSIONS
  6
ByBlock
100
AcDbDimension
280
     0
  2
*D5
 10
611.5975898449241
 20
-67.82396374213881
 30
0.0
 11
607.3932924370116
 21
35.17603625786132
 31
0.0
 70
    32
 71
     5
 42
206.0
 73
     0
 74
     0
 75
     0
  3
DUAL-DIM
100
AcDbAlignedDimension
 13
563.9737804242465
 23
138.1760362578612
 33
0.0
 14
563.9737804242465
 24
-67.8239637421388
 34
0.0
 50
270.0
100
AcDbRotatedDimension
1001
ACAD
1000
DSTYLE
1002
{
1070
   287
1070
     5
1070
   279
1070
     2
1002
}
  0
DIMENSION
  5
A84
330
B90
100
AcDbEntity
  8
DIMENSIONS
  6
ByBlock
100
AcDbDimension
280
     0
  2
*D7
 10
434.4737804242465
 20
153.6347451408676
 30
0.0
 11
486.9737804242466
 21
157.8390425487803
 31
0.0
 70
    32
 71
     5
 42
104.9999999999999
 73
     0
 74
     0
 75
     0
  3
DUAL-DIM
100
AcDbAlignedDimension
 13
539.4737804242465
 23
127.6760362578611
 33
0.0
 14
434.4737804242465
 24
127.6760362578611
 34
0.0
100
AcDbRotatedDimension
1001
ACAD
1000
DSTYLE
1002
{
1070
   287
1070
     5
1070
   279
1070
     2
1002
}
  0
DIMENSION
  5
ACF
330
B90
100
AcDbEntity
  8
DIMENSIONS
  6
ByBlock
100
AcDbDimension
280
     0
  2
*D12
 10
433.3082726326166
 20
-61.1503970144761
 30
0.0
 11
444.1301618150955
 21
-25.6214737976941
 31
0.0
 70
   163
  1
<>
 71
     5
 42
7.999999999999913
 73
     0
 74
     0
 75
     0
  3
DUAL-DIM
100
AcDbDiametricDimension
 15
435.6392882158766
 25
-53.49753046980165
 35
0.0
 40
0.0
1001
ACAD_DSTYLE_DIMRADIAL_EXT0
1070
   387
1070
     1
1070
   388
1040
0.0
1070
   390
1040
6.283185307179584
1001
ACAD
1000
DSTYLE
1002
{
1070
   279
1070
     0
1002
}
  0
DIMENSION
  5
AFD
330
B90
100
AcDbEntity
  8
DIMENSIONS
  6
ByBlock
100
AcDbDimension
280
     0
  2
*D14
 10
426.9737804242465
 20
169.9526025103755
 30
0.0
 11
486.9737804242466
 21
174.1568999182882
 31
0.0
 70
    32
 71
     5
 42
119.9999999999999
 73
     0
 74
     0
 75
     0
  3
DUAL-DIM
100
AcDbAlignedDimension
 13
546.9737804242465
 23
120.1760362578612
 33
0.0
 14
426.9737804242465
 24
120.1760362578612
 34
0.0
100
AcDbRotatedDimension
1001
ACAD
1000
DSTYLE
1002
{
1070
   287
1070
     5
1070
   279
1070
     2
1002
}
  0
DIMENSION
  5
B0C
330
B90
100
AcDbEntity
  8
DIMENSIONS
  6
ByBlock
100
AcDbDimension
280
     0
  2
*D15
 10
563.9737804242465
 20
185.9499305386966
 30
0.0
 11
486.9737804242466
 21
190.1542279466094
 31
0.0
 70
    32
 71
     5
 42
153.9999999999999
 73
     0
 74
     0
 75
     0
  3
DUAL-DIM
100
AcDbAlignedDimension
 13
409.9737804242465
 23
138.1760362578612
 33
0.0
 14
563.9737804242465
 24
138.1760362578612
 34
0.0
100
AcDbRotatedDimension
1001
ACAD
1000
DSTYLE
1002
{
1070
   287
1070
     5
1070
   279
1070
     2
1002
}
  0
LWPOLYLINE
  5
B1B
330
B90
100
AcDbEntity
  8
0
  6
ByBlock
100
AcDbPolyline
 90
        4
 70
     1
 43
0.0
 10
397.1214877185953
 20
203.3208879639353
 10
623.1529192332908
 20
203.3208879639353
 10
623.1529192332907
 20
-111.679421956572
 10
397.1214877185953
 20
-111.679421956572
  0
LINE
  5
C28
330
B90
100
AcDbEntity
  8
DIMENSIONS
  6
ByBlock
 62
     7
100
AcDbLine
 10
486.9737804242466
 20
105.4603067946162
 30
0.0
 11
486.9737804242466
 21
87.38851002489175
 31
0.0
  0
LINE
  5
C29
102
{ACAD_REACTORS
330
C3D
102
}
330
B90
100
AcDbEntity
  8
DIMENSIONS
  6
ByBlock
 62
     7
100
AcDbLine
 10
486.9737804242466
 20
112.3885100248917
 30
0.0
 11
490.9737804242466
 21
105.4603067946162
 31
0.0
  0
LINE
  5
C2A
102
{ACAD_REACTORS
330
C3D
102
}
330
B90
100
AcDbEntity
  8
DIMENSIONS
  6
ByBlock
 62
     7
100
AcDbLine
 10
490.9737804242466
 20
105.4603067946162
 30
0.0
 11
482.9737804242466
 21
105.4603067946162
 31
0.0
  0
LINE
  5
C2B
102
{ACAD_REACTORS
330
C3D
102
}
330
B90
100
AcDbEntity
  8
DIMENSIONS
  6
ByBlock
 62
     7
100
AcDbLine
 10
486.9737804242466
 20
112.3885100248917
 30
0.0
 11
482.9737804242466
 21
105.4603067946162
 31
0.0
  0
HATCH
  5
C3D
330
B90
100
AcDbEntity
  8
DIMENSIONS
  6
ByBlock
 62
     7
100
AcDbHatch
 10
0.0
 20
0.0
 30
0.0
210
0.0
220
0.0
230
1.0
  2
SOLID
 70
     1
 71
     1
 91
        1
 92
        7
 72
     0
 73
     1
 93
        3
 10
486.9737804242466
 20
112.3885100248917
 10
482.9737804242466
 20
105.4603067946162
 10
490.9737804242466
 20
105.4603067946162
 97
        3
330
C2B
330
C2A
330
C29
 75
     1
 76
     1
 47
0.1217971811572389
 98
        1
 10
489.5612619388661
 20
106.2880797174934
450
        0
451
        0
460
0.0
461
0.0
452
        0
462
1.0
453
        2
463
0.0
 63
     7
421
 16777215
463
1.0
 63
   250
421
  3355443
470
LINEAR
1001
GradientColor1ACI
1070
     7
1001
GradientColor2ACI
1070
   250
1001
ACAD
1010
0.0
1020
0.0
1030
0.0
  0
TEXT
  5
C45
330
B90
100
AcDbEntity
  8
DIMENSIONS
  6
ByBlock
 62
     7
100
AcDbText
 10
493.4790296755418
 20
87.6325373588873
 30
0.0
 40
5.0
  1
TOP
100
AcDbText
  0
ENDSEC
  0
SECTION
  2
OBJECTS
  0
DICTIONARY
  5
B2C
330
0
100
AcDbDictionary
281
     1
  3
ACAD_CIP_PREVIOUS_PRODUCT_INFO
350
BDA
  3
ACAD_COLOR
350
B82
  3
ACAD_DETAILVIEWSTYLE
350
B8A
  3
ACAD_GROUP
350
B2D
  3
ACAD_LAYOUT
350
B81
  3
ACAD_MATERIAL
350
B30
  3
ACAD_MLEADERSTYLE
350
B85
  3
ACAD_MLINESTYLE
350
B7E
  3
ACAD_PLOTSETTINGS
350
B80
  3
ACAD_PLOTSTYLENAME
350
B2E
  3
ACAD_SCALELIST
350
B62
  3
ACAD_SECTIONVIEWSTYLE
350
B87
  3
ACAD_TABLESTYLE
350
B83
  3
ACAD_VISUALSTYLE
350
B49
  3
ACDB_RECOMPOSE_DATA
350
D0E
  3
AcDbVariableDictionary
350
C2D
  3
AcmDictionary
350
CCA
  3
AMG
350
CA1
  3
AMGSNAPSETTINGS
350
D06
  0
DICTIONARY
  5
C48
330
B74
100
AcDbDictionary
280
     1
281
     1
  3
ADSK_XREC_LAYER_RECONCILED
360
C49
  0
DICTIONARY
  5
C4A
330
B94
100
AcDbDictionary
280
     1
281
     1
  3
ADSK_XREC_LAYER_RECONCILED
360
C4B
  0
DICTIONARY
  5
C4C
330
B9B
100
AcDbDictionary
280
     1
281
     1
  3
ADSK_XREC_LAYER_RECONCILED
360
C4D
  0
DICTIONARY
  5
C4E
330
B9C
100
AcDbDictionary
280
     1
281
     1
  3
ADSK_XREC_LAYER_RECONCILED
360
C4F
  0
DICTIONARY
  5
C50
330
B9D
100
AcDbDictionary
280
     1
281
     1
  3
ADSK_XREC_LAYER_RECONCILED
360
C51
  0
DICTIONARY
  5
C52
330
B9E
100
AcDbDictionary
280
     1
281
     1
  3
ADSK_XREC_LAYER_RECONCILED
360
C53
  0
DICTIONARY
  5
C54
330
B9F
100
AcDbDictionary
280
     1
281
     1
  3
ADSK_XREC_LAYER_RECONCILED
360
C55
  0
DICTIONARY
  5
C56
330
BA0
100
AcDbDictionary
280
     1
281
     1
  3
ADSK_XREC_LAYER_RECONCILED
360
C57
  0
DICTIONARY
  5
C58
330
BA1
100
AcDbDictionary
280
     1
281
     1
  3
ADSK_XREC_LAYER_RECONCILED
360
C59
  0
DICTIONARY
  5
C5A
330
BA2
100
AcDbDictionary
280
     1
281
     1
  3
ADSK_XREC_LAYER_RECONCILED
360
C5B
  0
DICTIONARY
  5
C5C
330
BA3
100
AcDbDictionary
280
     1
281
     1
  3
ADSK_XREC_LAYER_RECONCILED
360
C5D
  0
DICTIONARY
  5
C5E
330
BA4
100
AcDbDictionary
280
     1
281
     1
  3
ADSK_XREC_LAYER_RECONCILED
360
C5F
  0
DICTIONARY
  5
C60
330
BA5
100
AcDbDictionary
280
     1
281
     1
  3
ADSK_XREC_LAYER_RECONCILED
360
C61
  0
DICTIONARY
  5
C62
330
BA7
100
AcDbDictionary
280
     1
281
     1
  3
ADSK_XREC_LAYER_RECONCILED
360
C63
  0
DICTIONARY
  5
C34
330
B90
100
AcDbDictionary
280
     1
281
     1
  3
ACAD_SORTENTS
360
C35
  0
XRECORD
  5
BDA
102
{ACAD_REACTORS
330
B2C
102
}
330
B2C
100
AcDbXrecord
280
     1
300
AMECH_PP
300
2013
300
85962PDSP_2013_0F
  0
DICTIONARY
  5
B82
102
{ACAD_REACTORS
330
B2C
102
}
330
B2C
100
AcDbDictionary
281
     1
  0
DICTIONARY
  5
B8A
102
{ACAD_REACTORS
330
B2C
102
}
330
B2C
100
AcDbDictionary
281
     1
  3
Imperial24
350
B8B
  0
DICTIONARY
  5
B2D
102
{ACAD_REACTORS
330
B2C
102
}
330
B2C
100
AcDbDictionary
281
     1
  0
DICTIONARY
  5
B81
102
{ACAD_REACTORS
330
B2C
102
}
330
B2C
100
AcDbDictionary
281
     1
  3
Layout1
350
B8F
  3
Model
350
B93
  0
DICTIONARY
  5
B30
102
{ACAD_REACTORS
330
B2C
102
}
330
B2C
100
AcDbDictionary
281
     1
  3
ByBlock
350
B39
  3
ByLayer
350
B31
  3
Global
350
B41
  0
DICTIONARY
  5
B85
102
{ACAD_REACTORS
330
B2C
102
}
330
B2C
100
AcDbDictionary
281
     1
  3
Standard
350
B86
  0
DICTIONARY
  5
B7E
102
{ACAD_REACTORS
330
B2C
102
}
330
B2C
100
AcDbDictionary
281
     1
  3
Standard
350
B7F
  0
DICTIONARY
  5
B80
102
{ACAD_REACTORS
330
B2C
102
}
330
B2C
100
AcDbDictionary
281
     1
  0
ACDBDICTIONARYWDFLT
  5
B2E
102
{ACAD_REACTORS
330
B2C
102
}
330
B2C
100
AcDbDictionary
281
     1
  3
Normal
350
B2F
100
AcDbDictionaryWithDefault
340
B2F
  0
DICTIONARY
  5
B62
102
{ACAD_REACTORS
330
B2C
102
}
330
B2C
100
AcDbDictionary
281
     1
  3
A0
350
B63
  3
A1
350
B64
  3
A2
350
B65
  3
A3
350
B66
  3
A4
350
B67
  3
A5
350
B68
  3
A6
350
B69
  3
A7
350
B6A
  3
A8
350
B6B
  3
A9
350
B6C
  3
B0
350
B6D
  3
B1
350
B6E
  3
B2
350
B6F
  3
B3
350
B70
  3
B4
350
B71
  3
B5
350
B72
  3
B6
350
B73
  0
DICTIONARY
  5
B87
102
{ACAD_REACTORS
330
B2C
102
}
330
B2C
100
AcDbDictionary
281
     1
  3
Imperial24
350
B89
  0
DICTIONARY
  5
B83
102
{ACAD_REACTORS
330
B2C
102
}
330
B2C
100
AcDbDictionary
281
     1
  3
Standard
350
B84
  0
DICTIONARY
  5
B49
102
{ACAD_REACTORS
330
B2C
102
}
330
B2C
100
AcDbDictionary
281
     1
  3
2dWireframe
350
B4F
  3
Basic
350
B4E
  3
Brighten
350
B55
  3
ColorChange
350
B59
  3
Conceptual
350
B52
  3
Dim
350
B54
  3
EdgeColorOff
350
B61
  3
Facepattern
350
B58
  3
Flat
350
B4A
  3
FlatWithEdges
350
B4B
  3
Gouraud
350
B4C
  3
GouraudWithEdges
350
B4D
  3
Hidden
350
B51
  3
JitterOff
350
B5F
  3
Linepattern
350
B57
  3
OverhangOff
350
B60
  3
Realistic
350
B53
  3
Shaded
350
B5E
  3
Shaded with edges
350
B5D
  3
Shades of Gray
350
B5A
  3
Sketchy
350
B5B
  3
Thicken
350
B56
  3
Wireframe
350
B50
  3
X-Ray
350
B5C
  0
XRECORD
  5
D0E
102
{ACAD_REACTORS
330
B2C
102
}
330
B2C
100
AcDbXrecord
280
     1
 90
        1
330
B84
  0
DICTIONARY
  5
C2D
102
{ACAD_REACTORS
330
B2C
102
}
330
B2C
100
AcDbDictionary
281
     1
  3
CANNOSCALE
350
C93
  3
CMLEADERSTYLE
350
C8F
  3
CTABLESTYLE
350
C8E
  3
CVIEWDETAILSTYLE
350
C90
  3
CVIEWSECTIONSTYLE
350
C91
  3
LAYEREVAL
350
C95
  3
LAYERNOTIFY
350
C96
  3
LIGHTINGUNITS
350
C94
  3
MSLTSCALE
350
C92
  0
DICTIONARY
  5
CCA
102
{ACAD_REACTORS
330
B2C
102
}
330
B2C
100
AcDbDictionary
281
     1
  3
AcmStdDictionary
350
CD3
  0
DICTIONARY
  5
CA1
102
{ACAD_REACTORS
330
B2C
102
}
330
B2C
100
AcDbDictionary
281
     1
  0
DICTIONARY
  5
D06
102
{ACAD_REACTORS
330
B2C
102
}
330
B2C
100
AcDbDictionary
281
     1
  0
XRECORD
  5
C49
102
{ACAD_REACTORS
330
C48
102
}
330
C48
100
AcDbXrecord
280
     1
290
     1
  0
XRECORD
  5
C4B
102
{ACAD_REACTORS
330
C4A
102
}
330
C4A
100
AcDbXrecord
280
     1
290
     1
  0
XRECORD
  5
C4D
102
{ACAD_REACTORS
330
C4C
102
}
330
C4C
100
AcDbXrecord
280
     1
290
     1
  0
XRECORD
  5
C4F
102
{ACAD_REACTORS
330
C4E
102
}
330
C4E
100
AcDbXrecord
280
     1
290
     1
  0
XRECORD
  5
C51
102
{ACAD_REACTORS
330
C50
102
}
330
C50
100
AcDbXrecord
280
     1
290
     1
  0
XRECORD
  5
C53
102
{ACAD_REACTORS
330
C52
102
}
330
C52
100
AcDbXrecord
280
     1
290
     1
  0
XRECORD
  5
C55
102
{ACAD_REACTORS
330
C54
102
}
330
C54
100
AcDbXrecord
280
     1
290
     1
  0
XRECORD
  5
C57
102
{ACAD_REACTORS
330
C56
102
}
330
C56
100
AcDbXrecord
280
     1
290
     1
  0
XRECORD
  5
C59
102
{ACAD_REACTORS
330
C58
102
}
330
C58
100
AcDbXrecord
280
     1
290
     1
  0
XRECORD
  5
C5B
102
{ACAD_REACTORS
330
C5A
102
}
330
C5A
100
AcDbXrecord
280
     1
290
     1
  0
XRECORD
  5
C5D
102
{ACAD_REACTORS
330
C5C
102
}
330
C5C
100
AcDbXrecord
280
     1
290
     1
  0
XRECORD
  5
C5F
102
{ACAD_REACTORS
330
C5E
102
}
330
C5E
100
AcDbXrecord
280
     1
290
     1
  0
XRECORD
  5
C61
102
{ACAD_REACTORS
330
C60
102
}
330
C60
100
AcDbXrecord
280
     1
290
     1
  0
XRECORD
  5
C63
102
{ACAD_REACTORS
330
C62
102
}
330
C62
100
AcDbXrecord
280
     1
290
     1
  0
SORTENTSTABLE
  5
C35
102
{ACAD_REACTORS
330
C34
102
}
330
C34
100
AcDbSortentsTable
330
B90
331
C29
  5
C37
331
698
  5
698
331
A3F
  5
A3F
331
A3D
  5
A3D
331
A3B
  5
A3B
331
A39
  5
A39
331
A46
  5
A46
331
A44
  5
A44
331
A42
  5
A42
331
AFD
  5
AFD
331
C2A
  5
C38
331
699
  5
699
331
A40
  5
A40
331
A57
  5
A57
331
C3D
  5
C31
331
A84
  5
A84
331
C28
  5
C2A
331
A3E
  5
A3E
331
A3C
  5
A3C
331
A3A
  5
A3A
331
ACF
  5
ACF
331
A47
  5
A47
331
A66
  5
A66
331
B0C
  5
B0C
331
A45
  5
A45
331
A43
  5
A43
331
B1B
  5
B1B
331
C2B
  5
C39
331
69A
  5
69A
331
A41
  5
A41
  0
ACDBDETAILVIEWSTYLE
  5
B8B
102
{ACAD_REACTORS
330
B8A
102
}
330
B8A
100
AcDbModelDocViewStyle
 70
     0
  3
Imperial24
290
     0
100
AcDbDetailViewStyle
 70
     0
 71
     0
 90
        3
 71
     1
340
B75
 62
   256
 40
0.24
340
0
 62
   256
 40
0.24
300

 40
0.36
280
     3
 71
     2
340
B7C
 90
       25
 62
   256
 71
     3
340
B75
 62
   256
 40
0.24
 90
        1
 40
0.75
 90
        1
300
%<\AcVar ViewType \f "%tc1">% %<\AcVar ViewDetailId>%\PSCALE %<\AcVar ViewScale \f "%sn">%
 71
     4
340
B7C
 90
       25
 62
   256
340
B7C
 90
       25
 62
   256
280
     0
  0
LAYOUT
  5
B8F
102
{ACAD_REACTORS
330
B81
102
}
330
B81
100
AcDbPlotSettings
  1

  2
Send To OneNote 2013
  4

  6

 40
0.0
 41
0.0
 42
0.0
 43
0.0
 44
0.0
 45
0.0
 46
0.0
 47
0.0
 48
0.0
 49
0.0
140
0.0
141
0.0
142
1.0
143
1.0
 70
   688
 72
     0
 73
     0
 74
     5
  7
monochrome.ctb
 75
    16
147
1.0
 76
     0
 77
     2
 78
   300
148
0.0
149
0.0
100
AcDbLayout
  1
Layout1
 70
     1
 71
     1
 10
0.0
 20
0.0
 11
0.0
 21
0.0
 12
0.0
 22
0.0
 32
0.0
 14
1.000000000000000E+20
 24
1.000000000000000E+20
 34
1.000000000000000E+20
 15
-1.000000000000000E+20
 25
-1.000000000000000E+20
 35
-1.000000000000000E+20
146
0.0
 13
0.0
 23
0.0
 33
0.0
 16
1.0
 26
0.0
 36
0.0
 17
0.0
 27
1.0
 37
0.0
 76
     0
330
B8C
  0
LAYOUT
  5
B93
102
{ACAD_REACTORS
330
B81
102
}
330
B81
100
AcDbPlotSettings
  1

  2
Send To OneNote 2013
  4
Letter
  6

 40
9.260416030883787
 41
7.14373779296875
 42
7.14373779296875
 43
9.260406494140623
 44
215.8999938964844
 45
279.3999938964844
 46
0.0
 47
0.0
 48
0.0
 49
0.0
140
0.0
141
0.0
142
1.0
143
81.11511582374053
 70
 11952
 72
     0
 73
     1
 74
     0
  7
monochrome.ctb
 75
     0
147
0.0123281584430324
 76
     0
 77
     2
 78
   300
148
-1626.892469323641
149
4262.689128435737
100
AcDbLayout
  1
Model
 70
     1
 71
     0
 10
0.0
 20
0.0
 11
12.0
 21
9.0
 12
0.0
 22
0.0
 32
0.0
 14
0.0
 24
0.0
 34
0.0
 15
0.0
 25
0.0
 35
0.0
146
0.0
 13
0.0
 23
0.0
 33
0.0
 16
1.0
 26
0.0
 36
0.0
 17
0.0
 27
1.0
 37
0.0
 76
     0
330
B90
331
B95
1001
ACAD_PSEXT
1000
Send To OneNote 2013
1000
Send to Microsoft OneNote 15 Driver
1000
nul:
1000

1070
     0
  0
MATERIAL
  5
B39
102
{ACAD_XDICTIONARY
360
B3A
102
}
102
{ACAD_REACTORS
330
B30
102
}
330
B30
100
AcDbMaterial
  1
ByBlock
 72
     0
 43
0.0208333333333333
 43
0.0
 43
0.0
 43
0.0
 43
0.0
 43
0.0208333333333333
 43
0.0
 43
0.0
 43
0.0
 43
0.0
 43
1.0
 43
0.0
 43
0.0
 43
0.0
 43
0.0
 43
1.0
 77
     0
 47
0.0208333333333333
 47
0.0
 47
0.0
 47
0.0
 47
0.0
 47
0.0208333333333333
 47
0.0
 47
0.0
 47
0.0
 47
0.0
 47
1.0
 47
0.0
 47
0.0
 47
0.0
 47
0.0
 47
1.0
171
     0
 49
0.0208333333333333
 49
0.0
 49
0.0
 49
0.0
 49
0.0
 49
0.0208333333333333
 49
0.0
 49
0.0
 49
0.0
 49
0.0
 49
1.0
 49
0.0
 49
0.0
 49
0.0
 49
0.0
 49
1.0
175
     0
142
0.0208333333333333
142
0.0
142
0.0
142
0.0
142
0.0
142
0.0208333333333333
142
0.0
142
0.0
142
0.0
142
0.0
142
1.0
142
0.0
142
0.0
142
0.0
142
0.0
142
1.0
179
     0
144
0.0208333333333333
144
0.0
144
0.0
144
0.0
144
0.0
144
0.0208333333333333
144
0.0
144
0.0
144
0.0
144
0.0
144
1.0
144
0.0
144
0.0
144
0.0
144
0.0
144
1.0
147
0.0208333333333333
147
0.0
147
0.0
147
0.0
147
0.0
147
0.0208333333333333
147
0.0
147
0.0
147
0.0
147
0.0
147
1.0
147
0.0
147
0.0
147
0.0
147
0.0
147
1.0
  0
MATERIAL
  5
B31
102
{ACAD_XDICTIONARY
360
B32
102
}
102
{ACAD_REACTORS
330
B30
102
}
330
B30
100
AcDbMaterial
  1
ByLayer
 72
     0
 43
0.0208333333333333
 43
0.0
 43
0.0
 43
0.0
 43
0.0
 43
0.0208333333333333
 43
0.0
 43
0.0
 43
0.0
 43
0.0
 43
1.0
 43
0.0
 43
0.0
 43
0.0
 43
0.0
 43
1.0
 77
     0
 47
0.0208333333333333
 47
0.0
 47
0.0
 47
0.0
 47
0.0
 47
0.0208333333333333
 47
0.0
 47
0.0
 47
0.0
 47
0.0
 47
1.0
 47
0.0
 47
0.0
 47
0.0
 47
0.0
 47
1.0
171
     0
 49
0.0208333333333333
 49
0.0
 49
0.0
 49
0.0
 49
0.0
 49
0.0208333333333333
 49
0.0
 49
0.0
 49
0.0
 49
0.0
 49
1.0
 49
0.0
 49
0.0
 49
0.0
 49
0.0
 49
1.0
175
     0
142
0.0208333333333333
142
0.0
142
0.0
142
0.0
142
0.0
142
0.0208333333333333
142
0.0
142
0.0
142
0.0
142
0.0
142
1.0
142
0.0
142
0.0
142
0.0
142
0.0
142
1.0
179
     0
144
0.0208333333333333
144
0.0
144
0.0
144
0.0
144
0.0
144
0.0208333333333333
144
0.0
144
0.0
144
0.0
144
0.0
144
1.0
144
0.0
144
0.0
144
0.0
144
0.0
144
1.0
147
0.0208333333333333
147
0.0
147
0.0
147
0.0
147
0.0
147
0.0208333333333333
147
0.0
147
0.0
147
0.0
147
0.0
147
1.0
147
0.0
147
0.0
147
0.0
147
0.0
147
1.0
  0
MATERIAL
  5
B41
102
{ACAD_XDICTIONARY
360
B42
102
}
102
{ACAD_REACTORS
330
B30
102
}
330
B30
100
AcDbMaterial
  1
Global
 72
     0
 43
0.0208333333333333
 43
0.0
 43
0.0
 43
0.0
 43
0.0
 43
0.0208333333333333
 43
0.0
 43
0.0
 43
0.0
 43
0.0
 43
1.0
 43
0.0
 43
0.0
 43
0.0
 43
0.0
 43
1.0
 77
     0
 47
0.0208333333333333
 47
0.0
 47
0.0
 47
0.0
 47
0.0
 47
0.0208333333333333
 47
0.0
 47
0.0
 47
0.0
 47
0.0
 47
1.0
 47
0.0
 47
0.0
 47
0.0
 47
0.0
 47
1.0
171
     0
 49
0.0208333333333333
 49
0.0
 49
0.0
 49
0.0
 49
0.0
 49
0.0208333333333333
 49
0.0
 49
0.0
 49
0.0
 49
0.0
 49
1.0
 49
0.0
 49
0.0
 49
0.0
 49
0.0
 49
1.0
175
     0
142
0.0208333333333333
142
0.0
142
0.0
142
0.0
142
0.0
142
0.0208333333333333
142
0.0
142
0.0
142
0.0
142
0.0
142
1.0
142
0.0
142
0.0
142
0.0
142
0.0
142
1.0
179
     0
144
0.0208333333333333
144
0.0
144
0.0
144
0.0
144
0.0
144
0.0208333333333333
144
0.0
144
0.0
144
0.0
144
0.0
144
1.0
144
0.0
144
0.0
144
0.0
144
0.0
144
1.0
147
0.0208333333333333
147
0.0
147
0.0
147
0.0
147
0.0
147
0.0208333333333333
147
0.0
147
0.0
147
0.0
147
0.0
147
1.0
147
0.0
147
0.0
147
0.0
147
0.0
147
1.0
  0
MLEADERSTYLE
  5
B86
102
{ACAD_REACTORS
330
B85
102
}
330
B85
100
AcDbMLeaderStyle
179
     2
170
     2
171
     1
172
     0
 90
        2
 40
0.0
 41
0.0
173
     1
 91
-1056964608
340
B7A
 92
       -2
290
     1
 42
0.09
291
     1
 43
0.36
  3
Standard
 44
0.18
300

342
B75
174
     1
178
     6
175
     1
176
     0
 93
-1056964608
 45
0.18
292
     0
297
     0
 46
0.18
 94
-1056964608
 47
1.0
 49
1.0
140
1.0
293
     1
141
0.0
294
     1
177
     0
142
1.0
295
     0
296
     0
143
0.125
271
     0
272
     9
273
     9
298
     0
  0
MLINESTYLE
  5
B7F
102
{ACAD_REACTORS
330
B7E
102
}
330
B7E
100
AcDbMlineStyle
  2
STANDARD
 70
     0
  3

 62
   256
 51
90.0
 52
90.0
 71
     2
 49
0.5
 62
   256
  6
BYLAYER
 49
-0.5
 62
   256
  6
BYLAYER
  0
ACDBPLACEHOLDER
  5
B2F
102
{ACAD_REACTORS
330
B2E
102
}
330
B2E
  0
SCALE
  5
B63
102
{ACAD_REACTORS
330
B62
102
}
330
B62
100
AcDbScale
 70
     0
300
1:1
140
1.0
141
1.0
290
     1
  0
SCALE
  5
B64
102
{ACAD_REACTORS
330
B62
102
}
330
B62
100
AcDbScale
 70
     0
300
1/128" = 1'-0"
140
0.0078125
141
12.0
290
     0
  0
SCALE
  5
B65
102
{ACAD_REACTORS
330
B62
102
}
330
B62
100
AcDbScale
 70
     0
300
1/64" = 1'-0"
140
0.015625
141
12.0
290
     0
  0
SCALE
  5
B66
102
{ACAD_REACTORS
330
B62
102
}
330
B62
100
AcDbScale
 70
     0
300
1/32" = 1'-0"
140
0.03125
141
12.0
290
     0
  0
SCALE
  5
B67
102
{ACAD_REACTORS
330
B62
102
}
330
B62
100
AcDbScale
 70
     0
300
1/16" = 1'-0"
140
0.0625
141
12.0
290
     0
  0
SCALE
  5
B68
102
{ACAD_REACTORS
330
B62
102
}
330
B62
100
AcDbScale
 70
     0
300
3/32" = 1'-0"
140
0.09375
141
12.0
290
     0
  0
SCALE
  5
B69
102
{ACAD_REACTORS
330
B62
102
}
330
B62
100
AcDbScale
 70
     0
300
1/8" = 1'-0"
140
0.125
141
12.0
290
     0
  0
SCALE
  5
B6A
102
{ACAD_REACTORS
330
B62
102
}
330
B62
100
AcDbScale
 70
     0
300
3/16" = 1'-0"
140
0.1875
141
12.0
290
     0
  0
SCALE
  5
B6B
102
{ACAD_REACTORS
330
B62
102
}
330
B62
100
AcDbScale
 70
     0
300
1/4" = 1'-0"
140
0.25
141
12.0
290
     0
  0
SCALE
  5
B6C
102
{ACAD_REACTORS
330
B62
102
}
330
B62
100
AcDbScale
 70
     0
300
3/8" = 1'-0"
140
0.375
141
12.0
290
     0
  0
SCALE
  5
B6D
102
{ACAD_REACTORS
330
B62
102
}
330
B62
100
AcDbScale
 70
     0
300
1/2" = 1'-0"
140
0.5
141
12.0
290
     0
  0
SCALE
  5
B6E
102
{ACAD_REACTORS
330
B62
102
}
330
B62
100
AcDbScale
 70
     0
300
3/4" = 1'-0"
140
0.75
141
12.0
290
     0
  0
SCALE
  5
B6F
102
{ACAD_REACTORS
330
B62
102
}
330
B62
100
AcDbScale
 70
     0
300
1" = 1'-0"
140
1.0
141
12.0
290
     0
  0
SCALE
  5
B70
102
{ACAD_REACTORS
330
B62
102
}
330
B62
100
AcDbScale
 70
     0
300
1-1/2" = 1'-0"
140
1.5
141
12.0
290
     0
  0
SCALE
  5
B71
102
{ACAD_REACTORS
330
B62
102
}
330
B62
100
AcDbScale
 70
     0
300
3" = 1'-0"
140
3.0
141
12.0
290
     0
  0
SCALE
  5
B72
102
{ACAD_REACTORS
330
B62
102
}
330
B62
100
AcDbScale
 70
     0
300
6" = 1'-0"
140
6.0
141
12.0
290
     0
  0
SCALE
  5
B73
102
{ACAD_REACTORS
330
B62
102
}
330
B62
100
AcDbScale
 70
     0
300
1'-0" = 1'-0"
140
12.0
141
12.0
290
     0
  0
ACDBSECTIONVIEWSTYLE
  5
B89
102
{ACAD_REACTORS
330
B87
102
}
330
B87
100
AcDbModelDocViewStyle
 70
     0
  3
Imperial24
290
     0
100
AcDbSectionViewStyle
 70
     0
 71
     0
 90
       78
 71
     1
340
B75
 62
   256
 40
0.24
340
0
340
0
 62
   256
 40
0.24
300
I, O, Q, S, X, Z
 40
0.48
 90
        3
 40
0.18
 90
        1
 71
     2
340
B88
 90
       25
 62
   256
340
B7C
 90
       50
 62
   256
 40
0.24
 40
0.0
 40
0.24
 71
     3
340
B75
 62
   256
 40
0.24
 90
        1
 40
0.75
 90
        1
300
%<\AcVar ViewType \f "%tc1">% %<\AcVar ViewSectionStartId>%-%<\AcVar ViewSectionEndId>%\PSCALE %<\AcVar ViewScale \f "%sn">%
 71
     4
 62
   256
 62
   257
300
ANSI31
 40
1.0
 90
        0
290
     0
290
     0
 90
        6
 40
0.0
 40
1.570796326794896
 40
0.2617993877991494
 40
1.308996938995747
 40
-0.2617993877991494
 40
1.832595714594045
  0
TABLESTYLE
  5
B84
102
{ACAD_XDICTIONARY
360
C97
102
}
102
{ACAD_REACTORS
330
B83
102
}
330
B83
100
AcDbTableStyle
280
     0
  3
Standard
 70
     0
 71
     0
 40
0.06
 41
0.06
280
     0
281
     0
  7
STANDARD
140
0.18
170
     2
 62
     0
 63
     7
283
     0
 90
      512
 91
        0
  1

274
    -2
284
     1
 64
     0
275
    -2
285
     1
 65
     0
276
    -2
286
     1
 66
     0
277
    -2
287
     1
 67
     0
278
    -2
288
     1
 68
     0
279
    -2
289
     1
 69
     0
  7
STANDARD
140
0.25
170
     5
 62
     0
 63
     7
283
     0
 90
      512
 91
        0
  1

274
    -2
284
     1
 64
     0
275
    -2
285
     1
 65
     0
276
    -2
286
     1
 66
     0
277
    -2
287
     1
 67
     0
278
    -2
288
     1
 68
     0
279
    -2
289
     1
 69
     0
  7
STANDARD
140
0.18
170
     5
 62
     0
 63
     7
283
     0
 90
      512
 91
        0
  1

274
    -2
284
     1
 64
     0
275
    -2
285
     1
 65
     0
276
    -2
286
     1
 66
     0
277
    -2
287
     1
 67
     0
278
    -2
288
     1
 68
     0
279
    -2
289
     1
 69
     0
  0
VISUALSTYLE
  5
B4F
102
{ACAD_REACTORS
330
B49
102
}
330
B49
100
AcDbVisualStyle
  2
2dWireframe
 70
     4
177
     3
291
     0
 70
    58
 90
        0
176
     1
 90
        2
176
     1
 90
        0
176
     1
 90
        0
176
     1
 40
0.6
176
     1
 40
30.0
176
     1
 62
     7
420
 16777215
176
     1
 90
        1
176
     1
 90
        4
176
     1
 62
     7
176
     1
 62
   257
176
     1
 90
        1
176
     1
 90
        1
176
     1
 40
1.0
176
     1
 90
        0
176
     1
 62
   257
176
     1
 40
1.0
176
     1
 90
        1
176
     1
 90
        6
176
     1
 90
        2
176
     1
 62
     7
176
     1
 90
        5
176
     1
 90
        0
176
     1
 90
        0
176
     1
290
     0
176
     1
 90
        1
176
     1
 40
0.0
176
     1
 90
        0
176
     1
290
     1
176
     1
290
     1
176
     1
290
     0
176
     1
290
     0
176
     1
290
     0
176
     1
290
     0
176
     1
290
     0
176
     1
290
     0
176
     1
290
     0
176
     1
 90
       50
176
     1
 40
0.0
176
     1
 40
1.0
176
     1
 90
        0
176
     1
 62
    18
176
     1
 90
       50
176
     1
 90
        3
176
     1
 62
     5
420
      255
176
     1
290
     0
176
     1
 90
       50
176
     1
 90
       50
176
     1
 90
       50
176
     1
290
     0
176
     1
 90
       50
176
     1
 62
   256
176
     0
 40
1.0
176
     0
 90
        2
176
     1
  1
strokes_ogs.tif
176
     1
290
     0
176
     1
 40
1.0
176
     1
 40
1.0
176
     1
  0
VISUALSTYLE
  5
B4E
102
{ACAD_REACTORS
330
B49
102
}
330
B49
100
AcDbVisualStyle
  2
Basic
 70
     7
177
     3
291
     1
 70
    58
 90
        1
176
     1
 90
        0
176
     1
 90
        1
176
     1
 90
        0
176
     1
 40
0.6
176
     1
 40
30.0
176
     1
 62
     7
420
 16777215
176
     1
 90
        0
176
     1
 90
        4
176
     1
 62
     7
176
     1
 62
   257
176
     1
 90
        1
176
     1
 90
        1
176
     1
 40
1.0
176
     1
 90
        8
176
     1
 62
     7
176
     1
 40
1.0
176
     1
 90
        1
176
     1
 90
        6
176
     1
 90
        2
176
     1
 62
     7
176
     1
 90
        5
176
     1
 90
        0
176
     1
 90
        0
176
     1
290
     0
176
     1
 90
        1
176
     1
 40
0.0
176
     1
 90
        0
176
     1
290
     0
176
     1
290
     1
176
     1
290
     1
176
     1
290
     0
176
     1
290
     0
176
     1
290
     0
176
     1
290
     0
176
     1
290
     0
176
     1
290
     0
176
     1
 90
       50
176
     1
 40
0.0
176
     1
 40
1.0
176
     1
 90
        0
176
     1
 62
    18
176
     1
 90
       50
176
     1
 90
        3
176
     1
 62
     5
420
      255
176
     1
290
     0
176
     1
 90
       50
176
     1
 90
       50
176
     1
 90
       50
176
     1
290
     0
176
     1
 90
       50
176
     1
 62
   256
176
     0
 40
1.0
176
     0
 90
        2
176
     1
  1
strokes_ogs.tif
176
     1
290
     0
176
     1
 40
1.0
176
     1
 40
1.0
176
     1
  0
VISUALSTYLE
  5
B55
102
{ACAD_REACTORS
330
B49
102
}
330
B49
100
AcDbVisualStyle
  2
Brighten
 70
    12
177
     3
291
     1
 70
    58
 90
        2
176
     1
 90
        2
176
     1
 90
        0
176
     1
 90
        0
176
     1
 40
0.6
176
     1
 40
30.0
176
     1
 62
     7
420
 16777215
176
     1
 90
        1
176
     1
 90
        4
176
     1
 62
     7
176
     1
 62
   257
176
     1
 90
        1
176
     1
 90
        1
176
     1
 40
1.0
176
     1
 90
        8
176
     1
 62
     7
176
     1
 40
1.0
176
     1
 90
        1
176
     1
 90
        6
176
     1
 90
        2
176
     1
 62
     7
176
     1
 90
        5
176
     1
 90
        0
176
     1
 90
        0
176
     1
290
     0
176
     1
 90
        1
176
     1
 40
50.0
176
     1
 90
        0
176
     1
290
     0
176
     1
290
     1
176
     1
290
     1
176
     1
290
     0
176
     1
290
     0
176
     1
290
     0
176
     1
290
     0
176
     1
290
     0
176
     1
290
     0
176
     1
 90
       50
176
     1
 40
0.0
176
     1
 40
1.0
176
     1
 90
        0
176
     1
 62
    18
176
     1
 90
       50
176
     1
 90
        3
176
     1
 62
     5
420
      255
176
     1
290
     0
176
     1
 90
       50
176
     1
 90
       50
176
     1
 90
       50
176
     1
290
     0
176
     1
 90
       50
176
     1
 62
   256
176
     0
 40
1.0
176
     0
 90
        2
176
     1
  1
strokes_ogs.tif
176
     1
290
     0
176
     1
 40
1.0
176
     1
 40
1.0
176
     1
  0
VISUALSTYLE
  5
B59
102
{ACAD_REACTORS
330
B49
102
}
330
B49
100
AcDbVisualStyle
  2
ColorChange
 70
    16
177
     3
291
     1
 70
    58
 90
        2
176
     1
 90
        2
176
     1
 90
        3
176
     1
 90
        0
176
     1
 40
0.6
176
     1
 40
30.0
176
     1
 62
     8
420
  8421504
176
     1
 90
        1
176
     1
 90
        4
176
     1
 62
     7
176
     1
 62
   257
176
     1
 90
        1
176
     1
 90
        1
176
     1
 40
1.0
176
     1
 90
        8
176
     1
 62
     8
420
  8421504
176
     1
 40
1.0
176
     1
 90
        1
176
     1
 90
        6
176
     1
 90
        2
176
     1
 62
     7
176
     1
 90
        5
176
     1
 90
        0
176
     1
 90
        0
176
     1
290
     0
176
     1
 90
        1
176
     1
 40
0.0
176
     1
 90
        0
176
     1
290
     0
176
     1
290
     1
176
     1
290
     1
176
     1
290
     0
176
     1
290
     0
176
     1
290
     0
176
     1
290
     0
176
     1
290
     0
176
     1
290
     0
176
     1
 90
       50
176
     1
 40
0.0
176
     1
 40
1.0
176
     1
 90
        0
176
     1
 62
    18
176
     1
 90
       50
176
     1
 90
        3
176
     1
 62
     5
420
      255
176
     1
290
     0
176
     1
 90
       50
176
     1
 90
       50
176
     1
 90
       50
176
     1
290
     0
176
     1
 90
       50
176
     1
 62
   256
176
     0
 40
1.0
176
     0
 90
        2
176
     1
  1
strokes_ogs.tif
176
     1
290
     0
176
     1
 40
1.0
176
     1
 40
1.0
176
     1
  0
VISUALSTYLE
  5
B52
102
{ACAD_REACTORS
330
B49
102
}
330
B49
100
AcDbVisualStyle
  2
Conceptual
 70
     9
177
     3
291
     0
 70
    58
 90
        3
176
     1
 90
        2
176
     1
 90
        0
176
     1
 90
        0
176
     1
 40
0.6
176
     1
 40
30.0
176
     1
 62
     7
420
 16777215
176
     1
 90
        2
176
     1
 90
        2
176
     1
 62
     7
176
     1
 62
   257
176
     1
 90
        1
176
     1
 90
        1
176
     1
 40
179.0
176
     1
 90
        8
176
     1
 62
     7
176
     1
 40
1.0
176
     1
 90
        1
176
     1
 90
        6
176
     1
 90
        2
176
     1
 62
     7
176
     1
 90
        3
176
     1
 90
        0
176
     1
 90
        0
176
     1
290
     0
176
     1
 90
        1
176
     1
 40
0.0
176
     1
 90
        0
176
     1
290
     0
176
     1
290
     1
176
     1
290
     1
176
     1
290
     0
176
     1
290
     0
176
     1
290
     0
176
     1
290
     0
176
     1
290
     0
176
     1
290
     0
176
     1
 90
       50
176
     1
 40
0.0
176
     1
 40
1.0
176
     1
 90
        0
176
     1
 62
    18
176
     1
 90
       50
176
     1
 90
        3
176
     1
 62
     5
420
      255
176
     1
290
     0
176
     1
 90
       50
176
     1
 90
       50
176
     1
 90
       50
176
     1
290
     0
176
     1
 90
       50
176
     1
 62
   256
176
     0
 40
1.0
176
     0
 90
        2
176
     1
  1
strokes_ogs.tif
176
     1
290
     0
176
     1
 40
1.0
176
     1
 40
1.0
176
     1
  0
VISUALSTYLE
  5
B54
102
{ACAD_REACTORS
330
B49
102
}
330
B49
100
AcDbVisualStyle
  2
Dim
 70
    11
177
     3
291
     1
 70
    58
 90
        2
176
     1
 90
        2
176
     1
 90
        0
176
     1
 90
        0
176
     1
 40
0.6
176
     1
 40
30.0
176
     1
 62
     7
420
 16777215
176
     1
 90
        1
176
     1
 90
        4
176
     1
 62
     7
176
     1
 62
   257
176
     1
 90
        1
176
     1
 90
        1
176
     1
 40
1.0
176
     1
 90
        8
176
     1
 62
     7
176
     1
 40
1.0
176
     1
 90
        1
176
     1
 90
        6
176
     1
 90
        2
176
     1
 62
     7
176
     1
 90
        5
176
     1
 90
        0
176
     1
 90
        0
176
     1
290
     0
176
     1
 90
        1
176
     1
 40
-50.0
176
     1
 90
        0
176
     1
290
     0
176
     1
290
     1
176
     1
290
     1
176
     1
290
     0
176
     1
290
     0
176
     1
290
     0
176
     1
290
     0
176
     1
290
     0
176
     1
290
     0
176
     1
 90
       50
176
     1
 40
0.0
176
     1
 40
1.0
176
     1
 90
        0
176
     1
 62
    18
176
     1
 90
       50
176
     1
 90
        3
176
     1
 62
     5
420
      255
176
     1
290
     0
176
     1
 90
       50
176
     1
 90
       50
176
     1
 90
       50
176
     1
290
     0
176
     1
 90
       50
176
     1
 62
   256
176
     0
 40
1.0
176
     0
 90
        2
176
     1
  1
strokes_ogs.tif
176
     1
290
     0
176
     1
 40
1.0
176
     1
 40
1.0
176
     1
  0
VISUALSTYLE
  5
B61
102
{ACAD_REACTORS
330
B49
102
}
330
B49
100
AcDbVisualStyle
  2
EdgeColorOff
 70
    22
177
     3
291
     1
 70
    58
 90
        2
176
     0
 90
        2
176
     0
 90
        0
176
     0
 90
        0
176
     0
 40
0.6
176
     0
 40
30.0
176
     0
 62
     7
420
 16777215
176
     0
 90
        1
176
     0
 90
        4
176
     0
 62
     7
176
     0
 62
   257
176
     0
 90
        1
176
     0
 90
        1
176
     0
 40
1.0
176
     0
 90
        8
176
     2
 62
     7
176
     0
 40
1.0
176
     0
 90
        1
176
     0
 90
        6
176
     0
 90
        2
176
     0
 62
     7
176
     0
 90
        5
176
     0
 90
        0
176
     0
 90
        0
176
     0
290
     0
176
     0
 90
        1
176
     0
 40
0.0
176
     0
 90
        0
176
     0
290
     0
176
     1
290
     1
176
     1
290
     1
176
     1
290
     0
176
     1
290
     0
176
     1
290
     0
176
     1
290
     0
176
     1
290
     0
176
     1
290
     0
176
     1
 90
       50
176
     0
 40
0.0
176
     0
 40
1.0
176
     0
 90
        0
176
     0
 62
    18
176
     0
 90
       50
176
     0
 90
        3
176
     0
 62
     5
420
      255
176
     0
290
     0
176
     1
 90
       50
176
     0
 90
       50
176
     0
 90
       50
176
     0
290
     0
176
     1
 90
       50
176
     0
 62
   256
176
     0
 40
1.0
176
     0
 90
        2
176
     0
  1
strokes_ogs.tif
176
     0
290
     0
176
     1
 40
1.0
176
     0
 40
1.0
176
     0
  0
VISUALSTYLE
  5
B58
102
{ACAD_REACTORS
330
B49
102
}
330
B49
100
AcDbVisualStyle
  2
Facepattern
 70
    15
177
     3
291
     1
 70
    58
 90
        2
176
     1
 90
        2
176
     1
 90
        0
176
     1
 90
        0
176
     1
 40
0.6
176
     1
 40
30.0
176
     1
 62
     7
420
 16777215
176
     1
 90
        1
176
     1
 90
        4
176
     1
 62
     7
176
     1
 62
   257
176
     1
 90
        1
176
     1
 90
        1
176
     1
 40
1.0
176
     1
 90
        8
176
     1
 62
     7
176
     1
 40
1.0
176
     1
 90
        1
176
     1
 90
        6
176
     1
 90
        2
176
     1
 62
     7
176
     1
 90
        5
176
     1
 90
        0
176
     1
 90
        0
176
     1
290
     0
176
     1
 90
        1
176
     1
 40
0.0
176
     1
 90
        0
176
     1
290
     0
176
     1
290
     1
176
     1
290
     1
176
     1
290
     0
176
     1
290
     0
176
     1
290
     0
176
     1
290
     0
176
     1
290
     0
176
     1
290
     0
176
     1
 90
       50
176
     1
 40
0.0
176
     1
 40
1.0
176
     1
 90
        0
176
     1
 62
    18
176
     1
 90
       50
176
     1
 90
        3
176
     1
 62
     5
420
      255
176
     1
290
     0
176
     1
 90
       50
176
     1
 90
       50
176
     1
 90
       50
176
     1
290
     0
176
     1
 90
       50
176
     1
 62
   256
176
     0
 40
1.0
176
     0
 90
        2
176
     1
  1
strokes_ogs.tif
176
     1
290
     0
176
     1
 40
1.0
176
     1
 40
1.0
176
     1
  0
VISUALSTYLE
  5
B4A
102
{ACAD_REACTORS
330
B49
102
}
330
B49
100
AcDbVisualStyle
  2
Flat
 70
     0
177
     3
291
     1
 70
    58
 90
        2
176
     1
 90
        1
176
     1
 90
        1
176
     1
 90
        2
176
     1
 40
0.6
176
     1
 40
30.0
176
     1
 62
     7
420
 16777215
176
     1
 90
        0
176
     1
 90
        0
176
     1
 62
     7
176
     1
 62
   257
176
     1
 90
        1
176
     1
 90
        1
176
     1
 40
1.0
176
     1
 90
        8
176
     1
 62
     7
176
     1
 40
1.0
176
     1
 90
        1
176
     1
 90
        6
176
     1
 90
        2
176
     1
 62
     7
176
     1
 90
        5
176
     1
 90
        0
176
     1
 90
        0
176
     1
290
     0
176
     1
 90
       13
176
     1
 40
0.0
176
     1
 90
        0
176
     1
290
     0
176
     1
290
     1
176
     1
290
     1
176
     1
290
     0
176
     1
290
     0
176
     1
290
     0
176
     1
290
     0
176
     1
290
     0
176
     1
290
     0
176
     1
 90
       50
176
     1
 40
0.0
176
     1
 40
1.0
176
     1
 90
        0
176
     1
 62
    18
176
     1
 90
       50
176
     1
 90
        3
176
     1
 62
     5
420
      255
176
     1
290
     0
176
     1
 90
       50
176
     1
 90
       50
176
     1
 90
       50
176
     1
290
     0
176
     1
 90
       50
176
     1
 62
   256
176
     0
 40
1.0
176
     0
 90
        2
176
     1
  1
strokes_ogs.tif
176
     1
290
     0
176
     1
 40
1.0
176
     1
 40
1.0
176
     1
  0
VISUALSTYLE
  5
B4B
102
{ACAD_REACTORS
330
B49
102
}
330
B49
100
AcDbVisualStyle
  2
FlatWithEdges
 70
     1
177
     3
291
     1
 70
    58
 90
        2
176
     1
 90
        1
176
     1
 90
        1
176
     1
 90
        2
176
     1
 40
0.6
176
     1
 40
30.0
176
     1
 62
     7
420
 16777215
176
     1
 90
        1
176
     1
 90
        0
176
     1
 62
     7
176
     1
 62
   257
176
     1
 90
        1
176
     1
 90
        1
176
     1
 40
1.0
176
     1
 90
        0
176
     1
 62
   257
176
     1
 40
1.0
176
     1
 90
        1
176
     1
 90
        6
176
     1
 90
        2
176
     1
 62
     7
176
     1
 90
        5
176
     1
 90
        0
176
     1
 90
        0
176
     1
290
     0
176
     1
 90
       13
176
     1
 40
0.0
176
     1
 90
        0
176
     1
290
     0
176
     1
290
     1
176
     1
290
     1
176
     1
290
     0
176
     1
290
     0
176
     1
290
     0
176
     1
290
     0
176
     1
290
     0
176
     1
290
     0
176
     1
 90
       50
176
     1
 40
0.0
176
     1
 40
1.0
176
     1
 90
        0
176
     1
 62
    18
176
     1
 90
       50
176
     1
 90
        3
176
     1
 62
     5
420
      255
176
     1
290
     0
176
     1
 90
       50
176
     1
 90
       50
176
     1
 90
       50
176
     1
290
     0
176
     1
 90
       50
176
     1
 62
   256
176
     0
 40
1.0
176
     0
 90
        2
176
     1
  1
strokes_ogs.tif
176
     1
290
     0
176
     1
 40
1.0
176
     1
 40
1.0
176
     1
  0
VISUALSTYLE
  5
B4C
102
{ACAD_REACTORS
330
B49
102
}
330
B49
100
AcDbVisualStyle
  2
Gouraud
 70
     2
177
     3
291
     1
 70
    58
 90
        2
176
     1
 90
        2
176
     1
 90
        1
176
     1
 90
        2
176
     1
 40
0.6
176
     1
 40
30.0
176
     1
 62
     7
420
 16777215
176
     1
 90
        0
176
     1
 90
        0
176
     1
 62
     7
176
     1
 62
   257
176
     1
 90
        1
176
     1
 90
        1
176
     1
 40
1.0
176
     1
 90
        0
176
     1
 62
     7
176
     1
 40
1.0
176
     1
 90
        1
176
     1
 90
        6
176
     1
 90
        2
176
     1
 62
     7
176
     1
 90
        5
176
     1
 90
        0
176
     1
 90
        0
176
     1
290
     0
176
     1
 90
       13
176
     1
 40
0.0
176
     1
 90
        0
176
     1
290
     0
176
     1
290
     1
176
     1
290
     1
176
     1
290
     0
176
     1
290
     0
176
     1
290
     0
176
     1
290
     0
176
     1
290
     0
176
     1
290
     0
176
     1
 90
       50
176
     1
 40
0.0
176
     1
 40
1.0
176
     1
 90
        0
176
     1
 62
    18
176
     1
 90
       50
176
     1
 90
        3
176
     1
 62
     5
420
      255
176
     1
290
     0
176
     1
 90
       50
176
     1
 90
       50
176
     1
 90
       50
176
     1
290
     0
176
     1
 90
       50
176
     1
 62
   256
176
     0
 40
1.0
176
     0
 90
        2
176
     1
  1
strokes_ogs.tif
176
     1
290
     0
176
     1
 40
1.0
176
     1
 40
1.0
176
     1
  0
VISUALSTYLE
  5
B4D
102
{ACAD_REACTORS
330
B49
102
}
330
B49
100
AcDbVisualStyle
  2
GouraudWithEdges
 70
     3
177
     3
291
     1
 70
    58
 90
        2
176
     1
 90
        2
176
     1
 90
        1
176
     1
 90
        2
176
     1
 40
0.6
176
     1
 40
30.0
176
     1
 62
     7
420
 16777215
176
     1
 90
        1
176
     1
 90
        0
176
     1
 62
     7
176
     1
 62
   257
176
     1
 90
        1
176
     1
 90
        1
176
     1
 40
1.0
176
     1
 90
        0
176
     1
 62
   257
176
     1
 40
1.0
176
     1
 90
        1
176
     1
 90
        6
176
     1
 90
        2
176
     1
 62
     7
176
     1
 90
        5
176
     1
 90
        0
176
     1
 90
        0
176
     1
290
     0
176
     1
 90
       13
176
     1
 40
0.0
176
     1
 90
        0
176
     1
290
     0
176
     1
290
     1
176
     1
290
     1
176
     1
290
     0
176
     1
290
     0
176
     1
290
     0
176
     1
290
     0
176
     1
290
     0
176
     1
290
     0
176
     1
 90
       50
176
     1
 40
0.0
176
     1
 40
1.0
176
     1
 90
        0
176
     1
 62
    18
176
     1
 90
       50
176
     1
 90
        3
176
     1
 62
     5
420
      255
176
     1
290
     0
176
     1
 90
       50
176
     1
 90
       50
176
     1
 90
       50
176
     1
290
     0
176
     1
 90
       50
176
     1
 62
   256
176
     0
 40
1.0
176
     0
 90
        2
176
     1
  1
strokes_ogs.tif
176
     1
290
     0
176
     1
 40
1.0
176
     1
 40
1.0
176
     1
  0
VISUALSTYLE
  5
B51
102
{ACAD_REACTORS
330
B49
102
}
330
B49
100
AcDbVisualStyle
  2
Hidden
 70
     6
177
     3
291
     0
 70
    58
 90
        1
176
     1
 90
        2
176
     1
 90
        2
176
     1
 90
        0
176
     1
 40
0.6
176
     1
 40
30.0
176
     1
 62
     7
420
 16777215
176
     1
 90
        2
176
     1
 90
        2
176
     1
 62
     7
176
     1
 62
   257
176
     1
 90
        2
176
     1
 90
        1
176
     1
 40
40.0
176
     1
 90
        0
176
     1
 62
   257
176
     1
 40
1.0
176
     1
 90
        1
176
     1
 90
        6
176
     1
 90
        2
176
     1
 62
     7
176
     1
 90
        3
176
     1
 90
        0
176
     1
 90
        0
176
     1
290
     0
176
     1
 90
        1
176
     1
 40
0.0
176
     1
 90
        0
176
     1
290
     0
176
     1
290
     1
176
     1
290
     1
176
     1
290
     0
176
     1
290
     0
176
     1
290
     0
176
     1
290
     0
176
     1
290
     0
176
     1
290
     0
176
     1
 90
       50
176
     1
 40
0.0
176
     1
 40
1.0
176
     1
 90
        0
176
     1
 62
    18
176
     1
 90
       50
176
     1
 90
        3
176
     1
 62
     5
420
      255
176
     1
290
     0
176
     1
 90
       50
176
     1
 90
       50
176
     1
 90
       50
176
     1
290
     0
176
     1
 90
       50
176
     1
 62
   256
176
     0
 40
1.0
176
     0
 90
        2
176
     1
  1
strokes_ogs.tif
176
     1
290
     0
176
     1
 40
1.0
176
     1
 40
1.0
176
     1
  0
VISUALSTYLE
  5
B5F
102
{ACAD_REACTORS
330
B49
102
}
330
B49
100
AcDbVisualStyle
  2
JitterOff
 70
    20
177
     3
291
     1
 70
    58
 90
        2
176
     0
 90
        2
176
     0
 90
        0
176
     0
 90
        0
176
     0
 40
0.6
176
     0
 40
30.0
176
     0
 62
     7
420
 16777215
176
     0
 90
        1
176
     0
 90
        4
176
     0
 62
     7
176
     0
 62
   257
176
     0
 90
        1
176
     0
 90
        1
176
     0
 40
1.0
176
     0
 90
       10
176
     2
 62
     7
176
     0
 40
1.0
176
     0
 90
        1
176
     0
 90
        6
176
     0
 90
        2
176
     0
 62
     7
176
     0
 90
        5
176
     0
 90
        0
176
     0
 90
        0
176
     0
290
     0
176
     0
 90
        1
176
     0
 40
0.0
176
     0
 90
        0
176
     0
290
     0
176
     1
290
     1
176
     1
290
     1
176
     1
290
     0
176
     1
290
     0
176
     1
290
     0
176
     1
290
     0
176
     1
290
     0
176
     1
290
     0
176
     1
 90
       50
176
     0
 40
0.0
176
     0
 40
1.0
176
     0
 90
        0
176
     0
 62
    18
176
     0
 90
       50
176
     0
 90
        3
176
     0
 62
     5
420
      255
176
     0
290
     0
176
     1
 90
       50
176
     0
 90
       50
176
     0
 90
       50
176
     0
290
     0
176
     1
 90
       50
176
     0
 62
   256
176
     0
 40
1.0
176
     0
 90
        2
176
     0
  1
strokes_ogs.tif
176
     0
290
     0
176
     1
 40
1.0
176
     0
 40
1.0
176
     0
  0
VISUALSTYLE
  5
B57
102
{ACAD_REACTORS
330
B49
102
}
330
B49
100
AcDbVisualStyle
  2
Linepattern
 70
    14
177
     3
291
     1
 70
    58
 90
        2
176
     1
 90
        2
176
     1
 90
        0
176
     1
 90
        0
176
     1
 40
0.6
176
     1
 40
30.0
176
     1
 62
     7
420
 16777215
176
     1
 90
        1
176
     1
 90
        4
176
     1
 62
     7
176
     1
 62
   257
176
     1
 90
        7
176
     1
 90
        7
176
     1
 40
1.0
176
     1
 90
        8
176
     1
 62
     7
176
     1
 40
1.0
176
     1
 90
        1
176
     1
 90
        6
176
     1
 90
        2
176
     1
 62
     7
176
     1
 90
        5
176
     1
 90
        0
176
     1
 90
        0
176
     1
290
     0
176
     1
 90
        1
176
     1
 40
0.0
176
     1
 90
        0
176
     1
290
     0
176
     1
290
     1
176
     1
290
     1
176
     1
290
     0
176
     1
290
     0
176
     1
290
     0
176
     1
290
     0
176
     1
290
     0
176
     1
290
     0
176
     1
 90
       50
176
     1
 40
0.0
176
     1
 40
1.0
176
     1
 90
        0
176
     1
 62
    18
176
     1
 90
       50
176
     1
 90
        3
176
     1
 62
     5
420
      255
176
     1
290
     0
176
     1
 90
       50
176
     1
 90
       50
176
     1
 90
       50
176
     1
290
     0
176
     1
 90
       50
176
     1
 62
   256
176
     0
 40
1.0
176
     0
 90
        2
176
     1
  1
strokes_ogs.tif
176
     1
290
     0
176
     1
 40
1.0
176
     1
 40
1.0
176
     1
  0
VISUALSTYLE
  5
B60
102
{ACAD_REACTORS
330
B49
102
}
330
B49
100
AcDbVisualStyle
  2
OverhangOff
 70
    21
177
     3
291
     1
 70
    58
 90
        2
176
     0
 90
        2
176
     0
 90
        0
176
     0
 90
        0
176
     0
 40
0.6
176
     0
 40
30.0
176
     0
 62
     7
420
 16777215
176
     0
 90
        1
176
     0
 90
        4
176
     0
 62
     7
176
     0
 62
   257
176
     0
 90
        1
176
     0
 90
        1
176
     0
 40
1.0
176
     0
 90
        9
176
     2
 62
     7
176
     0
 40
1.0
176
     0
 90
        1
176
     0
 90
        6
176
     0
 90
        2
176
     0
 62
     7
176
     0
 90
        5
176
     0
 90
        0
176
     0
 90
        0
176
     0
290
     0
176
     0
 90
        1
176
     0
 40
0.0
176
     0
 90
        0
176
     0
290
     0
176
     1
290
     1
176
     1
290
     1
176
     1
290
     0
176
     1
290
     0
176
     1
290
     0
176
     1
290
     0
176
     1
290
     0
176
     1
290
     0
176
     1
 90
       50
176
     0
 40
0.0
176
     0
 40
1.0
176
     0
 90
        0
176
     0
 62
    18
176
     0
 90
       50
176
     0
 90
        3
176
     0
 62
     5
420
      255
176
     0
290
     0
176
     1
 90
       50
176
     0
 90
       50
176
     0
 90
       50
176
     0
290
     0
176
     1
 90
       50
176
     0
 62
   256
176
     0
 40
1.0
176
     0
 90
        2
176
     0
  1
strokes_ogs.tif
176
     0
290
     0
176
     1
 40
1.0
176
     0
 40
1.0
176
     0
  0
VISUALSTYLE
  5
B53
102
{ACAD_REACTORS
330
B49
102
}
330
B49
100
AcDbVisualStyle
  2
Realistic
 70
     8
177
     3
291
     0
 70
    58
 90
        2
176
     1
 90
        3
176
     1
 90
        0
176
     1
 90
        2
176
     1
 40
0.6
176
     1
 40
30.0
176
     1
 62
     7
420
 16777215
176
     1
 90
        0
176
     1
 90
        0
176
     1
 62
     7
176
     1
 62
   257
176
     1
 90
        1
176
     1
 90
        1
176
     1
 40
1.0
176
     1
 90
        8
176
     1
 62
   257
176
     1
 40
1.0
176
     1
 90
        1
176
     1
 90
        6
176
     1
 90
        2
176
     1
 62
     7
176
     1
 90
        3
176
     1
 90
        0
176
     1
 90
        0
176
     1
290
     0
176
     1
 90
       13
176
     1
 40
0.0
176
     1
 90
        0
176
     1
290
     0
176
     1
290
     1
176
     1
290
     1
176
     1
290
     0
176
     1
290
     0
176
     1
290
     0
176
     1
290
     0
176
     1
290
     0
176
     1
290
     0
176
     1
 90
       50
176
     1
 40
0.0
176
     1
 40
1.0
176
     1
 90
        0
176
     1
 62
    18
176
     1
 90
       50
176
     1
 90
        3
176
     1
 62
     5
420
      255
176
     1
290
     0
176
     1
 90
       50
176
     1
 90
       50
176
     1
 90
       50
176
     1
290
     0
176
     1
 90
       50
176
     1
 62
   256
176
     0
 40
1.0
176
     0
 90
        2
176
     1
  1
strokes_ogs.tif
176
     1
290
     0
176
     1
 40
1.0
176
     1
 40
1.0
176
     1
  0
VISUALSTYLE
  5
B5E
102
{ACAD_REACTORS
330
B49
102
}
330
B49
100
AcDbVisualStyle
  2
Shaded
 70
    27
177
     3
291
     0
 70
    58
 90
        2
176
     1
 90
        2
176
     1
 90
        1
176
     1
 90
        2
176
     1
 40
0.6
176
     1
 40
30.0
176
     1
 62
     7
420
 16777215
176
     1
 90
        0
176
     1
 90
        4
176
     1
 62
     7
176
     1
 62
   257
176
     1
 90
        1
176
     1
 90
        1
176
     1
 40
1.0
176
     1
 90
        8
176
     1
 62
   257
176
     1
 40
1.0
176
     1
 90
        1
176
     1
 90
        6
176
     1
 90
        2
176
     1
 62
     8
420
  7895160
176
     1
 90
        3
176
     1
 90
        0
176
     1
 90
        0
176
     1
290
     0
176
     1
 90
        5
176
     1
 40
0.0
176
     1
 90
        0
176
     1
290
     0
176
     1
290
     1
176
     1
290
     1
176
     1
290
     0
176
     1
290
     0
176
     1
290
     0
176
     1
290
     0
176
     1
290
     0
176
     1
290
     0
176
     1
 90
       50
176
     1
 40
0.0
176
     1
 40
1.0
176
     1
 90
        0
176
     1
 62
    18
176
     1
 90
       50
176
     1
 90
        3
176
     1
 62
     5
420
      255
176
     1
290
     0
176
     1
 90
       50
176
     1
 90
       50
176
     1
 90
       50
176
     1
290
     0
176
     1
 90
       50
176
     1
 62
   256
176
     0
 40
1.0
176
     0
 90
        2
176
     1
  1
strokes_ogs.tif
176
     1
290
     0
176
     1
 40
1.0
176
     1
 40
1.0
176
     1
  0
VISUALSTYLE
  5
B5D
102
{ACAD_REACTORS
330
B49
102
}
330
B49
100
AcDbVisualStyle
  2
Shaded with edges
 70
    26
177
     3
291
     0
 70
    58
 90
        2
176
     1
 90
        2
176
     1
 90
        1
176
     1
 90
        2
176
     1
 40
0.6
176
     1
 40
30.0
176
     1
 62
     7
420
 16777215
176
     1
 90
        1
176
     1
 90
       10
176
     1
 62
     7
176
     1
 62
   257
176
     1
 90
        2
176
     1
 90
        1
176
     1
 40
1.0
176
     1
 90
        8
176
     1
 62
   257
176
     1
 40
1.0
176
     1
 90
        1
176
     1
 90
        6
176
     1
 90
        2
176
     1
 62
     7
176
     1
 90
        3
176
     1
 90
        0
176
     1
 90
        0
176
     1
290
     0
176
     1
 90
        5
176
     1
 40
0.0
176
     1
 90
        0
176
     1
290
     0
176
     1
290
     1
176
     1
290
     1
176
     1
290
     0
176
     1
290
     0
176
     1
290
     0
176
     1
290
     0
176
     1
290
     0
176
     1
290
     0
176
     1
 90
       50
176
     1
 40
0.0
176
     1
 40
1.0
176
     1
 90
        0
176
     1
 62
    18
176
     1
 90
       50
176
     1
 90
        3
176
     1
 62
     5
420
      255
176
     1
290
     0
176
     1
 90
       50
176
     1
 90
       50
176
     1
 90
       50
176
     1
290
     0
176
     1
 90
       50
176
     1
 62
   256
176
     0
 40
1.0
176
     0
 90
        2
176
     1
  1
strokes_ogs.tif
176
     1
290
     0
176
     1
 40
1.0
176
     1
 40
1.0
176
     1
  0
VISUALSTYLE
  5
B5A
102
{ACAD_REACTORS
330
B49
102
}
330
B49
100
AcDbVisualStyle
  2
Shades of Gray
 70
    23
177
     3
291
     0
 70
    58
 90
        2
176
     1
 90
        2
176
     1
 90
        3
176
     1
 90
        0
176
     1
 40
0.6
176
     1
 40
30.0
176
     1
 62
     7
420
 16777215
176
     1
 90
        2
176
     1
 90
        2
176
     1
 62
     7
176
     1
 62
     7
176
     1
 90
        1
176
     1
 90
        1
176
     1
 40
40.0
176
     1
 90
        8
176
     1
 62
     7
176
     1
 40
1.0
176
     1
 90
        1
176
     1
 90
        6
176
     1
 90
        2
176
     1
 62
     7
176
     1
 90
        3
176
     1
 90
        0
176
     1
 90
        0
176
     1
290
     0
176
     1
 90
        1
176
     1
 40
0.0
176
     1
 90
        0
176
     1
290
     0
176
     1
290
     1
176
     1
290
     1
176
     1
290
     0
176
     1
290
     0
176
     1
290
     0
176
     1
290
     0
176
     1
290
     0
176
     1
290
     0
176
     1
 90
       50
176
     1
 40
0.0
176
     1
 40
1.0
176
     1
 90
        0
176
     1
 62
    18
176
     1
 90
       50
176
     1
 90
        3
176
     1
 62
     5
420
      255
176
     1
290
     0
176
     1
 90
       50
176
     1
 90
       50
176
     1
 90
       50
176
     1
290
     0
176
     1
 90
       50
176
     1
 62
   256
176
     0
 40
1.0
176
     0
 90
        2
176
     1
  1
strokes_ogs.tif
176
     1
290
     0
176
     1
 40
1.0
176
     1
 40
1.0
176
     1
  0
VISUALSTYLE
  5
B5B
102
{ACAD_REACTORS
330
B49
102
}
330
B49
100
AcDbVisualStyle
  2
Sketchy
 70
    24
177
     3
291
     0
 70
    58
 90
        1
176
     1
 90
        2
176
     1
 90
        2
176
     1
 90
        0
176
     1
 40
0.6
176
     1
 40
30.0
176
     1
 62
     7
420
 16777215
176
     1
 90
        2
176
     1
 90
        2
176
     1
 62
     7
176
     1
 62
     7
176
     1
 90
        1
176
     1
 90
        1
176
     1
 40
40.0
176
     1
 90
       11
176
     1
 62
     7
176
     1
 40
1.0
176
     1
 90
        1
176
     1
 90
        6
176
     1
 90
        2
176
     1
 62
     7
176
     1
 90
        6
176
     1
 90
        0
176
     1
 90
        0
176
     1
290
     0
176
     1
 90
        1
176
     1
 40
0.0
176
     1
 90
        0
176
     1
290
     0
176
     1
290
     1
176
     1
290
     1
176
     1
290
     0
176
     1
290
     0
176
     1
290
     0
176
     1
290
     0
176
     1
290
     0
176
     1
290
     0
176
     1
 90
       50
176
     1
 40
0.0
176
     1
 40
1.0
176
     1
 90
        0
176
     1
 62
    18
176
     1
 90
       50
176
     1
 90
        3
176
     1
 62
     5
420
      255
176
     1
290
     0
176
     1
 90
       50
176
     1
 90
       50
176
     1
 90
       50
176
     1
290
     0
176
     1
 90
       50
176
     1
 62
   256
176
     0
 40
1.0
176
     0
 90
        2
176
     1
  1
strokes_ogs.tif
176
     1
290
     0
176
     1
 40
1.0
176
     1
 40
1.0
176
     1
  0
VISUALSTYLE
  5
B56
102
{ACAD_REACTORS
330
B49
102
}
330
B49
100
AcDbVisualStyle
  2
Thicken
 70
    13
177
     3
291
     1
 70
    58
 90
        2
176
     1
 90
        2
176
     1
 90
        0
176
     1
 90
        0
176
     1
 40
0.6
176
     1
 40
30.0
176
     1
 62
     7
420
 16777215
176
     1
 90
        1
176
     1
 90
        4
176
     1
 62
     7
176
     1
 62
   257
176
     1
 90
        1
176
     1
 90
        1
176
     1
 40
1.0
176
     1
 90
       12
176
     1
 62
     7
176
     1
 40
1.0
176
     1
 90
        1
176
     1
 90
        6
176
     1
 90
        2
176
     1
 62
     7
176
     1
 90
        5
176
     1
 90
        0
176
     1
 90
        0
176
     1
290
     0
176
     1
 90
        1
176
     1
 40
0.0
176
     1
 90
        0
176
     1
290
     0
176
     1
290
     1
176
     1
290
     1
176
     1
290
     0
176
     1
290
     0
176
     1
290
     0
176
     1
290
     0
176
     1
290
     0
176
     1
290
     0
176
     1
 90
       50
176
     1
 40
0.0
176
     1
 40
1.0
176
     1
 90
        0
176
     1
 62
    18
176
     1
 90
       50
176
     1
 90
        3
176
     1
 62
     5
420
      255
176
     1
290
     0
176
     1
 90
       50
176
     1
 90
       50
176
     1
 90
       50
176
     1
290
     0
176
     1
 90
       50
176
     1
 62
   256
176
     0
 40
1.0
176
     0
 90
        2
176
     1
  1
strokes_ogs.tif
176
     1
290
     0
176
     1
 40
1.0
176
     1
 40
1.0
176
     1
  0
VISUALSTYLE
  5
B50
102
{ACAD_REACTORS
330
B49
102
}
330
B49
100
AcDbVisualStyle
  2
Wireframe
 70
     5
177
     3
291
     0
 70
    58
 90
        0
176
     1
 90
        2
176
     1
 90
        0
176
     1
 90
        0
176
     1
 40
0.6
176
     1
 40
30.0
176
     1
 62
     7
420
 16777215
176
     1
 90
        1
176
     1
 90
        4
176
     1
 62
     7
176
     1
 62
   257
176
     1
 90
        1
176
     1
 90
        1
176
     1
 40
1.0
176
     1
 90
        0
176
     1
 62
   257
176
     1
 40
1.0
176
     1
 90
        1
176
     1
 90
        6
176
     1
 90
        2
176
     1
 62
     7
176
     1
 90
        3
176
     1
 90
        0
176
     1
 90
        0
176
     1
290
     0
176
     1
 90
        1
176
     1
 40
0.0
176
     1
 90
        0
176
     1
290
     0
176
     1
290
     1
176
     1
290
     1
176
     1
290
     0
176
     1
290
     0
176
     1
290
     0
176
     1
290
     0
176
     1
290
     0
176
     1
290
     0
176
     1
 90
       50
176
     1
 40
0.0
176
     1
 40
1.0
176
     1
 90
        0
176
     1
 62
    18
176
     1
 90
       50
176
     1
 90
        3
176
     1
 62
     5
420
      255
176
     1
290
     0
176
     1
 90
       50
176
     1
 90
       50
176
     1
 90
       50
176
     1
290
     0
176
     1
 90
       50
176
     1
 62
   256
176
     0
 40
1.0
176
     0
 90
        2
176
     1
  1
strokes_ogs.tif
176
     1
290
     0
176
     1
 40
1.0
176
     1
 40
1.0
176
     1
  0
VISUALSTYLE
  5
B5C
102
{ACAD_REACTORS
330
B49
102
}
330
B49
100
AcDbVisualStyle
  2
X-Ray
 70
    25
177
     3
291
     0
 70
    58
 90
        2
176
     1
 90
        2
176
     1
 90
        1
176
     1
 90
        1
176
     1
 40
0.5
176
     1
 40
30.0
176
     1
 62
     7
420
 16777215
176
     1
 90
        1
176
     1
 90
        0
176
     1
 62
     7
176
     1
 62
   257
176
     1
 90
        1
176
     1
 90
        1
176
     1
 40
1.0
176
     1
 90
        8
176
     1
 62
     7
176
     1
 40
1.0
176
     1
 90
        1
176
     1
 90
        6
176
     1
 90
        2
176
     1
 62
     7
176
     1
 90
        3
176
     1
 90
        0
176
     1
 90
        0
176
     1
290
     0
176
     1
 90
       13
176
     1
 40
0.0
176
     1
 90
        0
176
     1
290
     0
176
     1
290
     1
176
     1
290
     1
176
     1
290
     0
176
     1
290
     0
176
     1
290
     0
176
     1
290
     0
176
     1
290
     0
176
     1
290
     0
176
     1
 90
       50
176
     1
 40
0.0
176
     1
 40
1.0
176
     1
 90
        0
176
     1
 62
    18
176
     1
 90
       50
176
     1
 90
        3
176
     1
 62
     5
420
      255
176
     1
290
     0
176
     1
 90
       50
176
     1
 90
       50
176
     1
 90
       50
176
     1
290
     0
176
     1
 90
       50
176
     1
 62
   256
176
     0
 40
1.0
176
     0
 90
        2
176
     1
  1
strokes_ogs.tif
176
     1
290
     0
176
     1
 40
1.0
176
     1
 40
1.0
176
     1
  0
DICTIONARYVAR
  5
C93
102
{ACAD_REACTORS
330
C2D
102
}
330
C2D
100
DictionaryVariables
280
     0
  1
1:1
  0
DICTIONARYVAR
  5
C8F
102
{ACAD_REACTORS
330
C2D
102
}
330
C2D
100
DictionaryVariables
280
     0
  1
STANDARD
  0
DICTIONARYVAR
  5
C8E
102
{ACAD_REACTORS
330
C2D
102
}
330
C2D
100
DictionaryVariables
280
     0
  1
STANDARD
  0
DICTIONARYVAR
  5
C90
102
{ACAD_REACTORS
330
C2D
102
}
330
C2D
100
DictionaryVariables
280
     0
  1
Imperial24
  0
DICTIONARYVAR
  5
C91
102
{ACAD_REACTORS
330
C2D
102
}
330
C2D
100
DictionaryVariables
280
     0
  1
Imperial24
  0
DICTIONARYVAR
  5
C95
102
{ACAD_REACTORS
330
C2D
102
}
330
C2D
100
DictionaryVariables
280
     0
  1
1
  0
DICTIONARYVAR
  5
C96
102
{ACAD_REACTORS
330
C2D
102
}
330
C2D
100
DictionaryVariables
280
     0
  1
15
  0
DICTIONARYVAR
  5
C94
102
{ACAD_REACTORS
330
C2D
102
}
330
C2D
100
DictionaryVariables
280
     0
  1
0
  0
DICTIONARYVAR
  5
C92
102
{ACAD_REACTORS
330
C2D
102
}
330
C2D
100
DictionaryVariables
280
     0
  1
0
  0
DICTIONARY
  5
CD3
102
{ACAD_REACTORS
330
CCA
102
}
330
CCA
100
AcDbDictionary
281
     1
  0
DICTIONARY
  5
B3A
330
B39
100
AcDbDictionary
280
     1
281
     1
  3
BUMPTILE
360
B3C
  3
DIFFUSETILE
360
B3B
  3
OPACITYTILE
360
B3F
  3
REFLECTIONTILE
360
B3E
  3
REFRACTIONTILE
360
B40
  3
SPECULARTILE
360
B3D
  0
DICTIONARY
  5
B32
330
B31
100
AcDbDictionary
280
     1
281
     1
  3
BUMPTILE
360
B34
  3
DIFFUSETILE
360
B33
  3
OPACITYTILE
360
B37
  3
REFLECTIONTILE
360
B36
  3
REFRACTIONTILE
360
B38
  3
SPECULARTILE
360
B35
  0
DICTIONARY
  5
B42
330
B41
100
AcDbDictionary
280
     1
281
     1
  3
BUMPTILE
360
B44
  3
DIFFUSETILE
360
B43
  3
OPACITYTILE
360
B47
  3
REFLECTIONTILE
360
B46
  3
REFRACTIONTILE
360
B48
  3
SPECULARTILE
360
B45
  0
DICTIONARY
  5
C97
330
B84
100
AcDbDictionary
280
     1
281
     1
  3
ACAD_ROUNDTRIP_2008_TABLESTYLE_CELLSTYLEMAP
360
D0D
  0
XRECORD
  5
B3C
102
{ACAD_REACTORS
330
B3A
102
}
330
B3A
100
AcDbXrecord
280
     1
270
     1
271
     1
  0
XRECORD
  5
B3B
102
{ACAD_REACTORS
330
B3A
102
}
330
B3A
100
AcDbXrecord
280
     1
270
     1
271
     1
  0
XRECORD
  5
B3F
102
{ACAD_REACTORS
330
B3A
102
}
330
B3A
100
AcDbXrecord
280
     1
270
     1
271
     1
  0
XRECORD
  5
B3E
102
{ACAD_REACTORS
330
B3A
102
}
330
B3A
100
AcDbXrecord
280
     1
270
     1
271
     1
  0
XRECORD
  5
B40
102
{ACAD_REACTORS
330
B3A
102
}
330
B3A
100
AcDbXrecord
280
     1
270
     1
271
     1
  0
XRECORD
  5
B3D
102
{ACAD_REACTORS
330
B3A
102
}
330
B3A
100
AcDbXrecord
280
     1
270
     1
271
     1
  0
XRECORD
  5
B34
102
{ACAD_REACTORS
330
B32
102
}
330
B32
100
AcDbXrecord
280
     1
270
     1
271
     1
  0
XRECORD
  5
B33
102
{ACAD_REACTORS
330
B32
102
}
330
B32
100
AcDbXrecord
280
     1
270
     1
271
     1
  0
XRECORD
  5
B37
102
{ACAD_REACTORS
330
B32
102
}
330
B32
100
AcDbXrecord
280
     1
270
     1
271
     1
  0
XRECORD
  5
B36
102
{ACAD_REACTORS
330
B32
102
}
330
B32
100
AcDbXrecord
280
     1
270
     1
271
     1
  0
XRECORD
  5
B38
102
{ACAD_REACTORS
330
B32
102
}
330
B32
100
AcDbXrecord
280
     1
270
     1
271
     1
  0
XRECORD
  5
B35
102
{ACAD_REACTORS
330
B32
102
}
330
B32
100
AcDbXrecord
280
     1
270
     1
271
     1
  0
XRECORD
  5
B44
102
{ACAD_REACTORS
330
B42
102
}
330
B42
100
AcDbXrecord
280
     1
270
     1
271
     1
  0
XRECORD
  5
B43
102
{ACAD_REACTORS
330
B42
102
}
330
B42
100
AcDbXrecord
280
     1
270
     1
271
     1
  0
XRECORD
  5
B47
102
{ACAD_REACTORS
330
B42
102
}
330
B42
100
AcDbXrecord
280
     1
270
     1
271
     1
  0
XRECORD
  5
B46
102
{ACAD_REACTORS
330
B42
102
}
330
B42
100
AcDbXrecord
280
     1
270
     1
271
     1
  0
XRECORD
  5
B48
102
{ACAD_REACTORS
330
B42
102
}
330
B42
100
AcDbXrecord
280
     1
270
     1
271
     1
  0
XRECORD
  5
B45
102
{ACAD_REACTORS
330
B42
102
}
330
B42
100
AcDbXrecord
280
     1
270
     1
271
     1
  0
CELLSTYLEMAP
  5
D0D
102
{ACAD_REACTORS
330
C97
102
}
330
C97
100
AcDbCellStyleMap
 90
        3
300
CELLSTYLE
  1
TABLEFORMAT_BEGIN
 90
        5
170
     1
 91
        0
 92
    32768
 62
   257
 93
        1
300
CONTENTFORMAT
  1
CONTENTFORMAT_BEGIN
 90
        0
 91
        0
 92
      512
 93
        0
300

 40
0.0
140
1.0
 94
        5
 62
     0
340
B75
144
0.25
309
CONTENTFORMAT_END
171
     1
301
MARGIN
  1
CELLMARGIN_BEGIN
 40
0.06
 40
0.06
 40
0.06
 40
0.06
 40
0.18
 40
0.18
309
CELLMARGIN_END
 94
        6
 95
        1
302
GRIDFORMAT
  1
GRIDFORMAT_BEGIN
 90
        0
 91
        1
 62
     0
 92
       -2
340
0
 93
        0
 40
0.045
309
GRIDFORMAT_END
 95
        2
302
GRIDFORMAT
  1
GRIDFORMAT_BEGIN
 90
        0
 91
        1
 62
     0
 92
       -2
340
0
 93
        0
 40
0.045
309
GRIDFORMAT_END
 95
        4
302
GRIDFORMAT
  1
GRIDFORMAT_BEGIN
 90
        0
 91
        1
 62
     0
 92
       -2
340
0
 93
        0
 40
0.045
309
GRIDFORMAT_END
 95
        8
302
GRIDFORMAT
  1
GRIDFORMAT_BEGIN
 90
        0
 91
        1
 62
     0
 92
       -2
340
0
 93
        0
 40
0.045
309
GRIDFORMAT_END
 95
       16
302
GRIDFORMAT
  1
GRIDFORMAT_BEGIN
 90
        0
 91
        1
 62
     0
 92
       -2
340
0
 93
        0
 40
0.045
309
GRIDFORMAT_END
 95
       32
302
GRIDFORMAT
  1
GRIDFORMAT_BEGIN
 90
        0
 91
        1
 62
     0
 92
       -2
340
0
 93
        0
 40
0.045
309
GRIDFORMAT_END
309
TABLEFORMAT_END
  1
CELLSTYLE_BEGIN
 90
        1
 91
        1
300
_TITLE
309
CELLSTYLE_END
300
CELLSTYLE
  1
TABLEFORMAT_BEGIN
 90
        5
170
     1
 91
        0
 92
        0
 62
   257
 93
        1
300
CONTENTFORMAT
  1
CONTENTFORMAT_BEGIN
 90
        0
 91
        0
 92
      512
 93
        0
300

 40
0.0
140
1.0
 94
        5
 62
     0
340
B75
144
0.18
309
CONTENTFORMAT_END
171
     1
301
MARGIN
  1
CELLMARGIN_BEGIN
 40
0.06
 40
0.06
 40
0.06
 40
0.06
 40
0.18
 40
0.18
309
CELLMARGIN_END
 94
        6
 95
        1
302
GRIDFORMAT
  1
GRIDFORMAT_BEGIN
 90
        0
 91
        1
 62
     0
 92
       -2
340
0
 93
        0
 40
0.045
309
GRIDFORMAT_END
 95
        2
302
GRIDFORMAT
  1
GRIDFORMAT_BEGIN
 90
        0
 91
        1
 62
     0
 92
       -2
340
0
 93
        0
 40
0.045
309
GRIDFORMAT_END
 95
        4
302
GRIDFORMAT
  1
GRIDFORMAT_BEGIN
 90
        0
 91
        1
 62
     0
 92
       -2
340
0
 93
        0
 40
0.045
309
GRIDFORMAT_END
 95
        8
302
GRIDFORMAT
  1
GRIDFORMAT_BEGIN
 90
        0
 91
        1
 62
     0
 92
       -2
340
0
 93
        0
 40
0.045
309
GRIDFORMAT_END
 95
       16
302
GRIDFORMAT
  1
GRIDFORMAT_BEGIN
 90
        0
 91
        1
 62
     0
 92
       -2
340
0
 93
        0
 40
0.045
309
GRIDFORMAT_END
 95
       32
302
GRIDFORMAT
  1
GRIDFORMAT_BEGIN
 90
        0
 91
        1
 62
     0
 92
       -2
340
0
 93
        0
 40
0.045
309
GRIDFORMAT_END
309
TABLEFORMAT_END
  1
CELLSTYLE_BEGIN
 90
        2
 91
        1
300
_HEADER
309
CELLSTYLE_END
300
CELLSTYLE
  1
TABLEFORMAT_BEGIN
 90
        5
170
     1
 91
        0
 92
        0
 62
   257
 93
        1
300
CONTENTFORMAT
  1
CONTENTFORMAT_BEGIN
 90
        0
 91
        0
 92
      512
 93
        0
300

 40
0.0
140
1.0
 94
        2
 62
     0
340
B75
144
0.18
309
CONTENTFORMAT_END
171
     1
301
MARGIN
  1
CELLMARGIN_BEGIN
 40
0.06
 40
0.06
 40
0.06
 40
0.06
 40
0.18
 40
0.18
309
CELLMARGIN_END
 94
        6
 95
        1
302
GRIDFORMAT
  1
GRIDFORMAT_BEGIN
 90
        0
 91
        1
 62
     0
 92
       -2
340
0
 93
        0
 40
0.045
309
GRIDFORMAT_END
 95
        2
302
GRIDFORMAT
  1
GRIDFORMAT_BEGIN
 90
        0
 91
        1
 62
     0
 92
       -2
340
0
 93
        0
 40
0.045
309
GRIDFORMAT_END
 95
        4
302
GRIDFORMAT
  1
GRIDFORMAT_BEGIN
 90
        0
 91
        1
 62
     0
 92
       -2
340
0
 93
        0
 40
0.045
309
GRIDFORMAT_END
 95
        8
302
GRIDFORMAT
  1
GRIDFORMAT_BEGIN
 90
        0
 91
        1
 62
     0
 92
       -2
340
0
 93
        0
 40
0.045
309
GRIDFORMAT_END
 95
       16
302
GRIDFORMAT
  1
GRIDFORMAT_BEGIN
 90
        0
 91
        1
 62
     0
 92
       -2
340
0
 93
        0
 40
0.045
309
GRIDFORMAT_END
 95
       32
302
GRIDFORMAT
  1
GRIDFORMAT_BEGIN
 90
        0
 91
        1
 62
     0
 92
       -2
340
0
 93
        0
 40
0.045
309
GRIDFORMAT_END
309
TABLEFORMAT_END
  1
CELLSTYLE_BEGIN
 90
        3
 91
        2
300
_DATA
309
CELLSTYLE_END
  0
ENDSEC
  0
EOF
