  0
SECTION
  2
HEADER
  9
$ACADVER
  1
AC1009
  9
$DWGCODEPAGE
  3
ansi_1252
  9
$INSBASE
 10
0.0
 20
0.0
 30
0.0
  9
$EXTMIN
 10
-48.98543454661615
 20
72.10227700408018
 30
0.0
  9
$EXTMAX
 10
858.3904042707148
 20
1244.866592355728
 30
0.0
  9
$LIMMIN
 10
0.0
 20
0.0
  9
$LIMMAX
 10
420.0
 20
297.0
  9
$ORTHOMODE
 70
     1
  9
$REGENMODE
 70
     1
  9
$FILLMODE
 70
     1
  9
$QTEXTMODE
 70
     0
  9
$MIRRTEXT
 70
     0
  9
$DRAGMODE
 70
     2
  9
$LTSCALE
 40
1.0
  9
$OSMODE
 70
   511
  9
$ATTMODE
 70
     1
  9
$TEXTSIZE
 40
2.5
  9
$TRACEWID
 40
1.0
  9
$TEXTSTYLE
  7
STANDARD
  9
$CLAYER
  8
DIMENSIONS
  9
$CELTYPE
  6
BYLAYER
  9
$CECOLOR
 62
   256
  9
$DIMSCALE
 40
1.0
  9
$DIMASZ
 40
2.5
  9
$DIMEXO
 40
0.625
  9
$DIMDLI
 40
3.75
  9
$DIMRND
 40
0.0
  9
$DIMDLE
 40
0.0
  9
$DIMEXE
 40
1.25
  9
$DIMTP
 40
0.0
  9
$DIMTM
 40
0.0
  9
$DIMTXT
 40
2.5
  9
$DIMCEN
 40
2.5
  9
$DIMTSZ
 40
0.0
  9
$DIMTOL
 70
     0
  9
$DIMLIM
 70
     0
  9
$DIMTIH
 70
     0
  9
$DIMTOH
 70
     0
  9
$DIMSE1
 70
     0
  9
$DIMSE2
 70
     0
  9
$DIMTAD
 70
     1
  9
$DIMZIN
 70
     8
  9
$DIMBLK
  1

  9
$DIMASO
 70
     1
  9
$DIMSHO
 70
     1
  9
$DIMPOST
  1

  9
$DIMAPOST
  1

  9
$DIMALT
 70
     0
  9
$DIMALTD
 70
     3
  9
$DIMALTF
 40
0.03937007874016
  9
$DIMLFAC
 40
1.0
  9
$DIMTOFL
 70
     1
  9
$DIMTVP
 40
0.0
  9
$DIMTIX
 70
     0
  9
$DIMSOXD
 70
     0
  9
$DIMSAH
 70
     0
  9
$DIMBLK1
  1

  9
$DIMBLK2
  1

  9
$DIMSTYLE
  2
ISO-25
  9
$DIMCLRD
 70
     0
  9
$DIMCLRE
 70
     0
  9
$DIMCLRT
 70
     0
  9
$DIMTFAC
 40
1.0
  9
$DIMGAP
 40
0.625
  9
$LUNITS
 70
     2
  9
$LUPREC
 70
     3
  9
$SKETCHINC
 40
1.0
  9
$FILLETRAD
 40
10.0
  9
$AUNITS
 70
     0
  9
$AUPREC
 70
     0
  9
$MENU
  1
.
  9
$ELEVATION
 40
0.0
  9
$PELEVATION
 40
0.0
  9
$THICKNESS
 40
0.0
  9
$LIMCHECK
 70
     0
  9
$CHAMFERA
 40
10.0
  9
$CHAMFERB
 40
10.0
  9
$SKPOLY
 70
     0
  9
$TDCREATE
 40
2455022.679026169
  9
$TDUPDATE
 40
2458094.413459954
  9
$TDINDWG
 40
0.0082526505
  9
$TDUSRTIMER
 40
2458094.368052118
  9
$USRTIMER
 70
     1
  9
$ANGBASE
 50
0.0
  9
$ANGDIR
 70
     0
  9
$PDMODE
 70
     0
  9
$PDSIZE
 40
0.0
  9
$PLINEWID
 40
0.0
  9
$COORDS
 70
     1
  9
$SPLFRAME
 70
     0
  9
$SPLINETYPE
 70
     6
  9
$SPLINESEGS
 70
     8
  9
$ATTDIA
 70
     0
  9
$ATTREQ
 70
     1
  9
$HANDLING
 70
     1
  9
$HANDSEED
  5
DCB
  9
$SURFTAB1
 70
     6
  9
$SURFTAB2
 70
     6
  9
$SURFTYPE
 70
     6
  9
$SURFU
 70
     6
  9
$SURFV
 70
     6
  9
$UCSNAME
  2

  9
$UCSORG
 10
0.0
 20
0.0
 30
0.0
  9
$UCSXDIR
 10
1.0
 20
0.0
 30
0.0
  9
$UCSYDIR
 10
0.0
 20
1.0
 30
0.0
  9
$PUCSNAME
  2

  9
$PUCSORG
 10
0.0
 20
0.0
 30
0.0
  9
$PUCSXDIR
 10
1.0
 20
0.0
 30
0.0
  9
$PUCSYDIR
 10
0.0
 20
1.0
 30
0.0
  9
$USERI1
 70
     0
  9
$USERI2
 70
     0
  9
$USERI3
 70
     0
  9
$USERI4
 70
     0
  9
$USERI5
 70
     0
  9
$USERR1
 40
0.0
  9
$USERR2
 40
0.0
  9
$USERR3
 40
0.0
  9
$USERR4
 40
0.0
  9
$USERR5
 40
0.0
  9
$WORLDVIEW
 70
     1
  9
$SHADEDGE
 70
     3
  9
$SHADEDIF
 70
    70
  9
$TILEMODE
 70
     1
  9
$MAXACTVP
 70
    64
  9
$PLIMCHECK
 70
     0
  9
$PEXTMIN
 10
1.000000000000000E+20
 20
1.000000000000000E+20
 30
1.000000000000000E+20
  9
$PEXTMAX
 10
-1.000000000000000E+20
 20
-1.000000000000000E+20
 30
-1.000000000000000E+20
  9
$PLIMMIN
 10
0.0
 20
0.0
  9
$PLIMMAX
 10
0.0
 20
0.0
  9
$UNITMODE
 70
     0
  9
$VISRETAIN
 70
     1
  9
$PLINEGEN
 70
     0
  9
$PSLTSCALE
 70
     1
  0
ENDSEC
  0
SECTION
  2
TABLES
  0
TABLE
  2
VPORT
 70
     1
  0
VPORT
  2
*ACTIVE
 70
     0
 10
0.0
 20
0.0
 11
1.0
 21
1.0
 12
707.85317936067
 22
672.6126067419489
 13
0.0
 23
0.0
 14
10.0
 24
10.0
 15
10.0
 25
10.0
 16
0.0
 26
0.0
 36
1.0
 17
-134.1869158878494
 27
0.0
 37
0.0
 40
1287.622265350341
 41
2.280523255813954
 42
50.0
 43
0.0
 44
0.0
 50
0.0
 51
0.0
 71
    16
 72
  1000
 73
     1
 74
     3
 75
     0
 76
     0
 77
     0
 78
     0
  0
ENDTAB
  0
TABLE
  2
LTYPE
 70
     1
  0
LTYPE
  2
CONTINUOUS
 70
     0
  3
Solid line
 72
    65
 73
     0
 40
0.0
  0
ENDTAB
  0
TABLE
  2
LAYER
 70
     4
  0
LAYER
  2
0
 70
     0
 62
     7
  6
CONTINUOUS
  0
LAYER
  2
MOUNTING_INS
 70
     0
 62
     7
  6
CONTINUOUS
  0
LAYER
  2
DEFPOINTS
 70
     0
 62
     7
  6
CONTINUOUS
  0
LAYER
  2
DIMENSIONS
 70
     0
 62
     2
  6
CONTINUOUS
  0
ENDTAB
  0
TABLE
  2
STYLE
 70
     1
  0
STYLE
  2
STANDARD
 70
     0
 40
0.0
 41
1.0
 50
0.0
 71
     0
 42
2.5
  3
arial.ttf
  4

  0
ENDTAB
  0
TABLE
  2
VIEW
 70
     0
  0
ENDTAB
  0
TABLE
  2
UCS
 70
     0
  0
ENDTAB
  0
TABLE
  2
APPID
 70
     4
  0
APPID
  2
ACAD
 70
     0
  0
APPID
  2
ACAD_DSTYLE_DIMRADIAL_EXT0
 70
     0
  0
APPID
  2
ACAD_DSTYLE_DIMRADIAL_EXTE
 70
     0
  0
APPID
  2
ACADANNOTATIVE
 70
     0
  0
ENDTAB
  0
TABLE
  2
DIMSTYLE
 70
     2
  0
DIMSTYLE
  2
ISO-25
 70
     0
  3

  4

  5

  6

  7

 40
1.0
 41
2.5
 42
0.625
 43
3.75
 44
1.25
 45
0.0
 46
0.0
 47
0.0
 48
0.0
140
2.5
141
2.5
142
0.0
143
0.03937007874016
144
1.0
145
0.0
146
1.0
147
0.625
 71
     0
 72
     0
 73
     0
 74
     0
 75
     0
 76
     0
 77
     1
 78
     8
170
     0
171
     3
172
     1
173
     0
174
     0
175
     0
176
     0
177
     0
178
     0
  0
DIMSTYLE
  2
DUAL-DIM
 70
     0
  3

  4

  5

  6

  7

 40
1.0
 41
5.0
 42
1.5
 43
1.0
 44
0.18
 45
0.0
 46
0.0
 47
0.0
 48
0.0
140
5.0
141
2.5
142
0.0
143
0.03937
144
1.0
145
0.0
146
1.0
147
1.0
 71
     0
 72
     0
 73
     0
 74
     0
 75
     0
 76
     0
 77
     1
 78
     8
170
     1
171
     2
172
     0
173
     0
174
     0
175
     0
176
     0
177
     0
178
     5
  0
ENDTAB
  0
ENDSEC
  0
SECTION
  2
BLOCKS
  0
BLOCK
  8
0
  2
$MODEL_SPACE
 70
     0
 10
0.0
 20
0.0
 30
0.0
  3
$MODEL_SPACE
  1

  0
ENDBLK
  5
21
  8
0
  0
BLOCK
 67
     1
  8
0
  2
$PAPER_SPACE
 70
     0
 10
0.0
 20
0.0
 30
0.0
  3
$PAPER_SPACE
  1

  0
ENDBLK
  5
1D
 67
     1
  8
0
  0
BLOCK
  8
0
  2
*X0
 70
     1
 10
0.0
 20
0.0
 30
0.0
  3
*X0
  1

  0
LINE
  5
106
  8
0
  6
CONTINUOUS
 10
261.297692363969
 20
1069.520743260193
 30
0.0
 11
286.3282162234292
 21
1094.551267119653
 31
0.0
1001
ACAD
1010
0.0
1020
0.0
1030
0.0
  0
LINE
  5
107
  8
0
  6
CONTINUOUS
 10
261.297692363969
 20
1042.579974896985
 30
0.0
 11
313.2689845866366
 21
1094.551267119653
 31
0.0
1001
ACAD
1010
0.0
1020
0.0
1030
0.0
  0
LINE
  5
108
  8
0
  6
CONTINUOUS
 10
261.297692363969
 20
1015.639206533778
 30
0.0
 11
340.209752949844
 21
1094.551267119653
 31
0.0
1001
ACAD
1010
0.0
1020
0.0
1030
0.0
  0
LINE
  5
109
  8
0
  6
CONTINUOUS
 10
261.297692363969
 20
988.6984381705704
 30
0.0
 11
293.297692363969
 21
1020.698438170571
 31
0.0
1001
ACAD
1010
0.0
1020
0.0
1030
0.0
  0
LINE
  5
10A
  8
0
  6
CONTINUOUS
 10
261.297692363969
 20
961.7576698073631
 30
0.0
 11
293.297692363969
 21
993.7576698073631
 31
0.0
1001
ACAD
1010
0.0
1020
0.0
1030
0.0
  0
LINE
  5
10B
  8
0
  6
CONTINUOUS
 10
261.297692363969
 20
934.8169014441555
 30
0.0
 11
293.297692363969
 21
966.8169014441555
 31
0.0
1001
ACAD
1010
0.0
1020
0.0
1030
0.0
  0
LINE
  5
10C
  8
0
  6
CONTINUOUS
 10
261.297692363969
 20
907.876133080948
 30
0.0
 11
293.297692363969
 21
939.876133080948
 31
0.0
1001
ACAD
1010
0.0
1020
0.0
1030
0.0
  0
LINE
  5
10D
  8
0
  6
CONTINUOUS
 10
261.297692363969
 20
880.9353647177406
 30
0.0
 11
293.297692363969
 21
912.9353647177406
 31
0.0
1001
ACAD
1010
0.0
1020
0.0
1030
0.0
  0
LINE
  5
10E
  8
0
  6
CONTINUOUS
 10
261.297692363969
 20
853.9945963545331
 30
0.0
 11
293.297692363969
 21
885.9945963545331
 31
0.0
1001
ACAD
1010
0.0
1020
0.0
1030
0.0
  0
LINE
  5
10F
  8
0
  6
CONTINUOUS
 10
261.297692363969
 20
827.0538279913255
 30
0.0
 11
293.297692363969
 21
859.0538279913255
 31
0.0
1001
ACAD
1010
0.0
1020
0.0
1030
0.0
  0
LINE
  5
110
  8
0
  6
CONTINUOUS
 10
261.297692363969
 20
800.1130596281181
 30
0.0
 11
293.297692363969
 21
832.1130596281182
 31
0.0
1001
ACAD
1010
0.0
1020
0.0
1030
0.0
  0
LINE
  5
111
  8
0
  6
CONTINUOUS
 10
261.297692363969
 20
773.1722912649107
 30
0.0
 11
293.297692363969
 21
805.1722912649107
 31
0.0
1001
ACAD
1010
0.0
1020
0.0
1030
0.0
  0
LINE
  5
112
  8
0
  6
CONTINUOUS
 10
261.297692363969
 20
746.2315229017031
 30
0.0
 11
293.297692363969
 21
778.2315229017031
 31
0.0
1001
ACAD
1010
0.0
1020
0.0
1030
0.0
  0
LINE
  5
113
  8
0
  6
CONTINUOUS
 10
261.297692363969
 20
719.2907545384957
 30
0.0
 11
293.297692363969
 21
751.2907545384957
 31
0.0
1001
ACAD
1010
0.0
1020
0.0
1030
0.0
  0
LINE
  5
114
  8
0
  6
CONTINUOUS
 10
261.297692363969
 20
692.3499861752882
 30
0.0
 11
293.297692363969
 21
724.3499861752882
 31
0.0
1001
ACAD
1010
0.0
1020
0.0
1030
0.0
  0
LINE
  5
115
  8
0
  6
CONTINUOUS
 10
261.297692363969
 20
665.4092178120807
 30
0.0
 11
293.297692363969
 21
697.4092178120807
 31
0.0
1001
ACAD
1010
0.0
1020
0.0
1030
0.0
  0
LINE
  5
116
  8
0
  6
CONTINUOUS
 10
261.297692363969
 20
638.4684494488732
 30
0.0
 11
293.297692363969
 21
670.4684494488732
 31
0.0
1001
ACAD
1010
0.0
1020
0.0
1030
0.0
  0
LINE
  5
117
  8
0
  6
CONTINUOUS
 10
261.297692363969
 20
611.5276810856658
 30
0.0
 11
293.297692363969
 21
643.5276810856658
 31
0.0
1001
ACAD
1010
0.0
1020
0.0
1030
0.0
  0
LINE
  5
118
  8
0
  6
CONTINUOUS
 10
261.297692363969
 20
584.5869127224582
 30
0.0
 11
293.297692363969
 21
616.5869127224582
 31
0.0
1001
ACAD
1010
0.0
1020
0.0
1030
0.0
  0
LINE
  5
119
  8
0
  6
CONTINUOUS
 10
261.297692363969
 20
557.6461443592508
 30
0.0
 11
293.297692363969
 21
589.6461443592508
 31
0.0
1001
ACAD
1010
0.0
1020
0.0
1030
0.0
  0
LINE
  5
11A
  8
0
  6
CONTINUOUS
 10
261.2976923639689
 20
530.7053759960432
 30
0.0
 11
293.297692363969
 21
562.7053759960434
 31
0.0
1001
ACAD
1010
0.0
1020
0.0
1030
0.0
  0
LINE
  5
11B
  8
0
  6
CONTINUOUS
 10
261.297692363969
 20
503.7646076328358
 30
0.0
 11
293.297692363969
 21
535.7646076328358
 31
0.0
1001
ACAD
1010
0.0
1020
0.0
1030
0.0
  0
LINE
  5
11C
  8
0
  6
CONTINUOUS
 10
261.2976923639689
 20
476.8238392696283
 30
0.0
 11
293.297692363969
 21
508.8238392696284
 31
0.0
1001
ACAD
1010
0.0
1020
0.0
1030
0.0
  0
LINE
  5
11D
  8
0
  6
CONTINUOUS
 10
261.297692363969
 20
449.8830709064209
 30
0.0
 11
293.297692363969
 21
481.8830709064209
 31
0.0
1001
ACAD
1010
0.0
1020
0.0
1030
0.0
  0
LINE
  5
11E
  8
0
  6
CONTINUOUS
 10
261.2976923639689
 20
422.9423025432134
 30
0.0
 11
293.297692363969
 21
454.9423025432134
 31
0.0
1001
ACAD
1010
0.0
1020
0.0
1030
0.0
  0
LINE
  5
11F
  8
0
  6
CONTINUOUS
 10
261.2976923639689
 20
396.0015341800059
 30
0.0
 11
293.297692363969
 21
428.0015341800059
 31
0.0
1001
ACAD
1010
0.0
1020
0.0
1030
0.0
  0
LINE
  5
120
  8
0
  6
CONTINUOUS
 10
311.2505213130513
 20
1038.651267119653
 30
0.0
 11
367.1505213130514
 21
1094.551267119653
 31
0.0
1001
ACAD
1010
0.0
1020
0.0
1030
0.0
  0
LINE
  5
121
  8
0
  6
CONTINUOUS
 10
338.1912896762588
 20
1038.651267119653
 30
0.0
 11
394.0912896762588
 21
1094.551267119653
 31
0.0
1001
ACAD
1010
0.0
1020
0.0
1030
0.0
  0
LINE
  5
122
  8
0
  6
CONTINUOUS
 10
365.1320580394663
 20
1038.651267119653
 30
0.0
 11
421.0320580394664
 21
1094.551267119653
 31
0.0
1001
ACAD
1010
0.0
1020
0.0
1030
0.0
  0
LINE
  5
123
  8
0
  6
CONTINUOUS
 10
392.0728264026737
 20
1038.651267119653
 30
0.0
 11
447.9728264026738
 21
1094.551267119653
 31
0.0
1001
ACAD
1010
0.0
1020
0.0
1030
0.0
  0
LINE
  5
124
  8
0
  6
CONTINUOUS
 10
419.0135947658813
 20
1038.651267119653
 30
0.0
 11
474.9135947658813
 21
1094.551267119653
 31
0.0
1001
ACAD
1010
0.0
1020
0.0
1030
0.0
  0
LINE
  5
125
  8
0
  6
CONTINUOUS
 10
445.9543631290887
 20
1038.651267119653
 30
0.0
 11
501.8543631290888
 21
1094.551267119653
 31
0.0
1001
ACAD
1010
0.0
1020
0.0
1030
0.0
  0
LINE
  5
126
  8
0
  6
CONTINUOUS
 10
472.8951314922962
 20
1038.651267119653
 30
0.0
 11
528.7951314922962
 21
1094.551267119653
 31
0.0
1001
ACAD
1010
0.0
1020
0.0
1030
0.0
  0
LINE
  5
127
  8
0
  6
CONTINUOUS
 10
499.8358998555037
 20
1038.651267119653
 30
0.0
 11
555.7358998555037
 21
1094.551267119653
 31
0.0
1001
ACAD
1010
0.0
1020
0.0
1030
0.0
  0
LINE
  5
128
  8
0
  6
CONTINUOUS
 10
526.7766682187112
 20
1038.651267119653
 30
0.0
 11
582.6766682187111
 21
1094.551267119653
 31
0.0
1001
ACAD
1010
0.0
1020
0.0
1030
0.0
  0
LINE
  5
129
  8
0
  6
CONTINUOUS
 10
553.7174365819186
 20
1038.651267119653
 30
0.0
 11
609.6174365819187
 21
1094.551267119653
 31
0.0
1001
ACAD
1010
0.0
1020
0.0
1030
0.0
  0
LINE
  5
12A
  8
0
  6
CONTINUOUS
 10
580.658204945126
 20
1038.651267119653
 30
0.0
 11
636.5582049451261
 21
1094.551267119653
 31
0.0
1001
ACAD
1010
0.0
1020
0.0
1030
0.0
  0
LINE
  5
12B
  8
0
  6
CONTINUOUS
 10
607.5989733083336
 20
1038.651267119653
 30
0.0
 11
663.4989733083337
 21
1094.551267119653
 31
0.0
1001
ACAD
1010
0.0
1020
0.0
1030
0.0
  0
LINE
  5
12C
  8
0
  6
CONTINUOUS
 10
634.539741671541
 20
1038.651267119653
 30
0.0
 11
690.4397416715411
 21
1094.551267119653
 31
0.0
1001
ACAD
1010
0.0
1020
0.0
1030
0.0
  0
LINE
  5
12D
  8
0
  6
CONTINUOUS
 10
661.4805100347485
 20
1038.651267119653
 30
0.0
 11
717.3805100347486
 21
1094.551267119653
 31
0.0
1001
ACAD
1010
0.0
1020
0.0
1030
0.0
  0
LINE
  5
12E
  8
0
  6
CONTINUOUS
 10
688.421278397956
 20
1038.651267119653
 30
0.0
 11
744.3212783979561
 21
1094.551267119653
 31
0.0
1001
ACAD
1010
0.0
1020
0.0
1030
0.0
  0
LINE
  5
12F
  8
0
  6
CONTINUOUS
 10
715.3620467611635
 20
1038.651267119653
 30
0.0
 11
771.2620467611636
 21
1094.551267119653
 31
0.0
1001
ACAD
1010
0.0
1020
0.0
1030
0.0
  0
LINE
  5
130
  8
0
  6
CONTINUOUS
 10
742.3028151243709
 20
1038.651267119653
 30
0.0
 11
798.202815124371
 21
1094.551267119653
 31
0.0
1001
ACAD
1010
0.0
1020
0.0
1030
0.0
  0
LINE
  5
131
  8
0
  6
CONTINUOUS
 10
769.2435834875785
 20
1038.651267119653
 30
0.0
 11
825.1435834875784
 21
1094.551267119653
 31
0.0
1001
ACAD
1010
0.0
1020
0.0
1030
0.0
  0
LINE
  5
132
  8
0
  6
CONTINUOUS
 10
796.1843518507859
 20
1038.651267119653
 30
0.0
 11
852.084351850786
 21
1094.551267119653
 31
0.0
1001
ACAD
1010
0.0
1020
0.0
1030
0.0
  0
LINE
  5
133
  8
0
  6
CONTINUOUS
 10
823.1251202139933
 20
1038.651267119653
 30
0.0
 11
879.0251202139934
 21
1094.551267119653
 31
0.0
1001
ACAD
1010
0.0
1020
0.0
1030
0.0
  0
LINE
  5
134
  8
0
  6
CONTINUOUS
 10
850.0658885772009
 20
1038.651267119653
 30
0.0
 11
905.9658885772009
 21
1094.551267119653
 31
0.0
1001
ACAD
1010
0.0
1020
0.0
1030
0.0
  0
LINE
  5
135
  8
0
  6
CONTINUOUS
 10
877.0066569404082
 20
1038.651267119653
 30
0.0
 11
932.9066569404083
 21
1094.551267119653
 31
0.0
1001
ACAD
1010
0.0
1020
0.0
1030
0.0
  0
LINE
  5
136
  8
0
  6
CONTINUOUS
 10
903.9474253036158
 20
1038.651267119653
 30
0.0
 11
959.8474253036159
 21
1094.551267119653
 31
0.0
1001
ACAD
1010
0.0
1020
0.0
1030
0.0
  0
LINE
  5
137
  8
0
  6
CONTINUOUS
 10
261.297692363969
 20
369.0607658167988
 30
0.0
 11
293.297692363969
 21
401.0607658167988
 31
0.0
1001
ACAD
1010
0.0
1020
0.0
1030
0.0
  0
LINE
  5
138
  8
0
  6
CONTINUOUS
 10
261.297692363969
 20
342.1199974535914
 30
0.0
 11
293.297692363969
 21
374.1199974535913
 31
0.0
1001
ACAD
1010
0.0
1020
0.0
1030
0.0
  0
LINE
  5
139
  8
0
  6
CONTINUOUS
 10
261.297692363969
 20
315.1792290903839
 30
0.0
 11
293.297692363969
 21
347.179229090384
 31
0.0
1001
ACAD
1010
0.0
1020
0.0
1030
0.0
  0
LINE
  5
13A
  8
0
  6
CONTINUOUS
 10
261.297692363969
 20
288.2384607271765
 30
0.0
 11
293.297692363969
 21
320.2384607271765
 31
0.0
1001
ACAD
1010
0.0
1020
0.0
1030
0.0
  0
LINE
  5
13B
  8
0
  6
CONTINUOUS
 10
261.2976923639689
 20
261.297692363969
 30
0.0
 11
293.297692363969
 21
293.2976923639691
 31
0.0
1001
ACAD
1010
0.0
1020
0.0
1030
0.0
  0
LINE
  5
13C
  8
0
  6
CONTINUOUS
 10
261.297692363969
 20
234.3569240007616
 30
0.0
 11
293.297692363969
 21
266.3569240007616
 31
0.0
1001
ACAD
1010
0.0
1020
0.0
1030
0.0
  0
LINE
  5
13D
  8
0
  6
CONTINUOUS
 10
261.297692363969
 20
207.4161556375541
 30
0.0
 11
293.297692363969
 21
239.4161556375542
 31
0.0
1001
ACAD
1010
0.0
1020
0.0
1030
0.0
  0
LINE
  5
13E
  8
0
  6
CONTINUOUS
 10
261.297692363969
 20
180.4753872743466
 30
0.0
 11
293.297692363969
 21
212.4753872743466
 31
0.0
1001
ACAD
1010
0.0
1020
0.0
1030
0.0
  0
LINE
  5
13F
  8
0
  6
CONTINUOUS
 10
261.297692363969
 20
153.5346189111392
 30
0.0
 11
293.297692363969
 21
185.5346189111392
 31
0.0
1001
ACAD
1010
0.0
1020
0.0
1030
0.0
  0
LINE
  5
140
  8
0
  6
CONTINUOUS
 10
261.297692363969
 20
126.5938505479318
 30
0.0
 11
293.297692363969
 21
158.5938505479318
 31
0.0
1001
ACAD
1010
0.0
1020
0.0
1030
0.0
  0
LINE
  5
141
  8
0
  6
CONTINUOUS
 10
929.297692363969
 20
1037.060765816799
 30
0.0
 11
961.297692363969
 21
1069.060765816799
 31
0.0
1001
ACAD
1010
0.0
1020
0.0
1030
0.0
  0
LINE
  5
142
  8
0
  6
CONTINUOUS
 10
929.2976923639691
 20
1010.119997453592
 30
0.0
 11
961.297692363969
 21
1042.119997453592
 31
0.0
1001
ACAD
1010
0.0
1020
0.0
1030
0.0
  0
LINE
  5
143
  8
0
  6
CONTINUOUS
 10
929.297692363969
 20
983.1792290903841
 30
0.0
 11
961.297692363969
 21
1015.179229090384
 31
0.0
1001
ACAD
1010
0.0
1020
0.0
1030
0.0
  0
LINE
  5
144
  8
0
  6
CONTINUOUS
 10
929.297692363969
 20
956.2384607271766
 30
0.0
 11
961.297692363969
 21
988.2384607271765
 31
0.0
1001
ACAD
1010
0.0
1020
0.0
1030
0.0
  0
LINE
  5
145
  8
0
  6
CONTINUOUS
 10
929.297692363969
 20
929.2976923639692
 30
0.0
 11
961.297692363969
 21
961.2976923639691
 31
0.0
1001
ACAD
1010
0.0
1020
0.0
1030
0.0
  0
LINE
  5
146
  8
0
  6
CONTINUOUS
 10
929.297692363969
 20
902.3569240007616
 30
0.0
 11
961.297692363969
 21
934.3569240007616
 31
0.0
1001
ACAD
1010
0.0
1020
0.0
1030
0.0
  0
LINE
  5
147
  8
0
  6
CONTINUOUS
 10
929.297692363969
 20
875.4161556375543
 30
0.0
 11
961.297692363969
 21
907.4161556375542
 31
0.0
1001
ACAD
1010
0.0
1020
0.0
1030
0.0
  0
LINE
  5
148
  8
0
  6
CONTINUOUS
 10
929.297692363969
 20
848.4753872743468
 30
0.0
 11
961.297692363969
 21
880.4753872743466
 31
0.0
1001
ACAD
1010
0.0
1020
0.0
1030
0.0
  0
LINE
  5
149
  8
0
  6
CONTINUOUS
 10
929.297692363969
 20
821.5346189111393
 30
0.0
 11
961.297692363969
 21
853.5346189111392
 31
0.0
1001
ACAD
1010
0.0
1020
0.0
1030
0.0
  0
LINE
  5
14A
  8
0
  6
CONTINUOUS
 10
929.297692363969
 20
794.5938505479319
 30
0.0
 11
961.297692363969
 21
826.5938505479318
 31
0.0
1001
ACAD
1010
0.0
1020
0.0
1030
0.0
  0
LINE
  5
14B
  8
0
  6
CONTINUOUS
 10
261.297692363969
 20
99.65308218472427
 30
0.0
 11
312.0958772988974
 21
150.4512671196528
 31
0.0
1001
ACAD
1010
0.0
1020
0.0
1030
0.0
  0
LINE
  5
14C
  8
0
  6
CONTINUOUS
 10
929.297692363969
 20
767.6530821847243
 30
0.0
 11
961.297692363969
 21
799.6530821847243
 31
0.0
1001
ACAD
1010
0.0
1020
0.0
1030
0.0
  0
LINE
  5
14D
  8
0
  6
CONTINUOUS
 10
283.136645662105
 20
94.55126711965283
 30
0.0
 11
339.0366456621049
 21
150.4512671196528
 31
0.0
1001
ACAD
1010
0.0
1020
0.0
1030
0.0
  0
LINE
  5
14E
  8
0
  6
CONTINUOUS
 10
310.0774140253125
 20
94.55126711965278
 30
0.0
 11
365.9774140253124
 21
150.4512671196528
 31
0.0
1001
ACAD
1010
0.0
1020
0.0
1030
0.0
  0
LINE
  5
14F
  8
0
  6
CONTINUOUS
 10
337.01818238852
 20
94.55126711965283
 30
0.0
 11
392.9181823885199
 21
150.4512671196528
 31
0.0
1001
ACAD
1010
0.0
1020
0.0
1030
0.0
  0
LINE
  5
150
  8
0
  6
CONTINUOUS
 10
363.9589507517273
 20
94.55126711965278
 30
0.0
 11
419.8589507517273
 21
150.4512671196528
 31
0.0
1001
ACAD
1010
0.0
1020
0.0
1030
0.0
  0
LINE
  5
151
  8
0
  6
CONTINUOUS
 10
390.8997191149349
 20
94.55126711965283
 30
0.0
 11
446.7997191149349
 21
150.4512671196528
 31
0.0
1001
ACAD
1010
0.0
1020
0.0
1030
0.0
  0
LINE
  5
152
  8
0
  6
CONTINUOUS
 10
417.8404874781423
 20
94.55126711965283
 30
0.0
 11
473.7404874781423
 21
150.4512671196528
 31
0.0
1001
ACAD
1010
0.0
1020
0.0
1030
0.0
  0
LINE
  5
153
  8
0
  6
CONTINUOUS
 10
444.7812558413498
 20
94.55126711965283
 30
0.0
 11
500.6812558413497
 21
150.4512671196528
 31
0.0
1001
ACAD
1010
0.0
1020
0.0
1030
0.0
  0
LINE
  5
154
  8
0
  6
CONTINUOUS
 10
471.7220242045572
 20
94.55126711965283
 30
0.0
 11
527.6220242045572
 21
150.4512671196528
 31
0.0
1001
ACAD
1010
0.0
1020
0.0
1030
0.0
  0
LINE
  5
155
  8
0
  6
CONTINUOUS
 10
498.6627925677648
 20
94.55126711965283
 30
0.0
 11
554.5627925677647
 21
150.4512671196528
 31
0.0
1001
ACAD
1010
0.0
1020
0.0
1030
0.0
  0
LINE
  5
156
  8
0
  6
CONTINUOUS
 10
525.6035609309722
 20
94.55126711965283
 30
0.0
 11
581.5035609309722
 21
150.4512671196528
 31
0.0
1001
ACAD
1010
0.0
1020
0.0
1030
0.0
  0
LINE
  5
157
  8
0
  6
CONTINUOUS
 10
552.5443292941798
 20
94.55126711965283
 30
0.0
 11
608.4443292941796
 21
150.4512671196528
 31
0.0
1001
ACAD
1010
0.0
1020
0.0
1030
0.0
  0
LINE
  5
158
  8
0
  6
CONTINUOUS
 10
579.4850976573872
 20
94.55126711965283
 30
0.0
 11
635.3850976573872
 21
150.4512671196528
 31
0.0
1001
ACAD
1010
0.0
1020
0.0
1030
0.0
  0
LINE
  5
159
  8
0
  6
CONTINUOUS
 10
606.4258660205946
 20
94.55126711965283
 30
0.0
 11
662.3258660205946
 21
150.4512671196528
 31
0.0
1001
ACAD
1010
0.0
1020
0.0
1030
0.0
  0
LINE
  5
15A
  8
0
  6
CONTINUOUS
 10
633.3666343838022
 20
94.55126711965283
 30
0.0
 11
689.266634383802
 21
150.4512671196527
 31
0.0
1001
ACAD
1010
0.0
1020
0.0
1030
0.0
  0
LINE
  5
15B
  8
0
  6
CONTINUOUS
 10
660.3074027470096
 20
94.55126711965283
 30
0.0
 11
716.2074027470096
 21
150.4512671196528
 31
0.0
1001
ACAD
1010
0.0
1020
0.0
1030
0.0
  0
LINE
  5
15C
  8
0
  6
CONTINUOUS
 10
687.2481711102171
 20
94.55126711965283
 30
0.0
 11
743.1481711102169
 21
150.4512671196527
 31
0.0
1001
ACAD
1010
0.0
1020
0.0
1030
0.0
  0
LINE
  5
15D
  8
0
  6
CONTINUOUS
 10
714.1889394734246
 20
94.55126711965283
 30
0.0
 11
770.0889394734245
 21
150.4512671196528
 31
0.0
1001
ACAD
1010
0.0
1020
0.0
1030
0.0
  0
LINE
  5
15E
  8
0
  6
CONTINUOUS
 10
741.1297078366321
 20
94.55126711965283
 30
0.0
 11
797.0297078366319
 21
150.4512671196528
 31
0.0
1001
ACAD
1010
0.0
1020
0.0
1030
0.0
  0
LINE
  5
15F
  8
0
  6
CONTINUOUS
 10
768.0704761998395
 20
94.55126711965283
 30
0.0
 11
823.9704761998394
 21
150.4512671196528
 31
0.0
1001
ACAD
1010
0.0
1020
0.0
1030
0.0
  0
LINE
  5
160
  8
0
  6
CONTINUOUS
 10
795.0112445630471
 20
94.55126711965283
 30
0.0
 11
850.9112445630469
 21
150.4512671196527
 31
0.0
1001
ACAD
1010
0.0
1020
0.0
1030
0.0
  0
LINE
  5
161
  8
0
  6
CONTINUOUS
 10
821.9520129262545
 20
94.55126711965283
 30
0.0
 11
877.8520129262545
 21
150.4512671196528
 31
0.0
1001
ACAD
1010
0.0
1020
0.0
1030
0.0
  0
LINE
  5
162
  8
0
  6
CONTINUOUS
 10
848.8927812894619
 20
94.55126711965283
 30
0.0
 11
904.7927812894618
 21
150.4512671196527
 31
0.0
1001
ACAD
1010
0.0
1020
0.0
1030
0.0
  0
LINE
  5
163
  8
0
  6
CONTINUOUS
 10
929.297692363969
 20
740.712313821517
 30
0.0
 11
961.297692363969
 21
772.7123138215169
 31
0.0
1001
ACAD
1010
0.0
1020
0.0
1030
0.0
  0
LINE
  5
164
  8
0
  6
CONTINUOUS
 10
929.297692363969
 20
713.7715454583094
 30
0.0
 11
961.297692363969
 21
745.7715454583094
 31
0.0
1001
ACAD
1010
0.0
1020
0.0
1030
0.0
  0
LINE
  5
165
  8
0
  6
CONTINUOUS
 10
929.297692363969
 20
686.830777095102
 30
0.0
 11
961.297692363969
 21
718.8307770951019
 31
0.0
1001
ACAD
1010
0.0
1020
0.0
1030
0.0
  0
LINE
  5
166
  8
0
  6
CONTINUOUS
 10
929.297692363969
 20
659.8900087318946
 30
0.0
 11
961.297692363969
 21
691.8900087318945
 31
0.0
1001
ACAD
1010
0.0
1020
0.0
1030
0.0
  0
LINE
  5
167
  8
0
  6
CONTINUOUS
 10
929.297692363969
 20
632.949240368687
 30
0.0
 11
961.297692363969
 21
664.949240368687
 31
0.0
1001
ACAD
1010
0.0
1020
0.0
1030
0.0
  0
LINE
  5
168
  8
0
  6
CONTINUOUS
 10
929.297692363969
 20
606.0084720054796
 30
0.0
 11
961.297692363969
 21
638.0084720054795
 31
0.0
1001
ACAD
1010
0.0
1020
0.0
1030
0.0
  0
LINE
  5
169
  8
0
  6
CONTINUOUS
 10
929.297692363969
 20
579.0677036422721
 30
0.0
 11
961.297692363969
 21
611.067703642272
 31
0.0
1001
ACAD
1010
0.0
1020
0.0
1030
0.0
  0
LINE
  5
16A
  8
0
  6
CONTINUOUS
 10
929.297692363969
 20
552.1269352790646
 30
0.0
 11
961.297692363969
 21
584.1269352790646
 31
0.0
1001
ACAD
1010
0.0
1020
0.0
1030
0.0
  0
LINE
  5
16B
  8
0
  6
CONTINUOUS
 10
929.297692363969
 20
525.1861669158571
 30
0.0
 11
961.297692363969
 21
557.186166915857
 31
0.0
1001
ACAD
1010
0.0
1020
0.0
1030
0.0
  0
LINE
  5
16C
  8
0
  6
CONTINUOUS
 10
929.297692363969
 20
498.2453985526496
 30
0.0
 11
961.297692363969
 21
530.2453985526496
 31
0.0
1001
ACAD
1010
0.0
1020
0.0
1030
0.0
  0
LINE
  5
16D
  8
0
  6
CONTINUOUS
 10
929.297692363969
 20
471.3046301894422
 30
0.0
 11
961.297692363969
 21
503.304630189442
 31
0.0
1001
ACAD
1010
0.0
1020
0.0
1030
0.0
  0
LINE
  5
16E
  8
0
  6
CONTINUOUS
 10
929.297692363969
 20
444.3638618262347
 30
0.0
 11
961.297692363969
 21
476.3638618262346
 31
0.0
1001
ACAD
1010
0.0
1020
0.0
1030
0.0
  0
LINE
  5
16F
  8
0
  6
CONTINUOUS
 10
929.297692363969
 20
417.4230934630272
 30
0.0
 11
961.297692363969
 21
449.4230934630272
 31
0.0
1001
ACAD
1010
0.0
1020
0.0
1030
0.0
  0
LINE
  5
170
  8
0
  6
CONTINUOUS
 10
929.297692363969
 20
390.4823250998197
 30
0.0
 11
961.297692363969
 21
422.4823250998196
 31
0.0
1001
ACAD
1010
0.0
1020
0.0
1030
0.0
  0
LINE
  5
171
  8
0
  6
CONTINUOUS
 10
929.297692363969
 20
363.5415567366123
 30
0.0
 11
961.297692363969
 21
395.5415567366122
 31
0.0
1001
ACAD
1010
0.0
1020
0.0
1030
0.0
  0
LINE
  5
172
  8
0
  6
CONTINUOUS
 10
929.297692363969
 20
336.6007883734047
 30
0.0
 11
961.297692363969
 21
368.6007883734047
 31
0.0
1001
ACAD
1010
0.0
1020
0.0
1030
0.0
  0
LINE
  5
173
  8
0
  6
CONTINUOUS
 10
929.297692363969
 20
309.6600200101973
 30
0.0
 11
961.297692363969
 21
341.6600200101972
 31
0.0
1001
ACAD
1010
0.0
1020
0.0
1030
0.0
  0
LINE
  5
174
  8
0
  6
CONTINUOUS
 10
929.297692363969
 20
282.7192516469898
 30
0.0
 11
961.2976923639688
 21
314.7192516469897
 31
0.0
1001
ACAD
1010
0.0
1020
0.0
1030
0.0
  0
LINE
  5
175
  8
0
  6
CONTINUOUS
 10
929.297692363969
 20
255.7784832837824
 30
0.0
 11
961.297692363969
 21
287.7784832837823
 31
0.0
1001
ACAD
1010
0.0
1020
0.0
1030
0.0
  0
LINE
  5
176
  8
0
  6
CONTINUOUS
 10
929.297692363969
 20
228.8377149205748
 30
0.0
 11
961.297692363969
 21
260.8377149205748
 31
0.0
1001
ACAD
1010
0.0
1020
0.0
1030
0.0
  0
LINE
  5
177
  8
0
  6
CONTINUOUS
 10
929.297692363969
 20
201.8969465573674
 30
0.0
 11
961.297692363969
 21
233.8969465573673
 31
0.0
1001
ACAD
1010
0.0
1020
0.0
1030
0.0
  0
LINE
  5
178
  8
0
  6
CONTINUOUS
 10
929.297692363969
 20
174.95617819416
 30
0.0
 11
961.297692363969
 21
206.9561781941599
 31
0.0
1001
ACAD
1010
0.0
1020
0.0
1030
0.0
  0
LINE
  5
179
  8
0
  6
CONTINUOUS
 10
875.833549652669
 20
94.55126711965283
 30
0.0
 11
961.297692363969
 21
180.0154098309526
 31
0.0
1001
ACAD
1010
0.0
1020
0.0
1030
0.0
  0
LINE
  5
17A
  8
0
  6
CONTINUOUS
 10
902.7743180158766
 20
94.55126711965283
 30
0.0
 11
961.297692363969
 21
153.0746414677453
 31
0.0
1001
ACAD
1010
0.0
1020
0.0
1030
0.0
  0
LINE
  5
17B
  8
0
  6
CONTINUOUS
 10
929.7150863790839
 20
94.55126711965283
 30
0.0
 11
961.297692363969
 21
126.1338731045379
 31
0.0
1001
ACAD
1010
0.0
1020
0.0
1030
0.0
  0
LINE
  5
17C
  8
0
  6
CONTINUOUS
 10
956.6558547422912
 20
94.55126711965283
 30
0.0
 11
961.297692363969
 21
99.19310474133044
 31
0.0
1001
ACAD
1010
0.0
1020
0.0
1030
0.0
  0
ENDBLK
  5
17D
  8
0
  0
BLOCK
  8
0
  2
*D1
 70
     1
 10
0.0
 20
0.0
 30
0.0
  3
*D1
  1

  0
LINE
  5
540
  8
DIMENSIONS
  6
BYBLOCK
 62
     0
 10
195.0692951831139
 20
1087.902099044401
 30
0.0
 11
195.0692951831139
 21
1151.582099044401
 31
0.0
  0
LINE
  5
541
  8
DIMENSIONS
  6
BYBLOCK
 62
     0
 10
595.0692951831138
 20
1087.902099044401
 30
0.0
 11
595.0692951831138
 21
1151.582099044401
 31
0.0
  0
LINE
  5
542
  8
DIMENSIONS
  6
BYBLOCK
 62
     0
 10
200.0692951831139
 20
1151.402099044401
 30
0.0
 11
590.0692951831138
 21
1151.402099044401
 31
0.0
  0
SOLID
  5
543
  8
DIMENSIONS
 62
     0
 10
200.0692951831139
 20
1152.235432377734
 30
0.0
 11
200.0692951831139
 21
1150.568765711067
 31
0.0
 12
195.0692951831139
 22
1151.402099044401
 32
0.0
 13
195.0692951831139
 23
1151.402099044401
 33
0.0
  0
SOLID
  5
544
  8
DIMENSIONS
 62
     0
 10
590.0692951831138
 20
1150.568765711067
 30
0.0
 11
590.0692951831138
 21
1152.235432377734
 31
0.0
 12
595.0692951831138
 22
1151.402099044401
 32
0.0
 13
595.0692951831138
 23
1151.402099044401
 33
0.0
  0
TEXT
  5
545
  8
DIMENSIONS
  6
CONTINUOUS
 62
     5
 10
377.7917951831138
 20
1153.797099044401
 30
0.0
 40
5.0
  1
400 [15.75]
  0
POINT
  5
546
  8
DEFPOINTS
 62
     0
 10
195.0692951831139
 20
1086.402099044401
 30
0.0
  0
POINT
  5
547
  8
DEFPOINTS
 62
     0
 10
595.0692951831138
 20
1086.402099044401
 30
0.0
  0
POINT
  5
548
  8
DEFPOINTS
 62
     0
 10
595.0692951831138
 20
1151.402099044401
 30
0.0
  0
ENDBLK
  5
53F
  8
0
  0
BLOCK
  8
0
  2
*D2
 70
     1
 10
0.0
 20
0.0
 30
0.0
  3
*D2
  1

  0
LINE
  5
581
  8
DIMENSIONS
  6
BYBLOCK
 62
     0
 10
220.0692951831139
 20
1052.402099044401
 30
0.0
 11
220.0692951831139
 21
1136.582099044401
 31
0.0
  0
LINE
  5
582
  8
DIMENSIONS
  6
BYBLOCK
 62
     0
 10
570.0692951831138
 20
1052.402099044401
 30
0.0
 11
570.0692951831138
 21
1136.582099044401
 31
0.0
  0
LINE
  5
583
  8
DIMENSIONS
  6
BYBLOCK
 62
     0
 10
225.0692951831139
 20
1136.402099044401
 30
0.0
 11
565.0692951831138
 21
1136.402099044401
 31
0.0
  0
SOLID
  5
584
  8
DIMENSIONS
 62
     0
 10
225.0692951831139
 20
1137.235432377734
 30
0.0
 11
225.0692951831139
 21
1135.568765711067
 31
0.0
 12
220.0692951831139
 22
1136.402099044401
 32
0.0
 13
220.0692951831139
 23
1136.402099044401
 33
0.0
  0
SOLID
  5
585
  8
DIMENSIONS
 62
     0
 10
565.0692951831138
 20
1135.568765711067
 30
0.0
 11
565.0692951831138
 21
1137.235432377734
 31
0.0
 12
570.0692951831138
 22
1136.402099044401
 32
0.0
 13
570.0692951831138
 23
1136.402099044401
 33
0.0
  0
TEXT
  5
586
  8
DIMENSIONS
  6
CONTINUOUS
 62
     5
 10
377.6892951831138
 20
1138.797099044401
 30
0.0
 40
5.0
  1
350 [13.78]
  0
POINT
  5
587
  8
DEFPOINTS
 62
     0
 10
220.0692951831139
 20
1050.902099044401
 30
0.0
  0
POINT
  5
588
  8
DEFPOINTS
 62
     0
 10
570.0692951831138
 20
1050.902099044401
 30
0.0
  0
POINT
  5
589
  8
DEFPOINTS
 62
     0
 10
570.0692951831138
 20
1136.402099044401
 30
0.0
  0
ENDBLK
  5
580
  8
0
  0
BLOCK
  8
0
  2
*D3
 70
     1
 10
0.0
 20
0.0
 30
0.0
  3
*D3
  1

  0
LINE
  5
5CD
  8
DIMENSIONS
  6
BYBLOCK
 62
     0
 10
153.0692951831139
 20
1009.402099044401
 30
0.0
 11
153.0692951831139
 21
1166.582099044401
 31
0.0
  0
LINE
  5
5CE
  8
DIMENSIONS
  6
BYBLOCK
 62
     0
 10
637.0692951831138
 20
1009.402099044401
 30
0.0
 11
637.0692951831138
 21
1166.582099044401
 31
0.0
  0
LINE
  5
5CF
  8
DIMENSIONS
  6
BYBLOCK
 62
     0
 10
158.0692951831139
 20
1166.402099044401
 30
0.0
 11
632.0692951831138
 21
1166.402099044401
 31
0.0
  0
SOLID
  5
5D0
  8
DIMENSIONS
 62
     0
 10
158.0692951831139
 20
1167.235432377734
 30
0.0
 11
158.0692951831139
 21
1165.568765711067
 31
0.0
 12
153.0692951831139
 22
1166.402099044401
 32
0.0
 13
153.0692951831139
 23
1166.402099044401
 33
0.0
  0
SOLID
  5
5D1
  8
DIMENSIONS
 62
     0
 10
632.0692951831138
 20
1165.568765711067
 30
0.0
 11
632.0692951831138
 21
1167.235432377734
 31
0.0
 12
637.0692951831138
 22
1166.402099044401
 32
0.0
 13
637.0692951831138
 23
1166.402099044401
 33
0.0
  0
TEXT
  5
5D2
  8
DIMENSIONS
  6
CONTINUOUS
 62
     5
 10
377.7917951831138
 20
1168.797099044401
 30
0.0
 40
5.0
  1
484 [19.06]
  0
POINT
  5
5D3
  8
DEFPOINTS
 62
     0
 10
153.0692951831139
 20
1007.902099044401
 30
0.0
  0
POINT
  5
5D4
  8
DEFPOINTS
 62
     0
 10
637.0692951831138
 20
1007.902099044401
 30
0.0
  0
POINT
  5
5D5
  8
DEFPOINTS
 62
     0
 10
637.0692951831138
 20
1166.402099044401
 30
0.0
  0
ENDBLK
  5
5CC
  8
0
  0
BLOCK
  8
0
  2
*D4
 70
     1
 10
0.0
 20
0.0
 30
0.0
  3
*D4
  1

  0
LINE
  5
60E
  8
DIMENSIONS
  6
BYBLOCK
 62
     0
 10
100.0692951831139
 20
1062.402099044401
 30
0.0
 11
100.0692951831138
 21
1181.582099044401
 31
0.0
  0
LINE
  5
60F
  8
DIMENSIONS
  6
BYBLOCK
 62
     0
 10
690.0692951831138
 20
1062.402099044401
 30
0.0
 11
690.0692951831138
 21
1181.582099044401
 31
0.0
  0
LINE
  5
610
  8
DIMENSIONS
  6
BYBLOCK
 62
     0
 10
105.0692951831138
 20
1181.402099044401
 30
0.0
 11
685.0692951831138
 21
1181.402099044401
 31
0.0
  0
SOLID
  5
611
  8
DIMENSIONS
 62
     0
 10
105.0692951831138
 20
1182.235432377734
 30
0.0
 11
105.0692951831138
 21
1180.568765711067
 31
0.0
 12
100.0692951831138
 22
1181.402099044401
 32
0.0
 13
100.0692951831138
 23
1181.402099044401
 33
0.0
  0
SOLID
  5
612
  8
DIMENSIONS
 62
     0
 10
685.0692951831138
 20
1180.568765711067
 30
0.0
 11
685.0692951831138
 21
1182.235432377734
 31
0.0
 12
690.0692951831138
 22
1181.402099044401
 32
0.0
 13
690.0692951831138
 23
1181.402099044401
 33
0.0
  0
TEXT
  5
613
  8
DIMENSIONS
  6
CONTINUOUS
 62
     5
 10
377.6917951831138
 20
1183.797099044401
 30
0.0
 40
5.0
  1
590 [23.23]
  0
POINT
  5
614
  8
DEFPOINTS
 62
     0
 10
100.0692951831139
 20
1060.902099044401
 30
0.0
  0
POINT
  5
615
  8
DEFPOINTS
 62
     0
 10
690.0692951831138
 20
1060.902099044401
 30
0.0
  0
POINT
  5
616
  8
DEFPOINTS
 62
     0
 10
690.0692951831138
 20
1181.402099044401
 30
0.0
  0
ENDBLK
  5
60D
  8
0
  0
BLOCK
  8
0
  2
*D5
 70
     1
 10
0.0
 20
0.0
 30
0.0
  3
*D5
  1

  0
LINE
  5
64F
  8
DIMENSIONS
  6
BYBLOCK
 62
     0
 10
59.06929518311392
 20
947.9020990444005
 30
0.0
 11
59.06929518311392
 21
1196.582099044401
 31
0.0
  0
LINE
  5
650
  8
DIMENSIONS
  6
BYBLOCK
 62
     0
 10
731.0692951831138
 20
947.9020990444005
 30
0.0
 11
731.0692951831138
 21
1196.582099044401
 31
0.0
  0
LINE
  5
651
  8
DIMENSIONS
  6
BYBLOCK
 62
     0
 10
64.06929518311392
 20
1196.402099044401
 30
0.0
 11
726.0692951831138
 21
1196.402099044401
 31
0.0
  0
SOLID
  5
652
  8
DIMENSIONS
 62
     0
 10
64.06929518311392
 20
1197.235432377734
 30
0.0
 11
64.06929518311392
 21
1195.568765711067
 31
0.0
 12
59.06929518311392
 22
1196.402099044401
 32
0.0
 13
59.06929518311392
 23
1196.402099044401
 33
0.0
  0
SOLID
  5
653
  8
DIMENSIONS
 62
     0
 10
726.0692951831138
 20
1195.568765711067
 30
0.0
 11
726.0692951831138
 21
1197.235432377734
 31
0.0
 12
731.0692951831138
 22
1196.402099044401
 32
0.0
 13
731.0692951831138
 23
1196.402099044401
 33
0.0
  0
TEXT
  5
654
  8
DIMENSIONS
  6
CONTINUOUS
 62
     5
 10
377.7067951831139
 20
1198.797099044401
 30
0.0
 40
5.0
  1
672 [26.46]
  0
POINT
  5
655
  8
DEFPOINTS
 62
     0
 10
59.06929518311392
 20
946.4020990444005
 30
0.0
  0
POINT
  5
656
  8
DEFPOINTS
 62
     0
 10
731.0692951831138
 20
946.4020990444005
 30
0.0
  0
POINT
  5
657
  8
DEFPOINTS
 62
     0
 10
731.0692951831138
 20
1196.402099044401
 30
0.0
  0
ENDBLK
  5
64E
  8
0
  0
BLOCK
  8
0
  2
*D6
 70
     1
 10
0.0
 20
0.0
 30
0.0
  3
*D6
  1

  0
LINE
  5
6D1
  8
DIMENSIONS
  6
BYBLOCK
 62
     0
 10
782.4857558139536
 20
1134.502906976744
 30
0.0
 11
33.2424565031833
 21
1134.502906976744
 31
0.0
  0
LINE
  5
6D2
  8
DIMENSIONS
  6
BYBLOCK
 62
     0
 10
257.4857558139536
 20
1064.002906976744
 30
0.0
 11
33.24245650318329
 21
1064.002906976744
 31
0.0
  0
LINE
  5
6D3
  8
DIMENSIONS
  6
BYBLOCK
 62
     0
 10
33.4224565031833
 20
1129.502906976744
 30
0.0
 11
33.42245650318329
 21
1069.002906976744
 31
0.0
  0
SOLID
  5
6D4
  8
DIMENSIONS
 62
     0
 10
34.25578983651663
 20
1129.502906976744
 30
0.0
 11
32.58912316984996
 21
1129.502906976744
 31
0.0
 12
33.4224565031833
 22
1134.502906976744
 32
0.0
 13
33.4224565031833
 23
1134.502906976744
 33
0.0
  0
SOLID
  5
6D5
  8
DIMENSIONS
 62
     0
 10
32.58912316984996
 20
1069.002906976744
 30
0.0
 11
34.25578983651663
 21
1069.002906976744
 31
0.0
 12
33.42245650318329
 22
1064.002906976744
 32
0.0
 13
33.42245650318329
 23
1064.002906976744
 33
0.0
  0
TEXT
  5
6D6
  8
DIMENSIONS
  6
CONTINUOUS
 62
     5
 10
31.0274565031832
 20
1082.825406976744
 30
0.0
 40
5.0
  1
70.5 [2.78]
 50
90.0
  0
POINT
  5
6D7
  8
DEFPOINTS
 62
     0
 10
783.9857558139536
 20
1134.502906976744
 30
0.0
  0
POINT
  5
6D8
  8
DEFPOINTS
 62
     0
 10
258.9857558139536
 20
1064.002906976744
 30
0.0
  0
POINT
  5
6D9
  8
DEFPOINTS
 62
     0
 10
33.42245650318329
 20
1064.002906976744
 30
0.0
  0
ENDBLK
  5
6D0
  8
0
  0
BLOCK
  8
0
  2
*D7
 70
     1
 10
0.0
 20
0.0
 30
0.0
  3
*D7
  1

  0
LINE
  5
713
  8
DIMENSIONS
  6
BYBLOCK
 62
     0
 10
691.5692951831138
 20
1060.902099044401
 30
0.0
 11
765.2492951831138
 21
1060.902099044401
 31
0.0
  0
LINE
  5
714
  8
DIMENSIONS
  6
BYBLOCK
 62
     0
 10
638.5692951831138
 20
1007.902099044401
 30
0.0
 11
765.2492951831138
 21
1007.902099044401
 31
0.0
  0
LINE
  5
715
  8
DIMENSIONS
  6
BYBLOCK
 62
     0
 10
765.0692951831138
 20
1055.902099044401
 30
0.0
 11
765.0692951831138
 21
1012.902099044401
 31
0.0
  0
SOLID
  5
716
  8
DIMENSIONS
 62
     0
 10
765.9026285164472
 20
1055.902099044401
 30
0.0
 11
764.2359618497804
 21
1055.902099044401
 31
0.0
 12
765.0692951831138
 22
1060.902099044401
 32
0.0
 13
765.0692951831138
 23
1060.902099044401
 33
0.0
  0
SOLID
  5
717
  8
DIMENSIONS
 62
     0
 10
764.2359618497804
 20
1012.902099044401
 30
0.0
 11
765.9026285164472
 21
1012.902099044401
 31
0.0
 12
765.0692951831138
 22
1007.902099044401
 32
0.0
 13
765.0692951831138
 23
1007.902099044401
 33
0.0
  0
TEXT
  5
718
  8
DIMENSIONS
  6
CONTINUOUS
 62
     5
 10
762.6742951831136
 20
1020.904599044401
 30
0.0
 40
5.0
  1
53 [2.09]
 50
90.0
  0
POINT
  5
719
  8
DEFPOINTS
 62
     0
 10
690.0692951831138
 20
1060.902099044401
 30
0.0
  0
POINT
  5
71A
  8
DEFPOINTS
 62
     0
 10
637.0692951831138
 20
1007.902099044401
 30
0.0
  0
POINT
  5
71B
  8
DEFPOINTS
 62
     0
 10
765.0692951831138
 20
1007.902099044401
 30
0.0
  0
ENDBLK
  5
712
  8
0
  0
BLOCK
  8
0
  2
*D8
 70
     1
 10
0.0
 20
0.0
 30
0.0
  3
*D8
  1

  0
LINE
  5
754
  8
DIMENSIONS
  6
BYBLOCK
 62
     0
 10
45.06929518311383
 20
1122.902099044401
 30
0.0
 11
45.06929518311381
 21
1211.762099044401
 31
0.0
  0
LINE
  5
755
  8
DIMENSIONS
  6
BYBLOCK
 62
     0
 10
745.0692951831138
 20
1122.902099044401
 30
0.0
 11
745.0692951831138
 21
1211.762099044401
 31
0.0
  0
LINE
  5
756
  8
DIMENSIONS
  6
BYBLOCK
 62
     0
 10
50.06929518311381
 20
1211.582099044401
 30
0.0
 11
740.0692951831138
 21
1211.582099044401
 31
0.0
  0
SOLID
  5
757
  8
DIMENSIONS
 62
     0
 10
50.06929518311381
 20
1212.415432377734
 30
0.0
 11
50.06929518311381
 21
1210.748765711068
 31
0.0
 12
45.06929518311381
 22
1211.582099044401
 32
0.0
 13
45.06929518311381
 23
1211.582099044401
 33
0.0
  0
SOLID
  5
758
  8
DIMENSIONS
 62
     0
 10
740.0692951831138
 20
1210.748765711068
 30
0.0
 11
740.0692951831138
 21
1212.415432377734
 31
0.0
 12
745.0692951831138
 22
1211.582099044401
 32
0.0
 13
745.0692951831138
 23
1211.582099044401
 33
0.0
  0
TEXT
  5
759
  8
DIMENSIONS
  6
CONTINUOUS
 62
     5
 10
377.6717951831138
 20
1213.977099044401
 30
0.0
 40
5.0
  1
700 [27.56]
  0
POINT
  5
75A
  8
DEFPOINTS
 62
     0
 10
45.06929518311383
 20
1121.402099044401
 30
0.0
  0
POINT
  5
75B
  8
DEFPOINTS
 62
     0
 10
745.0692951831138
 20
1121.402099044401
 30
0.0
  0
POINT
  5
75C
  8
DEFPOINTS
 62
     0
 10
745.0692951831138
 20
1211.582099044401
 30
0.0
  0
ENDBLK
  5
753
  8
0
  0
BLOCK
  8
0
  2
*D9
 70
     1
 10
0.0
 20
0.0
 30
0.0
  3
*D9
  1

  0
LINE
  5
796
  8
DIMENSIONS
  6
BYBLOCK
 62
     0
 10
640.0692951831138
 20
1007.902099044401
 30
0.0
 11
765.2492951831138
 21
1007.902099044401
 31
0.0
  0
LINE
  5
797
  8
DIMENSIONS
  6
BYBLOCK
 62
     0
 10
638.5692951831138
 20
753.9020990444005
 30
0.0
 11
765.2492951831138
 21
753.9020990444005
 31
0.0
  0
LINE
  5
798
  8
DIMENSIONS
  6
BYBLOCK
 62
     0
 10
765.0692951831138
 20
1002.902099044401
 30
0.0
 11
765.0692951831138
 21
758.9020990444005
 31
0.0
  0
SOLID
  5
799
  8
DIMENSIONS
 62
     0
 10
765.9026285164472
 20
1002.902099044401
 30
0.0
 11
764.2359618497804
 21
1002.902099044401
 31
0.0
 12
765.0692951831138
 22
1007.902099044401
 32
0.0
 13
765.0692951831138
 23
1007.902099044401
 33
0.0
  0
SOLID
  5
79A
  8
DIMENSIONS
 62
     0
 10
764.2359618497804
 20
758.9020990444005
 30
0.0
 11
765.9026285164472
 21
758.9020990444005
 31
0.0
 12
765.0692951831138
 22
753.9020990444005
 32
0.0
 13
765.0692951831138
 23
753.9020990444005
 33
0.0
  0
TEXT
  5
79B
  8
DIMENSIONS
  6
CONTINUOUS
 62
     5
 10
762.6742951831139
 20
863.5670990444005
 30
0.0
 40
5.0
  1
254 [10.00]
 50
90.0
  0
POINT
  5
79C
  8
DEFPOINTS
 62
     0
 10
638.5692951831138
 20
1007.902099044401
 30
0.0
  0
POINT
  5
79D
  8
DEFPOINTS
 62
     0
 10
637.0692951831138
 20
753.9020990444005
 30
0.0
  0
POINT
  5
79E
  8
DEFPOINTS
 62
     0
 10
765.0692951831138
 20
753.9020990444005
 30
0.0
  0
ENDBLK
  5
795
  8
0
  0
BLOCK
  8
0
  2
*D10
 70
     1
 10
0.0
 20
0.0
 30
0.0
  3
*D10
  1

  0
LINE
  5
7D7
  8
DIMENSIONS
  6
BYBLOCK
 62
     0
 10
638.5692951831138
 20
753.9020990444005
 30
0.0
 11
765.2492951831138
 21
753.9020990444005
 31
0.0
  0
LINE
  5
7D8
  8
DIMENSIONS
  6
BYBLOCK
 62
     0
 10
671.5692951831138
 20
332.9020990444005
 30
0.0
 11
765.2492951831138
 21
332.9020990444005
 31
0.0
  0
LINE
  5
7D9
  8
DIMENSIONS
  6
BYBLOCK
 62
     0
 10
765.0692951831138
 20
748.9020990444005
 30
0.0
 11
765.0692951831138
 21
337.9020990444005
 31
0.0
  0
SOLID
  5
7DA
  8
DIMENSIONS
 62
     0
 10
765.9026285164472
 20
748.9020990444005
 30
0.0
 11
764.2359618497804
 21
748.9020990444005
 31
0.0
 12
765.0692951831138
 22
753.9020990444005
 32
0.0
 13
765.0692951831138
 23
753.9020990444005
 33
0.0
  0
SOLID
  5
7DB
  8
DIMENSIONS
 62
     0
 10
764.2359618497804
 20
337.9020990444005
 30
0.0
 11
765.9026285164472
 21
337.9020990444005
 31
0.0
 12
765.0692951831138
 22
332.9020990444005
 32
0.0
 13
765.0692951831138
 23
332.9020990444005
 33
0.0
  0
TEXT
  5
7DC
  8
DIMENSIONS
  6
CONTINUOUS
 62
     5
 10
762.6742951831139
 20
526.1245990444005
 30
0.0
 40
5.0
  1
421 [16.57]
 50
90.0
  0
POINT
  5
7DD
  8
DEFPOINTS
 62
     0
 10
637.0692951831138
 20
753.9020990444005
 30
0.0
  0
POINT
  5
7DE
  8
DEFPOINTS
 62
     0
 10
670.0692951831138
 20
332.9020990444005
 30
0.0
  0
POINT
  5
7DF
  8
DEFPOINTS
 62
     0
 10
765.0692951831138
 20
332.9020990444005
 30
0.0
  0
ENDBLK
  5
7D6
  8
0
  0
BLOCK
  8
0
  2
*D11
 70
     1
 10
0.0
 20
0.0
 30
0.0
  3
*D11
  1

  0
LINE
  5
818
  8
DIMENSIONS
  6
BYBLOCK
 62
     0
 10
671.5692951831138
 20
332.9020990444005
 30
0.0
 11
765.2492951831138
 21
332.9020990444005
 31
0.0
  0
LINE
  5
819
  8
DIMENSIONS
  6
BYBLOCK
 62
     0
 10
671.5692951831138
 20
205.9020990444006
 30
0.0
 11
765.2492951831138
 21
205.9020990444006
 31
0.0
  0
LINE
  5
81A
  8
DIMENSIONS
  6
BYBLOCK
 62
     0
 10
765.0692951831138
 20
327.9020990444005
 30
0.0
 11
765.0692951831138
 21
210.9020990444006
 31
0.0
  0
SOLID
  5
81B
  8
DIMENSIONS
 62
     0
 10
765.9026285164472
 20
327.9020990444005
 30
0.0
 11
764.2359618497804
 21
327.9020990444005
 31
0.0
 12
765.0692951831138
 22
332.9020990444005
 32
0.0
 13
765.0692951831138
 23
332.9020990444005
 33
0.0
  0
SOLID
  5
81C
  8
DIMENSIONS
 62
     0
 10
764.2359618497804
 20
210.9020990444006
 30
0.0
 11
765.9026285164472
 21
210.9020990444006
 31
0.0
 12
765.0692951831138
 22
205.9020990444006
 32
0.0
 13
765.0692951831138
 23
205.9020990444006
 33
0.0
  0
TEXT
  5
81D
  8
DIMENSIONS
  6
CONTINUOUS
 62
     5
 10
762.6742951831139
 20
253.7295990444005
 30
0.0
 40
5.0
  1
127 [5.00]
 50
90.0
  0
POINT
  5
81E
  8
DEFPOINTS
 62
     0
 10
670.0692951831138
 20
332.9020990444005
 30
0.0
  0
POINT
  5
81F
  8
DEFPOINTS
 62
     0
 10
670.0692951831138
 20
205.9020990444006
 30
0.0
  0
POINT
  5
820
  8
DEFPOINTS
 62
     0
 10
765.0692951831138
 20
205.9020990444006
 30
0.0
  0
ENDBLK
  5
817
  8
0
  0
BLOCK
  8
0
  2
*D12
 70
     1
 10
0.0
 20
0.0
 30
0.0
  3
*D12
  1

  0
LINE
  5
859
  8
DIMENSIONS
  6
BYBLOCK
 62
     0
 10
120.0692951831139
 20
334.4020990444005
 30
0.0
 11
120.0692951831138
 21
347.0593384078805
 31
0.0
  0
LINE
  5
85A
  8
DIMENSIONS
  6
BYBLOCK
 62
     0
 10
670.0692951831138
 20
334.4020990444005
 30
0.0
 11
670.0692951831138
 21
347.0593384078805
 31
0.0
  0
LINE
  5
85B
  8
DIMENSIONS
  6
BYBLOCK
 62
     0
 10
125.0692951831138
 20
346.8793384078805
 30
0.0
 11
665.0692951831138
 21
346.8793384078805
 31
0.0
  0
SOLID
  5
85C
  8
DIMENSIONS
 62
     0
 10
125.0692951831138
 20
347.7126717412138
 30
0.0
 11
125.0692951831138
 21
346.0460050745472
 31
0.0
 12
120.0692951831138
 22
346.8793384078805
 32
0.0
 13
120.0692951831138
 23
346.8793384078805
 33
0.0
  0
SOLID
  5
85D
  8
DIMENSIONS
 62
     0
 10
665.0692951831138
 20
346.0460050745472
 30
0.0
 11
665.0692951831138
 21
347.7126717412138
 31
0.0
 12
670.0692951831138
 22
346.8793384078805
 32
0.0
 13
670.0692951831138
 23
346.8793384078805
 33
0.0
  0
TEXT
  5
85E
  8
DIMENSIONS
  6
CONTINUOUS
 62
     5
 10
377.6917951831138
 20
349.2743384078805
 30
0.0
 40
5.0
  1
550 [21.65]
  0
POINT
  5
85F
  8
DEFPOINTS
 62
     0
 10
120.0692951831139
 20
332.9020990444005
 30
0.0
  0
POINT
  5
860
  8
DEFPOINTS
 62
     0
 10
670.0692951831138
 20
332.9020990444005
 30
0.0
  0
POINT
  5
861
  8
DEFPOINTS
 62
     0
 10
670.0692951831138
 20
346.8793384078805
 30
0.0
  0
ENDBLK
  5
858
  8
0
  0
BLOCK
  8
0
  2
*D13
 70
     1
 10
0.0
 20
0.0
 30
0.0
  3
*D13
  1

  0
LINE
  5
8DD
  8
DIMENSIONS
  6
BYBLOCK
 62
     0
 10
218.5692951831139
 20
1050.902099044401
 30
0.0
 11
4.889295183113858
 21
1050.902099044401
 31
0.0
  0
LINE
  5
8DE
  8
DIMENSIONS
  6
BYBLOCK
 62
     0
 10
57.56929518311386
 20
946.4020990444005
 30
0.0
 11
4.889295183113852
 21
946.4020990444005
 31
0.0
  0
LINE
  5
8DF
  8
DIMENSIONS
  6
BYBLOCK
 62
     0
 10
5.069295183113858
 20
1045.902099044401
 30
0.0
 11
5.069295183113852
 21
951.4020990444005
 31
0.0
  0
SOLID
  5
8E0
  8
DIMENSIONS
 62
     0
 10
5.902628516447191
 20
1045.902099044401
 30
0.0
 11
4.235961849780525
 21
1045.902099044401
 31
0.0
 12
5.069295183113858
 22
1050.902099044401
 32
0.0
 13
5.069295183113858
 23
1050.902099044401
 33
0.0
  0
SOLID
  5
8E1
  8
DIMENSIONS
 62
     0
 10
4.235961849780518
 20
951.4020990444005
 30
0.0
 11
5.902628516447185
 21
951.4020990444005
 31
0.0
 12
5.069295183113852
 22
946.4020990444005
 32
0.0
 13
5.069295183113852
 23
946.4020990444005
 33
0.0
  0
TEXT
  5
8E2
  8
DIMENSIONS
  6
CONTINUOUS
 62
     5
 10
2.674295183113827
 20
980.0695990444005
 30
0.0
 40
5.0
  1
104.5 [4.11]
 50
90.0
  0
POINT
  5
8E3
  8
DEFPOINTS
 62
     0
 10
220.0692951831139
 20
1050.902099044401
 30
0.0
  0
POINT
  5
8E4
  8
DEFPOINTS
 62
     0
 10
59.06929518311386
 20
946.4020990444005
 30
0.0
  0
POINT
  5
8E5
  8
DEFPOINTS
 62
     0
 10
5.069295183113852
 20
946.4020990444005
 30
0.0
  0
ENDBLK
  5
8DC
  8
0
  0
BLOCK
  8
0
  2
*D14
 70
     1
 10
0.0
 20
0.0
 30
0.0
  3
*D14
  1

  0
LINE
  5
91E
  8
DIMENSIONS
  6
BYBLOCK
 62
     0
 10
57.56929518311386
 20
946.4020990444005
 30
0.0
 11
4.889295183113849
 21
946.4020990444005
 31
0.0
  0
LINE
  5
91F
  8
DIMENSIONS
  6
BYBLOCK
 62
     0
 10
57.56929518311386
 20
296.4020990444005
 30
0.0
 11
4.889295183113809
 21
296.4020990444005
 31
0.0
  0
LINE
  5
920
  8
DIMENSIONS
  6
BYBLOCK
 62
     0
 10
5.069295183113849
 20
941.4020990444005
 30
0.0
 11
5.069295183113809
 21
301.4020990444005
 31
0.0
  0
SOLID
  5
921
  8
DIMENSIONS
 62
     0
 10
5.902628516447182
 20
941.4020990444005
 30
0.0
 11
4.235961849780516
 21
941.4020990444005
 31
0.0
 12
5.069295183113849
 22
946.4020990444005
 32
0.0
 13
5.069295183113849
 23
946.4020990444005
 33
0.0
  0
SOLID
  5
922
  8
DIMENSIONS
 62
     0
 10
4.235961849780476
 20
301.4020990444005
 30
0.0
 11
5.902628516447142
 21
301.4020990444005
 31
0.0
 12
5.069295183113809
 22
296.4020990444005
 32
0.0
 13
5.069295183113809
 23
296.4020990444005
 33
0.0
  0
TEXT
  5
923
  8
DIMENSIONS
  6
CONTINUOUS
 62
     5
 10
2.674295183113827
 20
604.0395990444005
 30
0.0
 40
5.0
  1
650 [25.59]
 50
90.0
  0
POINT
  5
924
  8
DEFPOINTS
 62
     0
 10
59.06929518311386
 20
946.4020990444005
 30
0.0
  0
POINT
  5
925
  8
DEFPOINTS
 62
     0
 10
59.06929518311386
 20
296.4020990444005
 30
0.0
  0
POINT
  5
926
  8
DEFPOINTS
 62
     0
 10
5.069295183113809
 20
296.4020990444005
 30
0.0
  0
ENDBLK
  5
91D
  8
0
  0
BLOCK
  8
0
  2
*D15
 70
     1
 10
0.0
 20
0.0
 30
0.0
  3
*D15
  1

  0
LINE
  5
95F
  8
DIMENSIONS
  6
BYBLOCK
 62
     0
 10
57.56929518311386
 20
296.4020990444005
 30
0.0
 11
4.889295183113811
 21
296.4020990444005
 31
0.0
  0
LINE
  5
960
  8
DIMENSIONS
  6
BYBLOCK
 62
     0
 10
193.5692951831139
 20
156.4020990444006
 30
0.0
 11
4.889295183113802
 21
156.4020990444006
 31
0.0
  0
LINE
  5
961
  8
DIMENSIONS
  6
BYBLOCK
 62
     0
 10
5.069295183113811
 20
291.4020990444005
 30
0.0
 11
5.069295183113802
 21
161.4020990444006
 31
0.0
  0
SOLID
  5
962
  8
DIMENSIONS
 62
     0
 10
5.902628516447144
 20
291.4020990444005
 30
0.0
 11
4.235961849780478
 21
291.4020990444005
 31
0.0
 12
5.069295183113811
 22
296.4020990444005
 32
0.0
 13
5.069295183113811
 23
296.4020990444005
 33
0.0
  0
SOLID
  5
963
  8
DIMENSIONS
 62
     0
 10
4.235961849780469
 20
161.4020990444006
 30
0.0
 11
5.902628516447135
 21
161.4020990444006
 31
0.0
 12
5.069295183113802
 22
156.4020990444006
 32
0.0
 13
5.069295183113802
 23
156.4020990444006
 33
0.0
  0
TEXT
  5
964
  8
DIMENSIONS
  6
CONTINUOUS
 62
     5
 10
2.674295183113856
 20
210.7295990444005
 30
0.0
 40
5.0
  1
140 [5.51]
 50
90.0
  0
POINT
  5
965
  8
DEFPOINTS
 62
     0
 10
59.06929518311386
 20
296.4020990444005
 30
0.0
  0
POINT
  5
966
  8
DEFPOINTS
 62
     0
 10
195.0692951831139
 20
156.4020990444006
 30
0.0
  0
POINT
  5
967
  8
DEFPOINTS
 62
     0
 10
5.069295183113802
 20
156.4020990444006
 30
0.0
  0
ENDBLK
  5
95E
  8
0
  0
BLOCK
  8
0
  2
*D16
 70
     1
 10
0.0
 20
0.0
 30
0.0
  3
*D16
  1

  0
LINE
  5
9A1
  8
DIMENSIONS
  6
BYBLOCK
 62
     0
 10
691.5692951831138
 20
1060.902099044401
 30
0.0
 11
788.1730408306997
 21
1060.902099044401
 31
0.0
  0
LINE
  5
9A2
  8
DIMENSIONS
  6
BYBLOCK
 62
     0
 10
691.5692951831138
 20
181.9020990444006
 30
0.0
 11
788.1730408306997
 21
181.9020990444006
 31
0.0
  0
LINE
  5
9A3
  8
DIMENSIONS
  6
BYBLOCK
 62
     0
 10
787.9930408306998
 20
1055.902099044401
 30
0.0
 11
787.9930408306998
 21
186.9020990444006
 31
0.0
  0
SOLID
  5
9A4
  8
DIMENSIONS
 62
     0
 10
788.8263741640332
 20
1055.902099044401
 30
0.0
 11
787.1597074973664
 21
1055.902099044401
 31
0.0
 12
787.9930408306998
 22
1060.902099044401
 32
0.0
 13
787.9930408306998
 23
1060.902099044401
 33
0.0
  0
SOLID
  5
9A5
  8
DIMENSIONS
 62
     0
 10
787.1597074973664
 20
186.9020990444006
 30
0.0
 11
788.8263741640332
 21
186.9020990444006
 31
0.0
 12
787.9930408306998
 22
181.9020990444006
 32
0.0
 13
787.9930408306998
 23
181.9020990444006
 33
0.0
  0
TEXT
  5
9A6
  8
DIMENSIONS
  6
CONTINUOUS
 62
     5
 10
785.5980408306997
 20
604.0270990444005
 30
0.0
 40
5.0
  1
879 [34.61]
 50
90.0
  0
POINT
  5
9A7
  8
DEFPOINTS
 62
     0
 10
690.0692951831138
 20
1060.902099044401
 30
0.0
  0
POINT
  5
9A8
  8
DEFPOINTS
 62
     0
 10
690.0692951831138
 20
181.9020990444006
 30
0.0
  0
POINT
  5
9A9
  8
DEFPOINTS
 62
     0
 10
787.9930408306998
 20
181.9020990444006
 30
0.0
  0
ENDBLK
  5
9A0
  8
0
  0
BLOCK
  8
0
  2
*D17
 70
     1
 10
0.0
 20
0.0
 30
0.0
  3
*D17
  1

  0
LINE
  5
9E2
  8
DIMENSIONS
  6
BYBLOCK
 62
     0
 10
746.5692951831138
 20
1121.402099044401
 30
0.0
 11
811.0967864782857
 21
1121.402099044401
 31
0.0
  0
LINE
  5
9E3
  8
DIMENSIONS
  6
BYBLOCK
 62
     0
 10
746.5692951831138
 20
121.4020990444006
 30
0.0
 11
811.0967864782856
 21
121.4020990444006
 31
0.0
  0
LINE
  5
9E4
  8
DIMENSIONS
  6
BYBLOCK
 62
     0
 10
810.9167864782858
 20
1116.402099044401
 30
0.0
 11
810.9167864782856
 21
126.4020990444006
 31
0.0
  0
SOLID
  5
9E5
  8
DIMENSIONS
 62
     0
 10
811.7501198116191
 20
1116.402099044401
 30
0.0
 11
810.0834531449524
 21
1116.402099044401
 31
0.0
 12
810.9167864782858
 22
1121.402099044401
 32
0.0
 13
810.9167864782858
 23
1121.402099044401
 33
0.0
  0
SOLID
  5
9E6
  8
DIMENSIONS
 62
     0
 10
810.0834531449523
 20
126.4020990444006
 30
0.0
 11
811.750119811619
 21
126.4020990444006
 31
0.0
 12
810.9167864782856
 22
121.4020990444006
 32
0.0
 13
810.9167864782856
 23
121.4020990444006
 33
0.0
  0
TEXT
  5
9E7
  8
DIMENSIONS
  6
CONTINUOUS
 62
     5
 10
808.5217864782858
 20
601.8495990444005
 30
0.0
 40
5.0
  1
1000 [39.37]
 50
90.0
  0
POINT
  5
9E8
  8
DEFPOINTS
 62
     0
 10
745.0692951831138
 20
1121.402099044401
 30
0.0
  0
POINT
  5
9E9
  8
DEFPOINTS
 62
     0
 10
745.0692951831138
 20
121.4020990444006
 30
0.0
  0
POINT
  5
9EA
  8
DEFPOINTS
 62
     0
 10
810.9167864782856
 20
121.4020990444006
 30
0.0
  0
ENDBLK
  5
9E1
  8
0
  0
BLOCK
  8
0
  2
*D18
 70
     1
 10
0.0
 20
0.0
 30
0.0
  3
*D18
  1

  0
LINE
  5
A23
  8
DIMENSIONS
  6
BYBLOCK
 62
     0
 10
193.5692951831139
 20
1086.402099044401
 30
0.0
 11
4.889295183113861
 21
1086.402099044401
 31
0.0
  0
LINE
  5
A24
  8
DIMENSIONS
  6
BYBLOCK
 62
     0
 10
218.5692951831139
 20
1050.902099044401
 30
0.0
 11
4.889295183113859
 21
1050.902099044401
 31
0.0
  0
LINE
  5
A25
  8
DIMENSIONS
  6
BYBLOCK
 62
     0
 10
5.06929518311386
 20
1081.402099044401
 30
0.0
 11
5.069295183113859
 21
1055.902099044401
 31
0.0
  0
SOLID
  5
A26
  8
DIMENSIONS
 62
     0
 10
5.902628516447193
 20
1081.402099044401
 30
0.0
 11
4.235961849780527
 21
1081.402099044401
 31
0.0
 12
5.06929518311386
 22
1086.402099044401
 32
0.0
 13
5.06929518311386
 23
1086.402099044401
 33
0.0
  0
SOLID
  5
A27
  8
DIMENSIONS
 62
     0
 10
4.235961849780526
 20
1055.902099044401
 30
0.0
 11
5.902628516447192
 21
1055.902099044401
 31
0.0
 12
5.069295183113859
 22
1050.902099044401
 32
0.0
 13
5.069295183113859
 23
1050.902099044401
 33
0.0
  0
TEXT
  5
A28
  8
DIMENSIONS
  6
CONTINUOUS
 62
     5
 10
2.6742951831136
 20
1052.242099044401
 30
0.0
 40
5.0
  1
35.5 [1.40]
 50
90.0
  0
POINT
  5
A29
  8
DEFPOINTS
 62
     0
 10
195.0692951831139
 20
1086.402099044401
 30
0.0
  0
POINT
  5
A2A
  8
DEFPOINTS
 62
     0
 10
220.0692951831139
 20
1050.902099044401
 30
0.0
  0
POINT
  5
A2B
  8
DEFPOINTS
 62
     0
 10
5.069295183113859
 20
1050.902099044401
 30
0.0
  0
ENDBLK
  5
A22
  8
0
  0
BLOCK
  8
0
  2
*D19
 70
     1
 10
0.0
 20
0.0
 30
0.0
  3
*D19
  1

  0
LINE
  5
A64
  8
DIMENSIONS
  6
BYBLOCK
 62
     0
 10
218.5692951831139
 20
1050.902099044401
 30
0.0
 11
24.88929518311385
 21
1050.902099044401
 31
0.0
  0
LINE
  5
A65
  8
DIMENSIONS
  6
BYBLOCK
 62
     0
 10
218.5692951831139
 20
710.9020990444005
 30
0.0
 11
24.88929518311383
 21
710.9020990444005
 31
0.0
  0
LINE
  5
A66
  8
DIMENSIONS
  6
BYBLOCK
 62
     0
 10
25.06929518311385
 20
1045.902099044401
 30
0.0
 11
25.06929518311383
 21
715.9020990444005
 31
0.0
  0
SOLID
  5
A67
  8
DIMENSIONS
 62
     0
 10
25.90262851644718
 20
1045.902099044401
 30
0.0
 11
24.23596184978052
 21
1045.902099044401
 31
0.0
 12
25.06929518311385
 22
1050.902099044401
 32
0.0
 13
25.06929518311385
 23
1050.902099044401
 33
0.0
  0
SOLID
  5
A68
  8
DIMENSIONS
 62
     0
 10
24.2359618497805
 20
715.9020990444005
 30
0.0
 11
25.90262851644716
 21
715.9020990444005
 31
0.0
 12
25.06929518311383
 22
710.9020990444005
 32
0.0
 13
25.06929518311383
 23
710.9020990444005
 33
0.0
  0
TEXT
  5
A69
  8
DIMENSIONS
  6
CONTINUOUS
 62
     5
 10
22.67429518311383
 20
863.5220990444005
 30
0.0
 40
5.0
  1
340 [13.39]
 50
90.0
  0
POINT
  5
A6A
  8
DEFPOINTS
 62
     0
 10
220.0692951831139
 20
1050.902099044401
 30
0.0
  0
POINT
  5
A6B
  8
DEFPOINTS
 62
     0
 10
220.0692951831139
 20
710.9020990444005
 30
0.0
  0
POINT
  5
A6C
  8
DEFPOINTS
 62
     0
 10
25.06929518311383
 20
710.9020990444005
 30
0.0
  0
ENDBLK
  5
A63
  8
0
  0
BLOCK
  8
0
  2
*D20
 70
     1
 10
0.0
 20
0.0
 30
0.0
  3
*D20
  1

  0
LINE
  5
AA6
  8
DIMENSIONS
  6
BYBLOCK
 62
     0
 10
218.5692951831139
 20
710.9020990444005
 30
0.0
 11
24.88929518311382
 21
710.9020990444005
 31
0.0
  0
LINE
  5
AA7
  8
DIMENSIONS
  6
BYBLOCK
 62
     0
 10
218.5692951831139
 20
361.9020990444005
 30
0.0
 11
24.8892951831138
 21
361.9020990444005
 31
0.0
  0
LINE
  5
AA8
  8
DIMENSIONS
  6
BYBLOCK
 62
     0
 10
25.06929518311382
 20
705.9020990444005
 30
0.0
 11
25.0692951831138
 21
366.9020990444005
 31
0.0
  0
SOLID
  5
AA9
  8
DIMENSIONS
 62
     0
 10
25.90262851644716
 20
705.9020990444005
 30
0.0
 11
24.23596184978049
 21
705.9020990444005
 31
0.0
 12
25.06929518311382
 22
710.9020990444005
 32
0.0
 13
25.06929518311382
 23
710.9020990444005
 33
0.0
  0
SOLID
  5
AAA
  8
DIMENSIONS
 62
     0
 10
24.23596184978047
 20
366.9020990444005
 30
0.0
 11
25.90262851644713
 21
366.9020990444005
 31
0.0
 12
25.0692951831138
 22
361.9020990444005
 32
0.0
 13
25.0692951831138
 23
361.9020990444005
 33
0.0
  0
TEXT
  5
AAB
  8
DIMENSIONS
  6
CONTINUOUS
 62
     5
 10
22.67429518311383
 20
519.0220990444005
 30
0.0
 40
5.0
  1
349 [13.74]
 50
90.0
  0
POINT
  5
AAC
  8
DEFPOINTS
 62
     0
 10
220.0692951831139
 20
710.9020990444005
 30
0.0
  0
POINT
  5
AAD
  8
DEFPOINTS
 62
     0
 10
220.0692951831139
 20
361.9020990444005
 30
0.0
  0
POINT
  5
AAE
  8
DEFPOINTS
 62
     0
 10
25.0692951831138
 20
361.9020990444005
 30
0.0
  0
ENDBLK
  5
AA5
  8
0
  0
BLOCK
  8
0
  2
*D21
 70
     1
 10
0.0
 20
0.0
 30
0.0
  3
*D21
  1

  0
LINE
  5
AE7
  8
DIMENSIONS
  6
BYBLOCK
 62
     0
 10
218.5692951831139
 20
361.9020990444005
 30
0.0
 11
24.8892951831138
 21
361.9020990444005
 31
0.0
  0
LINE
  5
AE8
  8
DIMENSIONS
  6
BYBLOCK
 62
     0
 10
218.5692951831139
 20
191.9020990444006
 30
0.0
 11
24.88929518311379
 21
191.9020990444006
 31
0.0
  0
LINE
  5
AE9
  8
DIMENSIONS
  6
BYBLOCK
 62
     0
 10
25.0692951831138
 20
356.9020990444005
 30
0.0
 11
25.06929518311379
 21
196.9020990444006
 31
0.0
  0
SOLID
  5
AEA
  8
DIMENSIONS
 62
     0
 10
25.90262851644713
 20
356.9020990444005
 30
0.0
 11
24.23596184978047
 21
356.9020990444005
 31
0.0
 12
25.0692951831138
 22
361.9020990444005
 32
0.0
 13
25.0692951831138
 23
361.9020990444005
 33
0.0
  0
SOLID
  5
AEB
  8
DIMENSIONS
 62
     0
 10
24.23596184978046
 20
196.9020990444006
 30
0.0
 11
25.90262851644712
 21
196.9020990444006
 31
0.0
 12
25.06929518311379
 22
191.9020990444006
 32
0.0
 13
25.06929518311379
 23
191.9020990444006
 33
0.0
  0
TEXT
  5
AEC
  8
DIMENSIONS
  6
CONTINUOUS
 62
     5
 10
22.67429518311383
 20
261.2295990444005
 30
0.0
 40
5.0
  1
170 [6.69]
 50
90.0
  0
POINT
  5
AED
  8
DEFPOINTS
 62
     0
 10
220.0692951831139
 20
361.9020990444005
 30
0.0
  0
POINT
  5
AEE
  8
DEFPOINTS
 62
     0
 10
220.0692951831139
 20
191.9020990444006
 30
0.0
  0
POINT
  5
AEF
  8
DEFPOINTS
 62
     0
 10
25.06929518311379
 20
191.9020990444006
 30
0.0
  0
ENDBLK
  5
AE6
  8
0
  0
BLOCK
  8
0
  2
*D22
 70
     1
 10
0.0
 20
0.0
 30
0.0
  3
*D22
  1

  0
LINE
  5
B4A
  8
DIMENSIONS
 62
     0
 10
563.9503361992298
 20
368.5019733578662
 30
0.0
 11
536.4796097832482
 21
398.1317424284865
 31
0.0
  0
TEXT
  5
B4B
  8
DIMENSIONS
  6
CONTINUOUS
 62
     5
 10
538.784091938162
 20
399.2864662039775
 30
0.0
 40
5.0
  1
Ø8 [Ø0.31]
 50
312.8346049635999
  0
SOLID
  5
B4C
  8
DIMENSIONS
 62
     0
 10
563.3392367257608
 20
367.9354030815807
 30
0.0
 11
564.5614356726988
 21
369.0685436341518
 31
0.0
 12
567.3497578569431
 22
364.8353765170519
 32
0.0
 13
567.3497578569431
 23
364.8353765170519
 33
0.0
  0
POINT
  5
B4D
  8
DEFPOINTS
 62
     0
 10
567.3497578569431
 20
364.8353765170519
 30
0.0
  0
POINT
  5
B4E
  8
DEFPOINTS
 62
     0
 10
572.7888325092845
 20
358.9688215717491
 30
0.0
  0
ENDBLK
  5
B49
  8
0
  0
BLOCK
  8
0
  2
*D23
 70
     1
 10
0.0
 20
0.0
 30
0.0
  3
*D23
  1

  0
LINE
  5
BB9
  8
DIMENSIONS
  6
BYBLOCK
 62
     0
 10
730.4857558139536
 20
1074.002906976744
 30
0.0
 11
804.1657558139535
 21
1074.002906976744
 31
0.0
  0
LINE
  5
BBA
  8
DIMENSIONS
  6
BYBLOCK
 62
     0
 10
677.4857558139536
 20
1064.002906976744
 30
0.0
 11
804.1657558139535
 21
1064.002906976744
 31
0.0
  0
LINE
  5
BBB
  8
DIMENSIONS
  6
BYBLOCK
 62
     0
 10
803.9857558139536
 20
1079.002906976744
 30
0.0
 11
803.9857558139536
 21
1084.002906976744
 31
0.0
  0
LINE
  5
BBC
  8
DIMENSIONS
  6
BYBLOCK
 62
     0
 10
803.9857558139536
 20
1059.002906976744
 30
0.0
 11
803.9857558139536
 21
1054.002906976744
 31
0.0
  0
SOLID
  5
BBD
  8
DIMENSIONS
 62
     0
 10
803.1524224806202
 20
1079.002906976744
 30
0.0
 11
804.819089147287
 21
1079.002906976744
 31
0.0
 12
803.9857558139536
 22
1074.002906976744
 32
0.0
 13
803.9857558139536
 23
1074.002906976744
 33
0.0
  0
SOLID
  5
BBE
  8
DIMENSIONS
 62
     0
 10
804.819089147287
 20
1059.002906976744
 30
0.0
 11
803.1524224806202
 21
1059.002906976744
 31
0.0
 12
803.9857558139536
 22
1064.002906976744
 32
0.0
 13
803.9857558139536
 23
1064.002906976744
 33
0.0
  0
TEXT
  5
BBF
  8
DIMENSIONS
  6
CONTINUOUS
 62
     5
 10
801.4816908612027
 20
1077.556523777299
 30
0.0
 40
5.0
  1
10 [0.39]
 50
90.0
  0
POINT
  5
BC0
  8
DEFPOINTS
 62
     0
 10
728.9857558139536
 20
1074.002906976744
 30
0.0
  0
POINT
  5
BC1
  8
DEFPOINTS
 62
     0
 10
675.9857558139536
 20
1064.002906976744
 30
0.0
  0
POINT
  5
BC3
  8
DEFPOINTS
 62
     0
 10
803.9857558139536
 20
1064.002906976744
 30
0.0
  0
ENDBLK
  5
BB8
  8
0
  0
BLOCK
  8
0
  2
*D24
 70
     1
 10
0.0
 20
0.0
 30
0.0
  3
*D24
  1

  0
LINE
  5
BC8
  8
DIMENSIONS
  6
BYBLOCK
 62
     0
 10
710.6657558139535
 20
219.0029069767442
 30
0.0
 11
804.1657558139535
 21
219.0029069767442
 31
0.0
  0
LINE
  5
BC9
  8
DIMENSIONS
  6
BYBLOCK
 62
     0
 10
730.4857558139536
 20
195.0029069767442
 30
0.0
 11
804.1657558139535
 21
195.0029069767442
 31
0.0
  0
LINE
  5
BCA
  8
DIMENSIONS
  6
BYBLOCK
 62
     0
 10
803.9857558139536
 20
214.0029069767442
 30
0.0
 11
803.9857558139536
 21
200.0029069767442
 31
0.0
  0
SOLID
  5
BCB
  8
DIMENSIONS
 62
     0
 10
804.819089147287
 20
214.0029069767442
 30
0.0
 11
803.1524224806202
 21
214.0029069767442
 31
0.0
 12
803.9857558139536
 22
219.0029069767442
 32
0.0
 13
803.9857558139536
 23
219.0029069767442
 33
0.0
  0
SOLID
  5
BCC
  8
DIMENSIONS
 62
     0
 10
803.1524224806202
 20
200.0029069767442
 30
0.0
 11
804.819089147287
 21
200.0029069767442
 31
0.0
 12
803.9857558139536
 22
195.0029069767442
 32
0.0
 13
803.9857558139536
 23
195.0029069767442
 33
0.0
  0
TEXT
  5
BCD
  8
DIMENSIONS
  6
CONTINUOUS
 62
     5
 10
817.0807558139535
 20
193.5479069767441
 30
0.0
 40
5.0
  1
24 [0.94]
 50
90.0
  0
POINT
  5
BCE
  8
DEFPOINTS
 62
     0
 10
709.1657558139535
 20
219.0029069767442
 30
0.0
  0
POINT
  5
BCF
  8
DEFPOINTS
 62
     0
 10
728.9857558139536
 20
195.0029069767442
 30
0.0
  0
POINT
  5
BD0
  8
DEFPOINTS
 62
     0
 10
803.9857558139536
 20
195.0029069767442
 30
0.0
  0
ENDBLK
  5
BC7
  8
0
  0
BLOCK
  8
0
  2
*D25
 70
     1
 10
0.0
 20
0.0
 30
0.0
  3
*D25
  1

  0
LINE
  5
BFA
  8
DIMENSIONS
  6
BYBLOCK
 62
     0
 10
1.5
 20
127.0
 30
0.0
 11
95.18000000000002
 21
127.0
 31
0.0
  0
LINE
  5
BFB
  8
DIMENSIONS
  6
BYBLOCK
 62
     0
 10
1.5
 20
0.0000000000000283
 30
0.0
 11
95.18
 21
0.0000000000000226
 31
0.0
  0
LINE
  5
BFC
  8
DIMENSIONS
  6
BYBLOCK
 62
     0
 10
95.00000000000001
 20
122.0
 30
0.0
 11
95.0
 21
5.000000000000022
 31
0.0
  0
SOLID
  5
BFD
  8
DIMENSIONS
 62
     0
 10
95.83333333333334
 20
122.0
 30
0.0
 11
94.16666666666669
 21
122.0
 31
0.0
 12
95.00000000000001
 22
127.0
 32
0.0
 13
95.00000000000001
 23
127.0
 33
0.0
  0
SOLID
  5
BFE
  8
DIMENSIONS
 62
     0
 10
94.16666666666667
 20
5.000000000000022
 30
0.0
 11
95.83333333333333
 21
5.000000000000022
 31
0.0
 12
95.0
 22
0.0000000000000226
 32
0.0
 13
95.0
 23
0.0000000000000226
 33
0.0
  0
TEXT
  5
BFF
  8
DIMENSIONS
  6
CONTINUOUS
 62
     5
 10
92.60500000000002
 20
47.8275
 30
0.0
 40
5.0
  1
127 [5.00]
 50
90.0
  0
POINT
  5
C00
  8
DEFPOINTS
 62
     0
 10
0.0
 20
127.0
 30
0.0
  0
POINT
  5
C01
  8
DEFPOINTS
 62
     0
 10
0.0
 20
0.0000000000000284
 30
0.0
  0
POINT
  5
C02
  8
DEFPOINTS
 62
     0
 10
95.0
 20
0.0000000000000226
 30
0.0
  0
ENDBLK
  5
C03
  8
0
  0
BLOCK
  8
0
  2
*D26
 70
     1
 10
0.0
 20
0.0
 30
0.0
  3
*D26
  1

  0
LINE
  5
C0B
  8
DIMENSIONS
  6
BYBLOCK
 62
     0
 10
671.5692951831138
 20
205.9020990444006
 30
0.0
 11
765.2492951831138
 21
205.9020990444006
 31
0.0
  0
LINE
  5
C0C
  8
DIMENSIONS
  6
BYBLOCK
 62
     0
 10
691.5692951831138
 20
181.9020990444006
 30
0.0
 11
765.2492951831138
 21
181.9020990444006
 31
0.0
  0
LINE
  5
C0D
  8
DIMENSIONS
  6
BYBLOCK
 62
     0
 10
765.0692951831138
 20
200.9020990444006
 30
0.0
 11
765.0692951831138
 21
186.9020990444006
 31
0.0
  0
SOLID
  5
C0E
  8
DIMENSIONS
 62
     0
 10
765.9026285164472
 20
200.9020990444006
 30
0.0
 11
764.2359618497804
 21
200.9020990444006
 31
0.0
 12
765.0692951831138
 22
205.9020990444006
 32
0.0
 13
765.0692951831138
 23
205.9020990444006
 33
0.0
  0
SOLID
  5
C0F
  8
DIMENSIONS
 62
     0
 10
764.2359618497804
 20
186.9020990444006
 30
0.0
 11
765.9026285164472
 21
186.9020990444006
 31
0.0
 12
765.0692951831138
 22
181.9020990444006
 32
0.0
 13
765.0692951831138
 23
181.9020990444006
 33
0.0
  0
TEXT
  5
C10
  8
DIMENSIONS
  6
CONTINUOUS
 62
     5
 10
762.6742951831139
 20
150.5647487112653
 30
0.0
 40
5.0
  1
24 [0.94]
 50
90.0
  0
POINT
  5
C11
  8
DEFPOINTS
 62
     0
 10
670.0692951831138
 20
205.9020990444006
 30
0.0
  0
POINT
  5
C12
  8
DEFPOINTS
 62
     0
 10
690.0692951831138
 20
181.9020990444006
 30
0.0
  0
POINT
  5
C13
  8
DEFPOINTS
 62
     0
 10
765.0692951831138
 20
181.9020990444006
 30
0.0
  0
ENDBLK
  5
C0A
  8
0
  0
BLOCK
  8
0
  2
*D27
 70
     1
 10
0.0
 20
0.0
 30
0.0
  3
*D27
  1

  0
LINE
  5
C1A
  8
DIMENSIONS
  6
BYBLOCK
 62
     0
 10
43.56929518311386
 20
1121.402099044401
 30
0.0
 11
4.879565453384133
 21
1121.402099044401
 31
0.0
  0
LINE
  5
C1B
  8
DIMENSIONS
  6
BYBLOCK
 62
     0
 10
193.5692951831139
 20
1086.402099044401
 30
0.0
 11
4.879565453384132
 21
1086.402099044401
 31
0.0
  0
LINE
  5
C1C
  8
DIMENSIONS
  6
BYBLOCK
 62
     0
 10
5.059565453384133
 20
1116.402099044401
 30
0.0
 11
5.059565453384131
 21
1091.402099044401
 31
0.0
  0
SOLID
  5
C1D
  8
DIMENSIONS
 62
     0
 10
5.892898786717466
 20
1116.402099044401
 30
0.0
 11
4.2262321200508
 21
1116.402099044401
 31
0.0
 12
5.059565453384133
 22
1121.402099044401
 32
0.0
 13
5.059565453384133
 23
1121.402099044401
 33
0.0
  0
SOLID
  5
C1E
  8
DIMENSIONS
 62
     0
 10
4.226232120050798
 20
1091.402099044401
 30
0.0
 11
5.892898786717464
 21
1091.402099044401
 31
0.0
 12
5.059565453384131
 22
1086.402099044401
 32
0.0
 13
5.059565453384131
 23
1086.402099044401
 33
0.0
  0
TEXT
  5
C1F
  8
DIMENSIONS
  6
CONTINUOUS
 62
     5
 10
2.66456545338383
 20
1090.402099044401
 30
0.0
 40
5.0
  1
35 [1.38]
 50
90.0
  0
POINT
  5
C20
  8
DEFPOINTS
 62
     0
 10
45.06929518311386
 20
1121.402099044401
 30
0.0
  0
POINT
  5
C21
  8
DEFPOINTS
 62
     0
 10
195.0692951831139
 20
1086.402099044401
 30
0.0
  0
POINT
  5
C22
  8
DEFPOINTS
 62
     0
 10
5.059565453384131
 20
1086.402099044401
 30
0.0
  0
ENDBLK
  5
C19
  8
0
  0
BLOCK
  8
0
  2
*D28
 70
     1
 10
0.0
 20
0.0
 30
0.0
  3
*D28
  1

  0
LINE
  5
C27
  8
DIMENSIONS
  6
BYBLOCK
 62
     0
 10
43.57902491284353
 20
156.4020990444005
 30
0.0
 11
4.889295183113804
 21
156.4020990444005
 31
0.0
  0
LINE
  5
C28
  8
DIMENSIONS
  6
BYBLOCK
 62
     0
 10
43.56929518311386
 20
121.4020990444006
 30
0.0
 11
4.889295183113802
 21
121.4020990444006
 31
0.0
  0
LINE
  5
C29
  8
DIMENSIONS
  6
BYBLOCK
 62
     0
 10
5.069295183113804
 20
151.4020990444005
 30
0.0
 11
5.069295183113802
 21
126.4020990444006
 31
0.0
  0
SOLID
  5
C2A
  8
DIMENSIONS
 62
     0
 10
5.902628516447137
 20
151.4020990444005
 30
0.0
 11
4.235961849780471
 21
151.4020990444005
 31
0.0
 12
5.069295183113804
 22
156.4020990444005
 32
0.0
 13
5.069295183113804
 23
156.4020990444005
 33
0.0
  0
SOLID
  5
C2B
  8
DIMENSIONS
 62
     0
 10
4.235961849780469
 20
126.4020990444006
 30
0.0
 11
5.902628516447135
 21
126.4020990444006
 31
0.0
 12
5.069295183113802
 22
121.4020990444006
 32
0.0
 13
5.069295183113802
 23
121.4020990444006
 33
0.0
  0
TEXT
  5
C2C
  8
DIMENSIONS
  6
CONTINUOUS
 62
     5
 10
2.674295183113856
 20
125.4020990444006
 30
0.0
 40
5.0
  1
35 [1.38]
 50
90.0
  0
POINT
  5
C2D
  8
DEFPOINTS
 62
     0
 10
45.07902491284353
 20
156.4020990444005
 30
0.0
  0
POINT
  5
C2E
  8
DEFPOINTS
 62
     0
 10
45.06929518311386
 20
121.4020990444006
 30
0.0
  0
POINT
  5
C2F
  8
DEFPOINTS
 62
     0
 10
5.069295183113802
 20
121.4020990444006
 30
0.0
  0
ENDBLK
  5
C26
  8
0
  0
BLOCK
  8
0
  2
*D29
 70
     1
 10
0.0
 20
0.0
 30
0.0
  3
*D29
  1

  0
LINE
  5
C36
  8
DIMENSIONS
 62
     0
 10
36.57156732883846
 20
1130.832906742388
 30
0.0
 11
36.59068722022995
 21
1152.911514659641
 31
0.0
  0
LINE
  5
C37
  8
DIMENSIONS
 62
     0
 10
850.6671216870737
 20
1130.127906742388
 30
0.0
 11
850.6862415784652
 21
1152.206514659641
 31
0.0
  0
LINE
  5
C38
  8
DIMENSIONS
 62
     0
 10
39.08960379357372
 20
1151.659350149895
 30
0.0
 11
848.1851600266621
 21
1150.958680106813
 31
0.0
  0
SOLID
  5
C39
  8
DIMENSIONS
 62
     0
 10
39.08996462331696
 20
1152.076016660324
 30
0.0
 11
39.08924296383047
 21
1151.242683639466
 31
0.0
 12
36.58960473100024
 22
1151.661515128354
 32
0.0
 13
36.58960473100024
 23
1151.661515128354
 33
0.0
  0
SOLID
  5
C3A
  8
DIMENSIONS
 62
     0
 10
848.1847991969188
 20
1150.542013596384
 30
0.0
 11
848.1855208564053
 21
1151.375346617242
 31
0.0
 12
850.6851590892355
 22
1150.956515128354
 32
0.0
 13
850.6851590892355
 23
1150.956515128354
 33
0.0
  0
TEXT
  5
C3B
  8
DIMENSIONS
  6
CONTINUOUS
 62
     0
 10
439.522101198962
 20
1152.430079346358
 30
0.0
 40
2.5
  1
814,1
 50
359.9503823424131
  0
POINT
  5
C3C
  8
DEFPOINTS
 62
     0
 10
36.5710260842236
 20
1130.207906976744
 30
0.0
  0
POINT
  5
C3D
  8
DEFPOINTS
 62
     0
 10
850.6665804424589
 20
1129.502906976744
 30
0.0
  0
POINT
  5
C3E
  8
DEFPOINTS
 62
     0
 10
850.6851590892355
 20
1150.956515128354
 30
0.0
  0
ENDBLK
  5
C35
  8
0
  0
BLOCK
  8
0
  2
*D30
 70
     1
 10
0.0
 20
0.0
 30
0.0
  3
*D30
  1

  0
LINE
  5
C45
  8
DIMENSIONS
 62
     0
 10
-48.98543454661615
 20
1245.491592355728
 30
0.0
 11
-48.98543454661615
 21
1291.216877528243
 31
0.0
  0
LINE
  5
C46
  8
DIMENSIONS
 62
     0
 10
858.3904042707148
 20
1245.491592355728
 30
0.0
 11
858.3904042707148
 21
1291.216877528243
 31
0.0
  0
LINE
  5
C47
  8
DIMENSIONS
 62
     0
 10
-46.48543454661615
 20
1289.966877528243
 30
0.0
 11
855.8904042707148
 21
1289.966877528243
 31
0.0
  0
SOLID
  5
C48
  8
DIMENSIONS
 62
     0
 10
-46.48543454661615
 20
1290.38354419491
 30
0.0
 11
-46.48543454661615
 21
1289.550210861577
 31
0.0
 12
-48.98543454661615
 22
1289.966877528243
 32
0.0
 13
-48.98543454661615
 23
1289.966877528243
 33
0.0
  0
SOLID
  5
C49
  8
DIMENSIONS
 62
     0
 10
855.8904042707148
 20
1289.550210861577
 30
0.0
 11
855.8904042707148
 21
1290.38354419491
 31
0.0
 12
858.3904042707148
 22
1289.966877528243
 32
0.0
 13
858.3904042707148
 23
1289.966877528243
 33
0.0
  0
TEXT
  5
C4A
  8
DIMENSIONS
  6
CONTINUOUS
 62
     0
 10
399.3712348620494
 20
1291.084377528244
 30
0.0
 40
2.5
  1
907,38
  0
POINT
  5
C4B
  8
DEFPOINTS
 62
     0
 10
-48.98543454661615
 20
1244.866592355728
 30
0.0
  0
POINT
  5
C4C
  8
DEFPOINTS
 62
     0
 10
858.3904042707148
 20
1244.866592355728
 30
0.0
  0
POINT
  5
C4D
  8
DEFPOINTS
 62
     0
 10
858.3904042707148
 20
1289.966877528243
 30
0.0
  0
ENDBLK
  5
C44
  8
0
  0
BLOCK
  8
0
  2
*X31
 70
     1
 10
0.0
 20
0.0
 30
0.0
  3
*X31
  1

  0
LINE
  5
C54
  8
MOUNTING_INS
  6
CONTINUOUS
 10
70.84359888549682
 20
121.4020990444005
 30
0.0
 11
45.06929518311381
 21
147.1764027467836
 31
0.0
1001
ACAD
1010
0.0
1020
0.0
1030
0.0
  0
LINE
  5
C55
  8
MOUNTING_INS
  6
CONTINUOUS
 10
101.3764696971321
 20
121.4020990444006
 30
0.0
 11
45.06929518311381
 21
177.7092735584188
 31
0.0
1001
ACAD
1010
0.0
1020
0.0
1030
0.0
  0
LINE
  5
C56
  8
MOUNTING_INS
  6
CONTINUOUS
 10
131.9093405087672
 20
121.4020990444005
 30
0.0
 11
45.06929518311381
 21
208.2421443700539
 31
0.0
1001
ACAD
1010
0.0
1020
0.0
1030
0.0
  0
LINE
  5
C57
  8
MOUNTING_INS
  6
CONTINUOUS
 10
162.4422113204022
 20
121.4020990444005
 30
0.0
 11
106.5422113204022
 21
177.3020990444006
 31
0.0
1001
ACAD
1010
0.0
1020
0.0
1030
0.0
  0
LINE
  5
C58
  8
MOUNTING_INS
  6
CONTINUOUS
 10
192.9750821320373
 20
121.4020990444006
 30
0.0
 11
137.0750821320373
 21
177.3020990444006
 31
0.0
1001
ACAD
1010
0.0
1020
0.0
1030
0.0
  0
LINE
  5
C59
  8
MOUNTING_INS
  6
CONTINUOUS
 10
223.5079529436724
 20
121.4020990444006
 30
0.0
 11
167.6079529436724
 21
177.3020990444006
 31
0.0
1001
ACAD
1010
0.0
1020
0.0
1030
0.0
  0
LINE
  5
C5A
  8
MOUNTING_INS
  6
CONTINUOUS
 10
254.0408237553074
 20
121.4020990444006
 30
0.0
 11
198.1408237553075
 21
177.3020990444006
 31
0.0
1001
ACAD
1010
0.0
1020
0.0
1030
0.0
  0
LINE
  5
C5B
  8
MOUNTING_INS
  6
CONTINUOUS
 10
284.5736945669425
 20
121.4020990444006
 30
0.0
 11
228.6736945669425
 21
177.3020990444006
 31
0.0
1001
ACAD
1010
0.0
1020
0.0
1030
0.0
  0
LINE
  5
C5C
  8
MOUNTING_INS
  6
CONTINUOUS
 10
315.1065653785777
 20
121.4020990444006
 30
0.0
 11
259.2065653785776
 21
177.3020990444006
 31
0.0
1001
ACAD
1010
0.0
1020
0.0
1030
0.0
  0
LINE
  5
C5D
  8
MOUNTING_INS
  6
CONTINUOUS
 10
345.6394361902127
 20
121.4020990444006
 30
0.0
 11
289.7394361902127
 21
177.3020990444006
 31
0.0
1001
ACAD
1010
0.0
1020
0.0
1030
0.0
  0
LINE
  5
C5E
  8
MOUNTING_INS
  6
CONTINUOUS
 10
376.1723070018478
 20
121.4020990444005
 30
0.0
 11
320.2723070018478
 21
177.3020990444006
 31
0.0
1001
ACAD
1010
0.0
1020
0.0
1030
0.0
  0
LINE
  5
C5F
  8
MOUNTING_INS
  6
CONTINUOUS
 10
406.7051778134828
 20
121.4020990444006
 30
0.0
 11
350.8051778134828
 21
177.3020990444006
 31
0.0
1001
ACAD
1010
0.0
1020
0.0
1030
0.0
  0
LINE
  5
C60
  8
MOUNTING_INS
  6
CONTINUOUS
 10
437.2380486251179
 20
121.4020990444006
 30
0.0
 11
381.3380486251179
 21
177.3020990444006
 31
0.0
1001
ACAD
1010
0.0
1020
0.0
1030
0.0
  0
LINE
  5
C61
  8
MOUNTING_INS
  6
CONTINUOUS
 10
467.770919436753
 20
121.4020990444006
 30
0.0
 11
411.8709194367531
 21
177.3020990444006
 31
0.0
1001
ACAD
1010
0.0
1020
0.0
1030
0.0
  0
LINE
  5
C62
  8
MOUNTING_INS
  6
CONTINUOUS
 10
498.3037902483881
 20
121.4020990444005
 30
0.0
 11
442.4037902483881
 21
177.3020990444006
 31
0.0
1001
ACAD
1010
0.0
1020
0.0
1030
0.0
  0
LINE
  5
C63
  8
MOUNTING_INS
  6
CONTINUOUS
 10
528.8366610600232
 20
121.4020990444006
 30
0.0
 11
472.9366610600232
 21
177.3020990444006
 31
0.0
1001
ACAD
1010
0.0
1020
0.0
1030
0.0
  0
LINE
  5
C64
  8
MOUNTING_INS
  6
CONTINUOUS
 10
559.3695318716584
 20
121.4020990444005
 30
0.0
 11
503.4695318716584
 21
177.3020990444005
 31
0.0
1001
ACAD
1010
0.0
1020
0.0
1030
0.0
  0
LINE
  5
C65
  8
MOUNTING_INS
  6
CONTINUOUS
 10
589.9024026832934
 20
121.4020990444006
 30
0.0
 11
534.0024026832934
 21
177.3020990444006
 31
0.0
1001
ACAD
1010
0.0
1020
0.0
1030
0.0
  0
LINE
  5
C66
  8
MOUNTING_INS
  6
CONTINUOUS
 10
620.4352734949285
 20
121.4020990444006
 30
0.0
 11
564.5352734949286
 21
177.3020990444006
 31
0.0
1001
ACAD
1010
0.0
1020
0.0
1030
0.0
  0
LINE
  5
C67
  8
MOUNTING_INS
  6
CONTINUOUS
 10
650.9681443065638
 20
121.4020990444005
 30
0.0
 11
595.0681443065637
 21
177.3020990444006
 31
0.0
1001
ACAD
1010
0.0
1020
0.0
1030
0.0
  0
LINE
  5
C68
  8
MOUNTING_INS
  6
CONTINUOUS
 10
681.5010151181989
 20
121.4020990444005
 30
0.0
 11
625.6010151181988
 21
177.3020990444006
 31
0.0
1001
ACAD
1010
0.0
1020
0.0
1030
0.0
  0
LINE
  5
C69
  8
MOUNTING_INS
  6
CONTINUOUS
 10
712.0338859298339
 20
121.4020990444006
 30
0.0
 11
656.1338859298339
 21
177.3020990444006
 31
0.0
1001
ACAD
1010
0.0
1020
0.0
1030
0.0
  0
LINE
  5
C6A
  8
MOUNTING_INS
  6
CONTINUOUS
 10
742.566756741469
 20
121.4020990444006
 30
0.0
 11
686.666756741469
 21
177.3020990444006
 31
0.0
1001
ACAD
1010
0.0
1020
0.0
1030
0.0
  0
LINE
  5
C6B
  8
MOUNTING_INS
  6
CONTINUOUS
 10
77.06929518311392
 20
206.7750151816888
 30
0.0
 11
45.06929518311381
 21
238.775015181689
 31
0.0
1001
ACAD
1010
0.0
1020
0.0
1030
0.0
  0
LINE
  5
C6C
  8
MOUNTING_INS
  6
CONTINUOUS
 10
77.06929518311392
 20
237.3078859933239
 30
0.0
 11
45.06929518311381
 21
269.3078859933241
 31
0.0
1001
ACAD
1010
0.0
1020
0.0
1030
0.0
  0
LINE
  5
C6D
  8
MOUNTING_INS
  6
CONTINUOUS
 10
77.06929518311398
 20
267.840756804959
 30
0.0
 11
45.06929518311381
 21
299.8407568049592
 31
0.0
1001
ACAD
1010
0.0
1020
0.0
1030
0.0
  0
LINE
  5
C6E
  8
MOUNTING_INS
  6
CONTINUOUS
 10
77.06929518311392
 20
298.3736276165941
 30
0.0
 11
45.06929518311381
 21
330.3736276165942
 31
0.0
1001
ACAD
1010
0.0
1020
0.0
1030
0.0
  0
LINE
  5
C6F
  8
MOUNTING_INS
  6
CONTINUOUS
 10
77.06929518311392
 20
328.9064984282292
 30
0.0
 11
45.06929518311381
 21
360.9064984282293
 31
0.0
1001
ACAD
1010
0.0
1020
0.0
1030
0.0
  0
LINE
  5
C70
  8
MOUNTING_INS
  6
CONTINUOUS
 10
77.06929518311392
 20
359.4393692398643
 30
0.0
 11
45.06929518311381
 21
391.4393692398644
 31
0.0
1001
ACAD
1010
0.0
1020
0.0
1030
0.0
  0
LINE
  5
C71
  8
MOUNTING_INS
  6
CONTINUOUS
 10
77.06929518311392
 20
389.9722400514994
 30
0.0
 11
45.06929518311381
 21
421.9722400514995
 31
0.0
1001
ACAD
1010
0.0
1020
0.0
1030
0.0
  0
LINE
  5
C72
  8
MOUNTING_INS
  6
CONTINUOUS
 10
77.06929518311392
 20
420.5051108631345
 30
0.0
 11
45.06929518311381
 21
452.5051108631346
 31
0.0
1001
ACAD
1010
0.0
1020
0.0
1030
0.0
  0
LINE
  5
C73
  8
MOUNTING_INS
  6
CONTINUOUS
 10
77.06929518311392
 20
451.0379816747695
 30
0.0
 11
45.06929518311381
 21
483.0379816747697
 31
0.0
1001
ACAD
1010
0.0
1020
0.0
1030
0.0
  0
LINE
  5
C74
  8
MOUNTING_INS
  6
CONTINUOUS
 10
77.06929518311392
 20
481.5708524864046
 30
0.0
 11
45.06929518311381
 21
513.5708524864048
 31
0.0
1001
ACAD
1010
0.0
1020
0.0
1030
0.0
  0
LINE
  5
C75
  8
MOUNTING_INS
  6
CONTINUOUS
 10
77.06929518311392
 20
512.1037232980398
 30
0.0
 11
45.06929518311381
 21
544.1037232980399
 31
0.0
1001
ACAD
1010
0.0
1020
0.0
1030
0.0
  0
LINE
  5
C76
  8
MOUNTING_INS
  6
CONTINUOUS
 10
77.06929518311392
 20
542.6365941096748
 30
0.0
 11
45.06929518311381
 21
574.6365941096749
 31
0.0
1001
ACAD
1010
0.0
1020
0.0
1030
0.0
  0
LINE
  5
C77
  8
MOUNTING_INS
  6
CONTINUOUS
 10
77.06929518311392
 20
573.1694649213099
 30
0.0
 11
45.06929518311381
 21
605.16946492131
 31
0.0
1001
ACAD
1010
0.0
1020
0.0
1030
0.0
  0
LINE
  5
C78
  8
MOUNTING_INS
  6
CONTINUOUS
 10
77.06929518311392
 20
603.7023357329451
 30
0.0
 11
45.06929518311381
 21
635.7023357329452
 31
0.0
1001
ACAD
1010
0.0
1020
0.0
1030
0.0
  0
LINE
  5
C79
  8
MOUNTING_INS
  6
CONTINUOUS
 10
77.06929518311392
 20
634.2352065445801
 30
0.0
 11
45.06929518311381
 21
666.2352065445804
 31
0.0
1001
ACAD
1010
0.0
1020
0.0
1030
0.0
  0
LINE
  5
C7A
  8
MOUNTING_INS
  6
CONTINUOUS
 10
77.06929518311392
 20
664.7680773562153
 30
0.0
 11
45.06929518311381
 21
696.7680773562154
 31
0.0
1001
ACAD
1010
0.0
1020
0.0
1030
0.0
  0
LINE
  5
C7B
  8
MOUNTING_INS
  6
CONTINUOUS
 10
77.06929518311392
 20
695.3009481678505
 30
0.0
 11
45.06929518311381
 21
727.3009481678505
 31
0.0
1001
ACAD
1010
0.0
1020
0.0
1030
0.0
  0
LINE
  5
C7C
  8
MOUNTING_INS
  6
CONTINUOUS
 10
77.06929518311387
 20
725.8338189794856
 30
0.0
 11
45.06929518311381
 21
757.8338189794857
 31
0.0
1001
ACAD
1010
0.0
1020
0.0
1030
0.0
  0
LINE
  5
C7D
  8
MOUNTING_INS
  6
CONTINUOUS
 10
77.06929518311392
 20
756.3666897911207
 30
0.0
 11
45.06929518311375
 21
788.3666897911208
 31
0.0
1001
ACAD
1010
0.0
1020
0.0
1030
0.0
  0
LINE
  5
C7E
  8
MOUNTING_INS
  6
CONTINUOUS
 10
77.06929518311392
 20
786.8995606027559
 30
0.0
 11
45.06929518311381
 21
818.899560602756
 31
0.0
1001
ACAD
1010
0.0
1020
0.0
1030
0.0
  0
LINE
  5
C7F
  8
MOUNTING_INS
  6
CONTINUOUS
 10
745.0692951831138
 20
149.4324314143914
 30
0.0
 11
713.0692951831138
 21
181.4324314143913
 31
0.0
1001
ACAD
1010
0.0
1020
0.0
1030
0.0
  0
LINE
  5
C80
  8
MOUNTING_INS
  6
CONTINUOUS
 10
745.0692951831138
 20
179.9653022260265
 30
0.0
 11
713.0692951831138
 21
211.9653022260264
 31
0.0
1001
ACAD
1010
0.0
1020
0.0
1030
0.0
  0
LINE
  5
C81
  8
MOUNTING_INS
  6
CONTINUOUS
 10
745.0692951831138
 20
210.4981730376616
 30
0.0
 11
713.0692951831138
 21
242.4981730376616
 31
0.0
1001
ACAD
1010
0.0
1020
0.0
1030
0.0
  0
LINE
  5
C82
  8
MOUNTING_INS
  6
CONTINUOUS
 10
745.0692951831138
 20
241.0310438492967
 30
0.0
 11
713.0692951831138
 21
273.0310438492967
 31
0.0
1001
ACAD
1010
0.0
1020
0.0
1030
0.0
  0
LINE
  5
C83
  8
MOUNTING_INS
  6
CONTINUOUS
 10
745.0692951831138
 20
271.5639146609319
 30
0.0
 11
713.0692951831138
 21
303.5639146609318
 31
0.0
1001
ACAD
1010
0.0
1020
0.0
1030
0.0
  0
LINE
  5
C84
  8
MOUNTING_INS
  6
CONTINUOUS
 10
745.0692951831138
 20
302.0967854725669
 30
0.0
 11
713.0692951831138
 21
334.0967854725669
 31
0.0
1001
ACAD
1010
0.0
1020
0.0
1030
0.0
  0
LINE
  5
C85
  8
MOUNTING_INS
  6
CONTINUOUS
 10
745.0692951831138
 20
332.6296562842021
 30
0.0
 11
713.0692951831138
 21
364.629656284202
 31
0.0
1001
ACAD
1010
0.0
1020
0.0
1030
0.0
  0
LINE
  5
C86
  8
MOUNTING_INS
  6
CONTINUOUS
 10
745.0692951831138
 20
363.1625270958372
 30
0.0
 11
713.0692951831139
 21
395.1625270958372
 31
0.0
1001
ACAD
1010
0.0
1020
0.0
1030
0.0
  0
LINE
  5
C87
  8
MOUNTING_INS
  6
CONTINUOUS
 10
745.0692951831138
 20
393.6953979074723
 30
0.0
 11
713.0692951831138
 21
425.6953979074722
 31
0.0
1001
ACAD
1010
0.0
1020
0.0
1030
0.0
  0
LINE
  5
C88
  8
MOUNTING_INS
  6
CONTINUOUS
 10
77.06929518311392
 20
817.4324314143914
 30
0.0
 11
45.06929518311387
 21
849.4324314143914
 31
0.0
1001
ACAD
1010
0.0
1020
0.0
1030
0.0
  0
LINE
  5
C89
  8
MOUNTING_INS
  6
CONTINUOUS
 10
77.06929518311392
 20
847.9653022260266
 30
0.0
 11
45.06929518311387
 21
879.9653022260266
 31
0.0
1001
ACAD
1010
0.0
1020
0.0
1030
0.0
  0
LINE
  5
C8A
  8
MOUNTING_INS
  6
CONTINUOUS
 10
77.06929518311398
 20
878.4981730376616
 30
0.0
 11
45.06929518311381
 21
910.4981730376617
 31
0.0
1001
ACAD
1010
0.0
1020
0.0
1030
0.0
  0
LINE
  5
C8B
  8
MOUNTING_INS
  6
CONTINUOUS
 10
77.06929518311398
 20
909.0310438492967
 30
0.0
 11
45.06929518311387
 21
941.0310438492968
 31
0.0
1001
ACAD
1010
0.0
1020
0.0
1030
0.0
  0
LINE
  5
C8C
  8
MOUNTING_INS
  6
CONTINUOUS
 10
77.06929518311398
 20
939.5639146609318
 30
0.0
 11
45.06929518311387
 21
971.5639146609319
 31
0.0
1001
ACAD
1010
0.0
1020
0.0
1030
0.0
  0
LINE
  5
C8D
  8
MOUNTING_INS
  6
CONTINUOUS
 10
77.06929518311392
 20
970.0967854725669
 30
0.0
 11
45.06929518311381
 21
1002.096785472567
 31
0.0
1001
ACAD
1010
0.0
1020
0.0
1030
0.0
  0
LINE
  5
C8E
  8
MOUNTING_INS
  6
CONTINUOUS
 10
77.06929518311398
 20
1000.629656284202
 30
0.0
 11
45.06929518311387
 21
1032.629656284202
 31
0.0
1001
ACAD
1010
0.0
1020
0.0
1030
0.0
  0
LINE
  5
C8F
  8
MOUNTING_INS
  6
CONTINUOUS
 10
77.06929518311392
 20
1031.162527095837
 30
0.0
 11
45.06929518311381
 21
1063.162527095837
 31
0.0
1001
ACAD
1010
0.0
1020
0.0
1030
0.0
  0
LINE
  5
C90
  8
MOUNTING_INS
  6
CONTINUOUS
 10
77.06929518311387
 20
1061.695397907472
 30
0.0
 11
45.06929518311381
 21
1093.695397907472
 31
0.0
1001
ACAD
1010
0.0
1020
0.0
1030
0.0
  0
LINE
  5
C91
  8
MOUNTING_INS
  6
CONTINUOUS
 10
745.0692951831138
 20
424.2282687191075
 30
0.0
 11
713.0692951831138
 21
456.2282687191074
 31
0.0
1001
ACAD
1010
0.0
1020
0.0
1030
0.0
  0
LINE
  5
C92
  8
MOUNTING_INS
  6
CONTINUOUS
 10
745.0692951831138
 20
454.7611395307425
 30
0.0
 11
713.0692951831138
 21
486.7611395307425
 31
0.0
1001
ACAD
1010
0.0
1020
0.0
1030
0.0
  0
LINE
  5
C93
  8
MOUNTING_INS
  6
CONTINUOUS
 10
745.0692951831138
 20
485.2940103423776
 30
0.0
 11
713.0692951831138
 21
517.2940103423775
 31
0.0
1001
ACAD
1010
0.0
1020
0.0
1030
0.0
  0
LINE
  5
C94
  8
MOUNTING_INS
  6
CONTINUOUS
 10
745.0692951831138
 20
515.8268811540128
 30
0.0
 11
713.0692951831138
 21
547.8268811540128
 31
0.0
1001
ACAD
1010
0.0
1020
0.0
1030
0.0
  0
LINE
  5
C95
  8
MOUNTING_INS
  6
CONTINUOUS
 10
745.0692951831138
 20
546.3597519656479
 30
0.0
 11
713.0692951831138
 21
578.3597519656478
 31
0.0
1001
ACAD
1010
0.0
1020
0.0
1030
0.0
  0
LINE
  5
C96
  8
MOUNTING_INS
  6
CONTINUOUS
 10
745.0692951831138
 20
576.892622777283
 30
0.0
 11
713.0692951831138
 21
608.892622777283
 31
0.0
1001
ACAD
1010
0.0
1020
0.0
1030
0.0
  0
LINE
  5
C97
  8
MOUNTING_INS
  6
CONTINUOUS
 10
745.0692951831138
 20
607.4254935889182
 30
0.0
 11
713.0692951831138
 21
639.4254935889181
 31
0.0
1001
ACAD
1010
0.0
1020
0.0
1030
0.0
  0
LINE
  5
C98
  8
MOUNTING_INS
  6
CONTINUOUS
 10
745.0692951831138
 20
637.9583644005533
 30
0.0
 11
713.0692951831138
 21
669.9583644005533
 31
0.0
1001
ACAD
1010
0.0
1020
0.0
1030
0.0
  0
LINE
  5
C99
  8
MOUNTING_INS
  6
CONTINUOUS
 10
745.0692951831138
 20
668.4912352121885
 30
0.0
 11
713.0692951831138
 21
700.4912352121884
 31
0.0
1001
ACAD
1010
0.0
1020
0.0
1030
0.0
  0
LINE
  5
C9A
  8
MOUNTING_INS
  6
CONTINUOUS
 10
745.0692951831138
 20
699.0241060238235
 30
0.0
 11
713.0692951831138
 21
731.0241060238235
 31
0.0
1001
ACAD
1010
0.0
1020
0.0
1030
0.0
  0
LINE
  5
C9B
  8
MOUNTING_INS
  6
CONTINUOUS
 10
745.0692951831138
 20
729.5569768354586
 30
0.0
 11
713.0692951831138
 21
761.5569768354585
 31
0.0
1001
ACAD
1010
0.0
1020
0.0
1030
0.0
  0
LINE
  5
C9C
  8
MOUNTING_INS
  6
CONTINUOUS
 10
745.0692951831138
 20
760.0898476470936
 30
0.0
 11
713.0692951831138
 21
792.0898476470936
 31
0.0
1001
ACAD
1010
0.0
1020
0.0
1030
0.0
  0
LINE
  5
C9D
  8
MOUNTING_INS
  6
CONTINUOUS
 10
745.0692951831138
 20
790.6227184587287
 30
0.0
 11
713.0692951831138
 21
822.6227184587287
 31
0.0
1001
ACAD
1010
0.0
1020
0.0
1030
0.0
  0
LINE
  5
C9E
  8
MOUNTING_INS
  6
CONTINUOUS
 10
745.0692951831138
 20
821.1555892703639
 30
0.0
 11
713.0692951831138
 21
853.1555892703637
 31
0.0
1001
ACAD
1010
0.0
1020
0.0
1030
0.0
  0
LINE
  5
C9F
  8
MOUNTING_INS
  6
CONTINUOUS
 10
745.0692951831138
 20
851.688460081999
 30
0.0
 11
713.0692951831138
 21
883.6884600819989
 31
0.0
1001
ACAD
1010
0.0
1020
0.0
1030
0.0
  0
LINE
  5
CA0
  8
MOUNTING_INS
  6
CONTINUOUS
 10
745.0692951831138
 20
882.221330893634
 30
0.0
 11
713.0692951831138
 21
914.2213308936339
 31
0.0
1001
ACAD
1010
0.0
1020
0.0
1030
0.0
  0
LINE
  5
CA1
  8
MOUNTING_INS
  6
CONTINUOUS
 10
745.0692951831138
 20
912.7542017052691
 30
0.0
 11
713.0692951831138
 21
944.754201705269
 31
0.0
1001
ACAD
1010
0.0
1020
0.0
1030
0.0
  0
LINE
  5
CA2
  8
MOUNTING_INS
  6
CONTINUOUS
 10
745.0692951831138
 20
943.2870725169042
 30
0.0
 11
713.0692951831138
 21
975.2870725169041
 31
0.0
1001
ACAD
1010
0.0
1020
0.0
1030
0.0
  0
LINE
  5
CA3
  8
MOUNTING_INS
  6
CONTINUOUS
 10
745.0692951831138
 20
973.8199433285392
 30
0.0
 11
713.0692951831138
 21
1005.819943328539
 31
0.0
1001
ACAD
1010
0.0
1020
0.0
1030
0.0
  0
LINE
  5
CA4
  8
MOUNTING_INS
  6
CONTINUOUS
 10
745.0692951831138
 20
1004.352814140174
 30
0.0
 11
713.0692951831138
 21
1036.352814140174
 31
0.0
1001
ACAD
1010
0.0
1020
0.0
1030
0.0
  0
LINE
  5
CA5
  8
MOUNTING_INS
  6
CONTINUOUS
 10
103.7954648578204
 20
1065.502099044401
 30
0.0
 11
47.89546485782074
 21
1121.402099044401
 31
0.0
1001
ACAD
1010
0.0
1020
0.0
1030
0.0
  0
LINE
  5
CA6
  8
MOUNTING_INS
  6
CONTINUOUS
 10
134.3283356694556
 20
1065.502099044401
 30
0.0
 11
78.42833566945592
 21
1121.402099044401
 31
0.0
1001
ACAD
1010
0.0
1020
0.0
1030
0.0
  0
LINE
  5
CA7
  8
MOUNTING_INS
  6
CONTINUOUS
 10
164.8612064810906
 20
1065.502099044401
 30
0.0
 11
108.961206481091
 21
1121.402099044401
 31
0.0
1001
ACAD
1010
0.0
1020
0.0
1030
0.0
  0
LINE
  5
CA8
  8
MOUNTING_INS
  6
CONTINUOUS
 10
195.3940772927258
 20
1065.502099044401
 30
0.0
 11
139.4940772927261
 21
1121.402099044401
 31
0.0
1001
ACAD
1010
0.0
1020
0.0
1030
0.0
  0
LINE
  5
CA9
  8
MOUNTING_INS
  6
CONTINUOUS
 10
225.9269481043609
 20
1065.502099044401
 30
0.0
 11
170.0269481043613
 21
1121.402099044401
 31
0.0
1001
ACAD
1010
0.0
1020
0.0
1030
0.0
  0
LINE
  5
CAA
  8
MOUNTING_INS
  6
CONTINUOUS
 10
256.459818915996
 20
1065.502099044401
 30
0.0
 11
200.5598189159964
 21
1121.402099044401
 31
0.0
1001
ACAD
1010
0.0
1020
0.0
1030
0.0
  0
LINE
  5
CAB
  8
MOUNTING_INS
  6
CONTINUOUS
 10
286.9926897276312
 20
1065.502099044401
 30
0.0
 11
231.0926897276315
 21
1121.402099044401
 31
0.0
1001
ACAD
1010
0.0
1020
0.0
1030
0.0
  0
LINE
  5
CAC
  8
MOUNTING_INS
  6
CONTINUOUS
 10
317.5255605392663
 20
1065.502099044401
 30
0.0
 11
261.6255605392666
 21
1121.402099044401
 31
0.0
1001
ACAD
1010
0.0
1020
0.0
1030
0.0
  0
LINE
  5
CAD
  8
MOUNTING_INS
  6
CONTINUOUS
 10
348.0584313509013
 20
1065.502099044401
 30
0.0
 11
292.1584313509018
 21
1121.402099044401
 31
0.0
1001
ACAD
1010
0.0
1020
0.0
1030
0.0
  0
LINE
  5
CAE
  8
MOUNTING_INS
  6
CONTINUOUS
 10
378.5913021625365
 20
1065.502099044401
 30
0.0
 11
322.6913021625368
 21
1121.402099044401
 31
0.0
1001
ACAD
1010
0.0
1020
0.0
1030
0.0
  0
LINE
  5
CAF
  8
MOUNTING_INS
  6
CONTINUOUS
 10
409.1241729741715
 20
1065.502099044401
 30
0.0
 11
353.2241729741719
 21
1121.402099044401
 31
0.0
1001
ACAD
1010
0.0
1020
0.0
1030
0.0
  0
LINE
  5
CB0
  8
MOUNTING_INS
  6
CONTINUOUS
 10
439.6570437858066
 20
1065.502099044401
 30
0.0
 11
383.757043785807
 21
1121.402099044401
 31
0.0
1001
ACAD
1010
0.0
1020
0.0
1030
0.0
  0
LINE
  5
CB1
  8
MOUNTING_INS
  6
CONTINUOUS
 10
470.1899145974417
 20
1065.502099044401
 30
0.0
 11
414.289914597442
 21
1121.402099044401
 31
0.0
1001
ACAD
1010
0.0
1020
0.0
1030
0.0
  0
LINE
  5
CB2
  8
MOUNTING_INS
  6
CONTINUOUS
 10
500.7227854090768
 20
1065.502099044401
 30
0.0
 11
444.8227854090771
 21
1121.402099044401
 31
0.0
1001
ACAD
1010
0.0
1020
0.0
1030
0.0
  0
LINE
  5
CB3
  8
MOUNTING_INS
  6
CONTINUOUS
 10
531.2556562207119
 20
1065.502099044401
 30
0.0
 11
475.3556562207123
 21
1121.402099044401
 31
0.0
1001
ACAD
1010
0.0
1020
0.0
1030
0.0
  0
LINE
  5
CB4
  8
MOUNTING_INS
  6
CONTINUOUS
 10
561.7885270323469
 20
1065.502099044401
 30
0.0
 11
505.8885270323473
 21
1121.402099044401
 31
0.0
1001
ACAD
1010
0.0
1020
0.0
1030
0.0
  0
LINE
  5
CB5
  8
MOUNTING_INS
  6
CONTINUOUS
 10
592.321397843982
 20
1065.502099044401
 30
0.0
 11
536.4213978439824
 21
1121.402099044401
 31
0.0
1001
ACAD
1010
0.0
1020
0.0
1030
0.0
  0
LINE
  5
CB6
  8
MOUNTING_INS
  6
CONTINUOUS
 10
622.8542686556171
 20
1065.502099044401
 30
0.0
 11
566.9542686556175
 21
1121.402099044401
 31
0.0
1001
ACAD
1010
0.0
1020
0.0
1030
0.0
  0
LINE
  5
CB7
  8
MOUNTING_INS
  6
CONTINUOUS
 10
653.3871394672523
 20
1065.502099044401
 30
0.0
 11
597.4871394672526
 21
1121.402099044401
 31
0.0
1001
ACAD
1010
0.0
1020
0.0
1030
0.0
  0
LINE
  5
CB8
  8
MOUNTING_INS
  6
CONTINUOUS
 10
683.9200102788874
 20
1065.502099044401
 30
0.0
 11
628.0200102788878
 21
1121.402099044401
 31
0.0
1001
ACAD
1010
0.0
1020
0.0
1030
0.0
  0
LINE
  5
CB9
  8
MOUNTING_INS
  6
CONTINUOUS
 10
745.0692951831138
 20
1034.88568495181
 30
0.0
 11
658.5528810905231
 21
1121.402099044401
 31
0.0
1001
ACAD
1010
0.0
1020
0.0
1030
0.0
  0
LINE
  5
CBA
  8
MOUNTING_INS
  6
CONTINUOUS
 10
745.0692951831138
 20
1065.418555763445
 30
0.0
 11
689.0857519021582
 21
1121.402099044401
 31
0.0
1001
ACAD
1010
0.0
1020
0.0
1030
0.0
  0
LINE
  5
CBB
  8
MOUNTING_INS
  6
CONTINUOUS
 10
745.0692951831138
 20
1095.95142657508
 30
0.0
 11
719.6186227137935
 21
1121.402099044401
 31
0.0
1001
ACAD
1010
0.0
1020
0.0
1030
0.0
  0
ENDBLK
  5
D05
  8
0
  0
BLOCK
  8
0
  2
*X32
 70
     1
 10
0.0
 20
0.0
 30
0.0
  3
*X32
  1

  0
LINE
  5
CBD
  8
MOUNTING_INS
  6
CONTINUOUS
 10
153.0692951831139
 20
1007.313575050239
 30
0.0
 11
153.657819177275
 21
1007.902099044401
 31
0.0
1001
ACAD
1010
0.0
1020
0.0
1030
0.0
  0
LINE
  5
CBE
  8
MOUNTING_INS
  6
CONTINUOUS
 10
153.0692951831139
 20
987.1079987778337
 30
0.0
 11
173.8633954496806
 21
1007.902099044401
 31
0.0
1001
ACAD
1010
0.0
1020
0.0
1030
0.0
  0
LINE
  5
CBF
  8
MOUNTING_INS
  6
CONTINUOUS
 10
153.0692951831139
 20
966.9024225054281
 30
0.0
 11
194.0689717220862
 21
1007.902099044401
 31
0.0
1001
ACAD
1010
0.0
1020
0.0
1030
0.0
  0
LINE
  5
CC0
  8
MOUNTING_INS
  6
CONTINUOUS
 10
153.0692951831139
 20
946.6968462330226
 30
0.0
 11
214.2745479944919
 21
1007.902099044401
 31
0.0
1001
ACAD
1010
0.0
1020
0.0
1030
0.0
  0
LINE
  5
CC1
  8
MOUNTING_INS
  6
CONTINUOUS
 10
153.0692951831139
 20
926.4912699606169
 30
0.0
 11
234.4801242668975
 21
1007.902099044401
 31
0.0
1001
ACAD
1010
0.0
1020
0.0
1030
0.0
  0
LINE
  5
CC2
  8
MOUNTING_INS
  6
CONTINUOUS
 10
153.0692951831139
 20
906.2856936882113
 30
0.0
 11
254.6857005393031
 21
1007.902099044401
 31
0.0
1001
ACAD
1010
0.0
1020
0.0
1030
0.0
  0
LINE
  5
CC3
  8
MOUNTING_INS
  6
CONTINUOUS
 10
153.0692951831139
 20
886.0801174158056
 30
0.0
 11
274.8912768117087
 21
1007.902099044401
 31
0.0
1001
ACAD
1010
0.0
1020
0.0
1030
0.0
  0
LINE
  5
CC4
  8
MOUNTING_INS
  6
CONTINUOUS
 10
153.0692951831139
 20
865.8745411433999
 30
0.0
 11
295.0968530841144
 21
1007.902099044401
 31
0.0
1001
ACAD
1010
0.0
1020
0.0
1030
0.0
  0
LINE
  5
CC5
  8
MOUNTING_INS
  6
CONTINUOUS
 10
153.0692951831139
 20
845.6689648709944
 30
0.0
 11
315.3024293565201
 21
1007.902099044401
 31
0.0
1001
ACAD
1010
0.0
1020
0.0
1030
0.0
  0
LINE
  5
CC6
  8
MOUNTING_INS
  6
CONTINUOUS
 10
153.0692951831139
 20
825.4633885985887
 30
0.0
 11
335.5080056289256
 21
1007.902099044401
 31
0.0
1001
ACAD
1010
0.0
1020
0.0
1030
0.0
  0
LINE
  5
CC7
  8
MOUNTING_INS
  6
CONTINUOUS
 10
153.0692951831139
 20
805.2578123261831
 30
0.0
 11
355.7135819013313
 21
1007.902099044401
 31
0.0
1001
ACAD
1010
0.0
1020
0.0
1030
0.0
  0
LINE
  5
CC8
  8
MOUNTING_INS
  6
CONTINUOUS
 10
153.0692951831139
 20
785.0522360537775
 30
0.0
 11
375.9191581737369
 21
1007.902099044401
 31
0.0
1001
ACAD
1010
0.0
1020
0.0
1030
0.0
  0
LINE
  5
CC9
  8
MOUNTING_INS
  6
CONTINUOUS
 10
153.0692951831139
 20
764.846659781372
 30
0.0
 11
396.1247344461425
 21
1007.902099044401
 31
0.0
1001
ACAD
1010
0.0
1020
0.0
1030
0.0
  0
LINE
  5
CCA
  8
MOUNTING_INS
  6
CONTINUOUS
 10
162.3303107185477
 20
753.9020990444005
 30
0.0
 11
416.3303107185477
 21
1007.902099044401
 31
0.0
1001
ACAD
1010
0.0
1020
0.0
1030
0.0
  0
LINE
  5
CCB
  8
MOUNTING_INS
  6
CONTINUOUS
 10
182.5358869909533
 20
753.9020990444005
 30
0.0
 11
436.5358869909533
 21
1007.902099044401
 31
0.0
1001
ACAD
1010
0.0
1020
0.0
1030
0.0
  0
LINE
  5
CCC
  8
MOUNTING_INS
  6
CONTINUOUS
 10
202.7414632633589
 20
753.9020990444005
 30
0.0
 11
456.7414632633588
 21
1007.902099044401
 31
0.0
1001
ACAD
1010
0.0
1020
0.0
1030
0.0
  0
LINE
  5
CCD
  8
MOUNTING_INS
  6
CONTINUOUS
 10
222.9470395357644
 20
753.9020990444005
 30
0.0
 11
476.9470395357644
 21
1007.902099044401
 31
0.0
1001
ACAD
1010
0.0
1020
0.0
1030
0.0
  0
LINE
  5
CCE
  8
MOUNTING_INS
  6
CONTINUOUS
 10
243.15261580817
 20
753.9020990444005
 30
0.0
 11
497.15261580817
 21
1007.902099044401
 31
0.0
1001
ACAD
1010
0.0
1020
0.0
1030
0.0
  0
LINE
  5
CCF
  8
MOUNTING_INS
  6
CONTINUOUS
 10
263.3581920805756
 20
753.9020990444005
 30
0.0
 11
517.3581920805756
 21
1007.902099044401
 31
0.0
1001
ACAD
1010
0.0
1020
0.0
1030
0.0
  0
LINE
  5
CD0
  8
MOUNTING_INS
  6
CONTINUOUS
 10
283.5637683529812
 20
753.9020990444005
 30
0.0
 11
537.5637683529811
 21
1007.902099044401
 31
0.0
1001
ACAD
1010
0.0
1020
0.0
1030
0.0
  0
LINE
  5
CD1
  8
MOUNTING_INS
  6
CONTINUOUS
 10
303.7693446253868
 20
753.9020990444005
 30
0.0
 11
557.7693446253868
 21
1007.902099044401
 31
0.0
1001
ACAD
1010
0.0
1020
0.0
1030
0.0
  0
LINE
  5
CD2
  8
MOUNTING_INS
  6
CONTINUOUS
 10
323.9749208977923
 20
753.9020990444005
 30
0.0
 11
577.9749208977923
 21
1007.902099044401
 31
0.0
1001
ACAD
1010
0.0
1020
0.0
1030
0.0
  0
LINE
  5
CD3
  8
MOUNTING_INS
  6
CONTINUOUS
 10
344.180497170198
 20
753.9020990444005
 30
0.0
 11
598.1804971701979
 21
1007.902099044401
 31
0.0
1001
ACAD
1010
0.0
1020
0.0
1030
0.0
  0
LINE
  5
CD4
  8
MOUNTING_INS
  6
CONTINUOUS
 10
364.3860734426036
 20
753.9020990444005
 30
0.0
 11
618.3860734426034
 21
1007.902099044401
 31
0.0
1001
ACAD
1010
0.0
1020
0.0
1030
0.0
  0
LINE
  5
CD5
  8
MOUNTING_INS
  6
CONTINUOUS
 10
384.5916497150092
 20
753.9020990444005
 30
0.0
 11
637.0692951831138
 21
1006.379744512505
 31
0.0
1001
ACAD
1010
0.0
1020
0.0
1030
0.0
  0
LINE
  5
CD6
  8
MOUNTING_INS
  6
CONTINUOUS
 10
404.7972259874148
 20
753.9020990444005
 30
0.0
 11
637.0692951831138
 21
986.1741682400996
 31
0.0
1001
ACAD
1010
0.0
1020
0.0
1030
0.0
  0
LINE
  5
CD7
  8
MOUNTING_INS
  6
CONTINUOUS
 10
425.0028022598204
 20
753.9020990444005
 30
0.0
 11
637.0692951831138
 21
965.968591967694
 31
0.0
1001
ACAD
1010
0.0
1020
0.0
1030
0.0
  0
LINE
  5
CD8
  8
MOUNTING_INS
  6
CONTINUOUS
 10
445.208378532226
 20
753.9020990444005
 30
0.0
 11
637.0692951831138
 21
945.7630156952885
 31
0.0
1001
ACAD
1010
0.0
1020
0.0
1030
0.0
  0
LINE
  5
CD9
  8
MOUNTING_INS
  6
CONTINUOUS
 10
465.4139548046315
 20
753.9020990444005
 30
0.0
 11
637.0692951831138
 21
925.5574394228829
 31
0.0
1001
ACAD
1010
0.0
1020
0.0
1030
0.0
  0
LINE
  5
CDA
  8
MOUNTING_INS
  6
CONTINUOUS
 10
485.6195310770372
 20
753.9020990444005
 30
0.0
 11
637.0692951831138
 21
905.3518631504772
 31
0.0
1001
ACAD
1010
0.0
1020
0.0
1030
0.0
  0
LINE
  5
CDB
  8
MOUNTING_INS
  6
CONTINUOUS
 10
505.8251073494428
 20
753.9020990444005
 30
0.0
 11
637.0692951831138
 21
885.1462868780716
 31
0.0
1001
ACAD
1010
0.0
1020
0.0
1030
0.0
  0
LINE
  5
CDC
  8
MOUNTING_INS
  6
CONTINUOUS
 10
526.0306836218483
 20
753.9020990444005
 30
0.0
 11
637.0692951831138
 21
864.940710605666
 31
0.0
1001
ACAD
1010
0.0
1020
0.0
1030
0.0
  0
LINE
  5
CDD
  8
MOUNTING_INS
  6
CONTINUOUS
 10
120.0692951831139
 20
327.7351343332604
 30
0.0
 11
125.2362598942541
 21
332.9020990444006
 31
0.0
1001
ACAD
1010
0.0
1020
0.0
1030
0.0
  0
LINE
  5
CDE
  8
MOUNTING_INS
  6
CONTINUOUS
 10
120.0692951831138
 20
307.5295580608548
 30
0.0
 11
145.4418361666597
 21
332.9020990444006
 31
0.0
1001
ACAD
1010
0.0
1020
0.0
1030
0.0
  0
LINE
  5
CDF
  8
MOUNTING_INS
  6
CONTINUOUS
 10
120.0692951831139
 20
287.3239817884492
 30
0.0
 11
165.6474124390652
 21
332.9020990444006
 31
0.0
1001
ACAD
1010
0.0
1020
0.0
1030
0.0
  0
LINE
  5
CE0
  8
MOUNTING_INS
  6
CONTINUOUS
 10
120.0692951831139
 20
267.1184055160436
 30
0.0
 11
185.8529887114709
 21
332.9020990444006
 31
0.0
1001
ACAD
1010
0.0
1020
0.0
1030
0.0
  0
LINE
  5
CE1
  8
MOUNTING_INS
  6
CONTINUOUS
 10
120.0692951831139
 20
246.912829243638
 30
0.0
 11
206.0585649838764
 21
332.9020990444006
 31
0.0
1001
ACAD
1010
0.0
1020
0.0
1030
0.0
  0
LINE
  5
CE2
  8
MOUNTING_INS
  6
CONTINUOUS
 10
546.236259894254
 20
753.9020990444005
 30
0.0
 11
637.0692951831138
 21
844.7351343332605
 31
0.0
1001
ACAD
1010
0.0
1020
0.0
1030
0.0
  0
LINE
  5
CE3
  8
MOUNTING_INS
  6
CONTINUOUS
 10
566.4418361666595
 20
753.9020990444005
 30
0.0
 11
637.0692951831138
 21
824.5295580608548
 31
0.0
1001
ACAD
1010
0.0
1020
0.0
1030
0.0
  0
LINE
  5
CE4
  8
MOUNTING_INS
  6
CONTINUOUS
 10
586.6474124390651
 20
753.9020990444005
 30
0.0
 11
637.0692951831138
 21
804.3239817884493
 31
0.0
1001
ACAD
1010
0.0
1020
0.0
1030
0.0
  0
LINE
  5
CE5
  8
MOUNTING_INS
  6
CONTINUOUS
 10
606.8529887114707
 20
753.9020990444005
 30
0.0
 11
637.0692951831138
 21
784.1184055160436
 31
0.0
1001
ACAD
1010
0.0
1020
0.0
1030
0.0
  0
LINE
  5
CE6
  8
MOUNTING_INS
  6
CONTINUOUS
 10
627.0585649838763
 20
753.9020990444005
 30
0.0
 11
637.0692951831138
 21
763.912829243638
 31
0.0
1001
ACAD
1010
0.0
1020
0.0
1030
0.0
  0
LINE
  5
CE7
  8
MOUNTING_INS
  6
CONTINUOUS
 10
120.0692951831139
 20
226.7072529712324
 30
0.0
 11
226.264141256282
 21
332.9020990444006
 31
0.0
1001
ACAD
1010
0.0
1020
0.0
1030
0.0
  0
LINE
  5
CE8
  8
MOUNTING_INS
  6
CONTINUOUS
 10
120.0692951831139
 20
206.5016766988268
 30
0.0
 11
246.4697175286876
 21
332.9020990444006
 31
0.0
1001
ACAD
1010
0.0
1020
0.0
1030
0.0
  0
LINE
  5
CE9
  8
MOUNTING_INS
  6
CONTINUOUS
 10
139.6752938010932
 20
205.9020990444005
 30
0.0
 11
266.6752938010932
 21
332.9020990444006
 31
0.0
1001
ACAD
1010
0.0
1020
0.0
1030
0.0
  0
LINE
  5
CEA
  8
MOUNTING_INS
  6
CONTINUOUS
 10
159.8808700734987
 20
205.9020990444005
 30
0.0
 11
286.8808700734988
 21
332.9020990444006
 31
0.0
1001
ACAD
1010
0.0
1020
0.0
1030
0.0
  0
LINE
  5
CEB
  8
MOUNTING_INS
  6
CONTINUOUS
 10
180.0864463459043
 20
205.9020990444005
 30
0.0
 11
307.0864463459044
 21
332.9020990444006
 31
0.0
1001
ACAD
1010
0.0
1020
0.0
1030
0.0
  0
LINE
  5
CEC
  8
MOUNTING_INS
  6
CONTINUOUS
 10
200.2920226183099
 20
205.9020990444005
 30
0.0
 11
327.29202261831
 21
332.9020990444006
 31
0.0
1001
ACAD
1010
0.0
1020
0.0
1030
0.0
  0
LINE
  5
CED
  8
MOUNTING_INS
  6
CONTINUOUS
 10
220.4975988907156
 20
205.9020990444005
 30
0.0
 11
347.4975988907156
 21
332.9020990444006
 31
0.0
1001
ACAD
1010
0.0
1020
0.0
1030
0.0
  0
LINE
  5
CEE
  8
MOUNTING_INS
  6
CONTINUOUS
 10
240.7031751631211
 20
205.9020990444005
 30
0.0
 11
367.7031751631212
 21
332.9020990444006
 31
0.0
1001
ACAD
1010
0.0
1020
0.0
1030
0.0
  0
LINE
  5
CEF
  8
MOUNTING_INS
  6
CONTINUOUS
 10
260.9087514355267
 20
205.9020990444005
 30
0.0
 11
387.9087514355267
 21
332.9020990444006
 31
0.0
1001
ACAD
1010
0.0
1020
0.0
1030
0.0
  0
LINE
  5
CF0
  8
MOUNTING_INS
  6
CONTINUOUS
 10
281.1143277079323
 20
205.9020990444005
 30
0.0
 11
408.1143277079323
 21
332.9020990444006
 31
0.0
1001
ACAD
1010
0.0
1020
0.0
1030
0.0
  0
LINE
  5
CF1
  8
MOUNTING_INS
  6
CONTINUOUS
 10
301.3199039803379
 20
205.9020990444005
 30
0.0
 11
428.3199039803379
 21
332.9020990444006
 31
0.0
1001
ACAD
1010
0.0
1020
0.0
1030
0.0
  0
LINE
  5
CF2
  8
MOUNTING_INS
  6
CONTINUOUS
 10
321.5254802527435
 20
205.9020990444005
 30
0.0
 11
448.5254802527435
 21
332.9020990444006
 31
0.0
1001
ACAD
1010
0.0
1020
0.0
1030
0.0
  0
LINE
  5
CF3
  8
MOUNTING_INS
  6
CONTINUOUS
 10
341.731056525149
 20
205.9020990444005
 30
0.0
 11
468.7310565251491
 21
332.9020990444006
 31
0.0
1001
ACAD
1010
0.0
1020
0.0
1030
0.0
  0
LINE
  5
CF4
  8
MOUNTING_INS
  6
CONTINUOUS
 10
361.9366327975546
 20
205.9020990444005
 30
0.0
 11
488.9366327975547
 21
332.9020990444006
 31
0.0
1001
ACAD
1010
0.0
1020
0.0
1030
0.0
  0
LINE
  5
CF5
  8
MOUNTING_INS
  6
CONTINUOUS
 10
382.1422090699602
 20
205.9020990444005
 30
0.0
 11
509.1422090699604
 21
332.9020990444006
 31
0.0
1001
ACAD
1010
0.0
1020
0.0
1030
0.0
  0
LINE
  5
CF6
  8
MOUNTING_INS
  6
CONTINUOUS
 10
402.3477853423659
 20
205.9020990444005
 30
0.0
 11
529.3477853423659
 21
332.9020990444006
 31
0.0
1001
ACAD
1010
0.0
1020
0.0
1030
0.0
  0
LINE
  5
CF7
  8
MOUNTING_INS
  6
CONTINUOUS
 10
422.5533616147715
 20
205.9020990444005
 30
0.0
 11
549.5533616147716
 21
332.9020990444006
 31
0.0
1001
ACAD
1010
0.0
1020
0.0
1030
0.0
  0
LINE
  5
CF8
  8
MOUNTING_INS
  6
CONTINUOUS
 10
442.7589378871772
 20
205.9020990444005
 30
0.0
 11
569.7589378871772
 21
332.9020990444006
 31
0.0
1001
ACAD
1010
0.0
1020
0.0
1030
0.0
  0
LINE
  5
CF9
  8
MOUNTING_INS
  6
CONTINUOUS
 10
462.9645141595828
 20
205.9020990444005
 30
0.0
 11
589.9645141595828
 21
332.9020990444006
 31
0.0
1001
ACAD
1010
0.0
1020
0.0
1030
0.0
  0
LINE
  5
CFA
  8
MOUNTING_INS
  6
CONTINUOUS
 10
483.1700904319885
 20
205.9020990444005
 30
0.0
 11
610.1700904319885
 21
332.9020990444006
 31
0.0
1001
ACAD
1010
0.0
1020
0.0
1030
0.0
  0
LINE
  5
CFB
  8
MOUNTING_INS
  6
CONTINUOUS
 10
503.375666704394
 20
205.9020990444005
 30
0.0
 11
630.3756667043941
 21
332.9020990444006
 31
0.0
1001
ACAD
1010
0.0
1020
0.0
1030
0.0
  0
LINE
  5
CFC
  8
MOUNTING_INS
  6
CONTINUOUS
 10
523.5812429767997
 20
205.9020990444005
 30
0.0
 11
650.5812429767997
 21
332.9020990444006
 31
0.0
1001
ACAD
1010
0.0
1020
0.0
1030
0.0
  0
LINE
  5
CFD
  8
MOUNTING_INS
  6
CONTINUOUS
 10
543.786819249205
 20
205.9020990444005
 30
0.0
 11
670.0692951831138
 21
332.1845749783094
 31
0.0
1001
ACAD
1010
0.0
1020
0.0
1030
0.0
  0
LINE
  5
CFE
  8
MOUNTING_INS
  6
CONTINUOUS
 10
563.9923955216107
 20
205.9020990444005
 30
0.0
 11
670.0692951831138
 21
311.9789987059037
 31
0.0
1001
ACAD
1010
0.0
1020
0.0
1030
0.0
  0
LINE
  5
CFF
  8
MOUNTING_INS
  6
CONTINUOUS
 10
584.1979717940162
 20
205.9020990444005
 30
0.0
 11
670.0692951831138
 21
291.7734224334981
 31
0.0
1001
ACAD
1010
0.0
1020
0.0
1030
0.0
  0
LINE
  5
D00
  8
MOUNTING_INS
  6
CONTINUOUS
 10
604.4035480664219
 20
205.9020990444005
 30
0.0
 11
670.0692951831138
 21
271.5678461610925
 31
0.0
1001
ACAD
1010
0.0
1020
0.0
1030
0.0
  0
LINE
  5
D01
  8
MOUNTING_INS
  6
CONTINUOUS
 10
624.6091243388275
 20
205.9020990444005
 30
0.0
 11
670.0692951831138
 21
251.3622698886869
 31
0.0
1001
ACAD
1010
0.0
1020
0.0
1030
0.0
  0
LINE
  5
D02
  8
MOUNTING_INS
  6
CONTINUOUS
 10
644.8147006112331
 20
205.9020990444005
 30
0.0
 11
670.0692951831138
 21
231.1566936162812
 31
0.0
1001
ACAD
1010
0.0
1020
0.0
1030
0.0
  0
LINE
  5
D03
  8
MOUNTING_INS
  6
CONTINUOUS
 10
665.0202768836388
 20
205.9020990444005
 30
0.0
 11
670.0692951831138
 21
210.9511173438756
 31
0.0
1001
ACAD
1010
0.0
1020
0.0
1030
0.0
  0
ENDBLK
  5
D07
  8
0
  0
ENDSEC
  0
SECTION
  2
ENTITIES
  0
LINE
  5
181
  8
MOUNTING_INS
  6
CONTINUOUS
 62
     4
 10
745.0692951831138
 20
121.4020990444006
 30
0.0
 11
45.06929518311386
 21
121.4020990444006
 31
0.0
  0
LINE
  5
182
  8
MOUNTING_INS
  6
CONTINUOUS
 62
     4
 10
77.06929518311387
 20
177.3020990444006
 30
0.0
 11
713.0692951831138
 21
177.3020990444006
 31
0.0
  0
LINE
  5
183
  8
MOUNTING_INS
  6
CONTINUOUS
 62
     7
 10
100.0692951831139
 20
181.9020990444006
 30
0.0
 11
690.0692951831138
 21
181.9020990444006
 31
0.0
  0
LINE
  5
184
  8
MOUNTING_INS
  6
CONTINUOUS
 62
     7
 10
120.0692951831139
 20
205.9020990444006
 30
0.0
 11
670.0692951831138
 21
205.9020990444006
 31
0.0
  0
LINE
  5
185
  8
MOUNTING_INS
  6
CONTINUOUS
 62
     4
 10
45.06929518311386
 20
121.4020990444006
 30
0.0
 11
45.06929518311386
 21
1121.402099044401
 31
0.0
  0
LINE
  5
186
  8
MOUNTING_INS
  6
CONTINUOUS
 62
     4
 10
77.06929518311387
 20
1065.502099044401
 30
0.0
 11
77.06929518311387
 21
177.3020990444006
 31
0.0
  0
LINE
  5
187
  8
MOUNTING_INS
  6
CONTINUOUS
 62
     7
 10
100.0692951831139
 20
1060.902099044401
 30
0.0
 11
100.0692951831139
 21
181.9020990444006
 31
0.0
  0
LINE
  5
188
  8
MOUNTING_INS
  6
CONTINUOUS
 62
     7
 10
120.0692951831139
 20
332.9020990444005
 30
0.0
 11
120.0692951831139
 21
205.9020990444006
 31
0.0
  0
LINE
  5
189
  8
MOUNTING_INS
  6
CONTINUOUS
 62
     7
 10
670.0692951831138
 20
332.9020990444005
 30
0.0
 11
120.0692951831139
 21
332.9020990444005
 31
0.0
  0
LINE
  5
18A
  8
MOUNTING_INS
  6
CONTINUOUS
 62
     7
 10
153.0692951831139
 20
1007.902099044401
 30
0.0
 11
153.0692951831139
 21
753.9020990444005
 31
0.0
  0
LINE
  5
18B
  8
MOUNTING_INS
  6
CONTINUOUS
 62
     7
 10
153.0692951831139
 20
753.9020990444005
 30
0.0
 11
637.0692951831138
 21
753.9020990444005
 31
0.0
  0
LINE
  5
18C
  8
MOUNTING_INS
  6
CONTINUOUS
 62
     7
 10
637.0692951831138
 20
753.9020990444005
 30
0.0
 11
637.0692951831138
 21
1007.902099044401
 31
0.0
  0
LINE
  5
18D
  8
MOUNTING_INS
  6
CONTINUOUS
 62
     7
 10
670.0692951831138
 20
205.9020990444006
 30
0.0
 11
670.0692951831138
 21
332.9020990444005
 31
0.0
  0
LINE
  5
18E
  8
MOUNTING_INS
  6
CONTINUOUS
 62
     7
 10
690.0692951831138
 20
181.9020990444006
 30
0.0
 11
690.0692951831138
 21
1060.902099044401
 31
0.0
  0
LINE
  5
18F
  8
MOUNTING_INS
  6
CONTINUOUS
 62
     4
 10
713.0692951831138
 20
1065.502099044401
 30
0.0
 11
713.0692951831138
 21
177.3020990444006
 31
0.0
  0
LINE
  5
190
  8
MOUNTING_INS
  6
CONTINUOUS
 62
     4
 10
745.0692951831138
 20
121.4020990444006
 30
0.0
 11
745.0692951831138
 21
1121.402099044401
 31
0.0
  0
LINE
  5
191
  8
MOUNTING_INS
  6
CONTINUOUS
 62
     7
 10
637.0692951831138
 20
1007.902099044401
 30
0.0
 11
153.0692951831139
 21
1007.902099044401
 31
0.0
  0
LINE
  5
192
  8
MOUNTING_INS
  6
CONTINUOUS
 62
     7
 10
690.0692951831138
 20
1060.902099044401
 30
0.0
 11
100.0692951831139
 21
1060.902099044401
 31
0.0
  0
LINE
  5
193
  8
MOUNTING_INS
  6
CONTINUOUS
 62
     4
 10
713.0692951831138
 20
1065.502099044401
 30
0.0
 11
77.06929518311387
 21
1065.502099044401
 31
0.0
  0
LINE
  5
194
  8
MOUNTING_INS
  6
CONTINUOUS
 62
     4
 10
45.06929518311386
 20
1121.402099044401
 30
0.0
 11
745.0692951831138
 21
1121.402099044401
 31
0.0
  0
CIRCLE
  5
195
  8
MOUNTING_INS
  6
CONTINUOUS
 62
     7
 10
220.0692951831139
 20
191.9020990444006
 30
0.0
 40
4.0
  0
CIRCLE
  5
196
  8
MOUNTING_INS
  6
CONTINUOUS
 62
     4
 10
195.0692951831139
 20
156.4020990444006
 30
0.0
 40
4.0
  0
CIRCLE
  5
197
  8
MOUNTING_INS
  6
CONTINUOUS
 62
     7
 10
220.0692951831139
 20
361.9020990444005
 30
0.0
 40
4.0
  0
CIRCLE
  5
198
  8
MOUNTING_INS
  6
CONTINUOUS
 62
     4
 10
59.06929518311386
 20
296.4020990444005
 30
0.0
 40
4.0
  0
CIRCLE
  5
199
  8
MOUNTING_INS
  6
CONTINUOUS
 62
     4
 10
59.06929518311386
 20
946.4020990444005
 30
0.0
 40
4.0
  0
CIRCLE
  5
19A
  8
MOUNTING_INS
  6
CONTINUOUS
 62
     4
 10
195.0692951831139
 20
1086.402099044401
 30
0.0
 40
4.0
  0
CIRCLE
  5
19B
  8
MOUNTING_INS
  6
CONTINUOUS
 62
     7
 10
220.0692951831139
 20
710.9020990444005
 30
0.0
 40
4.0
  0
CIRCLE
  5
19C
  8
MOUNTING_INS
  6
CONTINUOUS
 62
     7
 10
220.0692951831139
 20
1050.902099044401
 30
0.0
 40
4.0
  0
CIRCLE
  5
19D
  8
MOUNTING_INS
  6
CONTINUOUS
 62
     7
 10
395.0692951831138
 20
191.9020990444006
 30
0.0
 40
4.0
  0
CIRCLE
  5
19E
  8
MOUNTING_INS
  6
CONTINUOUS
 62
     7
 10
395.0692951831138
 20
361.9020990444005
 30
0.0
 40
4.0
  0
CIRCLE
  5
19F
  8
MOUNTING_INS
  6
CONTINUOUS
 62
     7
 10
570.0692951831138
 20
191.9020990444006
 30
0.0
 40
4.0
  0
CIRCLE
  5
1A0
  8
MOUNTING_INS
  6
CONTINUOUS
 62
     4
 10
595.0692951831138
 20
156.4020990444006
 30
0.0
 40
4.0
  0
CIRCLE
  5
1A1
  8
MOUNTING_INS
  6
CONTINUOUS
 62
     7
 10
570.0692951831138
 20
361.9020990444005
 30
0.0
 40
4.0
  0
CIRCLE
  5
1A2
  8
MOUNTING_INS
  6
CONTINUOUS
 62
     4
 10
731.0692951831138
 20
296.4020990444005
 30
0.0
 40
4.0
  0
CIRCLE
  5
1A3
  8
MOUNTING_INS
  6
CONTINUOUS
 62
     7
 10
395.0692951831138
 20
710.9020990444005
 30
0.0
 40
4.0
  0
CIRCLE
  5
1A4
  8
MOUNTING_INS
  6
CONTINUOUS
 62
     7
 10
395.0692951831138
 20
1050.902099044401
 30
0.0
 40
4.0
  0
CIRCLE
  5
1A5
  8
MOUNTING_INS
  6
CONTINUOUS
 62
     7
 10
570.0692951831138
 20
710.9020990444005
 30
0.0
 40
4.0
  0
CIRCLE
  5
1A6
  8
MOUNTING_INS
  6
CONTINUOUS
 62
     7
 10
570.0692951831138
 20
1050.902099044401
 30
0.0
 40
4.0
  0
CIRCLE
  5
1A7
  8
MOUNTING_INS
  6
CONTINUOUS
 62
     4
 10
595.0692951831138
 20
1086.402099044401
 30
0.0
 40
4.0
  0
CIRCLE
  5
1A8
  8
MOUNTING_INS
  6
CONTINUOUS
 62
     4
 10
731.0692951831138
 20
946.4020990444005
 30
0.0
 40
4.0
  0
DIMENSION
  5
53C
  8
DIMENSIONS
  6
BYBLOCK
  2
*D1
 10
595.0692951831138
 20
1151.402099044401
 30
0.0
 11
395.0692951831138
 21
1155.604599044401
 31
0.0
 70
    32
  3
DUAL-DIM
 13
195.0692951831139
 23
1086.402099044401
 33
0.0
 14
595.0692951831138
 24
1086.402099044401
 34
0.0
1001
ACAD
1000
DSTYLE
1002
{
1070
   287
1070
     5
1070
   279
1070
     2
1002
}
  0
DIMENSION
  5
57D
  8
DIMENSIONS
  6
BYBLOCK
  2
*D2
 10
570.0692951831138
 20
1136.402099044401
 30
0.0
 11
395.0692951831138
 21
1140.604599044401
 31
0.0
 70
    32
  3
DUAL-DIM
 13
220.0692951831139
 23
1050.902099044401
 33
0.0
 14
570.0692951831138
 24
1050.902099044401
 34
0.0
1001
ACAD
1000
DSTYLE
1002
{
1070
   287
1070
     5
1070
   279
1070
     2
1002
}
  0
DIMENSION
  5
5C9
  8
DIMENSIONS
  6
BYBLOCK
  2
*D3
 10
637.0692951831138
 20
1166.402099044401
 30
0.0
 11
395.0692951831138
 21
1170.604599044401
 31
0.0
 70
    32
  3
DUAL-DIM
 13
153.0692951831139
 23
1007.902099044401
 33
0.0
 14
637.0692951831138
 24
1007.902099044401
 34
0.0
1001
ACAD
1000
DSTYLE
1002
{
1070
   287
1070
     5
1070
   279
1070
     2
1002
}
  0
DIMENSION
  5
60A
  8
DIMENSIONS
  6
BYBLOCK
  2
*D4
 10
690.0692951831138
 20
1181.402099044401
 30
0.0
 11
395.0692951831138
 21
1185.604599044401
 31
0.0
 70
    32
  3
DUAL-DIM
 13
100.0692951831139
 23
1060.902099044401
 33
0.0
 14
690.0692951831138
 24
1060.902099044401
 34
0.0
1001
ACAD
1000
DSTYLE
1002
{
1070
   287
1070
     5
1070
   279
1070
     2
1002
}
  0
DIMENSION
  5
64B
  8
DIMENSIONS
  6
BYBLOCK
  2
*D5
 10
731.0692951831138
 20
1196.402099044401
 30
0.0
 11
395.0692951831139
 21
1200.604599044401
 31
0.0
 70
    32
  3
DUAL-DIM
 13
59.06929518311392
 23
946.4020990444005
 33
0.0
 14
731.0692951831138
 24
946.4020990444005
 34
0.0
1001
ACAD
1000
DSTYLE
1002
{
1070
   287
1070
     5
1070
   279
1070
     2
1002
}
  0
DIMENSION
  5
70F
  8
DIMENSIONS
  6
BYBLOCK
  2
*D7
 10
765.0692951831138
 20
1007.902099044401
 30
0.0
 11
760.8667951831137
 21
1034.402099044401
 31
0.0
 70
    32
  3
DUAL-DIM
 13
690.0692951831138
 23
1060.902099044401
 33
0.0
 14
637.0692951831138
 24
1007.902099044401
 34
0.0
 50
90.0
1001
ACAD
1000
DSTYLE
1002
{
1070
   287
1070
     5
1070
   279
1070
     2
1002
}
  0
DIMENSION
  5
750
  8
DIMENSIONS
  6
BYBLOCK
  2
*D8
 10
745.0692951831138
 20
1211.582099044401
 30
0.0
 11
395.0692951831138
 21
1215.784599044401
 31
0.0
 70
    32
  3
DUAL-DIM
 13
45.06929518311383
 23
1121.402099044401
 33
0.0
 14
745.0692951831138
 24
1121.402099044401
 34
0.0
1001
ACAD
1000
DSTYLE
1002
{
1070
   287
1070
     5
1070
   279
1070
     2
1002
}
  0
DIMENSION
  5
792
  8
DIMENSIONS
  6
BYBLOCK
  2
*D9
 10
765.0692951831138
 20
753.9020990444005
 30
0.0
 11
760.8667951831138
 21
880.9020990444005
 31
0.0
 70
    32
  3
DUAL-DIM
 13
638.5692951831138
 23
1007.902099044401
 33
0.0
 14
637.0692951831138
 24
753.9020990444005
 34
0.0
 50
90.0
1001
ACAD
1000
DSTYLE
1002
{
1070
   287
1070
     5
1070
   279
1070
     2
1002
}
  0
DIMENSION
  5
7D3
  8
DIMENSIONS
  6
BYBLOCK
  2
*D10
 10
765.0692951831138
 20
332.9020990444005
 30
0.0
 11
760.8667951831138
 21
543.4020990444005
 31
0.0
 70
    32
  3
DUAL-DIM
 13
637.0692951831138
 23
753.9020990444005
 33
0.0
 14
670.0692951831138
 24
332.9020990444005
 34
0.0
 50
90.0
1001
ACAD
1000
DSTYLE
1002
{
1070
   287
1070
     5
1070
   279
1070
     2
1002
}
  0
DIMENSION
  5
814
  8
DIMENSIONS
  6
BYBLOCK
  2
*D11
 10
765.0692951831138
 20
205.9020990444006
 30
0.0
 11
760.8667951831138
 21
269.4020990444005
 31
0.0
 70
    32
  3
DUAL-DIM
 13
670.0692951831138
 23
332.9020990444005
 33
0.0
 14
670.0692951831138
 24
205.9020990444006
 34
0.0
 50
90.0
1001
ACAD
1000
DSTYLE
1002
{
1070
   287
1070
     5
1070
   279
1070
     2
1002
}
  0
DIMENSION
  5
855
  8
DIMENSIONS
  6
BYBLOCK
  2
*D12
 10
670.0692951831138
 20
346.8793384078805
 30
0.0
 11
395.0692951831138
 21
351.0818384078805
 31
0.0
 70
    32
  3
DUAL-DIM
 13
120.0692951831139
 23
332.9020990444005
 33
0.0
 14
670.0692951831138
 24
332.9020990444005
 34
0.0
1001
ACAD
1000
DSTYLE
1002
{
1070
   287
1070
     5
1070
   279
1070
     2
1002
}
  0
DIMENSION
  5
8D9
  8
DIMENSIONS
  6
BYBLOCK
  2
*D13
 10
5.069295183113852
 20
946.4020990444005
 30
0.0
 11
0.8667951831138687
 21
998.6520990444005
 31
0.0
 70
    32
  3
DUAL-DIM
 13
220.0692951831139
 23
1050.902099044401
 33
0.0
 14
59.06929518311386
 24
946.4020990444005
 34
0.0
 50
90.0
1001
ACAD
1000
DSTYLE
1002
{
1070
   287
1070
     5
1070
   279
1070
     2
1002
}
  0
DIMENSION
  5
91A
  8
DIMENSIONS
  6
BYBLOCK
  2
*D14
 10
5.069295183113809
 20
296.4020990444005
 30
0.0
 11
0.8667951831138421
 21
621.4020990444005
 31
0.0
 70
    32
  3
DUAL-DIM
 13
59.06929518311386
 23
946.4020990444005
 33
0.0
 14
59.06929518311386
 24
296.4020990444005
 34
0.0
 50
90.0
1001
ACAD
1000
DSTYLE
1002
{
1070
   287
1070
     5
1070
   279
1070
     2
1002
}
  0
DIMENSION
  5
95B
  8
DIMENSIONS
  6
BYBLOCK
  2
*D15
 10
5.069295183113802
 20
156.4020990444006
 30
0.0
 11
0.8667951831138199
 21
226.4020990444005
 31
0.0
 70
    32
  3
DUAL-DIM
 13
59.06929518311386
 23
296.4020990444005
 33
0.0
 14
195.0692951831139
 24
156.4020990444006
 34
0.0
 50
90.0
1001
ACAD
1000
DSTYLE
1002
{
1070
   287
1070
     5
1070
   279
1070
     2
1002
}
  0
DIMENSION
  5
99D
  8
DIMENSIONS
  6
BYBLOCK
  2
*D16
 10
787.9930408306998
 20
181.9020990444006
 30
0.0
 11
783.7905408306998
 21
621.4020990444005
 31
0.0
 70
    32
  3
DUAL-DIM
 13
690.0692951831138
 23
1060.902099044401
 33
0.0
 14
690.0692951831138
 24
181.9020990444006
 34
0.0
 50
90.0
1001
ACAD
1000
DSTYLE
1002
{
1070
   287
1070
     5
1070
   279
1070
     2
1002
}
  0
DIMENSION
  5
9DE
  8
DIMENSIONS
  6
BYBLOCK
  2
*D17
 10
810.9167864782856
 20
121.4020990444006
 30
0.0
 11
806.7142864782858
 21
621.4020990444005
 31
0.0
 70
    32
  3
DUAL-DIM
 13
745.0692951831138
 23
1121.402099044401
 33
0.0
 14
745.0692951831138
 24
121.4020990444006
 34
0.0
 50
90.0
1001
ACAD
1000
DSTYLE
1002
{
1070
   287
1070
     5
1070
   279
1070
     2
1002
}
  0
DIMENSION
  5
A1F
  8
DIMENSIONS
  6
BYBLOCK
  2
*D18
 10
5.069295183113859
 20
1050.902099044401
 30
0.0
 11
0.8667951831137595
 21
1068.652099044401
 31
0.0
 70
    32
  3
DUAL-DIM
 13
195.0692951831139
 23
1086.402099044401
 33
0.0
 14
220.0692951831139
 24
1050.902099044401
 34
0.0
 50
90.0
1001
ACAD
1000
DSTYLE
1002
{
1070
   287
1070
     5
1070
   279
1070
     2
1002
}
  0
DIMENSION
  5
A60
  8
DIMENSIONS
  6
BYBLOCK
  2
*D19
 10
25.06929518311383
 20
710.9020990444005
 30
0.0
 11
20.86679518311385
 21
880.9020990444005
 31
0.0
 70
    32
  3
DUAL-DIM
 13
220.0692951831139
 23
1050.902099044401
 33
0.0
 14
220.0692951831139
 24
710.9020990444005
 34
0.0
 50
90.0
1001
ACAD
1000
DSTYLE
1002
{
1070
   287
1070
     5
1070
   279
1070
     2
1002
}
  0
DIMENSION
  5
AA2
  8
DIMENSIONS
  6
BYBLOCK
  2
*D20
 10
25.0692951831138
 20
361.9020990444005
 30
0.0
 11
20.86679518311383
 21
536.4020990444005
 31
0.0
 70
    32
  3
DUAL-DIM
 13
220.0692951831139
 23
710.9020990444005
 33
0.0
 14
220.0692951831139
 24
361.9020990444005
 34
0.0
 50
90.0
1001
ACAD
1000
DSTYLE
1002
{
1070
   287
1070
     5
1070
   279
1070
     2
1002
}
  0
DIMENSION
  5
AE3
  8
DIMENSIONS
  6
BYBLOCK
  2
*D21
 10
25.06929518311379
 20
191.9020990444006
 30
0.0
 11
20.86679518311381
 21
276.9020990444005
 31
0.0
 70
    32
  3
DUAL-DIM
 13
220.0692951831139
 23
361.9020990444005
 33
0.0
 14
220.0692951831139
 24
191.9020990444006
 34
0.0
 50
90.0
1001
ACAD
1000
DSTYLE
1002
{
1070
   287
1070
     5
1070
   279
1070
     2
1002
}
  0
DIMENSION
  5
B44
  8
DIMENSIONS
  2
*D22
 10
572.7888325092845
 20
358.9688215717491
 30
0.0
 11
548.5152621623823
 21
385.1501563135835
 31
0.0
 70
   163
  3
DUAL-DIM
 15
567.3497578569431
 25
364.8353765170519
 35
0.0
 40
0.0
1001
ACAD_DSTYLE_DIMRADIAL_EXTE
1070
   387
1070
     1
1070
   388
1040
0.0
1070
   390
1040
6.283185307179586
  0
TEXT
  5
B7B
  8
DIMENSIONS
  6
BYBLOCK
 10
58.94989673718089
 20
95.27855822935939
 30
0.0
 40
5.0
  1
Primary dimensions in millimeters.
  0
TEXT
  5
B7C
  8
DIMENSIONS
  6
BYBLOCK
 10
59.17131067357093
 20
84.70653262057536
 30
0.0
 40
5.0
  1
Secondary dimensions in inches.
  0
POLYLINE
  5
B7D
  8
0
  6
BYBLOCK
 66
     1
 10
0.0
 20
0.0
 30
0.0
 70
     1
  0
VERTEX
  5
DC6
  8
0
  6
BYBLOCK
 10
-48.98543454661615
 20
72.10227700408015
 30
0.0
  0
VERTEX
  5
DC7
  8
0
  6
BYBLOCK
 10
-48.98543454661615
 20
1244.866592355728
 30
0.0
  0
VERTEX
  5
DC8
  8
0
  6
BYBLOCK
 10
858.3904042707148
 20
1244.866592355728
 30
0.0
  0
VERTEX
  5
DC9
  8
0
  6
BYBLOCK
 10
858.3904042707148
 20
72.10227700408015
 30
0.0
  0
SEQEND
  5
DCA
  8
0
  6
BYBLOCK
  0
INSERT
  5
B99
  8
MOUNTING_INS
  2
*X31
 10
0.0
 20
0.0
 30
0.0
  0
DIMENSION
  5
C07
  8
DIMENSIONS
  6
BYBLOCK
  2
*D26
 10
765.0692951831138
 20
181.9020990444006
 30
0.0
 11
760.8667951831138
 21
164.0197487112653
 31
0.0
 70
   160
  3
DUAL-DIM
 13
670.0692951831138
 23
205.9020990444006
 33
0.0
 14
690.0692951831138
 24
181.9020990444006
 34
0.0
 50
90.0
1001
ACAD
1000
DSTYLE
1002
{
1070
   287
1070
     5
1070
   279
1070
     2
1002
}
  0
DIMENSION
  5
C16
  8
DIMENSIONS
  6
BYBLOCK
  2
*D27
 10
5.059565453384131
 20
1086.402099044401
 30
0.0
 11
0.8570654533840321
 21
1103.902099044401
 31
0.0
 70
    32
  3
DUAL-DIM
 13
45.06929518311386
 23
1121.402099044401
 33
0.0
 14
195.0692951831139
 24
1086.402099044401
 34
0.0
 50
90.0
1001
ACAD
1000
DSTYLE
1002
{
1070
   287
1070
     5
1070
   279
1070
     2
1002
}
  0
DIMENSION
  5
C23
  8
DIMENSIONS
  6
BYBLOCK
  2
*D28
 10
5.069295183113802
 20
121.4020990444006
 30
0.0
 11
0.8667951831138163
 21
138.9020990444006
 31
0.0
 70
    32
  3
DUAL-DIM
 13
45.07902491284353
 23
156.4020990444005
 33
0.0
 14
45.06929518311386
 24
121.4020990444006
 34
0.0
 50
90.0
1001
ACAD
1000
DSTYLE
1002
{
1070
   287
1070
     5
1070
   279
1070
     2
1002
}
  0
TEXT
  5
DBE
  8
DIMENSIONS
  6
CONTINUOUS
 10
347.8413021625366
 20
1080.412379649321
 30
0.0
 40
25.0
  1
HOOD
  0
ENDSEC
  0
EOF
