  0
SECTION
  2
HEADER
  9
$ACADVER
  1
AC1009
  9
$DWGCODEPAGE
  3
ansi_1252
  9
$INSBASE
 10
0.0
 20
0.0
 30
0.0
  9
$EXTMIN
 10
4.093508643273481
 20
355.6757510605598
 30
0.0
  9
$EXTMAX
 10
817.3171346204326
 20
1584.822910934433
 30
0.0
  9
$LIMMIN
 10
0.0
 20
0.0
  9
$LIMMAX
 10
594.0
 20
420.0
  9
$ORTHOMODE
 70
     0
  9
$REGENMODE
 70
     1
  9
$FILLMODE
 70
     1
  9
$QTEXTMODE
 70
     0
  9
$MIRRTEXT
 70
     1
  9
$DRAGMODE
 70
     2
  9
$LTSCALE
 40
32.67
  9
$OSMODE
 70
   511
  9
$ATTMODE
 70
     1
  9
$TEXTSIZE
 40
0.2
  9
$TRACEWID
 40
0.05
  9
$TEXTSTYLE
  7
STANDARD
  9
$CLAYER
  8
DIMENSIONS
  9
$CELTYPE
  6
BYBLOCK
  9
$CECOLOR
 62
   256
  9
$DIMSCALE
 40
1.0
  9
$DIMASZ
 40
5.0
  9
$DIMEXO
 40
1.5
  9
$DIMDLI
 40
1.0
  9
$DIMRND
 40
0.0
  9
$DIMDLE
 40
0.0
  9
$DIMEXE
 40
0.18
  9
$DIMTP
 40
0.0
  9
$DIMTM
 40
0.0
  9
$DIMTXT
 40
5.0
  9
$DIMCEN
 40
2.5
  9
$DIMTSZ
 40
0.0
  9
$DIMTOL
 70
     0
  9
$DIMLIM
 70
     0
  9
$DIMTIH
 70
     0
  9
$DIMTOH
 70
     0
  9
$DIMSE1
 70
     0
  9
$DIMSE2
 70
     0
  9
$DIMTAD
 70
     1
  9
$DIMZIN
 70
     8
  9
$DIMBLK
  1

  9
$DIMASO
 70
     1
  9
$DIMSHO
 70
     1
  9
$DIMPOST
  1

  9
$DIMAPOST
  1

  9
$DIMALT
 70
     1
  9
$DIMALTD
 70
     2
  9
$DIMALTF
 40
0.03937
  9
$DIMLFAC
 40
1.0
  9
$DIMTOFL
 70
     0
  9
$DIMTVP
 40
0.0
  9
$DIMTIX
 70
     0
  9
$DIMSOXD
 70
     0
  9
$DIMSAH
 70
     0
  9
$DIMBLK1
  1

  9
$DIMBLK2
  1

  9
$DIMSTYLE
  2
DUAL-DIM
  9
$DIMCLRD
 70
     0
  9
$DIMCLRE
 70
     0
  9
$DIMCLRT
 70
     5
  9
$DIMTFAC
 40
1.0
  9
$DIMGAP
 40
1.0
  9
$LUNITS
 70
     2
  9
$LUPREC
 70
     4
  9
$SKETCHINC
 40
0.1
  9
$FILLETRAD
 40
15.0
  9
$AUNITS
 70
     0
  9
$AUPREC
 70
     0
  9
$MENU
  1
.
  9
$ELEVATION
 40
0.0
  9
$PELEVATION
 40
0.0
  9
$THICKNESS
 40
0.0
  9
$LIMCHECK
 70
     0
  9
$CHAMFERA
 40
0.0
  9
$CHAMFERB
 40
0.0
  9
$SKPOLY
 70
     0
  9
$TDCREATE
 40
2457428.354677859
  9
$TDUPDATE
 40
2457438.427115
  9
$TDINDWG
 40
0.1086601505
  9
$TDUSRTIMER
 40
2457438.38399463
  9
$USRTIMER
 70
     1
  9
$ANGBASE
 50
0.0
  9
$ANGDIR
 70
     0
  9
$PDMODE
 70
     3
  9
$PDSIZE
 40
0.3125
  9
$PLINEWID
 40
0.0
  9
$COORDS
 70
     2
  9
$SPLFRAME
 70
     0
  9
$SPLINETYPE
 70
     6
  9
$SPLINESEGS
 70
     8
  9
$ATTDIA
 70
     0
  9
$ATTREQ
 70
     1
  9
$HANDLING
 70
     1
  9
$HANDSEED
  5
2C67
  9
$SURFTAB1
 70
     6
  9
$SURFTAB2
 70
     6
  9
$SURFTYPE
 70
     6
  9
$SURFU
 70
     6
  9
$SURFV
 70
     6
  9
$UCSNAME
  2

  9
$UCSORG
 10
0.0
 20
0.0
 30
0.0
  9
$UCSXDIR
 10
1.0
 20
0.0
 30
0.0
  9
$UCSYDIR
 10
0.0
 20
1.0
 30
0.0
  9
$PUCSNAME
  2

  9
$PUCSORG
 10
0.0
 20
0.0
 30
0.0
  9
$PUCSXDIR
 10
1.0
 20
0.0
 30
0.0
  9
$PUCSYDIR
 10
0.0
 20
1.0
 30
0.0
  9
$USERI1
 70
     0
  9
$USERI2
 70
     0
  9
$USERI3
 70
     0
  9
$USERI4
 70
     0
  9
$USERI5
 70
     0
  9
$USERR1
 40
0.0
  9
$USERR2
 40
0.0
  9
$USERR3
 40
0.0
  9
$USERR4
 40
0.0
  9
$USERR5
 40
0.0
  9
$WORLDVIEW
 70
     1
  9
$SHADEDGE
 70
     3
  9
$SHADEDIF
 70
    70
  9
$TILEMODE
 70
     1
  9
$MAXACTVP
 70
    64
  9
$PLIMCHECK
 70
     0
  9
$PEXTMIN
 10
1.05
 20
0.6999999999999997
 30
0.0
  9
$PEXTMAX
 10
9.45
 20
6.300000000000001
 30
0.0
  9
$PLIMMIN
 10
-0.25
 20
-0.7499999999999999
  9
$PLIMMAX
 10
10.75
 20
7.75
  9
$UNITMODE
 70
     0
  9
$VISRETAIN
 70
     1
  9
$PLINEGEN
 70
     0
  9
$PSLTSCALE
 70
     1
  0
ENDSEC
  0
SECTION
  2
TABLES
  0
TABLE
  2
VPORT
 70
     1
  0
VPORT
  2
*ACTIVE
 70
     0
 10
0.0
 20
0.0
 11
1.0
 21
1.0
 12
1197.545738369295
 22
965.5934705434294
 13
0.0
 23
0.0
 14
0.5
 24
0.5
 15
0.5
 25
0.5
 16
0.0
 26
0.0
 36
1.0
 17
0.0
 27
0.0
 37
0.0
 40
1412.277671067204
 41
2.450549450549451
 42
50.0
 43
0.0
 44
0.0
 50
0.0
 51
0.0
 71
    16
 72
   100
 73
     1
 74
     3
 75
     0
 76
     0
 77
     0
 78
     0
  0
ENDTAB
  0
TABLE
  2
LTYPE
 70
     7
  0
LTYPE
  2
CONTINUOUS
 70
     0
  3
Solid line
 72
    65
 73
     0
 40
0.0
  0
LTYPE
  2
CENTER
 70
     0
  3
____ _ ____ _ ____ _ ____ _ ____ _ ____ _ ____
 72
    65
 73
     4
 40
0.6
 49
0.375
 49
-0.075
 49
0.075
 49
-0.075
  0
LTYPE
  2
HIDDEN
 70
     0
  3
- - - - - - - - - - - - - - - - - - - -
 72
    65
 73
     2
 40
0.2
 49
0.1
 49
-0.1
  0
LTYPE
  2
PHANTOM
 70
     0
  3
_____ _ _ _____ _ _ _____ _ _ _____
 72
    65
 73
     6
 40
0.8
 49
0.45
 49
-0.05
 49
0.1
 49
-0.05
 49
0.1
 49
-0.05
  0
LTYPE
  2
DOT
 70
     0
  3
. . . . . . . . . . . . . . . . . . . .
 72
    65
 73
     2
 40
0.2
 49
0.1
 49
-0.1
  0
LTYPE
  2
DASHED
 70
     0
  3
- - - - - - - - - - - - - - - - - - - -
 72
    65
 73
     2
 40
0.2
 49
0.1
 49
-0.1
  0
LTYPE
  2
STRICHPUNKT
 70
     0
  3
__ . __ . __ . __ . __ . __ . __ . __ . __ . __
 72
    65
 73
     4
 40
1.0
 49
0.5
 49
-0.25
 49
0.0
 49
-0.25
  0
ENDTAB
  0
TABLE
  2
LAYER
 70
    19
  0
LAYER
  2
0
 70
     0
 62
     7
  6
CONTINUOUS
  0
LAYER
  2
DEFAULT_1
 70
     0
 62
     7
  6
CENTER
  0
LAYER
  2
DEFAULT_2
 70
     0
 62
     7
  6
HIDDEN
  0
LAYER
  2
DEFAULT_3
 70
     0
 62
     7
  6
PHANTOM
  0
LAYER
  2
01___PRT_ALL_DTM_PLN
 70
     0
 62
     7
  6
CONTINUOUS
  0
LAYER
  2
01___PRT_DEF_DTM_PLN
 70
     0
 62
     7
  6
CONTINUOUS
  0
LAYER
  2
02___PRT_ALL_AXES
 70
     0
 62
     7
  6
CONTINUOUS
  0
LAYER
  2
03___PRT_ALL_CURVES
 70
     0
 62
     7
  6
CONTINUOUS
  0
LAYER
  2
04___PRT_ALL_DTM_PNT
 70
     0
 62
     7
  6
CONTINUOUS
  0
LAYER
  2
05___PRT_ALL_DTM_CSYS
 70
     0
 62
     7
  6
CONTINUOUS
  0
LAYER
  2
05___PRT_DEF_DTM_CSYS
 70
     0
 62
     7
  6
CONTINUOUS
  0
LAYER
  2
06___PRT_ALL_SURFS
 70
     0
 62
     7
  6
CONTINUOUS
  0
LAYER
  2
DEFPOINTS
 70
     0
 62
     7
  6
CONTINUOUS
  0
LAYER
  2
DIMENSIONS
 70
     0
 62
     2
  6
CONTINUOUS
  0
LAYER
  2
AM_5
 70
     0
 62
     3
  6
CONTINUOUS
  0
LAYER
  2
CUTOUT
 70
     0
 62
     7
  6
CONTINUOUS
  0
LAYER
  2
EXTERNAL_OUTFIT
 70
     0
 62
     7
  6
CENTER
  0
LAYER
  2
OUTLINES
 70
     0
 62
     4
  6
CONTINUOUS
  0
LAYER
  2
3
 70
     0
 62
     4
  6
CONTINUOUS
  0
ENDTAB
  0
TABLE
  2
STYLE
 70
     2
  0
STYLE
  2
STANDARD
 70
     0
 40
0.0
 41
1.0
 50
0.0
 71
     0
 42
0.2
  3
arial.ttf
  4

  0
STYLE
  2
TEXTSTYLE_1
 70
     0
 40
0.0
 41
0.8
 50
0.0
 71
     0
 42
0.2
  3
gdt
  4

  0
ENDTAB
  0
TABLE
  2
VIEW
 70
     0
  0
ENDTAB
  0
TABLE
  2
UCS
 70
     0
  0
ENDTAB
  0
TABLE
  2
APPID
 70
    10
  0
APPID
  2
ACAD
 70
     0
  0
APPID
  2
ACAECLAYERSTANDARD
 70
     0
  0
APPID
  2
ACAD_DSTYLE_DIMRADIAL_EXTE
 70
     0
  0
APPID
  2
ACAD_DSTYLE_DIMJOGGED_JOGA
 70
     0
  0
APPID
  2
ACAD_DSTYLE_DIMJAG
 70
     0
  0
APPID
  2
ACAD_DSTYLE_DIMBREAK
 70
     0
  0
APPID
  2
ACAD_PSEXT
 70
     0
  0
APPID
  2
ACAD_DSTYLE_DIMINSPECT
 70
     0
  0
APPID
  2
ACAD_DSTYLE_DIMRADIAL_EXT0
 70
     0
  0
APPID
  2
ACAD_DSTYLE_DIMJOGGED_JOG0
 70
     0
  0
ENDTAB
  0
TABLE
  2
DIMSTYLE
 70
     5
  0
DIMSTYLE
  2
STANDARD
 70
     0
  3

  4

  5

  6

  7

 40
1.0
 41
0.18
 42
0.0625
 43
0.38
 44
0.18
 45
0.0
 46
0.0
 47
0.0
 48
0.0
140
0.18
141
0.09
142
0.0
143
25.4
144
1.0
145
0.0
146
1.0
147
0.09
 71
     0
 72
     0
 73
     1
 74
     1
 75
     0
 76
     0
 77
     0
 78
     0
170
     0
171
     2
172
     0
173
     0
174
     0
175
     0
176
     0
177
     0
178
     0
  0
DIMSTYLE
  2
DUAL-DIM
 70
     0
  3

  4

  5

  6

  7

 40
1.0
 41
5.0
 42
1.5
 43
1.0
 44
0.18
 45
0.0
 46
0.0
 47
0.0
 48
0.0
140
5.0
141
2.5
142
0.0
143
0.03937
144
1.0
145
0.0
146
1.0
147
1.0
 71
     0
 72
     0
 73
     0
 74
     0
 75
     0
 76
     0
 77
     1
 78
     8
170
     1
171
     2
172
     0
173
     0
174
     0
175
     0
176
     0
177
     0
178
     5
  0
DIMSTYLE
  2
AM_ISO
 70
     0
  3

  4
"
  5

  6

  7

 40
1.0
 41
3.5
 42
1.0
 43
10.0
 44
1.0
 45
0.0
 46
0.0
 47
0.1
 48
0.1
140
3.5
141
0.0
142
0.0
143
0.0393701
144
1.0
145
0.0
146
0.71
147
1.5
 71
     0
 72
     0
 73
     0
 74
     0
 75
     0
 76
     0
 77
     1
 78
     8
170
     0
171
     2
172
     1
173
     0
174
     0
175
     0
176
   256
177
   256
178
     2
  0
DIMSTYLE
  2
AM_ISO$3
 70
     0
  3

  4
"
  5

  6

  7

 40
1.0
 41
3.5
 42
1.0
 43
10.0
 44
1.0
 45
0.0
 46
0.0
 47
0.1
 48
0.1
140
3.5
141
0.0
142
0.0
143
0.0393701
144
1.0
145
0.0
146
0.71
147
1.5
 71
     0
 72
     0
 73
     0
 74
     1
 75
     0
 76
     0
 77
     1
 78
     8
170
     0
171
     2
172
     0
173
     0
174
     0
175
     0
176
   256
177
   256
178
     2
  0
DIMSTYLE
  2
AM_ISO$0
 70
     0
  3

  4
"
  5

  6

  7

 40
1.0
 41
3.5
 42
1.0
 43
10.0
 44
1.0
 45
0.0
 46
0.0
 47
0.1
 48
0.1
140
3.5
141
0.0
142
0.0
143
0.0393701
144
1.0
145
0.0
146
0.71
147
1.5
 71
     0
 72
     0
 73
     0
 74
     0
 75
     0
 76
     0
 77
     1
 78
     8
170
     0
171
     2
172
     1
173
     0
174
     0
175
     0
176
   256
177
   256
178
     2
  0
ENDTAB
  0
ENDSEC
  0
SECTION
  2
BLOCKS
  0
BLOCK
  8
0
  2
$MODEL_SPACE
 70
     0
 10
0.0
 20
0.0
 30
0.0
  3
$MODEL_SPACE
  1

  0
ENDBLK
  5
110
  8
0
  0
BLOCK
 67
     1
  8
0
  2
$PAPER_SPACE
 70
     0
 10
0.0
 20
0.0
 30
0.0
  3
$PAPER_SPACE
  1

  0
ENDBLK
  5
112
 67
     1
  8
0
  0
BLOCK
  8
0
  2
_FILLED
 70
     0
 10
0.0
 20
0.0
 30
0.0
  3
_FILLED
  1

  0
SOLID
  5
3D
  8
0
  6
BYBLOCK
 62
     0
 10
0.0
 20
0.0
 30
0.0
 11
-1.0
 21
0.2
 31
0.0
 12
-1.0
 22
-0.2
 32
0.0
 13
-1.0
 23
-0.2
 33
0.0
  0
ENDBLK
  5
3E
  8
0
  6
BYBLOCK
 62
     0
  0
BLOCK
  8
0
  2
*X472
 70
     1
 10
0.0
 20
0.0
 30
0.0
  3
*X472
  1

  0
LINE
  5
2B13
  8
CUTOUT
 10
17.5
 20
994.1912415139188
 30
0.0
 11
60.80875848608108
 21
1037.5
 31
0.0
  0
LINE
  5
2B14
  8
CUTOUT
 10
17.5
 20
919.0611460128482
 30
0.0
 11
135.9388539871518
 21
1037.5
 31
0.0
  0
LINE
  5
2B15
  8
CUTOUT
 10
17.49999999999997
 20
843.9310505117776
 30
0.0
 11
211.0689494882224
 21
1037.5
 31
0.0
  0
LINE
  5
2B16
  8
CUTOUT
 10
17.5
 20
768.8009550107068
 30
0.0
 11
286.1990449892932
 21
1037.5
 31
0.0
  0
LINE
  5
2B17
  8
CUTOUT
 10
17.49999999999997
 20
693.6708595096361
 30
0.0
 11
361.3291404903637
 21
1037.5
 31
0.0
  0
LINE
  5
2B18
  8
CUTOUT
 10
17.5
 20
618.5407640085655
 30
0.0
 11
436.4592359914344
 21
1037.5
 31
0.0
  0
LINE
  5
2B19
  8
CUTOUT
 10
17.5
 20
543.4106685074948
 30
0.0
 11
478.9999999999997
 21
1004.910668507495
 31
0.0
  0
LINE
  5
2B1A
  8
CUTOUT
 10
17.49999999999997
 20
468.2805730064241
 30
0.0
 11
478.9999999999997
 21
929.7805730064239
 31
0.0
  0
LINE
  5
2B1B
  8
CUTOUT
 10
17.5
 20
393.1504775053535
 30
0.0
 11
58.09952249464635
 21
433.7499999999998
 31
0.0
  0
LINE
  5
2B1C
  8
CUTOUT
 10
17.50000000000003
 20
318.0203820042827
 30
0.0
 11
133.229617995717
 21
433.7499999999998
 31
0.0
  0
LINE
  5
2B1D
  8
CUTOUT
 10
17.5
 20
242.8902865032121
 30
0.0
 11
208.3597134967877
 21
433.7499999999998
 31
0.0
  0
LINE
  5
2B1E
  8
CUTOUT
 10
17.49999999999994
 20
167.7601910021414
 30
0.0
 11
283.4898089978584
 21
433.7499999999999
 31
0.0
  0
LINE
  5
2B1F
  8
CUTOUT
 10
17.5
 20
92.63009550107074
 30
0.0
 11
358.619904498929
 21
433.7499999999999
 31
0.0
  0
LINE
  5
2B20
  8
CUTOUT
 10
17.5
 20
17.50000000000006
 30
0.0
 11
433.7499999999997
 21
433.7499999999999
 31
0.0
  0
LINE
  5
2B21
  8
CUTOUT
 10
80.59952249464621
 20
456.2499999999997
 30
0.0
 11
478.9999999999997
 21
854.6504775053533
 31
0.0
  0
LINE
  5
2B22
  8
CUTOUT
 10
155.7296179957169
 20
456.2499999999997
 30
0.0
 11
478.9999999999997
 21
779.5203820042825
 31
0.0
  0
LINE
  5
2B23
  8
CUTOUT
 10
230.8597134967875
 20
456.2499999999997
 30
0.0
 11
478.9999999999997
 21
704.3902865032119
 31
0.0
  0
LINE
  5
2B24
  8
CUTOUT
 10
305.9898089978582
 20
456.2499999999997
 30
0.0
 11
478.9999999999997
 21
629.2601910021413
 31
0.0
  0
LINE
  5
2B25
  8
CUTOUT
 10
381.1199044989289
 20
456.2499999999997
 30
0.0
 11
478.9999999999997
 21
554.1300955010705
 31
0.0
  0
LINE
  5
2B26
  8
CUTOUT
 10
456.2499999999995
 20
456.2499999999997
 30
0.0
 11
478.9999999999997
 21
478.9999999999999
 31
0.0
  0
LINE
  5
2B27
  8
CUTOUT
 10
17.5
 20
17.50000000000006
 30
0.0
 11
433.7499999999997
 21
433.7499999999999
 31
0.0
  0
LINE
  5
2B28
  8
CUTOUT
 10
456.2499999999995
 20
456.2499999999997
 30
0.0
 11
478.9999999999997
 21
478.9999999999999
 31
0.0
  0
LINE
  5
2B29
  8
CUTOUT
 10
92.6300955010706
 20
17.5
 30
0.0
 11
478.9999999999998
 21
403.8699044989293
 31
0.0
  0
LINE
  5
2B2A
  8
CUTOUT
 10
167.7601910021413
 20
17.5
 30
0.0
 11
478.9999999999998
 21
328.7398089978586
 31
0.0
  0
LINE
  5
2B2B
  8
CUTOUT
 10
242.8902865032119
 20
17.5
 30
0.0
 11
478.9999999999999
 21
253.6097134967879
 31
0.0
  0
LINE
  5
2B2C
  8
CUTOUT
 10
318.0203820042826
 20
17.5
 30
0.0
 11
478.9999999999999
 21
178.4796179957173
 31
0.0
  0
LINE
  5
2B2D
  8
CUTOUT
 10
393.1504775053533
 20
17.5
 30
0.0
 11
478.9999999999999
 21
103.3495224946467
 31
0.0
  0
LINE
  5
2B2E
  8
CUTOUT
 10
468.280573006424
 20
17.5
 30
0.0
 11
479.0
 21
28.21942699357606
 31
0.0
  0
ENDBLK
  5
2B2F
  8
0
  0
BLOCK
  8
0
  2
*D473
 70
     1
 10
0.0
 20
0.0
 30
0.0
  3
*D473
  1

  0
LINE
  5
2B63
  8
DIMENSIONS
  6
BYBLOCK
 62
     0
 10
594.5761442800847
 20
1474.636627205303
 30
0.0
 11
594.5761442800847
 21
1496.419242679056
 31
0.0
  0
LINE
  5
2B64
  8
DIMENSIONS
  6
BYBLOCK
 62
     0
 10
238.0761442800846
 20
1474.636627205303
 30
0.0
 11
238.0761442800846
 21
1496.419242679056
 31
0.0
  0
LINE
  5
2B65
  8
DIMENSIONS
  6
BYBLOCK
 62
     0
 10
589.5761442800847
 20
1496.239242679056
 30
0.0
 11
243.0761442800846
 21
1496.239242679056
 31
0.0
  0
SOLID
  5
2B66
  8
DIMENSIONS
 62
     0
 10
589.5761442800847
 20
1495.405909345722
 30
0.0
 11
589.5761442800847
 21
1497.072576012389
 31
0.0
 12
594.5761442800847
 22
1496.239242679056
 32
0.0
 13
594.5761442800847
 23
1496.239242679056
 33
0.0
  0
SOLID
  5
2B67
  8
DIMENSIONS
 62
     0
 10
243.0761442800846
 20
1497.072576012389
 30
0.0
 11
243.0761442800846
 21
1495.405909345722
 31
0.0
 12
238.0761442800846
 22
1496.239242679056
 32
0.0
 13
238.0761442800846
 23
1496.239242679056
 33
0.0
  0
TEXT
  5
2B68
  8
DIMENSIONS
  6
CONTINUOUS
 62
     5
 10
396.0361442800847
 20
1498.634242679056
 30
0.0
 40
5.0
  1
356.5 [14.04]
  0
POINT
  5
2B69
  8
DEFPOINTS
 62
     0
 10
594.5761442800847
 20
1473.136627205303
 30
0.0
  0
POINT
  5
2B6A
  8
DEFPOINTS
 62
     0
 10
238.0761442800846
 20
1473.136627205303
 30
0.0
  0
POINT
  5
2B6B
  8
DEFPOINTS
 62
     0
 10
238.0761442800846
 20
1496.239242679056
 30
0.0
  0
ENDBLK
  5
2B62
  8
0
  0
BLOCK
  8
0
  2
*D474
 70
     1
 10
0.0
 20
0.0
 30
0.0
  3
*D474
  1

  0
LINE
  5
2B72
  8
DIMENSIONS
  6
BYBLOCK
 62
     0
 10
185.5761442800847
 20
1463.136627205303
 30
0.0
 11
185.5761442800847
 21
1513.256578370277
 31
0.0
  0
LINE
  5
2B73
  8
DIMENSIONS
  6
BYBLOCK
 62
     0
 10
647.0761442800845
 20
1463.136627205303
 30
0.0
 11
647.0761442800845
 21
1513.256578370277
 31
0.0
  0
LINE
  5
2B74
  8
DIMENSIONS
  6
BYBLOCK
 62
     0
 10
190.5761442800847
 20
1513.076578370277
 30
0.0
 11
642.0761442800845
 21
1513.076578370277
 31
0.0
  0
SOLID
  5
2B75
  8
DIMENSIONS
 62
     0
 10
190.5761442800847
 20
1513.90991170361
 30
0.0
 11
190.5761442800847
 21
1512.243245036944
 31
0.0
 12
185.5761442800847
 22
1513.076578370277
 32
0.0
 13
185.5761442800847
 23
1513.076578370277
 33
0.0
  0
SOLID
  5
2B76
  8
DIMENSIONS
 62
     0
 10
642.0761442800845
 20
1512.243245036944
 30
0.0
 11
642.0761442800845
 21
1513.90991170361
 31
0.0
 12
647.0761442800845
 22
1513.076578370277
 32
0.0
 13
647.0761442800845
 23
1513.076578370277
 33
0.0
  0
TEXT
  5
2B77
  8
DIMENSIONS
  6
CONTINUOUS
 62
     5
 10
396.1386442800846
 20
1515.471578370277
 30
0.0
 40
5.0
  1
461.5 [18.17]
  0
POINT
  5
2B78
  8
DEFPOINTS
 62
     0
 10
185.5761442800847
 20
1461.636627205303
 30
0.0
  0
POINT
  5
2B79
  8
DEFPOINTS
 62
     0
 10
647.0761442800845
 20
1461.636627205303
 30
0.0
  0
POINT
  5
2B7A
  8
DEFPOINTS
 62
     0
 10
647.0761442800845
 20
1513.076578370277
 30
0.0
  0
ENDBLK
  5
2B71
  8
0
  0
BLOCK
  8
0
  2
*D475
 70
     1
 10
0.0
 20
0.0
 30
0.0
  3
*D475
  1

  0
LINE
  5
2B81
  8
DIMENSIONS
  6
BYBLOCK
 62
     0
 10
664.5761442800847
 20
1480.636627205303
 30
0.0
 11
664.5761442800847
 21
1529.677394125494
 31
0.0
  0
LINE
  5
2B82
  8
DIMENSIONS
  6
BYBLOCK
 62
     0
 10
168.0761442800846
 20
1480.636627205303
 30
0.0
 11
168.0761442800846
 21
1529.677394125494
 31
0.0
  0
LINE
  5
2B83
  8
DIMENSIONS
  6
BYBLOCK
 62
     0
 10
659.5761442800847
 20
1529.497394125494
 30
0.0
 11
173.0761442800846
 21
1529.497394125494
 31
0.0
  0
SOLID
  5
2B84
  8
DIMENSIONS
 62
     0
 10
659.5761442800847
 20
1528.664060792161
 30
0.0
 11
659.5761442800847
 21
1530.330727458827
 31
0.0
 12
664.5761442800847
 22
1529.497394125494
 32
0.0
 13
664.5761442800847
 23
1529.497394125494
 33
0.0
  0
SOLID
  5
2B85
  8
DIMENSIONS
 62
     0
 10
173.0761442800846
 20
1530.330727458827
 30
0.0
 11
173.0761442800846
 21
1528.664060792161
 31
0.0
 12
168.0761442800846
 22
1529.497394125494
 32
0.0
 13
168.0761442800846
 23
1529.497394125494
 33
0.0
  0
TEXT
  5
2B86
  8
DIMENSIONS
  6
CONTINUOUS
 62
     5
 10
396.1386442800847
 20
1531.892394125494
 30
0.0
 40
5.0
  1
496.5 [19.55]
  0
POINT
  5
2B87
  8
DEFPOINTS
 62
     0
 10
664.5761442800847
 20
1479.136627205303
 30
0.0
  0
POINT
  5
2B88
  8
DEFPOINTS
 62
     0
 10
168.0761442800846
 20
1479.136627205303
 30
0.0
  0
POINT
  5
2B89
  8
DEFPOINTS
 62
     0
 10
168.0761442800846
 20
1529.497394125494
 30
0.0
  0
ENDBLK
  5
2B80
  8
0
  0
BLOCK
  8
0
  2
*D476
 70
     1
 10
0.0
 20
0.0
 30
0.0
  3
*D476
  1

  0
LINE
  5
2B90
  8
DIMENSIONS
  6
BYBLOCK
 62
     0
 10
172.5761442800846
 20
860.1366272053035
 30
0.0
 11
149.2619444901579
 21
860.1366272053035
 31
0.0
  0
LINE
  5
2B91
  8
DIMENSIONS
  6
BYBLOCK
 62
     0
 10
172.5761442800846
 20
1043.136627205304
 30
0.0
 11
149.2619444901579
 21
1043.136627205304
 31
0.0
  0
LINE
  5
2B92
  8
DIMENSIONS
  6
BYBLOCK
 62
     0
 10
149.4419444901579
 20
865.1366272053035
 30
0.0
 11
149.4419444901579
 21
1038.136627205304
 31
0.0
  0
SOLID
  5
2B93
  8
DIMENSIONS
 62
     0
 10
148.6086111568245
 20
865.1366272053035
 30
0.0
 11
150.2752778234912
 21
865.1366272053035
 31
0.0
 12
149.4419444901579
 22
860.1366272053035
 32
0.0
 13
149.4419444901579
 23
860.1366272053035
 33
0.0
  0
SOLID
  5
2B94
  8
DIMENSIONS
 62
     0
 10
150.2752778234912
 20
1038.136627205304
 30
0.0
 11
148.6086111568245
 21
1038.136627205304
 31
0.0
 12
149.4419444901579
 22
1043.136627205304
 32
0.0
 13
149.4419444901579
 23
1043.136627205304
 33
0.0
  0
TEXT
  5
2B95
  8
DIMENSIONS
  6
CONTINUOUS
 62
     5
 10
147.0469444901579
 20
935.9641272053035
 30
0.0
 40
5.0
  1
183 [7.20]
 50
90.0
  0
POINT
  5
2B96
  8
DEFPOINTS
 62
     0
 10
174.0761442800846
 20
860.1366272053035
 30
0.0
  0
POINT
  5
2B97
  8
DEFPOINTS
 62
     0
 10
174.0761442800846
 20
1043.136627205304
 30
0.0
  0
POINT
  5
2B98
  8
DEFPOINTS
 62
     0
 10
149.4419444901579
 20
1043.136627205304
 30
0.0
  0
ENDBLK
  5
2B8F
  8
0
  0
BLOCK
  8
0
  2
*D477
 70
     1
 10
0.0
 20
0.0
 30
0.0
  3
*D477
  1

  0
LINE
  5
2B9F
  8
DIMENSIONS
  6
BYBLOCK
 62
     0
 10
172.5761442800846
 20
677.1366272053035
 30
0.0
 11
131.3258820377747
 21
677.1366272053035
 31
0.0
  0
LINE
  5
2BA0
  8
DIMENSIONS
  6
BYBLOCK
 62
     0
 10
172.5761442800846
 20
1226.136627205304
 30
0.0
 11
131.3258820377747
 21
1226.136627205304
 31
0.0
  0
LINE
  5
2BA1
  8
DIMENSIONS
  6
BYBLOCK
 62
     0
 10
131.5058820377747
 20
682.1366272053035
 30
0.0
 11
131.5058820377747
 21
1221.136627205304
 31
0.0
  0
SOLID
  5
2BA2
  8
DIMENSIONS
 62
     0
 10
130.6725487044413
 20
682.1366272053035
 30
0.0
 11
132.339215371108
 21
682.1366272053035
 31
0.0
 12
131.5058820377747
 22
677.1366272053035
 32
0.0
 13
131.5058820377747
 23
677.1366272053035
 33
0.0
  0
SOLID
  5
2BA3
  8
DIMENSIONS
 62
     0
 10
132.3392153711081
 20
1221.136627205304
 30
0.0
 11
130.6725487044414
 21
1221.136627205304
 31
0.0
 12
131.5058820377747
 22
1226.136627205304
 32
0.0
 13
131.5058820377747
 23
1226.136627205304
 33
0.0
  0
TEXT
  5
2BA4
  8
DIMENSIONS
  6
CONTINUOUS
 62
     5
 10
129.1108820377748
 20
934.2591272053035
 30
0.0
 40
5.0
  1
549 [21.61]
 50
90.0
  0
POINT
  5
2BA5
  8
DEFPOINTS
 62
     0
 10
174.0761442800846
 20
677.1366272053035
 30
0.0
  0
POINT
  5
2BA6
  8
DEFPOINTS
 62
     0
 10
174.0761442800846
 20
1226.136627205304
 30
0.0
  0
POINT
  5
2BA7
  8
DEFPOINTS
 62
     0
 10
131.5058820377747
 20
1226.136627205304
 30
0.0
  0
ENDBLK
  5
2B9E
  8
0
  0
BLOCK
  8
0
  2
*D478
 70
     1
 10
0.0
 20
0.0
 30
0.0
  3
*D478
  1

  0
LINE
  5
2BAE
  8
DIMENSIONS
  6
BYBLOCK
 62
     0
 10
172.5761442800846
 20
494.1366272053035
 30
0.0
 11
113.0389068460145
 21
494.1366272053035
 31
0.0
  0
LINE
  5
2BAF
  8
DIMENSIONS
  6
BYBLOCK
 62
     0
 10
172.5761442800846
 20
1409.136627205304
 30
0.0
 11
113.0389068460145
 21
1409.136627205304
 31
0.0
  0
LINE
  5
2BB0
  8
DIMENSIONS
  6
BYBLOCK
 62
     0
 10
113.2189068460145
 20
499.1366272053035
 30
0.0
 11
113.2189068460145
 21
1404.136627205304
 31
0.0
  0
SOLID
  5
2BB1
  8
DIMENSIONS
 62
     0
 10
112.3855735126811
 20
499.1366272053035
 30
0.0
 11
114.0522401793478
 21
499.1366272053035
 31
0.0
 12
113.2189068460145
 22
494.1366272053035
 32
0.0
 13
113.2189068460145
 23
494.1366272053035
 33
0.0
  0
SOLID
  5
2BB2
  8
DIMENSIONS
 62
     0
 10
114.0522401793479
 20
1404.136627205304
 30
0.0
 11
112.3855735126812
 21
1404.136627205304
 31
0.0
 12
113.2189068460145
 22
1409.136627205304
 32
0.0
 13
113.2189068460145
 23
1409.136627205304
 33
0.0
  0
TEXT
  5
2BB3
  8
DIMENSIONS
  6
CONTINUOUS
 62
     5
 10
110.8239068460144
 20
934.2591272053036
 30
0.0
 40
5.0
  1
915 [36.02]
 50
90.0
  0
POINT
  5
2BB4
  8
DEFPOINTS
 62
     0
 10
174.0761442800846
 20
494.1366272053035
 30
0.0
  0
POINT
  5
2BB5
  8
DEFPOINTS
 62
     0
 10
174.0761442800846
 20
1409.136627205304
 30
0.0
  0
POINT
  5
2BB6
  8
DEFPOINTS
 62
     0
 10
113.2189068460145
 20
1409.136627205304
 30
0.0
  0
ENDBLK
  5
2BAD
  8
0
  0
BLOCK
  8
0
  2
*D479
 70
     1
 10
0.0
 20
0.0
 30
0.0
  3
*D479
  1

  0
LINE
  5
2BBD
  8
DIMENSIONS
  6
BYBLOCK
 62
     0
 10
236.5761442800846
 20
430.1366272053035
 30
0.0
 11
94.44428427204511
 21
430.1366272053035
 31
0.0
  0
LINE
  5
2BBE
  8
DIMENSIONS
  6
BYBLOCK
 62
     0
 10
236.5761442800846
 20
1473.136627205303
 30
0.0
 11
94.44428427204517
 21
1473.136627205303
 31
0.0
  0
LINE
  5
2BBF
  8
DIMENSIONS
  6
BYBLOCK
 62
     0
 10
94.62428427204512
 20
435.1366272053035
 30
0.0
 11
94.62428427204517
 21
1468.136627205303
 31
0.0
  0
SOLID
  5
2BC0
  8
DIMENSIONS
 62
     0
 10
93.79095093871179
 20
435.1366272053035
 30
0.0
 11
95.45761760537845
 21
435.1366272053035
 31
0.0
 12
94.62428427204512
 22
430.1366272053035
 32
0.0
 13
94.62428427204512
 23
430.1366272053035
 33
0.0
  0
SOLID
  5
2BC1
  8
DIMENSIONS
 62
     0
 10
95.4576176053785
 20
1468.136627205303
 30
0.0
 11
93.79095093871184
 21
1468.136627205303
 31
0.0
 12
94.62428427204517
 22
1473.136627205303
 32
0.0
 13
94.62428427204517
 23
1473.136627205303
 33
0.0
  0
TEXT
  5
2BC2
  8
DIMENSIONS
  6
CONTINUOUS
 62
     5
 10
92.2292842720451
 20
932.0841272053034
 30
0.0
 40
5.0
  1
1043 [41.06]
 50
90.0
  0
POINT
  5
2BC3
  8
DEFPOINTS
 62
     0
 10
238.0761442800846
 20
430.1366272053035
 30
0.0
  0
POINT
  5
2BC4
  8
DEFPOINTS
 62
     0
 10
238.0761442800846
 20
1473.136627205303
 30
0.0
  0
POINT
  5
2BC5
  8
DEFPOINTS
 62
     0
 10
94.62428427204517
 20
1473.136627205303
 30
0.0
  0
ENDBLK
  5
2BBC
  8
0
  0
BLOCK
  8
0
  2
*D480
 70
     1
 10
0.0
 20
0.0
 30
0.0
  3
*D480
  1

  0
LINE
  5
2BCC
  8
DIMENSIONS
  6
BYBLOCK
 62
     0
 10
666.0761442800847
 20
1479.136627205303
 30
0.0
 11
703.6543197954255
 21
1479.136627205303
 31
0.0
  0
LINE
  5
2BCD
  8
DIMENSIONS
  6
BYBLOCK
 62
     0
 10
648.5761442800845
 20
1461.636627205303
 30
0.0
 11
703.6543197954255
 21
1461.636627205303
 31
0.0
  0
LINE
  5
2BCE
  8
DIMENSIONS
  6
BYBLOCK
 62
     0
 10
703.4743197954256
 20
1461.636627205303
 30
0.0
 11
703.4743197954256
 21
1422.871627205303
 31
0.0
  0
LINE
  5
2BCF
  8
DIMENSIONS
  6
BYBLOCK
 62
     0
 10
703.4743197954256
 20
1474.136627205303
 30
0.0
 11
703.4743197954256
 21
1466.636627205303
 31
0.0
  0
SOLID
  5
2BD0
  8
DIMENSIONS
 62
     0
 10
704.307653128759
 20
1474.136627205303
 30
0.0
 11
702.6409864620922
 21
1474.136627205303
 31
0.0
 12
703.4743197954256
 22
1479.136627205303
 32
0.0
 13
703.4743197954256
 23
1479.136627205303
 33
0.0
  0
SOLID
  5
2BD1
  8
DIMENSIONS
 62
     0
 10
702.6409864620922
 20
1466.636627205303
 30
0.0
 11
704.307653128759
 21
1466.636627205303
 31
0.0
 12
703.4743197954256
 22
1461.636627205303
 32
0.0
 13
703.4743197954256
 23
1461.636627205303
 33
0.0
  0
TEXT
  5
2BD2
  8
DIMENSIONS
  6
CONTINUOUS
 62
     5
 10
701.0793197954254
 20
1423.111627205303
 30
0.0
 40
5.0
  1
17.5 [0.69]
 50
90.0
  0
POINT
  5
2BD3
  8
DEFPOINTS
 62
     0
 10
664.5761442800847
 20
1479.136627205303
 30
0.0
  0
POINT
  5
2BD4
  8
DEFPOINTS
 62
     0
 10
647.0761442800845
 20
1461.636627205303
 30
0.0
  0
POINT
  5
2C11
  8
DEFPOINTS
 62
     0
 10
703.4743197954256
 20
1461.636627205303
 30
0.0
  0
ENDBLK
  5
2BCB
  8
0
  0
BLOCK
  8
0
  2
*D481
 70
     1
 10
0.0
 20
0.0
 30
0.0
  3
*D481
  1

  0
LINE
  5
2BDB
  8
DIMENSIONS
  6
BYBLOCK
 62
     0
 10
648.5761442800845
 20
1461.636627205303
 30
0.0
 11
685.1622340847749
 21
1461.636627205303
 31
0.0
  0
LINE
  5
2BDC
  8
DIMENSIONS
  6
BYBLOCK
 62
     0
 10
648.5761442800845
 20
880.3866272053028
 30
0.0
 11
685.1622340847749
 21
880.3866272053028
 31
0.0
  0
LINE
  5
2BDD
  8
DIMENSIONS
  6
BYBLOCK
 62
     0
 10
684.982234084775
 20
1456.636627205303
 30
0.0
 11
684.982234084775
 21
885.3866272053028
 31
0.0
  0
SOLID
  5
2BDE
  8
DIMENSIONS
 62
     0
 10
685.8155674181083
 20
1456.636627205303
 30
0.0
 11
684.1489007514416
 21
1456.636627205303
 31
0.0
 12
684.982234084775
 22
1461.636627205303
 32
0.0
 13
684.982234084775
 23
1461.636627205303
 33
0.0
  0
SOLID
  5
2BDF
  8
DIMENSIONS
 62
     0
 10
684.1489007514416
 20
885.3866272053028
 30
0.0
 11
685.8155674181083
 21
885.3866272053028
 31
0.0
 12
684.982234084775
 22
880.3866272053028
 32
0.0
 13
684.982234084775
 23
880.3866272053028
 33
0.0
  0
TEXT
  5
2BE0
  8
DIMENSIONS
  6
CONTINUOUS
 62
     5
 10
682.5872340847748
 20
1148.784127205303
 30
0.0
 40
5.0
  1
581.25 [22.88]
 50
90.0
  0
POINT
  5
2BE1
  8
DEFPOINTS
 62
     0
 10
647.0761442800845
 20
1461.636627205303
 30
0.0
  0
POINT
  5
2BE2
  8
DEFPOINTS
 62
     0
 10
647.0761442800845
 20
880.3866272053028
 30
0.0
  0
POINT
  5
2BE3
  8
DEFPOINTS
 62
     0
 10
684.982234084775
 20
880.3866272053028
 30
0.0
  0
ENDBLK
  5
2BDA
  8
0
  0
BLOCK
  8
0
  2
*D482
 70
     1
 10
0.0
 20
0.0
 30
0.0
  3
*D482
  1

  0
LINE
  5
2BEA
  8
DIMENSIONS
  6
BYBLOCK
 62
     0
 10
648.5761442800845
 20
880.3866272053028
 30
0.0
 11
705.8674665336922
 21
880.3866272053028
 31
0.0
  0
LINE
  5
2BEB
  8
DIMENSIONS
  6
BYBLOCK
 62
     0
 10
648.5761442800847
 20
857.8866272053031
 30
0.0
 11
705.8674665336922
 21
857.8866272053031
 31
0.0
  0
LINE
  5
2BEC
  8
DIMENSIONS
  6
BYBLOCK
 62
     0
 10
705.6874665336923
 20
857.8866272053031
 30
0.0
 11
705.6874665336923
 21
818.5666272053031
 31
0.0
  0
LINE
  5
2BED
  8
DIMENSIONS
  6
BYBLOCK
 62
     0
 10
705.6874665336923
 20
875.3866272053028
 30
0.0
 11
705.6874665336923
 21
862.8866272053031
 31
0.0
  0
SOLID
  5
2BEE
  8
DIMENSIONS
 62
     0
 10
706.5207998670256
 20
875.3866272053028
 30
0.0
 11
704.8541332003589
 21
875.3866272053028
 31
0.0
 12
705.6874665336923
 22
880.3866272053028
 32
0.0
 13
705.6874665336923
 23
880.3866272053028
 33
0.0
  0
SOLID
  5
2BEF
  8
DIMENSIONS
 62
     0
 10
704.8541332003589
 20
862.8866272053031
 30
0.0
 11
706.5207998670256
 21
862.8866272053031
 31
0.0
 12
705.6874665336923
 22
857.8866272053031
 32
0.0
 13
705.6874665336923
 23
857.8866272053031
 33
0.0
  0
TEXT
  5
2BF0
  8
DIMENSIONS
  6
CONTINUOUS
 62
     5
 10
703.2924665336923
 20
819.3616272053031
 30
0.0
 40
5.0
  1
22.5 [0.89]
 50
90.0
  0
POINT
  5
2BF1
  8
DEFPOINTS
 62
     0
 10
647.0761442800845
 20
880.3866272053028
 30
0.0
  0
POINT
  5
2BF2
  8
DEFPOINTS
 62
     0
 10
647.0761442800847
 20
857.8866272053031
 30
0.0
  0
POINT
  5
2C12
  8
DEFPOINTS
 62
     0
 10
705.6874665336923
 20
857.8866272053031
 30
0.0
  0
ENDBLK
  5
2BE9
  8
0
  0
BLOCK
  8
0
  2
*D483
 70
     1
 10
0.0
 20
0.0
 30
0.0
  3
*D483
  1

  0
LINE
  5
2BF9
  8
DIMENSIONS
  6
BYBLOCK
 62
     0
 10
648.5761442800847
 20
857.8866272053031
 30
0.0
 11
685.1622340847749
 21
857.8866272053031
 31
0.0
  0
LINE
  5
2BFA
  8
DIMENSIONS
  6
BYBLOCK
 62
     0
 10
648.5761442800847
 20
441.6366272053032
 30
0.0
 11
685.1622340847749
 21
441.6366272053032
 31
0.0
  0
LINE
  5
2BFB
  8
DIMENSIONS
  6
BYBLOCK
 62
     0
 10
684.982234084775
 20
852.8866272053031
 30
0.0
 11
684.982234084775
 21
446.6366272053032
 31
0.0
  0
SOLID
  5
2BFC
  8
DIMENSIONS
 62
     0
 10
685.8155674181083
 20
852.8866272053031
 30
0.0
 11
684.1489007514416
 21
852.8866272053031
 31
0.0
 12
684.982234084775
 22
857.8866272053031
 32
0.0
 13
684.982234084775
 23
857.8866272053031
 33
0.0
  0
SOLID
  5
2BFD
  8
DIMENSIONS
 62
     0
 10
684.1489007514416
 20
446.6366272053032
 30
0.0
 11
685.8155674181083
 21
446.6366272053032
 31
0.0
 12
684.982234084775
 22
441.6366272053032
 32
0.0
 13
684.982234084775
 23
441.6366272053032
 33
0.0
  0
TEXT
  5
2BFE
  8
DIMENSIONS
  6
CONTINUOUS
 62
     5
 10
682.587234084775
 20
627.6341272053031
 30
0.0
 40
5.0
  1
416.25 [16.39]
 50
90.0
  0
POINT
  5
2BFF
  8
DEFPOINTS
 62
     0
 10
647.0761442800847
 20
857.8866272053031
 30
0.0
  0
POINT
  5
2C00
  8
DEFPOINTS
 62
     0
 10
647.0761442800847
 20
441.6366272053032
 30
0.0
  0
POINT
  5
2C01
  8
DEFPOINTS
 62
     0
 10
684.982234084775
 20
441.6366272053032
 30
0.0
  0
ENDBLK
  5
2BF8
  8
0
  0
BLOCK
  8
0
  2
*D484
 70
     1
 10
0.0
 20
0.0
 30
0.0
  3
*D484
  1

  0
LINE
  5
2C08
  8
DIMENSIONS
  6
BYBLOCK
 62
     0
 10
648.5761442800847
 20
441.6366272053032
 30
0.0
 11
706.4708737185076
 21
441.6366272053032
 31
0.0
  0
LINE
  5
2C09
  8
DIMENSIONS
  6
BYBLOCK
 62
     0
 10
666.0761442800847
 20
424.1366272053035
 30
0.0
 11
706.4708737185076
 21
424.1366272053035
 31
0.0
  0
LINE
  5
2C0A
  8
DIMENSIONS
  6
BYBLOCK
 62
     0
 10
706.2908737185077
 20
441.6366272053032
 30
0.0
 11
706.2908737185077
 21
480.4016272053033
 31
0.0
  0
LINE
  5
2C0B
  8
DIMENSIONS
  6
BYBLOCK
 62
     0
 10
706.2908737185077
 20
436.6366272053032
 30
0.0
 11
706.2908737185077
 21
429.1366272053035
 31
0.0
  0
SOLID
  5
2C0C
  8
DIMENSIONS
 62
     0
 10
707.124207051841
 20
436.6366272053032
 30
0.0
 11
705.4575403851743
 21
436.6366272053032
 31
0.0
 12
706.2908737185077
 22
441.6366272053032
 32
0.0
 13
706.2908737185077
 23
441.6366272053032
 33
0.0
  0
SOLID
  5
2C0D
  8
DIMENSIONS
 62
     0
 10
705.4575403851743
 20
429.1366272053035
 30
0.0
 11
707.124207051841
 21
429.1366272053035
 31
0.0
 12
706.2908737185077
 22
424.1366272053035
 32
0.0
 13
706.2908737185077
 23
424.1366272053035
 33
0.0
  0
TEXT
  5
2C0E
  8
DIMENSIONS
  6
CONTINUOUS
 62
     5
 10
703.8958737185076
 20
446.8766272053032
 30
0.0
 40
5.0
  1
17.5 [0.69]
 50
90.0
  0
POINT
  5
2C0F
  8
DEFPOINTS
 62
     0
 10
647.0761442800847
 20
441.6366272053032
 30
0.0
  0
POINT
  5
2C10
  8
DEFPOINTS
 62
     0
 10
664.5761442800847
 20
424.1366272053035
 30
0.0
  0
POINT
  5
2C13
  8
DEFPOINTS
 62
     0
 10
706.2908737185077
 20
424.1366272053035
 30
0.0
  0
ENDBLK
  5
2C07
  8
0
  0
BLOCK
  8
0
  2
*D485
 70
     1
 10
0.0
 20
0.0
 30
0.0
  3
*D485
  1

  0
LINE
  5
2C1B
  8
DIMENSIONS
  6
BYBLOCK
 62
     0
 10
666.0761442800847
 20
1479.136627205303
 30
0.0
 11
727.934519800411
 21
1479.136627205303
 31
0.0
  0
LINE
  5
2C1C
  8
DIMENSIONS
  6
BYBLOCK
 62
     0
 10
666.0761442800847
 20
424.1366272053035
 30
0.0
 11
727.9345198004108
 21
424.1366272053035
 31
0.0
  0
LINE
  5
2C1D
  8
DIMENSIONS
  6
BYBLOCK
 62
     0
 10
727.754519800411
 20
1474.136627205303
 30
0.0
 11
727.7545198004109
 21
429.1366272053035
 31
0.0
  0
SOLID
  5
2C1E
  8
DIMENSIONS
 62
     0
 10
728.5878531337444
 20
1474.136627205303
 30
0.0
 11
726.9211864670776
 21
1474.136627205303
 31
0.0
 12
727.754519800411
 22
1479.136627205303
 32
0.0
 13
727.754519800411
 23
1479.136627205303
 33
0.0
  0
SOLID
  5
2C1F
  8
DIMENSIONS
 62
     0
 10
726.9211864670775
 20
429.1366272053035
 30
0.0
 11
728.5878531337443
 21
429.1366272053035
 31
0.0
 12
727.7545198004109
 22
424.1366272053035
 32
0.0
 13
727.7545198004109
 23
424.1366272053035
 33
0.0
  0
TEXT
  5
2C20
  8
DIMENSIONS
  6
CONTINUOUS
 62
     5
 10
725.359519800411
 20
932.0841272053034
 30
0.0
 40
5.0
  1
1055 [41.54]
 50
90.0
  0
POINT
  5
2C21
  8
DEFPOINTS
 62
     0
 10
664.5761442800847
 20
1479.136627205303
 30
0.0
  0
POINT
  5
2C22
  8
DEFPOINTS
 62
     0
 10
664.5761442800847
 20
424.1366272053035
 30
0.0
  0
POINT
  5
2C23
  8
DEFPOINTS
 62
     0
 10
727.7545198004109
 20
424.1366272053035
 30
0.0
  0
ENDBLK
  5
2C1A
  8
0
  0
ENDSEC
  0
SECTION
  2
ENTITIES
  0
TEXT
  5
25BF
  8
DIMENSIONS
  6
BYBLOCK
 10
177.0453220085568
 20
400.943812311563
 30
0.0
 40
5.0
  1
Note:
  0
TEXT
  5
25C0
  8
DIMENSIONS
  6
BYBLOCK
 10
177.1792480488423
 20
390.4148444635699
 30
0.0
 40
5.0
  1
Primary dimensions in millimeters.
  0
TEXT
  5
25C1
  8
DIMENSIONS
  6
BYBLOCK
 10
177.4006619852323
 20
379.8428188547859
 30
0.0
 40
5.0
  1
Secondary dimensions in inches.
  0
POLYLINE
  5
2B45
  8
0
 66
     1
 10
0.0
 20
0.0
 30
0.0
 70
     1
  0
VERTEX
  5
2C49
  8
0
 10
664.5761442800847
 20
1479.136627205303
 30
0.0
  0
VERTEX
  5
2C4A
  8
0
 10
664.5761442800847
 20
424.1366272053035
 30
0.0
  0
VERTEX
  5
2C4B
  8
0
 10
168.0761442800846
 20
424.1366272053035
 30
0.0
  0
VERTEX
  5
2C4C
  8
0
 10
168.0761442800846
 20
1479.136627205303
 30
0.0
  0
SEQEND
  5
2C61
  8
0
  0
POLYLINE
  5
2B46
  8
0
 66
     1
 10
0.0
 20
0.0
 30
0.0
 70
     1
  0
VERTEX
  5
2C4D
  8
0
 10
185.5761442800847
 20
441.6366272053032
 30
0.0
  0
VERTEX
  5
2C4E
  8
0
 10
185.5761442800847
 20
1461.636627205303
 30
0.0
  0
VERTEX
  5
2C4F
  8
0
 10
647.0761442800847
 20
1461.636627205303
 30
0.0
  0
VERTEX
  5
2C50
  8
0
 10
647.0761442800847
 20
441.6366272053032
 30
0.0
  0
SEQEND
  5
2C62
  8
0
  0
POLYLINE
  5
2B47
  8
0
 66
     1
 10
0.0
 20
0.0
 30
0.0
 70
     1
  0
VERTEX
  5
2C51
  8
0
 10
185.5761442800847
 20
441.6366272053032
 30
0.0
  0
VERTEX
  5
2C52
  8
0
 10
185.5761442800847
 20
857.8866272053031
 30
0.0
  0
VERTEX
  5
2C53
  8
0
 10
647.0761442800847
 20
857.8866272053031
 30
0.0
  0
VERTEX
  5
2C54
  8
0
 10
647.0761442800847
 20
441.6366272053032
 30
0.0
  0
SEQEND
  5
2C63
  8
0
  0
POLYLINE
  5
2B48
  8
0
 66
     1
 10
0.0
 20
0.0
 30
0.0
 70
     1
  0
VERTEX
  5
2C55
  8
0
 10
185.5761442800847
 20
857.8866272053031
 30
0.0
  0
VERTEX
  5
2C56
  8
0
 10
185.5761442800847
 20
880.3866272053031
 30
0.0
  0
VERTEX
  5
2C57
  8
0
 10
647.0761442800847
 20
880.3866272053031
 30
0.0
  0
VERTEX
  5
2C58
  8
0
 10
647.0761442800847
 20
857.8866272053031
 30
0.0
  0
SEQEND
  5
2C64
  8
0
  0
POLYLINE
  5
2B49
  8
0
 66
     1
 10
0.0
 20
0.0
 30
0.0
 70
     1
  0
VERTEX
  5
2C59
  8
0
 10
185.5761442800847
 20
1461.636627205303
 30
0.0
  0
VERTEX
  5
2C5A
  8
0
 10
185.5761442800847
 20
880.3866272053028
 30
0.0
  0
VERTEX
  5
2C5B
  8
0
 10
647.0761442800845
 20
880.3866272053028
 30
0.0
  0
VERTEX
  5
2C5C
  8
0
 10
647.0761442800845
 20
1461.636627205303
 30
0.0
  0
SEQEND
  5
2C65
  8
0
  0
INSERT
  5
2B4A
  8
0
  2
*X472
 10
168.0761442800847
 20
424.1366272053032
 30
0.0
  0
CIRCLE
  5
2B4B
  8
0
 10
238.0761442800846
 20
430.1366272053035
 30
0.0
 40
3.5
  0
CIRCLE
  5
2B4C
  8
0
 10
416.3261442800846
 20
430.1366272053035
 30
0.0
 40
3.5
  0
CIRCLE
  5
2B4D
  8
0
 10
594.5761442800847
 20
430.1366272053035
 30
0.0
 40
3.5
  0
CIRCLE
  5
2B4E
  8
0
 10
238.0761442800846
 20
1473.136627205303
 30
0.0
 40
3.5
  0
CIRCLE
  5
2B4F
  8
0
 10
416.3261442800846
 20
1473.136627205303
 30
0.0
 40
3.5
  0
CIRCLE
  5
2B50
  8
0
 10
594.5761442800847
 20
1473.136627205303
 30
0.0
 40
3.5
  0
CIRCLE
  5
2B51
  8
0
 10
174.0761442800846
 20
494.1366272053035
 30
0.0
 40
3.5
  0
CIRCLE
  5
2B52
  8
0
 10
174.0761442800846
 20
677.1366272053035
 30
0.0
 40
3.5
  0
CIRCLE
  5
2B53
  8
0
 10
174.0761442800846
 20
860.1366272053035
 30
0.0
 40
3.5
  0
CIRCLE
  5
2B54
  8
0
 10
174.0761442800846
 20
1043.136627205304
 30
0.0
 40
3.5
  0
CIRCLE
  5
2B55
  8
0
 10
174.0761442800846
 20
1226.136627205304
 30
0.0
 40
3.5
  0
CIRCLE
  5
2B56
  8
0
 10
174.0761442800846
 20
1409.136627205304
 30
0.0
 40
3.5
  0
CIRCLE
  5
2B57
  8
0
 10
658.5761442800847
 20
1409.136627205304
 30
0.0
 40
3.5
  0
CIRCLE
  5
2B58
  8
0
 10
658.5761442800847
 20
1226.136627205304
 30
0.0
 40
3.5
  0
CIRCLE
  5
2B59
  8
0
 10
658.5761442800847
 20
1043.136627205304
 30
0.0
 40
3.5
  0
CIRCLE
  5
2B5A
  8
0
 10
658.5761442800847
 20
860.1366272053035
 30
0.0
 40
3.5
  0
CIRCLE
  5
2B5B
  8
0
 10
658.5761442800847
 20
677.1366272053035
 30
0.0
 40
3.5
  0
CIRCLE
  5
2B5C
  8
0
 10
658.5761442800847
 20
494.1366272053035
 30
0.0
 40
3.5
  0
DIMENSION
  5
2B5D
  8
DIMENSIONS
  6
BYBLOCK
  2
*D473
 10
238.0761442800846
 20
1496.239242679056
 30
0.0
 11
416.3261442800847
 21
1500.441742679056
 31
0.0
 70
    32
  3
DUAL-DIM
 13
594.5761442800847
 23
1473.136627205303
 33
0.0
 14
238.0761442800846
 24
1473.136627205303
 34
0.0
1001
ACAD
1000
DSTYLE
1002
{
1070
   287
1070
     5
1070
   279
1070
     2
1002
}
  0
DIMENSION
  5
2B6C
  8
DIMENSIONS
  6
BYBLOCK
  2
*D474
 10
647.0761442800845
 20
1513.076578370277
 30
0.0
 11
416.3261442800846
 21
1517.279078370277
 31
0.0
 70
    32
  3
DUAL-DIM
 13
185.5761442800847
 23
1461.636627205303
 33
0.0
 14
647.0761442800845
 24
1461.636627205303
 34
0.0
1001
ACAD
1000
DSTYLE
1002
{
1070
   287
1070
     5
1070
   279
1070
     2
1002
}
  0
DIMENSION
  5
2B7B
  8
DIMENSIONS
  6
BYBLOCK
  2
*D475
 10
168.0761442800846
 20
1529.497394125494
 30
0.0
 11
416.3261442800847
 21
1533.699894125494
 31
0.0
 70
    32
  3
DUAL-DIM
 13
664.5761442800847
 23
1479.136627205303
 33
0.0
 14
168.0761442800846
 24
1479.136627205303
 34
0.0
1001
ACAD
1000
DSTYLE
1002
{
1070
   287
1070
     5
1070
   279
1070
     2
1002
}
  0
DIMENSION
  5
2B8A
  8
DIMENSIONS
  6
BYBLOCK
  2
*D476
 10
149.4419444901579
 20
1043.136627205304
 30
0.0
 11
145.2394444901579
 21
951.6366272053035
 31
0.0
 70
    32
  3
DUAL-DIM
 13
174.0761442800846
 23
860.1366272053035
 33
0.0
 14
174.0761442800846
 24
1043.136627205304
 34
0.0
 50
90.0
1001
ACAD
1000
DSTYLE
1002
{
1070
   287
1070
     5
1070
   279
1070
     2
1002
}
  0
DIMENSION
  5
2B99
  8
DIMENSIONS
  6
BYBLOCK
  2
*D477
 10
131.5058820377747
 20
1226.136627205304
 30
0.0
 11
127.3033820377747
 21
951.6366272053035
 31
0.0
 70
    32
  3
DUAL-DIM
 13
174.0761442800846
 23
677.1366272053035
 33
0.0
 14
174.0761442800846
 24
1226.136627205304
 34
0.0
 50
90.0
1001
ACAD
1000
DSTYLE
1002
{
1070
   287
1070
     5
1070
   279
1070
     2
1002
}
  0
DIMENSION
  5
2BA8
  8
DIMENSIONS
  6
BYBLOCK
  2
*D478
 10
113.2189068460145
 20
1409.136627205304
 30
0.0
 11
109.0164068460145
 21
951.6366272053035
 31
0.0
 70
    32
  3
DUAL-DIM
 13
174.0761442800846
 23
494.1366272053035
 33
0.0
 14
174.0761442800846
 24
1409.136627205304
 34
0.0
 50
90.0
1001
ACAD
1000
DSTYLE
1002
{
1070
   287
1070
     5
1070
   279
1070
     2
1002
}
  0
DIMENSION
  5
2BB7
  8
DIMENSIONS
  6
BYBLOCK
  2
*D479
 10
94.62428427204517
 20
1473.136627205303
 30
0.0
 11
90.42178427204516
 21
951.6366272053034
 31
0.0
 70
    32
  3
DUAL-DIM
 13
238.0761442800846
 23
430.1366272053035
 33
0.0
 14
238.0761442800846
 24
1473.136627205303
 34
0.0
 50
90.0
1001
ACAD
1000
DSTYLE
1002
{
1070
   287
1070
     5
1070
   279
1070
     2
1002
}
  0
DIMENSION
  5
2BC6
  8
DIMENSIONS
  6
BYBLOCK
  2
*D480
 10
703.4743197954256
 20
1461.636627205303
 30
0.0
 11
703.4743197954256
 21
1439.754127205303
 31
0.0
 70
   160
  3
DUAL-DIM
 13
664.5761442800847
 23
1479.136627205303
 33
0.0
 14
647.0761442800845
 24
1461.636627205303
 34
0.0
 50
90.0
1001
ACAD
1000
DSTYLE
1002
{
1070
   287
1070
     3
1070
   279
1070
     0
1002
}
  0
DIMENSION
  5
2BD5
  8
DIMENSIONS
  6
BYBLOCK
  2
*D481
 10
684.982234084775
 20
880.3866272053028
 30
0.0
 11
680.7797340847749
 21
1171.011627205303
 31
0.0
 70
    32
  3
DUAL-DIM
 13
647.0761442800845
 23
1461.636627205303
 33
0.0
 14
647.0761442800845
 24
880.3866272053028
 34
0.0
 50
90.0
1001
ACAD
1000
DSTYLE
1002
{
1070
   287
1070
     5
1070
   279
1070
     2
1002
}
  0
DIMENSION
  5
2BE4
  8
DIMENSIONS
  6
BYBLOCK
  2
*D482
 10
705.6874665336923
 20
857.8866272053031
 30
0.0
 11
705.6874665336923
 21
835.7266272053031
 31
0.0
 70
   160
  3
DUAL-DIM
 13
647.0761442800845
 23
880.3866272053028
 33
0.0
 14
647.0761442800847
 24
857.8866272053031
 34
0.0
 50
90.0
1001
ACAD
1000
DSTYLE
1002
{
1070
   287
1070
     3
1070
   279
1070
     0
1002
}
  0
DIMENSION
  5
2BF3
  8
DIMENSIONS
  6
BYBLOCK
  2
*D483
 10
684.982234084775
 20
441.6366272053032
 30
0.0
 11
680.779734084775
 21
649.7616272053032
 31
0.0
 70
    32
  3
DUAL-DIM
 13
647.0761442800847
 23
857.8866272053031
 33
0.0
 14
647.0761442800847
 24
441.6366272053032
 34
0.0
 50
90.0
1001
ACAD
1000
DSTYLE
1002
{
1070
   287
1070
     5
1070
   279
1070
     2
1002
}
  0
DIMENSION
  5
2C02
  8
DIMENSIONS
  6
BYBLOCK
  2
*D484
 10
706.2908737185077
 20
424.1366272053035
 30
0.0
 11
706.2908737185077
 21
463.5191272053033
 31
0.0
 70
   160
  3
DUAL-DIM
 13
647.0761442800847
 23
441.6366272053032
 33
0.0
 14
664.5761442800847
 24
424.1366272053035
 34
0.0
 50
90.0
1001
ACAD
1000
DSTYLE
1002
{
1070
   287
1070
     3
1070
   279
1070
     0
1002
}
  0
DIMENSION
  5
2C15
  8
DIMENSIONS
  6
BYBLOCK
  2
*D485
 10
727.7545198004109
 20
424.1366272053035
 30
0.0
 11
723.5520198004109
 21
951.6366272053034
 31
0.0
 70
    32
  3
DUAL-DIM
 13
664.5761442800847
 23
1479.136627205303
 33
0.0
 14
664.5761442800847
 24
424.1366272053035
 34
0.0
 50
90.0
1001
ACAD
1000
DSTYLE
1002
{
1070
   287
1070
     5
1070
   279
1070
     2
1002
}
  0
POLYLINE
  5
2C24
  8
0
  6
BYBLOCK
 66
     1
 10
0.0
 20
0.0
 30
0.0
 70
     1
  0
VERTEX
  5
2C5D
  8
0
  6
BYBLOCK
 10
4.093508643273481
 20
355.6757510605599
 30
0.0
  0
VERTEX
  5
2C5E
  8
0
  6
BYBLOCK
 10
4.093508643273481
 20
1584.822910934433
 30
0.0
  0
VERTEX
  5
2C5F
  8
0
  6
BYBLOCK
 10
817.3171346204326
 20
1584.822910934433
 30
0.0
  0
VERTEX
  5
2C60
  8
0
  6
BYBLOCK
 10
817.3171346204326
 20
355.6757510605599
 30
0.0
  0
SEQEND
  5
2C66
  8
0
  6
BYBLOCK
  0
VIEWPORT
  5
B1C
 67
     1
  8
0
 10
5.25
 20
3.5
 30
0.0
 40
12.6
 41
8.4
 68
     1
 69
     1
1001
ACAD
1000
MVIEW
1002
{
1070
    16
1010
0.0
1020
0.0
1030
0.0
1010
0.0
1020
0.0
1030
1.0
1040
0.0
1040
8.4
1040
5.25
1040
3.5
1040
50.0
1040
0.0
1040
0.0
1070
     0
1070
   100
1070
     0
1070
     3
1070
     0
1070
     0
1070
     0
1070
     0
1040
0.0
1040
0.0
1040
0.0
1040
0.5
1040
0.5
1040
0.0
1040
0.0
1070
     0
1002
{
1002
}
1002
}
  0
VIEWPORT
  5
B1D
 67
     1
  8
0
 10
5.25
 20
3.5
 30
0.0
 40
8.4
 41
5.600000000000001
 68
     2
 69
     2
1001
ACAD
1000
MVIEW
1002
{
1070
    16
1010
0.0
1020
0.0
1030
0.0
1010
0.0
1020
0.0
1030
1.0
1040
0.0
1040
278.6419840998563
1040
207.1268606538857
1040
36.27547653054833
1040
50.0
1040
0.0
1040
0.0
1070
     0
1070
   100
1070
     0
1070
     3
1070
     0
1070
     0
1070
     0
1070
     0
1040
0.0
1040
0.0
1040
0.0
1040
0.5
1040
0.5
1040
0.0
1040
0.0
1070
     0
1002
{
1002
}
1002
}
  0
ENDSEC
  0
EOF
