  0
SECTION
  2
HEADER
  9
$ACADVER
  1
AC1009
  9
$DWGCODEPAGE
  3
ansi_1252
  9
$INSBASE
 10
0.0
 20
0.0
 30
0.0
  9
$EXTMIN
 10
1.000000000000000E+20
 20
1.000000000000000E+20
 30
1.000000000000000E+20
  9
$EXTMAX
 10
-1.000000000000000E+20
 20
-1.000000000000000E+20
 30
-1.000000000000000E+20
  9
$LIMMIN
 10
0.0
 20
0.0
  9
$LIMMAX
 10
594.0
 20
420.0
  9
$ORTHOMODE
 70
     0
  9
$REGENMODE
 70
     1
  9
$FILLMODE
 70
     1
  9
$QTEXTMODE
 70
     0
  9
$MIRRTEXT
 70
     1
  9
$DRAGMODE
 70
     2
  9
$LTSCALE
 40
32.67
  9
$OSMODE
 70
   511
  9
$ATTMODE
 70
     1
  9
$TEXTSIZE
 40
0.2
  9
$TRACEWID
 40
0.05
  9
$TEXTSTYLE
  7
STANDARD
  9
$CLAYER
  8
DIMENSIONS
  9
$CELTYPE
  6
BYBLOCK
  9
$CECOLOR
 62
   256
  9
$DIMSCALE
 40
1.0
  9
$DIMASZ
 40
5.0
  9
$DIMEXO
 40
1.5
  9
$DIMDLI
 40
1.0
  9
$DIMRND
 40
0.0
  9
$DIMDLE
 40
0.0
  9
$DIMEXE
 40
0.18
  9
$DIMTP
 40
0.0
  9
$DIMTM
 40
0.0
  9
$DIMTXT
 40
5.0
  9
$DIMCEN
 40
2.5
  9
$DIMTSZ
 40
0.0
  9
$DIMTOL
 70
     0
  9
$DIMLIM
 70
     0
  9
$DIMTIH
 70
     0
  9
$DIMTOH
 70
     0
  9
$DIMSE1
 70
     0
  9
$DIMSE2
 70
     0
  9
$DIMTAD
 70
     1
  9
$DIMZIN
 70
     8
  9
$DIMBLK
  1

  9
$DIMASO
 70
     1
  9
$DIMSHO
 70
     1
  9
$DIMPOST
  1

  9
$DIMAPOST
  1

  9
$DIMALT
 70
     1
  9
$DIMALTD
 70
     2
  9
$DIMALTF
 40
0.03937
  9
$DIMLFAC
 40
1.0
  9
$DIMTOFL
 70
     0
  9
$DIMTVP
 40
0.0
  9
$DIMTIX
 70
     0
  9
$DIMSOXD
 70
     0
  9
$DIMSAH
 70
     0
  9
$DIMBLK1
  1

  9
$DIMBLK2
  1

  9
$DIMSTYLE
  2
DUAL-DIM
  9
$DIMCLRD
 70
     0
  9
$DIMCLRE
 70
     0
  9
$DIMCLRT
 70
     5
  9
$DIMTFAC
 40
1.0
  9
$DIMGAP
 40
1.0
  9
$LUNITS
 70
     2
  9
$LUPREC
 70
     4
  9
$SKETCHINC
 40
0.1
  9
$FILLETRAD
 40
15.0
  9
$AUNITS
 70
     0
  9
$AUPREC
 70
     0
  9
$MENU
  1
.
  9
$ELEVATION
 40
0.0
  9
$PELEVATION
 40
0.0
  9
$THICKNESS
 40
0.0
  9
$LIMCHECK
 70
     0
  9
$CHAMFERA
 40
0.0
  9
$CHAMFERB
 40
0.0
  9
$SKPOLY
 70
     0
  9
$TDCREATE
 40
2457428.354677859
  9
$TDUPDATE
 40
2457434.453953137
  9
$TDINDWG
 40
0.1012127083
  9
$TDUSRTIMER
 40
2457434.412161366
  9
$USRTIMER
 70
     1
  9
$ANGBASE
 50
0.0
  9
$ANGDIR
 70
     0
  9
$PDMODE
 70
     3
  9
$PDSIZE
 40
0.3125
  9
$PLINEWID
 40
0.0
  9
$COORDS
 70
     1
  9
$SPLFRAME
 70
     0
  9
$SPLINETYPE
 70
     6
  9
$SPLINESEGS
 70
     8
  9
$ATTDIA
 70
     0
  9
$ATTREQ
 70
     1
  9
$HANDLING
 70
     1
  9
$HANDSEED
  5
2893
  9
$SURFTAB1
 70
     6
  9
$SURFTAB2
 70
     6
  9
$SURFTYPE
 70
     6
  9
$SURFU
 70
     6
  9
$SURFV
 70
     6
  9
$UCSNAME
  2

  9
$UCSORG
 10
0.0
 20
0.0
 30
0.0
  9
$UCSXDIR
 10
1.0
 20
0.0
 30
0.0
  9
$UCSYDIR
 10
0.0
 20
1.0
 30
0.0
  9
$PUCSNAME
  2

  9
$PUCSORG
 10
0.0
 20
0.0
 30
0.0
  9
$PUCSXDIR
 10
1.0
 20
0.0
 30
0.0
  9
$PUCSYDIR
 10
0.0
 20
1.0
 30
0.0
  9
$USERI1
 70
     0
  9
$USERI2
 70
     0
  9
$USERI3
 70
     0
  9
$USERI4
 70
     0
  9
$USERI5
 70
     0
  9
$USERR1
 40
0.0
  9
$USERR2
 40
0.0
  9
$USERR3
 40
0.0
  9
$USERR4
 40
0.0
  9
$USERR5
 40
0.0
  9
$WORLDVIEW
 70
     1
  9
$SHADEDGE
 70
     3
  9
$SHADEDIF
 70
    70
  9
$TILEMODE
 70
     1
  9
$MAXACTVP
 70
    64
  9
$PLIMCHECK
 70
     0
  9
$PEXTMIN
 10
1.05
 20
0.6999999999999997
 30
0.0
  9
$PEXTMAX
 10
9.45
 20
6.300000000000001
 30
0.0
  9
$PLIMMIN
 10
-0.25
 20
-0.7499999999999999
  9
$PLIMMAX
 10
10.75
 20
7.75
  9
$UNITMODE
 70
     0
  9
$VISRETAIN
 70
     1
  9
$PLINEGEN
 70
     0
  9
$PSLTSCALE
 70
     1
  0
ENDSEC
  0
SECTION
  2
TABLES
  0
TABLE
  2
VPORT
 70
     1
  0
VPORT
  2
*ACTIVE
 70
     0
 10
0.0
 20
0.0
 11
1.0
 21
1.0
 12
711.4549894128452
 22
894.660577493039
 13
0.0
 23
0.0
 14
0.5
 24
0.5
 15
0.5
 25
0.5
 16
0.0
 26
0.0
 36
1.0
 17
0.0
 27
0.0
 37
0.0
 40
948.5880329791676
 41
2.792291220556745
 42
50.0
 43
0.0
 44
0.0
 50
0.0
 51
0.0
 71
    16
 72
   100
 73
     1
 74
     3
 75
     0
 76
     0
 77
     0
 78
     0
  0
ENDTAB
  0
TABLE
  2
LTYPE
 70
     7
  0
LTYPE
  2
CONTINUOUS
 70
     0
  3
Solid line
 72
    65
 73
     0
 40
0.0
  0
LTYPE
  2
CENTER
 70
     0
  3
____ _ ____ _ ____ _ ____ _ ____ _ ____ _ ____
 72
    65
 73
     4
 40
0.6
 49
0.375
 49
-0.075
 49
0.075
 49
-0.075
  0
LTYPE
  2
HIDDEN
 70
     0
  3
- - - - - - - - - - - - - - - - - - - -
 72
    65
 73
     2
 40
0.2
 49
0.1
 49
-0.1
  0
LTYPE
  2
PHANTOM
 70
     0
  3
_____ _ _ _____ _ _ _____ _ _ _____
 72
    65
 73
     6
 40
0.8
 49
0.45
 49
-0.05
 49
0.1
 49
-0.05
 49
0.1
 49
-0.05
  0
LTYPE
  2
DOT
 70
     0
  3
. . . . . . . . . . . . . . . . . . . .
 72
    65
 73
     2
 40
0.2
 49
0.1
 49
-0.1
  0
LTYPE
  2
DASHED
 70
     0
  3
- - - - - - - - - - - - - - - - - - - -
 72
    65
 73
     2
 40
0.2
 49
0.1
 49
-0.1
  0
LTYPE
  2
STRICHPUNKT
 70
     0
  3
__ . __ . __ . __ . __ . __ . __ . __ . __ . __
 72
    65
 73
     4
 40
1.0
 49
0.5
 49
-0.25
 49
0.0
 49
-0.25
  0
ENDTAB
  0
TABLE
  2
LAYER
 70
    19
  0
LAYER
  2
0
 70
     0
 62
     7
  6
CONTINUOUS
  0
LAYER
  2
DEFAULT_1
 70
     0
 62
     7
  6
CENTER
  0
LAYER
  2
DEFAULT_2
 70
     0
 62
     7
  6
HIDDEN
  0
LAYER
  2
DEFAULT_3
 70
     0
 62
     7
  6
PHANTOM
  0
LAYER
  2
01___PRT_ALL_DTM_PLN
 70
     0
 62
     7
  6
CONTINUOUS
  0
LAYER
  2
01___PRT_DEF_DTM_PLN
 70
     0
 62
     7
  6
CONTINUOUS
  0
LAYER
  2
02___PRT_ALL_AXES
 70
     0
 62
     7
  6
CONTINUOUS
  0
LAYER
  2
03___PRT_ALL_CURVES
 70
     0
 62
     7
  6
CONTINUOUS
  0
LAYER
  2
04___PRT_ALL_DTM_PNT
 70
     0
 62
     7
  6
CONTINUOUS
  0
LAYER
  2
05___PRT_ALL_DTM_CSYS
 70
     0
 62
     7
  6
CONTINUOUS
  0
LAYER
  2
05___PRT_DEF_DTM_CSYS
 70
     0
 62
     7
  6
CONTINUOUS
  0
LAYER
  2
06___PRT_ALL_SURFS
 70
     0
 62
     7
  6
CONTINUOUS
  0
LAYER
  2
DEFPOINTS
 70
     0
 62
     7
  6
CONTINUOUS
  0
LAYER
  2
DIMENSIONS
 70
     0
 62
     2
  6
CONTINUOUS
  0
LAYER
  2
AM_5
 70
     0
 62
     3
  6
CONTINUOUS
  0
LAYER
  2
CUTOUT
 70
     0
 62
     7
  6
CONTINUOUS
  0
LAYER
  2
EXTERNAL_OUTFIT
 70
     0
 62
     7
  6
CENTER
  0
LAYER
  2
OUTLINES
 70
     0
 62
     4
  6
CONTINUOUS
  0
LAYER
  2
3
 70
     0
 62
     4
  6
CONTINUOUS
  0
ENDTAB
  0
TABLE
  2
STYLE
 70
     2
  0
STYLE
  2
STANDARD
 70
     0
 40
0.0
 41
1.0
 50
0.0
 71
     0
 42
0.2
  3
arial.ttf
  4

  0
STYLE
  2
TEXTSTYLE_1
 70
     0
 40
0.0
 41
0.8
 50
0.0
 71
     0
 42
0.2
  3
gdt
  4

  0
ENDTAB
  0
TABLE
  2
VIEW
 70
     0
  0
ENDTAB
  0
TABLE
  2
UCS
 70
     0
  0
ENDTAB
  0
TABLE
  2
APPID
 70
    10
  0
APPID
  2
ACAD
 70
     0
  0
APPID
  2
ACAECLAYERSTANDARD
 70
     0
  0
APPID
  2
ACAD_DSTYLE_DIMRADIAL_EXTE
 70
     0
  0
APPID
  2
ACAD_DSTYLE_DIMJOGGED_JOGA
 70
     0
  0
APPID
  2
ACAD_DSTYLE_DIMJAG
 70
     0
  0
APPID
  2
ACAD_DSTYLE_DIMBREAK
 70
     0
  0
APPID
  2
ACAD_PSEXT
 70
     0
  0
APPID
  2
ACAD_DSTYLE_DIMINSPECT
 70
     0
  0
APPID
  2
ACAD_DSTYLE_DIMRADIAL_EXT0
 70
     0
  0
APPID
  2
ACAD_DSTYLE_DIMJOGGED_JOG0
 70
     0
  0
ENDTAB
  0
TABLE
  2
DIMSTYLE
 70
     5
  0
DIMSTYLE
  2
STANDARD
 70
     0
  3

  4

  5

  6

  7

 40
1.0
 41
0.18
 42
0.0625
 43
0.38
 44
0.18
 45
0.0
 46
0.0
 47
0.0
 48
0.0
140
0.18
141
0.09
142
0.0
143
25.4
144
1.0
145
0.0
146
1.0
147
0.09
 71
     0
 72
     0
 73
     1
 74
     1
 75
     0
 76
     0
 77
     0
 78
     0
170
     0
171
     2
172
     0
173
     0
174
     0
175
     0
176
     0
177
     0
178
     0
  0
DIMSTYLE
  2
DUAL-DIM
 70
     0
  3

  4

  5

  6

  7

 40
1.0
 41
5.0
 42
1.5
 43
1.0
 44
0.18
 45
0.0
 46
0.0
 47
0.0
 48
0.0
140
5.0
141
2.5
142
0.0
143
0.03937
144
1.0
145
0.0
146
1.0
147
1.0
 71
     0
 72
     0
 73
     0
 74
     0
 75
     0
 76
     0
 77
     1
 78
     8
170
     1
171
     2
172
     0
173
     0
174
     0
175
     0
176
     0
177
     0
178
     5
  0
DIMSTYLE
  2
AM_ISO
 70
     0
  3

  4
"
  5

  6

  7

 40
1.0
 41
3.5
 42
1.0
 43
10.0
 44
1.0
 45
0.0
 46
0.0
 47
0.1
 48
0.1
140
3.5
141
0.0
142
0.0
143
0.0393701
144
1.0
145
0.0
146
0.71
147
1.5
 71
     0
 72
     0
 73
     0
 74
     0
 75
     0
 76
     0
 77
     1
 78
     8
170
     0
171
     2
172
     1
173
     0
174
     0
175
     0
176
   256
177
   256
178
     2
  0
DIMSTYLE
  2
AM_ISO$3
 70
     0
  3

  4
"
  5

  6

  7

 40
1.0
 41
3.5
 42
1.0
 43
10.0
 44
1.0
 45
0.0
 46
0.0
 47
0.1
 48
0.1
140
3.5
141
0.0
142
0.0
143
0.0393701
144
1.0
145
0.0
146
0.71
147
1.5
 71
     0
 72
     0
 73
     0
 74
     1
 75
     0
 76
     0
 77
     1
 78
     8
170
     0
171
     2
172
     0
173
     0
174
     0
175
     0
176
   256
177
   256
178
     2
  0
DIMSTYLE
  2
AM_ISO$0
 70
     0
  3

  4
"
  5

  6

  7

 40
1.0
 41
3.5
 42
1.0
 43
10.0
 44
1.0
 45
0.0
 46
0.0
 47
0.1
 48
0.1
140
3.5
141
0.0
142
0.0
143
0.0393701
144
1.0
145
0.0
146
0.71
147
1.5
 71
     0
 72
     0
 73
     0
 74
     0
 75
     0
 76
     0
 77
     1
 78
     8
170
     0
171
     2
172
     1
173
     0
174
     0
175
     0
176
   256
177
   256
178
     2
  0
ENDTAB
  0
ENDSEC
  0
SECTION
  2
BLOCKS
  0
BLOCK
  8
0
  2
$MODEL_SPACE
 70
     0
 10
0.0
 20
0.0
 30
0.0
  3
$MODEL_SPACE
  1

  0
ENDBLK
  5
110
  8
0
  0
BLOCK
 67
     1
  8
0
  2
$PAPER_SPACE
 70
     0
 10
0.0
 20
0.0
 30
0.0
  3
$PAPER_SPACE
  1

  0
ENDBLK
  5
112
 67
     1
  8
0
  0
BLOCK
  8
0
  2
_FILLED
 70
     0
 10
0.0
 20
0.0
 30
0.0
  3
_FILLED
  1

  0
SOLID
  5
3D
  8
0
  6
BYBLOCK
 62
     0
 10
0.0
 20
0.0
 30
0.0
 11
-1.0
 21
0.2
 31
0.0
 12
-1.0
 22
-0.2
 32
0.0
 13
-1.0
 23
-0.2
 33
0.0
  0
ENDBLK
  5
3E
  8
0
  6
BYBLOCK
 62
     0
  0
BLOCK
  8
0
  2
*X392
 70
     1
 10
0.0
 20
0.0
 30
0.0
  3
*X392
  1

  0
LINE
  5
23E5
  8
CUTOUT
 10
44.9999999999992
 20
1848.122292025696
 30
0.0
 11
51.87770797430312
 21
1855.0
 31
0.0
  0
LINE
  5
23E6
  8
CUTOUT
 10
44.99999999999915
 20
1772.992196524625
 30
0.0
 11
127.0078034753737
 21
1855.0
 31
0.0
  0
LINE
  5
23E7
  8
CUTOUT
 10
44.99999999999915
 20
1697.862101023554
 30
0.0
 11
202.1378989764444
 21
1855.0
 31
0.0
  0
LINE
  5
23E8
  8
CUTOUT
 10
44.99999999999926
 20
1622.732005522484
 30
0.0
 11
277.2679944775152
 21
1855.0
 31
0.0
  0
LINE
  5
23E9
  8
CUTOUT
 10
44.99999999999926
 20
1547.601910021413
 30
0.0
 11
352.3980899785858
 21
1855.0
 31
0.0
  0
LINE
  5
23EA
  8
CUTOUT
 10
47.528185479657
 20
1475.0
 30
0.0
 11
427.5281854796565
 21
1855.0
 31
0.0
  0
LINE
  5
23EB
  8
CUTOUT
 10
122.6582809807277
 20
1475.0
 30
0.0
 11
502.6582809807272
 21
1855.0
 31
0.0
  0
LINE
  5
23EC
  8
CUTOUT
 10
197.7883764817983
 20
1475.0
 30
0.0
 11
577.7883764817977
 21
1855.0
 31
0.0
  0
LINE
  5
23ED
  8
CUTOUT
 10
272.9184719828691
 20
1475.0
 30
0.0
 11
652.9184719828686
 21
1855.0
 31
0.0
  0
LINE
  5
23EE
  8
CUTOUT
 10
348.0485674839397
 20
1475.0
 30
0.0
 11
728.0485674839392
 21
1855.0
 31
0.0
  0
LINE
  5
23EF
  8
CUTOUT
 10
423.1786629850103
 20
1475.0
 30
0.0
 11
803.1786629850099
 21
1855.0
 31
0.0
  0
LINE
  5
23F0
  8
CUTOUT
 10
498.308758486081
 20
1475.0
 30
0.0
 11
854.9999999999991
 21
1831.691241513918
 31
0.0
  0
LINE
  5
23F1
  8
CUTOUT
 10
573.4388539871518
 20
1475.0
 30
0.0
 11
854.9999999999991
 21
1756.561146012848
 31
0.0
  0
LINE
  5
23F2
  8
CUTOUT
 10
648.5689494882224
 20
1475.0
 30
0.0
 11
854.9999999999991
 21
1681.431050511777
 31
0.0
  0
LINE
  5
23F3
  8
CUTOUT
 10
723.6990449892932
 20
1475.0
 30
0.0
 11
854.9999999999991
 21
1606.300955010706
 31
0.0
  0
LINE
  5
23F4
  8
CUTOUT
 10
798.8291404903637
 20
1475.0
 30
0.0
 11
854.9999999999991
 21
1531.170859509635
 31
0.0
  0
LINE
  5
23F5
  8
CUTOUT
 10
44.99999999999915
 20
495.7805730064233
 30
0.0
 11
49.21942699357606
 21
500.0000000000001
 31
0.0
  0
LINE
  5
23F6
  8
CUTOUT
 10
44.99999999999915
 20
420.6504775053526
 30
0.0
 11
124.3495224946467
 21
500.0000000000002
 31
0.0
  0
LINE
  5
23F7
  8
CUTOUT
 10
44.99999999999915
 20
345.5203820042818
 30
0.0
 11
199.4796179957174
 21
500.0000000000001
 31
0.0
  0
LINE
  5
23F8
  8
CUTOUT
 10
44.99999999999915
 20
270.3902865032112
 30
0.0
 11
274.6097134967881
 21
500.0000000000002
 31
0.0
  0
LINE
  5
23F9
  8
CUTOUT
 10
44.99999999999915
 20
195.2601910021406
 30
0.0
 11
349.7398089978587
 21
500.0000000000002
 31
0.0
  0
LINE
  5
23FA
  8
CUTOUT
 10
44.99999999999909
 20
120.1300955010698
 30
0.0
 11
424.8699044989294
 21
500.0000000000002
 31
0.0
  0
LINE
  5
23FB
  8
CUTOUT
 10
109.9999999999999
 20
110.0
 30
0.0
 11
500.0000000000001
 21
500.0000000000002
 31
0.0
  0
LINE
  5
23FC
  8
CUTOUT
 10
185.1300955010706
 20
110.0
 30
0.0
 11
575.1300955010707
 21
500.0000000000002
 31
0.0
  0
LINE
  5
23FD
  8
CUTOUT
 10
260.2601910021413
 20
110.0
 30
0.0
 11
650.2601910021414
 21
500.0000000000001
 31
0.0
  0
LINE
  5
23FE
  8
CUTOUT
 10
335.3902865032119
 20
110.0
 30
0.0
 11
725.3902865032119
 21
500.0000000000002
 31
0.0
  0
LINE
  5
23FF
  8
CUTOUT
 10
410.5203820042826
 20
110.0
 30
0.0
 11
800.5203820042827
 21
500.0000000000001
 31
0.0
  0
LINE
  5
2400
  8
CUTOUT
 10
485.6504775053533
 20
110.0
 30
0.0
 11
854.9999999999991
 21
479.349522494646
 31
0.0
  0
LINE
  5
2401
  8
CUTOUT
 10
560.780573006424
 20
110.0
 30
0.0
 11
854.9999999999991
 21
404.2194269935753
 31
0.0
  0
LINE
  5
2402
  8
CUTOUT
 10
635.9106685074946
 20
110.0000000000001
 30
0.0
 11
854.9999999999991
 21
329.0893314925046
 31
0.0
  0
LINE
  5
2403
  8
CUTOUT
 10
711.0407640085652
 20
110.0
 30
0.0
 11
854.9999999999991
 21
253.9592359914338
 31
0.0
  0
LINE
  5
2404
  8
CUTOUT
 10
786.170859509636
 20
110.0
 30
0.0
 11
854.9999999999991
 21
178.8291404903632
 31
0.0
  0
ENDBLK
  5
2405
  8
0
  0
BLOCK
  8
0
  2
*D393
 70
     1
 10
0.0
 20
0.0
 30
0.0
  3
*D393
  1

  0
LINE
  5
245B
  8
DIMENSIONS
  6
BYBLOCK
 62
     0
 10
249.8157182587157
 20
2273.403363573331
 30
0.0
 11
249.8157182587157
 21
2333.946391122704
 31
0.0
  0
LINE
  5
245C
  8
DIMENSIONS
  6
BYBLOCK
 62
     0
 10
1059.815718258716
 20
2273.403363573331
 30
0.0
 11
1059.815718258716
 21
2333.946391122704
 31
0.0
  0
LINE
  5
245D
  8
DIMENSIONS
  6
BYBLOCK
 62
     0
 10
254.8157182587157
 20
2333.766391122704
 30
0.0
 11
1054.815718258716
 21
2333.766391122704
 31
0.0
  0
SOLID
  5
245E
  8
DIMENSIONS
 62
     0
 10
254.8157182587157
 20
2334.599724456037
 30
0.0
 11
254.8157182587157
 21
2332.93305778937
 31
0.0
 12
249.8157182587157
 22
2333.766391122704
 32
0.0
 13
249.8157182587157
 23
2333.766391122704
 33
0.0
  0
SOLID
  5
245F
  8
DIMENSIONS
 62
     0
 10
1054.815718258716
 20
2332.93305778937
 30
0.0
 11
1054.815718258716
 21
2334.599724456037
 31
0.0
 12
1059.815718258716
 22
2333.766391122704
 32
0.0
 13
1059.815718258716
 23
2333.766391122704
 33
0.0
  0
TEXT
  5
2460
  8
DIMENSIONS
  6
CONTINUOUS
 62
     5
 10
637.4407182587156
 20
2336.161391122704
 30
0.0
 40
5.0
  1
810 [31.89]
  0
POINT
  5
2461
  8
DEFPOINTS
 62
     0
 10
249.8157182587157
 20
2271.903363573331
 30
0.0
  0
POINT
  5
2462
  8
DEFPOINTS
 62
     0
 10
1059.815718258716
 20
2271.903363573331
 30
0.0
  0
POINT
  5
2463
  8
DEFPOINTS
 62
     0
 10
1059.815718258716
 20
2333.766391122704
 30
0.0
  0
ENDBLK
  5
245A
  8
0
  0
BLOCK
  8
0
  2
*D394
 70
     1
 10
0.0
 20
0.0
 30
0.0
  3
*D394
  1

  0
LINE
  5
246A
  8
DIMENSIONS
  6
BYBLOCK
 62
     0
 10
1124.815718258715
 20
2268.403363573325
 30
0.0
 11
1124.815718258715
 21
2351.228691619741
 31
0.0
  0
LINE
  5
246B
  8
DIMENSIONS
  6
BYBLOCK
 62
     0
 10
184.8157182587145
 20
2268.403363573331
 30
0.0
 11
184.8157182587145
 21
2351.228691619741
 31
0.0
  0
LINE
  5
246C
  8
DIMENSIONS
  6
BYBLOCK
 62
     0
 10
1119.815718258715
 20
2351.048691619741
 30
0.0
 11
189.8157182587145
 21
2351.048691619741
 31
0.0
  0
SOLID
  5
246D
  8
DIMENSIONS
 62
     0
 10
1119.815718258715
 20
2350.215358286408
 30
0.0
 11
1119.815718258715
 21
2351.882024953075
 31
0.0
 12
1124.815718258715
 22
2351.048691619741
 32
0.0
 13
1124.815718258715
 23
2351.048691619741
 33
0.0
  0
SOLID
  5
246E
  8
DIMENSIONS
 62
     0
 10
189.8157182587145
 20
2351.882024953075
 30
0.0
 11
189.8157182587145
 21
2350.215358286408
 31
0.0
 12
184.8157182587145
 22
2351.048691619741
 32
0.0
 13
184.8157182587145
 23
2351.048691619741
 33
0.0
  0
TEXT
  5
246F
  8
DIMENSIONS
  6
CONTINUOUS
 62
     5
 10
637.4382182587149
 20
2353.443691619741
 30
0.0
 40
5.0
  1
940 [37.01]
  0
POINT
  5
2470
  8
DEFPOINTS
 62
     0
 10
1124.815718258715
 20
2266.903363573325
 30
0.0
  0
POINT
  5
2471
  8
DEFPOINTS
 62
     0
 10
184.8157182587145
 20
2266.903363573331
 30
0.0
  0
POINT
  5
2472
  8
DEFPOINTS
 62
     0
 10
184.8157182587145
 20
2351.048691619741
 30
0.0
  0
ENDBLK
  5
2469
  8
0
  0
BLOCK
  8
0
  2
*D395
 70
     1
 10
0.0
 20
0.0
 30
0.0
  3
*D395
  1

  0
LINE
  5
2479
  8
DIMENSIONS
  6
BYBLOCK
 62
     0
 10
174.8157182587149
 20
2318.403363573331
 30
0.0
 11
174.8157182587149
 21
2368.155899463899
 31
0.0
  0
LINE
  5
247A
  8
DIMENSIONS
  6
BYBLOCK
 62
     0
 10
1134.815718258715
 20
2318.403363573331
 30
0.0
 11
1134.815718258715
 21
2368.155899463899
 31
0.0
  0
LINE
  5
247B
  8
DIMENSIONS
  6
BYBLOCK
 62
     0
 10
179.8157182587149
 20
2367.975899463899
 30
0.0
 11
1129.815718258715
 21
2367.975899463899
 31
0.0
  0
SOLID
  5
247C
  8
DIMENSIONS
 62
     0
 10
179.8157182587149
 20
2368.809232797232
 30
0.0
 11
179.8157182587149
 21
2367.142566130565
 31
0.0
 12
174.8157182587149
 22
2367.975899463899
 32
0.0
 13
174.8157182587149
 23
2367.975899463899
 33
0.0
  0
SOLID
  5
247D
  8
DIMENSIONS
 62
     0
 10
1129.815718258715
 20
2367.142566130565
 30
0.0
 11
1129.815718258715
 21
2368.809232797232
 31
0.0
 12
1134.815718258715
 22
2367.975899463899
 32
0.0
 13
1134.815718258715
 23
2367.975899463899
 33
0.0
  0
TEXT
  5
247E
  8
DIMENSIONS
  6
CONTINUOUS
 62
     5
 10
637.438218258715
 20
2370.370899463899
 30
0.0
 40
5.0
  1
960 [37.80]
  0
POINT
  5
247F
  8
DEFPOINTS
 62
     0
 10
174.8157182587149
 20
2316.903363573331
 30
0.0
  0
POINT
  5
2480
  8
DEFPOINTS
 62
     0
 10
1134.815718258715
 20
2316.903363573331
 30
0.0
  0
POINT
  5
2481
  8
DEFPOINTS
 62
     0
 10
1134.815718258715
 20
2367.975899463899
 30
0.0
  0
ENDBLK
  5
2478
  8
0
  0
BLOCK
  8
0
  2
*D396
 70
     1
 10
0.0
 20
0.0
 30
0.0
  3
*D396
  1

  0
LINE
  5
2488
  8
DIMENSIONS
  6
BYBLOCK
 62
     0
 10
173.3157182587149
 20
2316.903363573331
 30
0.0
 11
158.0297881935711
 21
2316.903363573331
 31
0.0
  0
LINE
  5
2489
  8
DIMENSIONS
  6
BYBLOCK
 62
     0
 10
173.3157182587149
 20
2266.903363573331
 30
0.0
 11
158.0297881935711
 21
2266.903363573331
 31
0.0
  0
LINE
  5
248A
  8
DIMENSIONS
  6
BYBLOCK
 62
     0
 10
158.2097881935711
 20
2311.903363573331
 30
0.0
 11
158.2097881935711
 21
2271.903363573331
 31
0.0
  0
SOLID
  5
248B
  8
DIMENSIONS
 62
     0
 10
159.0431215269044
 20
2311.903363573331
 30
0.0
 11
157.3764548602377
 21
2311.903363573331
 31
0.0
 12
158.2097881935711
 22
2316.903363573331
 32
0.0
 13
158.2097881935711
 23
2316.903363573331
 33
0.0
  0
SOLID
  5
248C
  8
DIMENSIONS
 62
     0
 10
157.3764548602377
 20
2271.903363573331
 30
0.0
 11
159.0431215269044
 21
2271.903363573331
 31
0.0
 12
158.2097881935711
 22
2266.903363573331
 32
0.0
 13
158.2097881935711
 23
2266.903363573331
 33
0.0
  0
TEXT
  5
248D
  8
DIMENSIONS
  6
CONTINUOUS
 62
     5
 10
155.8147881935711
 20
2278.405863573331
 30
0.0
 40
5.0
  1
50 [1.97]
 50
90.0
  0
POINT
  5
248E
  8
DEFPOINTS
 62
     0
 10
174.8157182587149
 20
2316.903363573331
 30
0.0
  0
POINT
  5
248F
  8
DEFPOINTS
 62
     0
 10
174.8157182587149
 20
2266.903363573331
 30
0.0
  0
POINT
  5
2490
  8
DEFPOINTS
 62
     0
 10
158.2097881935711
 20
2266.903363573331
 30
0.0
  0
ENDBLK
  5
2487
  8
0
  0
BLOCK
  8
0
  2
*D397
 70
     1
 10
0.0
 20
0.0
 30
0.0
  3
*D397
  1

  0
LINE
  5
2497
  8
DIMENSIONS
  6
BYBLOCK
 62
     0
 10
173.3157182587149
 20
2266.903363573331
 30
0.0
 11
158.0297881935711
 21
2266.903363573331
 31
0.0
  0
LINE
  5
2498
  8
DIMENSIONS
  6
BYBLOCK
 62
     0
 10
183.3157182587145
 20
2041.903363573331
 30
0.0
 11
158.0297881935711
 21
2041.903363573331
 31
0.0
  0
LINE
  5
2499
  8
DIMENSIONS
  6
BYBLOCK
 62
     0
 10
158.2097881935711
 20
2261.903363573331
 30
0.0
 11
158.2097881935711
 21
2046.903363573331
 31
0.0
  0
SOLID
  5
249A
  8
DIMENSIONS
 62
     0
 10
159.0431215269044
 20
2261.903363573331
 30
0.0
 11
157.3764548602377
 21
2261.903363573331
 31
0.0
 12
158.2097881935711
 22
2266.903363573331
 32
0.0
 13
158.2097881935711
 23
2266.903363573331
 33
0.0
  0
SOLID
  5
249B
  8
DIMENSIONS
 62
     0
 10
157.3764548602377
 20
2046.903363573331
 30
0.0
 11
159.0431215269044
 21
2046.903363573331
 31
0.0
 12
158.2097881935711
 22
2041.903363573331
 32
0.0
 13
158.2097881935711
 23
2041.903363573331
 33
0.0
  0
TEXT
  5
249C
  8
DIMENSIONS
  6
CONTINUOUS
 62
     5
 10
155.8147881935711
 20
2139.008363573331
 30
0.0
 40
5.0
  1
225 [8.86]
 50
90.0
  0
POINT
  5
249D
  8
DEFPOINTS
 62
     0
 10
174.8157182587149
 20
2266.903363573331
 30
0.0
  0
POINT
  5
249E
  8
DEFPOINTS
 62
     0
 10
184.8157182587145
 20
2041.903363573331
 30
0.0
  0
POINT
  5
249F
  8
DEFPOINTS
 62
     0
 10
158.2097881935711
 20
2041.903363573331
 30
0.0
  0
ENDBLK
  5
2496
  8
0
  0
BLOCK
  8
0
  2
*D398
 70
     1
 10
0.0
 20
0.0
 30
0.0
  3
*D398
  1

  0
LINE
  5
24A6
  8
DIMENSIONS
  6
BYBLOCK
 62
     0
 10
183.3157182587145
 20
2041.903363573331
 30
0.0
 11
158.0297881935711
 21
2041.903363573331
 31
0.0
  0
LINE
  5
24A7
  8
DIMENSIONS
  6
BYBLOCK
 62
     0
 10
183.3157182587146
 20
1816.903363573331
 30
0.0
 11
158.0297881935711
 21
1816.903363573331
 31
0.0
  0
LINE
  5
24A8
  8
DIMENSIONS
  6
BYBLOCK
 62
     0
 10
158.2097881935711
 20
2036.903363573331
 30
0.0
 11
158.2097881935711
 21
1821.903363573331
 31
0.0
  0
SOLID
  5
24A9
  8
DIMENSIONS
 62
     0
 10
159.0431215269044
 20
2036.903363573331
 30
0.0
 11
157.3764548602377
 21
2036.903363573331
 31
0.0
 12
158.2097881935711
 22
2041.903363573331
 32
0.0
 13
158.2097881935711
 23
2041.903363573331
 33
0.0
  0
SOLID
  5
24AA
  8
DIMENSIONS
 62
     0
 10
157.3764548602377
 20
1821.903363573331
 30
0.0
 11
159.0431215269044
 21
1821.903363573331
 31
0.0
 12
158.2097881935711
 22
1816.903363573331
 32
0.0
 13
158.2097881935711
 23
1816.903363573331
 33
0.0
  0
TEXT
  5
24AB
  8
DIMENSIONS
  6
CONTINUOUS
 62
     5
 10
155.8147881935711
 20
1914.008363573331
 30
0.0
 40
5.0
  1
225 [8.86]
 50
90.0
  0
POINT
  5
24AC
  8
DEFPOINTS
 62
     0
 10
184.8157182587145
 20
2041.903363573331
 30
0.0
  0
POINT
  5
24AD
  8
DEFPOINTS
 62
     0
 10
184.8157182587146
 20
1816.903363573331
 30
0.0
  0
POINT
  5
24AE
  8
DEFPOINTS
 62
     0
 10
158.2097881935711
 20
1816.903363573331
 30
0.0
  0
ENDBLK
  5
24A5
  8
0
  0
BLOCK
  8
0
  2
*D399
 70
     1
 10
0.0
 20
0.0
 30
0.0
  3
*D399
  1

  0
LINE
  5
24B5
  8
DIMENSIONS
  6
BYBLOCK
 62
     0
 10
183.3157182587146
 20
1816.903363573331
 30
0.0
 11
158.0297881935711
 21
1816.903363573331
 31
0.0
  0
LINE
  5
24B6
  8
DIMENSIONS
  6
BYBLOCK
 62
     0
 10
183.3157182587146
 20
1591.903363573331
 30
0.0
 11
158.0297881935711
 21
1591.903363573331
 31
0.0
  0
LINE
  5
24B7
  8
DIMENSIONS
  6
BYBLOCK
 62
     0
 10
158.2097881935711
 20
1811.903363573331
 30
0.0
 11
158.2097881935711
 21
1596.903363573331
 31
0.0
  0
SOLID
  5
24B8
  8
DIMENSIONS
 62
     0
 10
159.0431215269044
 20
1811.903363573331
 30
0.0
 11
157.3764548602377
 21
1811.903363573331
 31
0.0
 12
158.2097881935711
 22
1816.903363573331
 32
0.0
 13
158.2097881935711
 23
1816.903363573331
 33
0.0
  0
SOLID
  5
24B9
  8
DIMENSIONS
 62
     0
 10
157.3764548602377
 20
1596.903363573331
 30
0.0
 11
159.0431215269044
 21
1596.903363573331
 31
0.0
 12
158.2097881935711
 22
1591.903363573331
 32
0.0
 13
158.2097881935711
 23
1591.903363573331
 33
0.0
  0
TEXT
  5
24BA
  8
DIMENSIONS
  6
CONTINUOUS
 62
     5
 10
155.8147881935708
 20
1689.008363573331
 30
0.0
 40
5.0
  1
225 [8.86]
 50
90.0
  0
POINT
  5
24BB
  8
DEFPOINTS
 62
     0
 10
184.8157182587146
 20
1816.903363573331
 30
0.0
  0
POINT
  5
24BC
  8
DEFPOINTS
 62
     0
 10
184.8157182587146
 20
1591.903363573331
 30
0.0
  0
POINT
  5
24BD
  8
DEFPOINTS
 62
     0
 10
158.2097881935711
 20
1591.903363573331
 30
0.0
  0
ENDBLK
  5
24B4
  8
0
  0
BLOCK
  8
0
  2
*D401
 70
     1
 10
0.0
 20
0.0
 30
0.0
  3
*D401
  1

  0
LINE
  5
24D3
  8
DIMENSIONS
  6
BYBLOCK
 62
     0
 10
183.3157182587146
 20
1591.903363573331
 30
0.0
 11
158.0297881935711
 21
1591.903363573331
 31
0.0
  0
LINE
  5
24D4
  8
DIMENSIONS
  6
BYBLOCK
 62
     0
 10
183.3157182587147
 20
1366.903363573331
 30
0.0
 11
158.0297881935711
 21
1366.903363573331
 31
0.0
  0
LINE
  5
24D5
  8
DIMENSIONS
  6
BYBLOCK
 62
     0
 10
158.2097881935711
 20
1586.903363573331
 30
0.0
 11
158.2097881935711
 21
1371.903363573331
 31
0.0
  0
SOLID
  5
24D6
  8
DIMENSIONS
 62
     0
 10
159.0431215269044
 20
1586.903363573331
 30
0.0
 11
157.3764548602377
 21
1586.903363573331
 31
0.0
 12
158.2097881935711
 22
1591.903363573331
 32
0.0
 13
158.2097881935711
 23
1591.903363573331
 33
0.0
  0
SOLID
  5
24D7
  8
DIMENSIONS
 62
     0
 10
157.3764548602377
 20
1371.903363573331
 30
0.0
 11
159.0431215269044
 21
1371.903363573331
 31
0.0
 12
158.2097881935711
 22
1366.903363573331
 32
0.0
 13
158.2097881935711
 23
1366.903363573331
 33
0.0
  0
TEXT
  5
24D8
  8
DIMENSIONS
  6
CONTINUOUS
 62
     5
 10
155.8147881935708
 20
1464.008363573331
 30
0.0
 40
5.0
  1
225 [8.86]
 50
90.0
  0
POINT
  5
24D9
  8
DEFPOINTS
 62
     0
 10
184.8157182587146
 20
1591.903363573331
 30
0.0
  0
POINT
  5
24DA
  8
DEFPOINTS
 62
     0
 10
184.8157182587147
 20
1366.903363573331
 30
0.0
  0
POINT
  5
24DB
  8
DEFPOINTS
 62
     0
 10
158.2097881935711
 20
1366.903363573331
 30
0.0
  0
ENDBLK
  5
24D2
  8
0
  0
BLOCK
  8
0
  2
*D402
 70
     1
 10
0.0
 20
0.0
 30
0.0
  3
*D402
  1

  0
LINE
  5
24E2
  8
DIMENSIONS
  6
BYBLOCK
 62
     0
 10
183.3157182587147
 20
1366.903363573331
 30
0.0
 11
158.0297881935711
 21
1366.903363573331
 31
0.0
  0
LINE
  5
24E3
  8
DIMENSIONS
  6
BYBLOCK
 62
     0
 10
183.3157182587148
 20
1141.903363573331
 30
0.0
 11
158.0297881935711
 21
1141.903363573331
 31
0.0
  0
LINE
  5
24E4
  8
DIMENSIONS
  6
BYBLOCK
 62
     0
 10
158.2097881935711
 20
1361.903363573331
 30
0.0
 11
158.2097881935711
 21
1146.903363573331
 31
0.0
  0
SOLID
  5
24E5
  8
DIMENSIONS
 62
     0
 10
159.0431215269044
 20
1361.903363573331
 30
0.0
 11
157.3764548602377
 21
1361.903363573331
 31
0.0
 12
158.2097881935711
 22
1366.903363573331
 32
0.0
 13
158.2097881935711
 23
1366.903363573331
 33
0.0
  0
SOLID
  5
24E6
  8
DIMENSIONS
 62
     0
 10
157.3764548602377
 20
1146.903363573331
 30
0.0
 11
159.0431215269044
 21
1146.903363573331
 31
0.0
 12
158.2097881935711
 22
1141.903363573331
 32
0.0
 13
158.2097881935711
 23
1141.903363573331
 33
0.0
  0
TEXT
  5
24E7
  8
DIMENSIONS
  6
CONTINUOUS
 62
     5
 10
155.8147881935708
 20
1239.008363573331
 30
0.0
 40
5.0
  1
225 [8.86]
 50
90.0
  0
POINT
  5
24E8
  8
DEFPOINTS
 62
     0
 10
184.8157182587147
 20
1366.903363573331
 30
0.0
  0
POINT
  5
24E9
  8
DEFPOINTS
 62
     0
 10
184.8157182587148
 20
1141.903363573331
 30
0.0
  0
POINT
  5
24EA
  8
DEFPOINTS
 62
     0
 10
158.2097881935711
 20
1141.903363573331
 30
0.0
  0
ENDBLK
  5
24E1
  8
0
  0
BLOCK
  8
0
  2
*D403
 70
     1
 10
0.0
 20
0.0
 30
0.0
  3
*D403
  1

  0
LINE
  5
24F1
  8
DIMENSIONS
  6
BYBLOCK
 62
     0
 10
183.3157182587148
 20
1141.903363573331
 30
0.0
 11
158.0297881935711
 21
1141.903363573331
 31
0.0
  0
LINE
  5
24F2
  8
DIMENSIONS
  6
BYBLOCK
 62
     0
 10
183.3157182587148
 20
916.9033635733313
 30
0.0
 11
158.0297881935711
 21
916.9033635733313
 31
0.0
  0
LINE
  5
24F3
  8
DIMENSIONS
  6
BYBLOCK
 62
     0
 10
158.2097881935711
 20
1136.903363573331
 30
0.0
 11
158.2097881935711
 21
921.9033635733313
 31
0.0
  0
SOLID
  5
24F4
  8
DIMENSIONS
 62
     0
 10
159.0431215269044
 20
1136.903363573331
 30
0.0
 11
157.3764548602377
 21
1136.903363573331
 31
0.0
 12
158.2097881935711
 22
1141.903363573331
 32
0.0
 13
158.2097881935711
 23
1141.903363573331
 33
0.0
  0
SOLID
  5
24F5
  8
DIMENSIONS
 62
     0
 10
157.3764548602377
 20
921.9033635733313
 30
0.0
 11
159.0431215269044
 21
921.9033635733313
 31
0.0
 12
158.2097881935711
 22
916.9033635733313
 32
0.0
 13
158.2097881935711
 23
916.9033635733313
 33
0.0
  0
TEXT
  5
24F6
  8
DIMENSIONS
  6
CONTINUOUS
 62
     5
 10
155.8147881935708
 20
1014.008363573331
 30
0.0
 40
5.0
  1
225 [8.86]
 50
90.0
  0
POINT
  5
24F7
  8
DEFPOINTS
 62
     0
 10
184.8157182587148
 20
1141.903363573331
 30
0.0
  0
POINT
  5
24F8
  8
DEFPOINTS
 62
     0
 10
184.8157182587148
 20
916.9033635733313
 30
0.0
  0
POINT
  5
24F9
  8
DEFPOINTS
 62
     0
 10
158.2097881935711
 20
916.9033635733313
 30
0.0
  0
ENDBLK
  5
24F0
  8
0
  0
BLOCK
  8
0
  2
*D404
 70
     1
 10
0.0
 20
0.0
 30
0.0
  3
*D404
  1

  0
LINE
  5
2500
  8
DIMENSIONS
  6
BYBLOCK
 62
     0
 10
183.3157182587148
 20
916.9033635733313
 30
0.0
 11
158.0297881935711
 21
916.9033635733313
 31
0.0
  0
LINE
  5
2501
  8
DIMENSIONS
  6
BYBLOCK
 62
     0
 10
183.3157182587149
 20
691.9033635733313
 30
0.0
 11
158.0297881935711
 21
691.9033635733313
 31
0.0
  0
LINE
  5
2502
  8
DIMENSIONS
  6
BYBLOCK
 62
     0
 10
158.2097881935711
 20
911.9033635733313
 30
0.0
 11
158.2097881935711
 21
696.9033635733313
 31
0.0
  0
SOLID
  5
2503
  8
DIMENSIONS
 62
     0
 10
159.0431215269044
 20
911.9033635733313
 30
0.0
 11
157.3764548602377
 21
911.9033635733313
 31
0.0
 12
158.2097881935711
 22
916.9033635733313
 32
0.0
 13
158.2097881935711
 23
916.9033635733313
 33
0.0
  0
SOLID
  5
2504
  8
DIMENSIONS
 62
     0
 10
157.3764548602377
 20
696.9033635733313
 30
0.0
 11
159.0431215269044
 21
696.9033635733313
 31
0.0
 12
158.2097881935711
 22
691.9033635733313
 32
0.0
 13
158.2097881935711
 23
691.9033635733313
 33
0.0
  0
TEXT
  5
2505
  8
DIMENSIONS
  6
CONTINUOUS
 62
     5
 10
155.8147881935711
 20
789.0083635733313
 30
0.0
 40
5.0
  1
225 [8.86]
 50
90.0
  0
POINT
  5
2506
  8
DEFPOINTS
 62
     0
 10
184.8157182587148
 20
916.9033635733313
 30
0.0
  0
POINT
  5
2507
  8
DEFPOINTS
 62
     0
 10
184.8157182587149
 20
691.9033635733313
 30
0.0
  0
POINT
  5
2508
  8
DEFPOINTS
 62
     0
 10
158.2097881935711
 20
691.9033635733313
 30
0.0
  0
ENDBLK
  5
24FF
  8
0
  0
BLOCK
  8
0
  2
*D405
 70
     1
 10
0.0
 20
0.0
 30
0.0
  3
*D405
  1

  0
LINE
  5
250F
  8
DIMENSIONS
  6
BYBLOCK
 62
     0
 10
183.3157182587149
 20
691.9033635733313
 30
0.0
 11
158.0297881935711
 21
691.9033635733313
 31
0.0
  0
LINE
  5
2510
  8
DIMENSIONS
  6
BYBLOCK
 62
     0
 10
183.3157182587149
 20
466.9033635733313
 30
0.0
 11
158.0297881935711
 21
466.9033635733313
 31
0.0
  0
LINE
  5
2511
  8
DIMENSIONS
  6
BYBLOCK
 62
     0
 10
158.2097881935711
 20
686.9033635733313
 30
0.0
 11
158.2097881935711
 21
471.9033635733313
 31
0.0
  0
SOLID
  5
2512
  8
DIMENSIONS
 62
     0
 10
159.0431215269044
 20
686.9033635733313
 30
0.0
 11
157.3764548602377
 21
686.9033635733313
 31
0.0
 12
158.2097881935711
 22
691.9033635733313
 32
0.0
 13
158.2097881935711
 23
691.9033635733313
 33
0.0
  0
SOLID
  5
2513
  8
DIMENSIONS
 62
     0
 10
157.3764548602377
 20
471.9033635733313
 30
0.0
 11
159.0431215269044
 21
471.9033635733313
 31
0.0
 12
158.2097881935711
 22
466.9033635733313
 32
0.0
 13
158.2097881935711
 23
466.9033635733313
 33
0.0
  0
TEXT
  5
2514
  8
DIMENSIONS
  6
CONTINUOUS
 62
     5
 10
155.8147881935711
 20
564.0083635733313
 30
0.0
 40
5.0
  1
225 [8.86]
 50
90.0
  0
POINT
  5
2515
  8
DEFPOINTS
 62
     0
 10
184.8157182587149
 20
691.9033635733313
 30
0.0
  0
POINT
  5
2516
  8
DEFPOINTS
 62
     0
 10
184.8157182587149
 20
466.9033635733313
 30
0.0
  0
POINT
  5
2517
  8
DEFPOINTS
 62
     0
 10
158.2097881935711
 20
466.9033635733313
 30
0.0
  0
ENDBLK
  5
250E
  8
0
  0
BLOCK
  8
0
  2
*D406
 70
     1
 10
0.0
 20
0.0
 30
0.0
  3
*D406
  1

  0
LINE
  5
251E
  8
DIMENSIONS
  6
BYBLOCK
 62
     0
 10
183.3157182587149
 20
466.9033635733313
 30
0.0
 11
158.0297881935711
 21
466.9033635733313
 31
0.0
  0
LINE
  5
251F
  8
DIMENSIONS
  6
BYBLOCK
 62
     0
 10
173.3157182587149
 20
416.9033635733313
 30
0.0
 11
158.0297881935711
 21
416.9033635733313
 31
0.0
  0
LINE
  5
2520
  8
DIMENSIONS
  6
BYBLOCK
 62
     0
 10
158.2097881935711
 20
461.9033635733313
 30
0.0
 11
158.2097881935711
 21
421.9033635733313
 31
0.0
  0
SOLID
  5
2521
  8
DIMENSIONS
 62
     0
 10
159.0431215269044
 20
461.9033635733313
 30
0.0
 11
157.3764548602377
 21
461.9033635733313
 31
0.0
 12
158.2097881935711
 22
466.9033635733313
 32
0.0
 13
158.2097881935711
 23
466.9033635733313
 33
0.0
  0
SOLID
  5
2522
  8
DIMENSIONS
 62
     0
 10
157.3764548602377
 20
421.9033635733313
 30
0.0
 11
159.0431215269044
 21
421.9033635733313
 31
0.0
 12
158.2097881935711
 22
416.9033635733313
 32
0.0
 13
158.2097881935711
 23
416.9033635733313
 33
0.0
  0
TEXT
  5
2523
  8
DIMENSIONS
  6
CONTINUOUS
 62
     5
 10
155.8147881935711
 20
428.4058635733313
 30
0.0
 40
5.0
  1
50 [1.97]
 50
90.0
  0
POINT
  5
2524
  8
DEFPOINTS
 62
     0
 10
184.8157182587149
 20
466.9033635733313
 30
0.0
  0
POINT
  5
2525
  8
DEFPOINTS
 62
     0
 10
174.8157182587149
 20
416.9033635733313
 30
0.0
  0
POINT
  5
2526
  8
DEFPOINTS
 62
     0
 10
158.2097881935711
 20
416.9033635733313
 30
0.0
  0
ENDBLK
  5
251D
  8
0
  0
BLOCK
  8
0
  2
*D407
 70
     1
 10
0.0
 20
0.0
 30
0.0
  3
*D407
  1

  0
LINE
  5
2543
  8
DIMENSIONS
  6
BYBLOCK
 62
     0
 10
1136.315718258715
 20
2316.903363573331
 30
0.0
 11
1153.512922929298
 21
2316.903363573331
 31
0.0
  0
LINE
  5
2544
  8
DIMENSIONS
  6
BYBLOCK
 62
     0
 10
1061.315718258716
 20
2271.903363573331
 30
0.0
 11
1153.512922929298
 21
2271.903363573331
 31
0.0
  0
LINE
  5
2545
  8
DIMENSIONS
  6
BYBLOCK
 62
     0
 10
1153.332922929298
 20
2311.903363573331
 30
0.0
 11
1153.332922929298
 21
2276.903363573331
 31
0.0
  0
SOLID
  5
2546
  8
DIMENSIONS
 62
     0
 10
1154.166256262631
 20
2311.903363573331
 30
0.0
 11
1152.499589595965
 21
2311.903363573331
 31
0.0
 12
1153.332922929298
 22
2316.903363573331
 32
0.0
 13
1153.332922929298
 23
2316.903363573331
 33
0.0
  0
SOLID
  5
2547
  8
DIMENSIONS
 62
     0
 10
1152.499589595965
 20
2276.903363573331
 30
0.0
 11
1154.166256262631
 21
2276.903363573331
 31
0.0
 12
1153.332922929298
 22
2271.903363573331
 32
0.0
 13
1153.332922929298
 23
2271.903363573331
 33
0.0
  0
TEXT
  5
2548
  8
DIMENSIONS
  6
CONTINUOUS
 62
     5
 10
1150.937922929298
 20
2281.005863573331
 30
0.0
 40
5.0
  1
45 [1.77]
 50
90.0
  0
POINT
  5
2549
  8
DEFPOINTS
 62
     0
 10
1134.815718258715
 20
2316.903363573331
 30
0.0
  0
POINT
  5
254A
  8
DEFPOINTS
 62
     0
 10
1059.815718258716
 20
2271.903363573331
 30
0.0
  0
POINT
  5
254B
  8
DEFPOINTS
 62
     0
 10
1153.332922929298
 20
2271.903363573331
 30
0.0
  0
ENDBLK
  5
2542
  8
0
  0
BLOCK
  8
0
  2
*D408
 70
     1
 10
0.0
 20
0.0
 30
0.0
  3
*D408
  1

  0
LINE
  5
2552
  8
DIMENSIONS
  6
BYBLOCK
 62
     0
 10
1061.315718258716
 20
2271.903363573331
 30
0.0
 11
1153.512922929298
 21
2271.903363573331
 31
0.0
  0
LINE
  5
2553
  8
DIMENSIONS
  6
BYBLOCK
 62
     0
 10
1061.315718258716
 20
1891.903363573331
 30
0.0
 11
1153.512922929298
 21
1891.903363573331
 31
0.0
  0
LINE
  5
2554
  8
DIMENSIONS
  6
BYBLOCK
 62
     0
 10
1153.332922929298
 20
2266.903363573331
 30
0.0
 11
1153.332922929298
 21
1896.903363573331
 31
0.0
  0
SOLID
  5
2555
  8
DIMENSIONS
 62
     0
 10
1154.166256262631
 20
2266.903363573331
 30
0.0
 11
1152.499589595965
 21
2266.903363573331
 31
0.0
 12
1153.332922929298
 22
2271.903363573331
 32
0.0
 13
1153.332922929298
 23
2271.903363573331
 33
0.0
  0
SOLID
  5
2556
  8
DIMENSIONS
 62
     0
 10
1152.499589595965
 20
1896.903363573331
 30
0.0
 11
1154.166256262631
 21
1896.903363573331
 31
0.0
 12
1153.332922929298
 22
1891.903363573331
 32
0.0
 13
1153.332922929298
 23
1891.903363573331
 33
0.0
  0
TEXT
  5
2557
  8
DIMENSIONS
  6
CONTINUOUS
 62
     5
 10
1150.937922929298
 20
2064.523363573331
 30
0.0
 40
5.0
  1
380 [14.96]
 50
90.0
  0
POINT
  5
2558
  8
DEFPOINTS
 62
     0
 10
1059.815718258716
 20
2271.903363573331
 30
0.0
  0
POINT
  5
2559
  8
DEFPOINTS
 62
     0
 10
1059.815718258716
 20
1891.903363573331
 30
0.0
  0
POINT
  5
255A
  8
DEFPOINTS
 62
     0
 10
1153.332922929298
 20
1891.903363573331
 30
0.0
  0
ENDBLK
  5
2551
  8
0
  0
BLOCK
  8
0
  2
*D409
 70
     1
 10
0.0
 20
0.0
 30
0.0
  3
*D409
  1

  0
LINE
  5
2561
  8
DIMENSIONS
  6
BYBLOCK
 62
     0
 10
1061.315718258716
 20
1891.903363573331
 30
0.0
 11
1153.512922929298
 21
1891.903363573331
 31
0.0
  0
LINE
  5
2562
  8
DIMENSIONS
  6
BYBLOCK
 62
     0
 10
1061.315718258716
 20
916.9033635733314
 30
0.0
 11
1153.512922929298
 21
916.9033635733314
 31
0.0
  0
LINE
  5
2563
  8
DIMENSIONS
  6
BYBLOCK
 62
     0
 10
1153.332922929298
 20
1886.903363573331
 30
0.0
 11
1153.332922929298
 21
921.9033635733314
 31
0.0
  0
SOLID
  5
2564
  8
DIMENSIONS
 62
     0
 10
1154.166256262631
 20
1886.903363573331
 30
0.0
 11
1152.499589595965
 21
1886.903363573331
 31
0.0
 12
1153.332922929298
 22
1891.903363573331
 32
0.0
 13
1153.332922929298
 23
1891.903363573331
 33
0.0
  0
SOLID
  5
2565
  8
DIMENSIONS
 62
     0
 10
1152.499589595965
 20
921.9033635733314
 30
0.0
 11
1154.166256262631
 21
921.9033635733314
 31
0.0
 12
1153.332922929298
 22
916.9033635733314
 32
0.0
 13
1153.332922929298
 23
916.9033635733314
 33
0.0
  0
TEXT
  5
2566
  8
DIMENSIONS
  6
CONTINUOUS
 62
     5
 10
1150.937922929298
 20
1387.025863573331
 30
0.0
 40
5.0
  1
975 [38.39]
 50
90.0
  0
POINT
  5
2567
  8
DEFPOINTS
 62
     0
 10
1059.815718258716
 20
1891.903363573331
 30
0.0
  0
POINT
  5
2568
  8
DEFPOINTS
 62
     0
 10
1059.815718258716
 20
916.9033635733314
 30
0.0
  0
POINT
  5
2569
  8
DEFPOINTS
 62
     0
 10
1153.332922929298
 20
916.9033635733314
 30
0.0
  0
ENDBLK
  5
2560
  8
0
  0
BLOCK
  8
0
  2
*D410
 70
     1
 10
0.0
 20
0.0
 30
0.0
  3
*D410
  1

  0
LINE
  5
2570
  8
DIMENSIONS
  6
BYBLOCK
 62
     0
 10
1061.315718258716
 20
916.9033635733314
 30
0.0
 11
1153.512922929298
 21
916.9033635733314
 31
0.0
  0
LINE
  5
2571
  8
DIMENSIONS
  6
BYBLOCK
 62
     0
 10
1061.315718258716
 20
526.9033635733313
 30
0.0
 11
1153.512922929298
 21
526.9033635733313
 31
0.0
  0
LINE
  5
2572
  8
DIMENSIONS
  6
BYBLOCK
 62
     0
 10
1153.332922929298
 20
911.9033635733314
 30
0.0
 11
1153.332922929298
 21
531.9033635733313
 31
0.0
  0
SOLID
  5
2573
  8
DIMENSIONS
 62
     0
 10
1154.166256262631
 20
911.9033635733314
 30
0.0
 11
1152.499589595965
 21
911.9033635733314
 31
0.0
 12
1153.332922929298
 22
916.9033635733314
 32
0.0
 13
1153.332922929298
 23
916.9033635733314
 33
0.0
  0
SOLID
  5
2574
  8
DIMENSIONS
 62
     0
 10
1152.499589595965
 20
531.9033635733313
 30
0.0
 11
1154.166256262631
 21
531.9033635733313
 31
0.0
 12
1153.332922929298
 22
526.9033635733313
 32
0.0
 13
1153.332922929298
 23
526.9033635733313
 33
0.0
  0
TEXT
  5
2575
  8
DIMENSIONS
  6
CONTINUOUS
 62
     5
 10
1150.937922929298
 20
704.5233635733312
 30
0.0
 40
5.0
  1
390 [15.35]
 50
90.0
  0
POINT
  5
2576
  8
DEFPOINTS
 62
     0
 10
1059.815718258716
 20
916.9033635733314
 30
0.0
  0
POINT
  5
2577
  8
DEFPOINTS
 62
     0
 10
1059.815718258716
 20
526.9033635733313
 30
0.0
  0
POINT
  5
2578
  8
DEFPOINTS
 62
     0
 10
1153.332922929298
 20
526.9033635733313
 30
0.0
  0
ENDBLK
  5
256F
  8
0
  0
BLOCK
  8
0
  2
*D411
 70
     1
 10
0.0
 20
0.0
 30
0.0
  3
*D411
  1

  0
LINE
  5
257F
  8
DIMENSIONS
  6
BYBLOCK
 62
     0
 10
1061.315718258716
 20
526.9033635733313
 30
0.0
 11
1153.512922929298
 21
526.9033635733313
 31
0.0
  0
LINE
  5
2580
  8
DIMENSIONS
  6
BYBLOCK
 62
     0
 10
1136.315718258715
 20
416.9033635733313
 30
0.0
 11
1153.512922929298
 21
416.9033635733313
 31
0.0
  0
LINE
  5
2581
  8
DIMENSIONS
  6
BYBLOCK
 62
     0
 10
1153.332922929298
 20
521.9033635733313
 30
0.0
 11
1153.332922929298
 21
421.9033635733313
 31
0.0
  0
SOLID
  5
2582
  8
DIMENSIONS
 62
     0
 10
1154.166256262631
 20
521.9033635733313
 30
0.0
 11
1152.499589595965
 21
521.9033635733313
 31
0.0
 12
1153.332922929298
 22
526.9033635733313
 32
0.0
 13
1153.332922929298
 23
526.9033635733313
 33
0.0
  0
SOLID
  5
2583
  8
DIMENSIONS
 62
     0
 10
1152.499589595965
 20
421.9033635733313
 30
0.0
 11
1154.166256262631
 21
421.9033635733313
 31
0.0
 12
1153.332922929298
 22
416.9033635733313
 32
0.0
 13
1153.332922929298
 23
416.9033635733313
 33
0.0
  0
TEXT
  5
2584
  8
DIMENSIONS
  6
CONTINUOUS
 62
     5
 10
1150.937922929298
 20
456.2308635733314
 30
0.0
 40
5.0
  1
110 [4.33]
 50
90.0
  0
POINT
  5
2585
  8
DEFPOINTS
 62
     0
 10
1059.815718258716
 20
526.9033635733313
 30
0.0
  0
POINT
  5
2586
  8
DEFPOINTS
 62
     0
 10
1134.815718258715
 20
416.9033635733313
 30
0.0
  0
POINT
  5
2587
  8
DEFPOINTS
 62
     0
 10
1153.332922929298
 20
416.9033635733313
 30
0.0
  0
ENDBLK
  5
257E
  8
0
  0
BLOCK
  8
0
  2
*D412
 70
     1
 10
0.0
 20
0.0
 30
0.0
  3
*D412
  1

  0
LINE
  5
258E
  8
DIMENSIONS
  6
BYBLOCK
 62
     0
 10
1114.815719137807
 20
466.8991705048907
 30
0.0
 11
1070.530723030862
 21
466.8806015013297
 31
0.0
  0
TEXT
  5
258F
  8
DIMENSIONS
  6
CONTINUOUS
 62
     5
 10
1071.24968518313
 20
469.3559031846819
 30
0.0
 40
5.0
  1
Ø10 [Ø0.39]
 50
0.0240245131531003
  0
SOLID
  5
2590
  8
DIMENSIONS
 62
     0
 10
1114.816068560176
 20
466.065837244815
 30
0.0
 11
1114.815369715437
 21
467.7325037649665
 31
0.0
 12
1119.815718698261
 22
466.9012670391078
 32
0.0
 13
1119.815718698261
 23
466.9012670391078
 33
0.0
  0
LINE
  5
2591
  8
DIMENSIONS
  6
BYBLOCK
 62
     0
 10
1122.315718258716
 20
466.903363573325
 30
0.0
 11
1127.315718258716
 21
466.903363573325
 31
0.0
  0
LINE
  5
2592
  8
DIMENSIONS
  6
BYBLOCK
 62
     0
 10
1124.815718258716
 20
464.403363573325
 30
0.0
 11
1124.815718258716
 21
469.403363573325
 31
0.0
  0
POINT
  5
2593
  8
DEFPOINTS
 62
     0
 10
1119.815718698261
 20
466.9012670391078
 30
0.0
  0
POINT
  5
2594
  8
DEFPOINTS
 62
     0
 10
1129.81571781917
 20
466.9054601075421
 30
0.0
  0
ENDBLK
  5
258D
  8
0
  0
BLOCK
  8
0
  2
*X415
 70
     1
 10
0.0
 20
0.0
 30
0.0
  3
*X415
  1

  0
LINE
  5
262E
  8
CUTOUT
 10
67.9999999999998
 20
598.3300858899105
 30
0.0
 11
95.41991411008925
 21
625.75
 31
0.0
  0
LINE
  5
262F
  8
CUTOUT
 10
67.9999999999998
 20
554.1359120657512
 30
0.0
 11
139.6140879342485
 21
625.75
 31
0.0
  0
LINE
  5
2630
  8
CUTOUT
 10
67.9999999999998
 20
509.941738241592
 30
0.0
 11
183.8082617584077
 21
625.75
 31
0.0
  0
LINE
  5
2631
  8
CUTOUT
 10
67.99999999999977
 20
465.7475644174328
 30
0.0
 11
228.0024355825669
 21
625.75
 31
0.0
  0
LINE
  5
2632
  8
CUTOUT
 10
67.9999999999998
 20
421.5533905932736
 30
0.0
 11
272.1966094067261
 21
625.75
 31
0.0
  0
LINE
  5
2633
  8
CUTOUT
 10
67.9999999999998
 20
377.3592167691144
 30
0.0
 11
316.3907832308853
 21
625.75
 31
0.0
  0
LINE
  5
2634
  8
CUTOUT
 10
67.99999999999977
 20
333.1650429449551
 30
0.0
 11
360.5849570550446
 21
625.75
 31
0.0
  0
LINE
  5
2635
  8
CUTOUT
 10
67.99999999999977
 20
288.9708691207959
 30
0.0
 11
404.7791308792038
 21
625.75
 31
0.0
  0
LINE
  5
2636
  8
CUTOUT
 10
68.97330470336308
 20
245.75
 30
0.0
 11
438.9999999999998
 21
615.7766952966367
 31
0.0
  0
LINE
  5
2637
  8
CUTOUT
 10
67.9999999999998
 20
200.5825214724775
 30
0.0
 11
71.66747852752232
 21
204.25
 31
0.0
  0
LINE
  5
2638
  8
CUTOUT
 10
67.99999999999983
 20
156.3883476483183
 30
0.0
 11
115.8616523516816
 21
204.25
 31
0.0
  0
LINE
  5
2639
  8
CUTOUT
 10
67.99999999999983
 20
112.1941738241591
 30
0.0
 11
160.0558261758408
 21
204.25
 31
0.0
  0
LINE
  5
263A
  8
CUTOUT
 10
67.99999999999983
 20
67.99999999999983
 30
0.0
 11
204.25
 21
204.25
 31
0.0
  0
LINE
  5
263B
  8
CUTOUT
 10
113.1674785275223
 20
245.75
 30
0.0
 11
438.9999999999998
 21
571.5825214724775
 31
0.0
  0
LINE
  5
263C
  8
CUTOUT
 10
157.3616523516815
 20
245.75
 30
0.0
 11
438.9999999999998
 21
527.3883476483184
 31
0.0
  0
LINE
  5
263D
  8
CUTOUT
 10
201.5558261758408
 20
245.75
 30
0.0
 11
438.9999999999998
 21
483.1941738241591
 31
0.0
  0
LINE
  5
263E
  8
CUTOUT
 10
245.75
 20
245.75
 30
0.0
 11
438.9999999999997
 21
438.9999999999998
 31
0.0
  0
LINE
  5
263F
  8
CUTOUT
 10
86.94417382415912
 20
42.74999999999994
 30
0.0
 11
248.4441738241592
 21
204.25
 31
0.0
  0
LINE
  5
2640
  8
CUTOUT
 10
131.1383476483184
 20
42.74999999999989
 30
0.0
 11
292.6383476483184
 21
204.25
 31
0.0
  0
LINE
  5
2641
  8
CUTOUT
 10
175.3325214724775
 20
42.74999999999994
 30
0.0
 11
336.8325214724777
 21
204.25
 31
0.0
  0
LINE
  5
2642
  8
CUTOUT
 10
219.5266952966368
 20
42.74999999999994
 30
0.0
 11
381.0266952966368
 21
204.25
 31
0.0
  0
LINE
  5
2643
  8
CUTOUT
 10
289.9441738241592
 20
245.75
 30
0.0
 11
438.9999999999998
 21
394.8058261758406
 31
0.0
  0
LINE
  5
2644
  8
CUTOUT
 10
334.1383476483184
 20
245.75
 30
0.0
 11
438.9999999999998
 21
350.6116523516814
 31
0.0
  0
LINE
  5
2645
  8
CUTOUT
 10
378.3325214724776
 20
245.75
 30
0.0
 11
438.9999999999998
 21
306.4174785275221
 31
0.0
  0
LINE
  5
2646
  8
CUTOUT
 10
422.5266952966368
 20
245.75
 30
0.0
 11
438.9999999999998
 21
262.2233047033629
 31
0.0
  0
LINE
  5
2647
  8
CUTOUT
 10
263.720869120796
 20
42.74999999999994
 30
0.0
 11
425.220869120796
 21
204.25
 31
0.0
  0
LINE
  5
2648
  8
CUTOUT
 10
307.9150429449552
 20
42.74999999999994
 30
0.0
 11
438.9999999999997
 21
173.8349570550444
 31
0.0
  0
LINE
  5
2649
  8
CUTOUT
 10
352.1092167691144
 20
42.74999999999989
 30
0.0
 11
438.9999999999997
 21
129.6407832308852
 31
0.0
  0
LINE
  5
264A
  8
CUTOUT
 10
396.3033905932737
 20
42.74999999999994
 30
0.0
 11
438.9999999999998
 21
85.446609406726
 31
0.0
  0
ENDBLK
  5
264B
  8
0
  0
BLOCK
  8
0
  2
*D416
 70
     1
 10
0.0
 20
0.0
 30
0.0
  3
*D416
  1

  0
LINE
  5
2668
  8
DIMENSIONS
  6
BYBLOCK
 62
     0
 10
241.2838162235563
 20
1050.691204027002
 30
0.0
 11
241.2838162235563
 21
1110.177425948218
 31
0.0
  0
LINE
  5
2669
  8
DIMENSIONS
  6
BYBLOCK
 62
     0
 10
612.2838162235563
 20
1050.691204027002
 30
0.0
 11
612.2838162235563
 21
1110.177425948218
 31
0.0
  0
LINE
  5
266A
  8
DIMENSIONS
  6
BYBLOCK
 62
     0
 10
246.2838162235563
 20
1109.997425948218
 30
0.0
 11
607.2838162235563
 21
1109.997425948218
 31
0.0
  0
SOLID
  5
266B
  8
DIMENSIONS
 62
     0
 10
246.2838162235563
 20
1110.830759281552
 30
0.0
 11
246.2838162235563
 21
1109.164092614885
 31
0.0
 12
241.2838162235563
 22
1109.997425948218
 32
0.0
 13
241.2838162235563
 23
1109.997425948218
 33
0.0
  0
SOLID
  5
266C
  8
DIMENSIONS
 62
     0
 10
607.2838162235563
 20
1109.164092614885
 30
0.0
 11
607.2838162235563
 21
1110.830759281552
 31
0.0
 12
612.2838162235563
 22
1109.997425948218
 32
0.0
 13
612.2838162235563
 23
1109.997425948218
 33
0.0
  0
TEXT
  5
266D
  8
DIMENSIONS
  6
CONTINUOUS
 62
     5
 10
409.4038162235563
 20
1112.392425948218
 30
0.0
 40
5.0
  1
371 [14.61]
  0
POINT
  5
266E
  8
DEFPOINTS
 62
     0
 10
241.2838162235563
 20
1049.191204027002
 30
0.0
  0
POINT
  5
266F
  8
DEFPOINTS
 62
     0
 10
612.2838162235563
 20
1049.191204027002
 30
0.0
  0
POINT
  5
2670
  8
DEFPOINTS
 62
     0
 10
612.2838162235563
 20
1109.997425948218
 30
0.0
  0
ENDBLK
  5
2667
  8
0
  0
BLOCK
  8
0
  2
*D417
 70
     1
 10
0.0
 20
0.0
 30
0.0
  3
*D417
  1

  0
LINE
  5
2677
  8
DIMENSIONS
  6
BYBLOCK
 62
     0
 10
620.7838162235564
 20
1081.941204027002
 30
0.0
 11
620.7838162235564
 21
1130.233098940229
 31
0.0
  0
LINE
  5
2678
  8
DIMENSIONS
  6
BYBLOCK
 62
     0
 10
232.7838162235564
 20
1081.941204027003
 30
0.0
 11
232.7838162235564
 21
1130.233098940229
 31
0.0
  0
LINE
  5
2679
  8
DIMENSIONS
  6
BYBLOCK
 62
     0
 10
615.7838162235564
 20
1130.053098940229
 30
0.0
 11
237.7838162235564
 21
1130.053098940229
 31
0.0
  0
SOLID
  5
267A
  8
DIMENSIONS
 62
     0
 10
615.7838162235564
 20
1129.219765606896
 30
0.0
 11
615.7838162235564
 21
1130.886432273562
 31
0.0
 12
620.7838162235564
 22
1130.053098940229
 32
0.0
 13
620.7838162235564
 23
1130.053098940229
 33
0.0
  0
SOLID
  5
267B
  8
DIMENSIONS
 62
     0
 10
237.7838162235564
 20
1130.886432273562
 30
0.0
 11
237.7838162235564
 21
1129.219765606896
 31
0.0
 12
232.7838162235564
 22
1130.053098940229
 32
0.0
 13
232.7838162235564
 23
1130.053098940229
 33
0.0
  0
TEXT
  5
267C
  8
DIMENSIONS
  6
CONTINUOUS
 62
     5
 10
409.4038162235564
 20
1132.448098940229
 30
0.0
 40
5.0
  1
388 [15.28]
  0
POINT
  5
267D
  8
DEFPOINTS
 62
     0
 10
620.7838162235564
 20
1080.441204027002
 30
0.0
  0
POINT
  5
267E
  8
DEFPOINTS
 62
     0
 10
232.7838162235564
 20
1080.441204027003
 30
0.0
  0
POINT
  5
267F
  8
DEFPOINTS
 62
     0
 10
232.7838162235564
 20
1130.053098940229
 30
0.0
  0
ENDBLK
  5
2676
  8
0
  0
BLOCK
  8
0
  2
*D418
 70
     1
 10
0.0
 20
0.0
 30
0.0
  3
*D418
  1

  0
LINE
  5
2686
  8
DIMENSIONS
  6
BYBLOCK
 62
     0
 10
192.7838162235563
 20
1072.441204027002
 30
0.0
 11
192.7838162235563
 21
1148.746662207936
 31
0.0
  0
LINE
  5
2687
  8
DIMENSIONS
  6
BYBLOCK
 62
     0
 10
660.7838162235563
 20
1072.441204027002
 30
0.0
 11
660.7838162235563
 21
1148.746662207936
 31
0.0
  0
LINE
  5
2688
  8
DIMENSIONS
  6
BYBLOCK
 62
     0
 10
197.7838162235563
 20
1148.566662207936
 30
0.0
 11
655.7838162235563
 21
1148.566662207936
 31
0.0
  0
SOLID
  5
2689
  8
DIMENSIONS
 62
     0
 10
197.7838162235563
 20
1149.39999554127
 30
0.0
 11
197.7838162235563
 21
1147.733328874603
 31
0.0
 12
192.7838162235563
 22
1148.566662207936
 32
0.0
 13
192.7838162235563
 23
1148.566662207936
 33
0.0
  0
SOLID
  5
268A
  8
DIMENSIONS
 62
     0
 10
655.7838162235563
 20
1147.733328874603
 30
0.0
 11
655.7838162235563
 21
1149.39999554127
 31
0.0
 12
660.7838162235563
 22
1148.566662207936
 32
0.0
 13
660.7838162235563
 23
1148.566662207936
 33
0.0
  0
TEXT
  5
268B
  8
DIMENSIONS
  6
CONTINUOUS
 62
     5
 10
409.5063162235563
 20
1150.961662207937
 30
0.0
 40
5.0
  1
468 [18.43]
  0
POINT
  5
268C
  8
DEFPOINTS
 62
     0
 10
192.7838162235563
 20
1070.941204027002
 30
0.0
  0
POINT
  5
268D
  8
DEFPOINTS
 62
     0
 10
660.7838162235563
 20
1070.941204027002
 30
0.0
  0
POINT
  5
268E
  8
DEFPOINTS
 62
     0
 10
660.7838162235563
 20
1148.566662207936
 30
0.0
  0
ENDBLK
  5
2685
  8
0
  0
BLOCK
  8
0
  2
*D419
 70
     1
 10
0.0
 20
0.0
 30
0.0
  3
*D419
  1

  0
LINE
  5
2695
  8
DIMENSIONS
  6
BYBLOCK
 62
     0
 10
173.2838162235563
 20
1091.941204027002
 30
0.0
 11
173.2838162235563
 21
1165.836454117884
 31
0.0
  0
LINE
  5
2696
  8
DIMENSIONS
  6
BYBLOCK
 62
     0
 10
680.2838162235565
 20
1091.941204027002
 30
0.0
 11
680.2838162235565
 21
1165.836454117884
 31
0.0
  0
LINE
  5
2697
  8
DIMENSIONS
  6
BYBLOCK
 62
     0
 10
178.2838162235563
 20
1165.656454117884
 30
0.0
 11
675.2838162235565
 21
1165.656454117884
 31
0.0
  0
SOLID
  5
2698
  8
DIMENSIONS
 62
     0
 10
178.2838162235563
 20
1166.489787451217
 30
0.0
 11
178.2838162235563
 21
1164.823120784551
 31
0.0
 12
173.2838162235563
 22
1165.656454117884
 32
0.0
 13
173.2838162235563
 23
1165.656454117884
 33
0.0
  0
SOLID
  5
2699
  8
DIMENSIONS
 62
     0
 10
675.2838162235565
 20
1164.823120784551
 30
0.0
 11
675.2838162235565
 21
1166.489787451217
 31
0.0
 12
680.2838162235565
 22
1165.656454117884
 32
0.0
 13
680.2838162235565
 23
1165.656454117884
 33
0.0
  0
TEXT
  5
269A
  8
DIMENSIONS
  6
CONTINUOUS
 62
     5
 10
409.4063162235564
 20
1168.051454117884
 30
0.0
 40
5.0
  1
507 [19.96]
  0
POINT
  5
269B
  8
DEFPOINTS
 62
     0
 10
173.2838162235563
 20
1090.441204027002
 30
0.0
  0
POINT
  5
269C
  8
DEFPOINTS
 62
     0
 10
680.2838162235565
 20
1090.441204027002
 30
0.0
  0
POINT
  5
269D
  8
DEFPOINTS
 62
     0
 10
680.2838162235565
 20
1165.656454117884
 30
0.0
  0
ENDBLK
  5
2694
  8
0
  0
BLOCK
  8
0
  2
*D420
 70
     1
 10
0.0
 20
0.0
 30
0.0
  3
*D420
  1

  0
LINE
  5
26A4
  8
DIMENSIONS
  6
BYBLOCK
 62
     0
 10
181.7838162235563
 20
665.9412040270023
 30
0.0
 11
155.9635371989046
 21
665.9412040270023
 31
0.0
  0
LINE
  5
26A5
  8
DIMENSIONS
  6
BYBLOCK
 62
     0
 10
181.7838162235563
 20
847.9412040270023
 30
0.0
 11
155.9635371989046
 21
847.9412040270023
 31
0.0
  0
LINE
  5
26A6
  8
DIMENSIONS
  6
BYBLOCK
 62
     0
 10
156.1435371989046
 20
670.9412040270023
 30
0.0
 11
156.1435371989046
 21
842.9412040270023
 31
0.0
  0
SOLID
  5
26A7
  8
DIMENSIONS
 62
     0
 10
155.3102038655712
 20
670.9412040270023
 30
0.0
 11
156.9768705322379
 21
670.9412040270023
 31
0.0
 12
156.1435371989046
 22
665.9412040270023
 32
0.0
 13
156.1435371989046
 23
665.9412040270023
 33
0.0
  0
SOLID
  5
26A8
  8
DIMENSIONS
 62
     0
 10
156.9768705322379
 20
842.9412040270023
 30
0.0
 11
155.3102038655712
 21
842.9412040270023
 31
0.0
 12
156.1435371989046
 22
847.9412040270023
 32
0.0
 13
156.1435371989046
 23
847.9412040270023
 33
0.0
  0
TEXT
  5
26A9
  8
DIMENSIONS
  6
CONTINUOUS
 62
     5
 10
153.7485371989046
 20
741.2687040270023
 30
0.0
 40
5.0
  1
182 [7.17]
 50
90.0
  0
POINT
  5
26AA
  8
DEFPOINTS
 62
     0
 10
183.2838162235563
 20
665.9412040270023
 30
0.0
  0
POINT
  5
26AB
  8
DEFPOINTS
 62
     0
 10
183.2838162235563
 20
847.9412040270023
 30
0.0
  0
POINT
  5
26AC
  8
DEFPOINTS
 62
     0
 10
156.1435371989046
 20
847.9412040270023
 30
0.0
  0
ENDBLK
  5
26A3
  8
0
  0
BLOCK
  8
0
  2
*D421
 70
     1
 10
0.0
 20
0.0
 30
0.0
  3
*D421
  1

  0
LINE
  5
26B3
  8
DIMENSIONS
  6
BYBLOCK
 62
     0
 10
181.7838162235563
 20
1029.941204027002
 30
0.0
 11
138.2239542306728
 21
1029.941204027002
 31
0.0
  0
LINE
  5
26B4
  8
DIMENSIONS
  6
BYBLOCK
 62
     0
 10
181.7838162235563
 20
483.9412040270023
 30
0.0
 11
138.2239542306727
 21
483.9412040270023
 31
0.0
  0
LINE
  5
26B5
  8
DIMENSIONS
  6
BYBLOCK
 62
     0
 10
138.4039542306728
 20
1024.941204027002
 30
0.0
 11
138.4039542306728
 21
488.9412040270023
 31
0.0
  0
SOLID
  5
26B6
  8
DIMENSIONS
 62
     0
 10
139.2372875640061
 20
1024.941204027002
 30
0.0
 11
137.5706208973394
 21
1024.941204027002
 31
0.0
 12
138.4039542306728
 22
1029.941204027002
 32
0.0
 13
138.4039542306728
 23
1029.941204027002
 33
0.0
  0
SOLID
  5
26B7
  8
DIMENSIONS
 62
     0
 10
137.5706208973394
 20
488.9412040270023
 30
0.0
 11
139.2372875640061
 21
488.9412040270023
 31
0.0
 12
138.4039542306728
 22
483.9412040270023
 32
0.0
 13
138.4039542306728
 23
483.9412040270023
 33
0.0
  0
TEXT
  5
26B8
  8
DIMENSIONS
  6
CONTINUOUS
 62
     5
 10
136.0089542306728
 20
739.5637040270022
 30
0.0
 40
5.0
  1
546 [21.50]
 50
90.0
  0
POINT
  5
26B9
  8
DEFPOINTS
 62
     0
 10
183.2838162235563
 20
1029.941204027002
 30
0.0
  0
POINT
  5
26BA
  8
DEFPOINTS
 62
     0
 10
183.2838162235563
 20
483.9412040270023
 30
0.0
  0
POINT
  5
26BB
  8
DEFPOINTS
 62
     0
 10
138.4039542306728
 20
483.9412040270023
 30
0.0
  0
ENDBLK
  5
26B2
  8
0
  0
BLOCK
  8
0
  2
*D422
 70
     1
 10
0.0
 20
0.0
 30
0.0
  3
*D422
  1

  0
LINE
  5
26C2
  8
DIMENSIONS
  6
BYBLOCK
 62
     0
 10
191.2838162235563
 20
1070.941204027002
 30
0.0
 11
121.2849408040488
 21
1070.941204027002
 31
0.0
  0
LINE
  5
26C3
  8
DIMENSIONS
  6
BYBLOCK
 62
     0
 10
191.2838162235563
 20
442.9412040270023
 30
0.0
 11
121.2849408040488
 21
442.9412040270023
 31
0.0
  0
LINE
  5
26C4
  8
DIMENSIONS
  6
BYBLOCK
 62
     0
 10
121.4649408040488
 20
1065.941204027002
 30
0.0
 11
121.4649408040488
 21
447.9412040270023
 31
0.0
  0
SOLID
  5
26C5
  8
DIMENSIONS
 62
     0
 10
122.2982741373822
 20
1065.941204027002
 30
0.0
 11
120.6316074707155
 21
1065.941204027002
 31
0.0
 12
121.4649408040488
 22
1070.941204027002
 32
0.0
 13
121.4649408040488
 23
1070.941204027002
 33
0.0
  0
SOLID
  5
26C6
  8
DIMENSIONS
 62
     0
 10
120.6316074707155
 20
447.9412040270023
 30
0.0
 11
122.2982741373821
 21
447.9412040270023
 31
0.0
 12
121.4649408040488
 22
442.9412040270023
 32
0.0
 13
121.4649408040488
 23
442.9412040270023
 33
0.0
  0
TEXT
  5
26C7
  8
DIMENSIONS
  6
CONTINUOUS
 62
     5
 10
119.0699408040488
 20
739.5787040270022
 30
0.0
 40
5.0
  1
628 [24.72]
 50
90.0
  0
POINT
  5
26C8
  8
DEFPOINTS
 62
     0
 10
192.7838162235563
 20
1070.941204027002
 30
0.0
  0
POINT
  5
26C9
  8
DEFPOINTS
 62
     0
 10
192.7838162235563
 20
442.9412040270023
 30
0.0
  0
POINT
  5
26CA
  8
DEFPOINTS
 62
     0
 10
121.4649408040488
 20
442.9412040270023
 30
0.0
  0
ENDBLK
  5
26C1
  8
0
  0
BLOCK
  8
0
  2
*D423
 70
     1
 10
0.0
 20
0.0
 30
0.0
  3
*D423
  1

  0
LINE
  5
26D1
  8
DIMENSIONS
  6
BYBLOCK
 62
     0
 10
231.2838162235564
 20
1080.441204027003
 30
0.0
 11
104.2714730172337
 21
1080.441204027003
 31
0.0
  0
LINE
  5
26D2
  8
DIMENSIONS
  6
BYBLOCK
 62
     0
 10
231.2838162235564
 20
433.441204027001
 30
0.0
 11
104.2714730172336
 21
433.441204027001
 31
0.0
  0
LINE
  5
26D3
  8
DIMENSIONS
  6
BYBLOCK
 62
     0
 10
104.4514730172337
 20
1075.441204027003
 30
0.0
 11
104.4514730172336
 21
438.441204027001
 31
0.0
  0
SOLID
  5
26D4
  8
DIMENSIONS
 62
     0
 10
105.284806350567
 20
1075.441204027003
 30
0.0
 11
103.6181396839003
 21
1075.441204027003
 31
0.0
 12
104.4514730172337
 22
1080.441204027003
 32
0.0
 13
104.4514730172337
 23
1080.441204027003
 33
0.0
  0
SOLID
  5
26D5
  8
DIMENSIONS
 62
     0
 10
103.6181396839003
 20
438.441204027001
 30
0.0
 11
105.284806350567
 21
438.441204027001
 31
0.0
 12
104.4514730172336
 22
433.441204027001
 32
0.0
 13
104.4514730172336
 23
433.441204027001
 33
0.0
  0
TEXT
  5
26D6
  8
DIMENSIONS
  6
CONTINUOUS
 62
     5
 10
102.0564730172337
 20
739.5787040270021
 30
0.0
 40
5.0
  1
647 [25.47]
 50
90.0
  0
POINT
  5
26D7
  8
DEFPOINTS
 62
     0
 10
232.7838162235564
 20
1080.441204027003
 30
0.0
  0
POINT
  5
26D8
  8
DEFPOINTS
 62
     0
 10
232.7838162235564
 20
433.441204027001
 30
0.0
  0
POINT
  5
26D9
  8
DEFPOINTS
 62
     0
 10
104.4514730172336
 20
433.441204027001
 30
0.0
  0
ENDBLK
  5
26D0
  8
0
  0
BLOCK
  8
0
  2
*D424
 70
     1
 10
0.0
 20
0.0
 30
0.0
  3
*D424
  1

  0
LINE
  5
26E0
  8
DIMENSIONS
  6
BYBLOCK
 62
     0
 10
171.7838162235563
 20
1090.441204027002
 30
0.0
 11
88.47552701486487
 21
1090.441204027002
 31
0.0
  0
LINE
  5
26E1
  8
DIMENSIONS
  6
BYBLOCK
 62
     0
 10
171.7838162235563
 20
423.4412040270023
 30
0.0
 11
88.47552701486482
 21
423.4412040270023
 31
0.0
  0
LINE
  5
26E2
  8
DIMENSIONS
  6
BYBLOCK
 62
     0
 10
88.65552701486487
 20
1085.441204027002
 30
0.0
 11
88.65552701486483
 21
428.4412040270023
 31
0.0
  0
SOLID
  5
26E3
  8
DIMENSIONS
 62
     0
 10
89.4888603481982
 20
1085.441204027002
 30
0.0
 11
87.82219368153154
 21
1085.441204027002
 31
0.0
 12
88.65552701486487
 22
1090.441204027002
 32
0.0
 13
88.65552701486487
 23
1090.441204027002
 33
0.0
  0
SOLID
  5
26E4
  8
DIMENSIONS
 62
     0
 10
87.8221936815315
 20
428.4412040270023
 30
0.0
 11
89.48886034819816
 21
428.4412040270023
 31
0.0
 12
88.65552701486483
 22
423.4412040270023
 32
0.0
 13
88.65552701486483
 23
423.4412040270023
 33
0.0
  0
TEXT
  5
26E5
  8
DIMENSIONS
  6
CONTINUOUS
 62
     5
 10
86.2605270148648
 20
739.5787040270022
 30
0.0
 40
5.0
  1
667 [26.26]
 50
90.0
  0
POINT
  5
26E6
  8
DEFPOINTS
 62
     0
 10
173.2838162235563
 20
1090.441204027002
 30
0.0
  0
POINT
  5
26E7
  8
DEFPOINTS
 62
     0
 10
173.2838162235563
 20
423.4412040270023
 30
0.0
  0
POINT
  5
26E8
  8
DEFPOINTS
 62
     0
 10
88.65552701486483
 20
423.4412040270023
 30
0.0
  0
ENDBLK
  5
26DF
  8
0
  0
BLOCK
  8
0
  2
*D425
 70
     1
 10
0.0
 20
0.0
 30
0.0
  3
*D425
  1

  0
LINE
  5
26EF
  8
DIMENSIONS
  6
BYBLOCK
 62
     0
 10
681.7838162235565
 20
1090.441204027002
 30
0.0
 11
704.1376642433091
 21
1090.441204027002
 31
0.0
  0
LINE
  5
26F0
  8
DIMENSIONS
  6
BYBLOCK
 62
     0
 10
613.7838162235563
 20
1049.191204027002
 30
0.0
 11
704.1376642433091
 21
1049.191204027002
 31
0.0
  0
LINE
  5
26F1
  8
DIMENSIONS
  6
BYBLOCK
 62
     0
 10
703.9576642433092
 20
1085.441204027002
 30
0.0
 11
703.9576642433092
 21
1054.191204027002
 31
0.0
  0
SOLID
  5
26F2
  8
DIMENSIONS
 62
     0
 10
704.7909975766426
 20
1085.441204027002
 30
0.0
 11
703.1243309099758
 21
1085.441204027002
 31
0.0
 12
703.9576642433092
 22
1090.441204027002
 32
0.0
 13
703.9576642433092
 23
1090.441204027002
 33
0.0
  0
SOLID
  5
26F3
  8
DIMENSIONS
 62
     0
 10
703.1243309099758
 20
1054.191204027002
 30
0.0
 11
704.7909975766426
 21
1054.191204027002
 31
0.0
 12
703.9576642433092
 22
1049.191204027002
 32
0.0
 13
703.9576642433092
 23
1049.191204027002
 33
0.0
  0
TEXT
  5
26F4
  8
DIMENSIONS
  6
CONTINUOUS
 62
     5
 10
701.562664243309
 20
1051.568704027002
 30
0.0
 40
5.0
  1
41.25 [1.62]
 50
90.0
  0
POINT
  5
26F5
  8
DEFPOINTS
 62
     0
 10
680.2838162235565
 20
1090.441204027002
 30
0.0
  0
POINT
  5
26F6
  8
DEFPOINTS
 62
     0
 10
612.2838162235563
 20
1049.191204027002
 30
0.0
  0
POINT
  5
26F7
  8
DEFPOINTS
 62
     0
 10
703.9576642433092
 20
1049.191204027002
 30
0.0
  0
ENDBLK
  5
26EE
  8
0
  0
BLOCK
  8
0
  2
*D426
 70
     1
 10
0.0
 20
0.0
 30
0.0
  3
*D426
  1

  0
LINE
  5
26FE
  8
DIMENSIONS
  6
BYBLOCK
 62
     0
 10
613.7838162235563
 20
1049.191204027002
 30
0.0
 11
704.1376642433091
 21
1049.191204027002
 31
0.0
  0
LINE
  5
26FF
  8
DIMENSIONS
  6
BYBLOCK
 62
     0
 10
613.7838162235563
 20
669.1912040270023
 30
0.0
 11
704.1376642433091
 21
669.1912040270023
 31
0.0
  0
LINE
  5
2700
  8
DIMENSIONS
  6
BYBLOCK
 62
     0
 10
703.9576642433092
 20
1044.191204027002
 30
0.0
 11
703.9576642433092
 21
674.1912040270023
 31
0.0
  0
SOLID
  5
2701
  8
DIMENSIONS
 62
     0
 10
704.7909975766426
 20
1044.191204027002
 30
0.0
 11
703.1243309099758
 21
1044.191204027002
 31
0.0
 12
703.9576642433092
 22
1049.191204027002
 32
0.0
 13
703.9576642433092
 23
1049.191204027002
 33
0.0
  0
SOLID
  5
2702
  8
DIMENSIONS
 62
     0
 10
703.1243309099758
 20
674.1912040270023
 30
0.0
 11
704.7909975766426
 21
674.1912040270023
 31
0.0
 12
703.9576642433092
 22
669.1912040270023
 32
0.0
 13
703.9576642433092
 23
669.1912040270023
 33
0.0
  0
TEXT
  5
2703
  8
DIMENSIONS
  6
CONTINUOUS
 62
     5
 10
701.5626642433091
 20
841.8112040270022
 30
0.0
 40
5.0
  1
380 [14.96]
 50
90.0
  0
POINT
  5
2704
  8
DEFPOINTS
 62
     0
 10
612.2838162235563
 20
1049.191204027002
 30
0.0
  0
POINT
  5
2705
  8
DEFPOINTS
 62
     0
 10
612.2838162235563
 20
669.1912040270023
 30
0.0
  0
POINT
  5
2706
  8
DEFPOINTS
 62
     0
 10
703.9576642433092
 20
669.1912040270023
 30
0.0
  0
ENDBLK
  5
26FD
  8
0
  0
BLOCK
  8
0
  2
*D427
 70
     1
 10
0.0
 20
0.0
 30
0.0
  3
*D427
  1

  0
LINE
  5
270D
  8
DIMENSIONS
  6
BYBLOCK
 62
     0
 10
613.7838162235563
 20
669.1912040270023
 30
0.0
 11
704.1376642433091
 21
669.1912040270023
 31
0.0
  0
LINE
  5
270E
  8
DIMENSIONS
  6
BYBLOCK
 62
     0
 10
613.7838162235562
 20
627.6912040270023
 30
0.0
 11
704.1376642433091
 21
627.6912040270023
 31
0.0
  0
LINE
  5
270F
  8
DIMENSIONS
  6
BYBLOCK
 62
     0
 10
703.9576642433092
 20
664.1912040270023
 30
0.0
 11
703.9576642433092
 21
632.6912040270023
 31
0.0
  0
SOLID
  5
2710
  8
DIMENSIONS
 62
     0
 10
704.7909975766426
 20
664.1912040270023
 30
0.0
 11
703.1243309099758
 21
664.1912040270023
 31
0.0
 12
703.9576642433092
 22
669.1912040270023
 32
0.0
 13
703.9576642433092
 23
669.1912040270023
 33
0.0
  0
SOLID
  5
2711
  8
DIMENSIONS
 62
     0
 10
703.1243309099758
 20
632.6912040270023
 30
0.0
 11
704.7909975766426
 21
632.6912040270023
 31
0.0
 12
703.9576642433092
 22
627.6912040270023
 32
0.0
 13
703.9576642433092
 23
627.6912040270023
 33
0.0
  0
TEXT
  5
2712
  8
DIMENSIONS
  6
CONTINUOUS
 62
     5
 10
701.5626642433092
 20
632.1337040270023
 30
0.0
 40
5.0
  1
41.5 [1.63]
 50
90.0
  0
POINT
  5
2713
  8
DEFPOINTS
 62
     0
 10
612.2838162235563
 20
669.1912040270023
 30
0.0
  0
POINT
  5
2714
  8
DEFPOINTS
 62
     0
 10
612.2838162235562
 20
627.6912040270023
 30
0.0
  0
POINT
  5
2715
  8
DEFPOINTS
 62
     0
 10
703.9576642433092
 20
627.6912040270023
 30
0.0
  0
ENDBLK
  5
270C
  8
0
  0
BLOCK
  8
0
  2
*D428
 70
     1
 10
0.0
 20
0.0
 30
0.0
  3
*D428
  1

  0
LINE
  5
271C
  8
DIMENSIONS
  6
BYBLOCK
 62
     0
 10
613.7838162235562
 20
627.6912040270023
 30
0.0
 11
704.1376642433091
 21
627.6912040270023
 31
0.0
  0
LINE
  5
271D
  8
DIMENSIONS
  6
BYBLOCK
 62
     0
 10
613.7838162235562
 20
466.1912040270022
 30
0.0
 11
704.1376642433091
 21
466.1912040270022
 31
0.0
  0
LINE
  5
271E
  8
DIMENSIONS
  6
BYBLOCK
 62
     0
 10
703.9576642433092
 20
622.6912040270023
 30
0.0
 11
703.9576642433092
 21
471.1912040270022
 31
0.0
  0
SOLID
  5
271F
  8
DIMENSIONS
 62
     0
 10
704.7909975766426
 20
622.6912040270023
 30
0.0
 11
703.1243309099758
 21
622.6912040270023
 31
0.0
 12
703.9576642433092
 22
627.6912040270023
 32
0.0
 13
703.9576642433092
 23
627.6912040270023
 33
0.0
  0
SOLID
  5
2720
  8
DIMENSIONS
 62
     0
 10
703.1243309099758
 20
471.1912040270022
 30
0.0
 11
704.7909975766426
 21
471.1912040270022
 31
0.0
 12
703.9576642433092
 22
466.1912040270022
 32
0.0
 13
703.9576642433092
 23
466.1912040270022
 33
0.0
  0
TEXT
  5
2721
  8
DIMENSIONS
  6
CONTINUOUS
 62
     5
 10
701.5626642433091
 20
528.3587040270022
 30
0.0
 40
5.0
  1
161.5 [6.36]
 50
90.0
  0
POINT
  5
2722
  8
DEFPOINTS
 62
     0
 10
612.2838162235562
 20
627.6912040270023
 30
0.0
  0
POINT
  5
2723
  8
DEFPOINTS
 62
     0
 10
612.2838162235562
 20
466.1912040270022
 30
0.0
  0
POINT
  5
2724
  8
DEFPOINTS
 62
     0
 10
703.9576642433092
 20
466.1912040270022
 30
0.0
  0
ENDBLK
  5
271B
  8
0
  0
BLOCK
  8
0
  2
*D429
 70
     1
 10
0.0
 20
0.0
 30
0.0
  3
*D429
  1

  0
LINE
  5
272B
  8
DIMENSIONS
  6
BYBLOCK
 62
     0
 10
613.7838162235562
 20
466.1912040270022
 30
0.0
 11
704.1376642433091
 21
466.1912040270022
 31
0.0
  0
LINE
  5
272C
  8
DIMENSIONS
  6
BYBLOCK
 62
     0
 10
681.7838162235565
 20
423.4412040270023
 30
0.0
 11
704.1376642433091
 21
423.4412040270023
 31
0.0
  0
LINE
  5
272D
  8
DIMENSIONS
  6
BYBLOCK
 62
     0
 10
703.9576642433092
 20
461.1912040270022
 30
0.0
 11
703.9576642433092
 21
428.4412040270023
 31
0.0
  0
SOLID
  5
272E
  8
DIMENSIONS
 62
     0
 10
704.7909975766426
 20
461.1912040270022
 30
0.0
 11
703.1243309099758
 21
461.1912040270022
 31
0.0
 12
703.9576642433092
 22
466.1912040270022
 32
0.0
 13
703.9576642433092
 23
466.1912040270022
 33
0.0
  0
SOLID
  5
272F
  8
DIMENSIONS
 62
     0
 10
703.1243309099758
 20
428.4412040270023
 30
0.0
 11
704.7909975766426
 21
428.4412040270023
 31
0.0
 12
703.9576642433092
 22
423.4412040270023
 32
0.0
 13
703.9576642433092
 23
423.4412040270023
 33
0.0
  0
TEXT
  5
2730
  8
DIMENSIONS
  6
CONTINUOUS
 62
     5
 10
701.5626642433092
 20
426.5687040270022
 30
0.0
 40
5.0
  1
42.75 [1.68]
 50
90.0
  0
POINT
  5
2731
  8
DEFPOINTS
 62
     0
 10
612.2838162235562
 20
466.1912040270022
 30
0.0
  0
POINT
  5
2732
  8
DEFPOINTS
 62
     0
 10
680.2838162235565
 20
423.4412040270023
 30
0.0
  0
POINT
  5
2733
  8
DEFPOINTS
 62
     0
 10
703.9576642433092
 20
423.4412040270023
 30
0.0
  0
ENDBLK
  5
272A
  8
0
  0
BLOCK
  8
0
  2
*D430
 70
     1
 10
0.0
 20
0.0
 30
0.0
  3
*D430
  1

  0
LINE
  5
275D
  8
DIMENSIONS
  6
BYBLOCK
 62
     0
 10
612.283859095708
 20
433.4682007812348
 30
0.0
 11
571.8790628897415
 21
433.5965306465009
 31
0.0
  0
TEXT
  5
275E
  8
DIMENSIONS
  6
CONTINUOUS
 62
     5
 10
572.6069200778327
 20
436.0692313792512
 30
0.0
 40
5.0
  1
Ø7 [Ø0.28]
 50
359.8180232142763
  0
SOLID
  5
275F
  8
DIMENSIONS
 62
     0
 10
612.281212355097
 20
432.6348716510536
 30
0.0
 11
612.286505836319
 21
434.301529911416
 31
0.0
 12
617.2838338767953
 22
433.4523203375686
 32
0.0
 13
617.2838338767953
 23
433.4523203375686
 33
0.0
  0
LINE
  5
2760
  8
DIMENSIONS
  6
BYBLOCK
 62
     0
 10
618.2838162235563
 20
433.4412040270023
 30
0.0
 11
623.2838162235563
 21
433.4412040270023
 31
0.0
  0
LINE
  5
2761
  8
DIMENSIONS
  6
BYBLOCK
 62
     0
 10
620.7838162235563
 20
430.9412040270023
 30
0.0
 11
620.7838162235563
 21
435.9412040270023
 31
0.0
  0
POINT
  5
2762
  8
DEFPOINTS
 62
     0
 10
617.2838338767953
 20
433.4523203375686
 30
0.0
  0
POINT
  5
2763
  8
DEFPOINTS
 62
     0
 10
624.2837985703173
 20
433.430087716436
 30
0.0
  0
ENDBLK
  5
275C
  8
0
  0
BLOCK
  8
0
  2
*X432
 70
     1
 10
0.0
 20
0.0
 30
0.0
  3
*X432
  1

  0
LINE
  5
27AE
  8
CUTOUT
 10
20.99999999999991
 20
546.9106685074946
 30
0.0
 11
84.58933149250551
 21
610.5000000000002
 31
0.0
  0
LINE
  5
27AF
  8
CUTOUT
 10
20.99999999999989
 20
471.7805730064239
 30
0.0
 11
159.7194269935762
 21
610.5000000000002
 31
0.0
  0
LINE
  5
27B0
  8
CUTOUT
 10
86.84952249464673
 20
462.5000000000001
 30
0.0
 11
234.8495224946468
 21
610.5000000000002
 31
0.0
  0
LINE
  5
27B1
  8
CUTOUT
 10
161.9796179957174
 20
462.5000000000001
 30
0.0
 11
309.9796179957175
 21
610.5000000000002
 31
0.0
  0
LINE
  5
27B2
  8
CUTOUT
 10
50.49999999999989
 20
275.8902865032119
 30
0.0
 11
58.10971349678806
 21
283.5000000000001
 31
0.0
  0
LINE
  5
27B3
  8
CUTOUT
 10
50.49999999999989
 20
200.7601910021412
 30
0.0
 11
133.2398089978587
 21
283.5000000000001
 31
0.0
  0
LINE
  5
27B4
  8
CUTOUT
 10
237.1097134967881
 20
462.5000000000001
 30
0.0
 11
363.9999999999998
 21
589.3902865032119
 31
0.0
  0
LINE
  5
27B5
  8
CUTOUT
 10
312.2398089978587
 20
462.5000000000001
 30
0.0
 11
363.9999999999998
 21
514.2601910021411
 31
0.0
  0
LINE
  5
27B6
  8
CUTOUT
 10
50.49999999999989
 20
125.6300955010705
 30
0.0
 11
208.3699044989294
 21
283.5000000000001
 31
0.0
  0
LINE
  5
27B7
  8
CUTOUT
 10
50.49999999999991
 20
50.49999999999989
 30
0.0
 11
283.5000000000001
 21
283.5000000000001
 31
0.0
  0
LINE
  5
27B8
  8
CUTOUT
 10
100.1300955010709
 20
25.00000000000023
 30
0.0
 11
350.4999999999999
 21
275.3699044989293
 31
0.0
  0
LINE
  5
27B9
  8
CUTOUT
 10
175.2601910021416
 20
25.00000000000023
 30
0.0
 11
350.4999999999999
 21
200.2398089978586
 31
0.0
  0
LINE
  5
27BA
  8
CUTOUT
 10
250.3902865032122
 20
25.00000000000023
 30
0.0
 11
350.4999999999999
 21
125.1097134967879
 31
0.0
  0
LINE
  5
27BB
  8
CUTOUT
 10
325.520382004283
 20
25.00000000000023
 30
0.0
 11
350.4999999999999
 21
49.97961799571715
 31
0.0
  0
ENDBLK
  5
27BC
  8
0
  0
BLOCK
  8
0
  2
*D433
 70
     1
 10
0.0
 20
0.0
 30
0.0
  3
*D433
  1

  0
LINE
  5
27CB
  8
DIMENSIONS
  6
BYBLOCK
 62
     0
 10
173.4515369055121
 20
1315.968029279528
 30
0.0
 11
173.4515369055121
 21
1331.280653691485
 31
0.0
  0
LINE
  5
27CC
  8
DIMENSIONS
  6
BYBLOCK
 62
     0
 10
553.4515369055122
 20
1315.968029279528
 30
0.0
 11
553.4515369055122
 21
1331.280653691485
 31
0.0
  0
LINE
  5
27CD
  8
DIMENSIONS
  6
BYBLOCK
 62
     0
 10
178.4515369055121
 20
1331.100653691484
 30
0.0
 11
548.4515369055122
 21
1331.100653691484
 31
0.0
  0
SOLID
  5
27CE
  8
DIMENSIONS
 62
     0
 10
178.4515369055121
 20
1331.933987024818
 30
0.0
 11
178.4515369055121
 21
1330.267320358151
 31
0.0
 12
173.4515369055121
 22
1331.100653691484
 32
0.0
 13
173.4515369055121
 23
1331.100653691484
 33
0.0
  0
SOLID
  5
27CF
  8
DIMENSIONS
 62
     0
 10
548.4515369055122
 20
1330.267320358151
 30
0.0
 11
548.4515369055122
 21
1331.933987024818
 31
0.0
 12
553.4515369055122
 22
1331.100653691484
 32
0.0
 13
553.4515369055122
 23
1331.100653691484
 33
0.0
  0
TEXT
  5
27D0
  8
DIMENSIONS
  6
CONTINUOUS
 62
     5
 10
346.0715369055121
 20
1333.495653691485
 30
0.0
 40
5.0
  1
380 [14.96]
  0
POINT
  5
27D1
  8
DEFPOINTS
 62
     0
 10
173.4515369055121
 20
1314.468029279528
 30
0.0
  0
POINT
  5
27D2
  8
DEFPOINTS
 62
     0
 10
553.4515369055122
 20
1314.468029279528
 30
0.0
  0
POINT
  5
27D3
  8
DEFPOINTS
 62
     0
 10
553.4515369055122
 20
1331.100653691484
 30
0.0
  0
ENDBLK
  5
27CA
  8
0
  0
BLOCK
  8
0
  2
*D434
 70
     1
 10
0.0
 20
0.0
 30
0.0
  3
*D434
  1

  0
LINE
  5
27DA
  8
DIMENSIONS
  6
BYBLOCK
 62
     0
 10
191.9515369055121
 20
1033.968029279528
 30
0.0
 11
191.9515369055121
 21
1049.59435777938
 31
0.0
  0
LINE
  5
27DB
  8
DIMENSIONS
  6
BYBLOCK
 62
     0
 10
534.9515369055121
 20
1033.968029279528
 30
0.0
 11
534.9515369055121
 21
1049.59435777938
 31
0.0
  0
LINE
  5
27DC
  8
DIMENSIONS
  6
BYBLOCK
 62
     0
 10
196.9515369055121
 20
1049.41435777938
 30
0.0
 11
529.9515369055121
 21
1049.41435777938
 31
0.0
  0
SOLID
  5
27DD
  8
DIMENSIONS
 62
     0
 10
196.9515369055121
 20
1050.247691112713
 30
0.0
 11
196.9515369055121
 21
1048.581024446047
 31
0.0
 12
191.9515369055121
 22
1049.41435777938
 32
0.0
 13
191.9515369055121
 23
1049.41435777938
 33
0.0
  0
SOLID
  5
27DE
  8
DIMENSIONS
 62
     0
 10
529.9515369055121
 20
1048.581024446047
 30
0.0
 11
529.9515369055121
 21
1050.247691112713
 31
0.0
 12
534.9515369055121
 22
1049.41435777938
 32
0.0
 13
534.9515369055121
 23
1049.41435777938
 33
0.0
  0
TEXT
  5
27DF
  8
DIMENSIONS
  6
CONTINUOUS
 62
     5
 10
346.0715369055121
 20
1051.80935777938
 30
0.0
 40
5.0
  1
343 [13.50]
  0
POINT
  5
27E0
  8
DEFPOINTS
 62
     0
 10
191.9515369055121
 20
1032.468029279528
 30
0.0
  0
POINT
  5
27E1
  8
DEFPOINTS
 62
     0
 10
534.9515369055121
 20
1032.468029279528
 30
0.0
  0
POINT
  5
27E2
  8
DEFPOINTS
 62
     0
 10
534.9515369055121
 20
1049.41435777938
 30
0.0
  0
ENDBLK
  5
27D9
  8
0
  0
BLOCK
  8
0
  2
*D435
 70
     1
 10
0.0
 20
0.0
 30
0.0
  3
*D435
  1

  0
LINE
  5
27E9
  8
DIMENSIONS
  6
BYBLOCK
 62
     0
 10
221.4515369055121
 20
706.9680292795283
 30
0.0
 11
221.4515369055121
 21
722.1359409300946
 31
0.0
  0
LINE
  5
27EA
  8
DIMENSIONS
  6
BYBLOCK
 62
     0
 10
521.4515369055121
 20
706.9680292795283
 30
0.0
 11
521.4515369055121
 21
722.1359409300946
 31
0.0
  0
LINE
  5
27EB
  8
DIMENSIONS
  6
BYBLOCK
 62
     0
 10
226.4515369055121
 20
721.9559409300947
 30
0.0
 11
516.4515369055121
 21
721.9559409300947
 31
0.0
  0
SOLID
  5
27EC
  8
DIMENSIONS
 62
     0
 10
226.4515369055121
 20
722.7892742634281
 30
0.0
 11
226.4515369055121
 21
721.1226075967613
 31
0.0
 12
221.4515369055121
 22
721.9559409300947
 32
0.0
 13
221.4515369055121
 23
721.9559409300947
 33
0.0
  0
SOLID
  5
27ED
  8
DIMENSIONS
 62
     0
 10
516.4515369055121
 20
721.1226075967613
 30
0.0
 11
516.4515369055121
 21
722.7892742634281
 31
0.0
 12
521.4515369055121
 22
721.9559409300947
 32
0.0
 13
521.4515369055121
 23
721.9559409300947
 33
0.0
  0
TEXT
  5
27EE
  8
DIMENSIONS
  6
CONTINUOUS
 62
     5
 10
354.0715369055121
 20
724.3509409300947
 30
0.0
 40
5.0
  1
300 [11.81]
  0
POINT
  5
27EF
  8
DEFPOINTS
 62
     0
 10
221.4515369055121
 20
705.4680292795283
 30
0.0
  0
POINT
  5
27F0
  8
DEFPOINTS
 62
     0
 10
521.4515369055121
 20
705.4680292795283
 30
0.0
  0
POINT
  5
27F1
  8
DEFPOINTS
 62
     0
 10
521.4515369055121
 20
721.9559409300947
 30
0.0
  0
ENDBLK
  5
27E8
  8
0
  0
BLOCK
  8
0
  2
*D436
 70
     1
 10
0.0
 20
0.0
 30
0.0
  3
*D436
  1

  0
LINE
  5
27F8
  8
DIMENSIONS
  6
BYBLOCK
 62
     0
 10
171.9515369055121
 20
1314.468029279528
 30
0.0
 11
155.680642588635
 21
1314.468029279528
 31
0.0
  0
LINE
  5
27F9
  8
DIMENSIONS
  6
BYBLOCK
 62
     0
 10
190.4515369055121
 20
1032.468029279528
 30
0.0
 11
155.680642588635
 21
1032.468029279528
 31
0.0
  0
LINE
  5
27FA
  8
DIMENSIONS
  6
BYBLOCK
 62
     0
 10
155.860642588635
 20
1309.468029279528
 30
0.0
 11
155.860642588635
 21
1037.468029279528
 31
0.0
  0
SOLID
  5
27FB
  8
DIMENSIONS
 62
     0
 10
156.6939759219683
 20
1309.468029279528
 30
0.0
 11
155.0273092553016
 21
1309.468029279528
 31
0.0
 12
155.860642588635
 22
1314.468029279528
 32
0.0
 13
155.860642588635
 23
1314.468029279528
 33
0.0
  0
SOLID
  5
27FC
  8
DIMENSIONS
 62
     0
 10
155.0273092553016
 20
1037.468029279528
 30
0.0
 11
156.6939759219683
 21
1037.468029279528
 31
0.0
 12
155.860642588635
 22
1032.468029279528
 32
0.0
 13
155.860642588635
 23
1032.468029279528
 33
0.0
  0
TEXT
  5
27FD
  8
DIMENSIONS
  6
CONTINUOUS
 62
     5
 10
153.4656425886346
 20
1156.133029279528
 30
0.0
 40
5.0
  1
282 [11.10]
 50
90.0
  0
POINT
  5
27FE
  8
DEFPOINTS
 62
     0
 10
173.4515369055121
 20
1314.468029279528
 30
0.0
  0
POINT
  5
27FF
  8
DEFPOINTS
 62
     0
 10
191.9515369055121
 20
1032.468029279528
 30
0.0
  0
POINT
  5
2800
  8
DEFPOINTS
 62
     0
 10
155.860642588635
 20
1032.468029279528
 30
0.0
  0
ENDBLK
  5
27F7
  8
0
  0
BLOCK
  8
0
  2
*D437
 70
     1
 10
0.0
 20
0.0
 30
0.0
  3
*D437
  1

  0
LINE
  5
2807
  8
DIMENSIONS
  6
BYBLOCK
 62
     0
 10
190.4515369055121
 20
1032.468029279528
 30
0.0
 11
155.680642588635
 21
1032.468029279528
 31
0.0
  0
LINE
  5
2808
  8
DIMENSIONS
  6
BYBLOCK
 62
     0
 10
190.4515369055121
 20
884.4680292795282
 30
0.0
 11
155.680642588635
 21
884.4680292795282
 31
0.0
  0
LINE
  5
2809
  8
DIMENSIONS
  6
BYBLOCK
 62
     0
 10
155.860642588635
 20
1027.468029279528
 30
0.0
 11
155.860642588635
 21
889.4680292795282
 31
0.0
  0
SOLID
  5
280A
  8
DIMENSIONS
 62
     0
 10
156.6939759219683
 20
1027.468029279528
 30
0.0
 11
155.0273092553016
 21
1027.468029279528
 31
0.0
 12
155.860642588635
 22
1032.468029279528
 32
0.0
 13
155.860642588635
 23
1032.468029279528
 33
0.0
  0
SOLID
  5
280B
  8
DIMENSIONS
 62
     0
 10
155.0273092553016
 20
889.4680292795282
 30
0.0
 11
156.6939759219683
 21
889.4680292795282
 31
0.0
 12
155.860642588635
 22
884.4680292795282
 32
0.0
 13
155.860642588635
 23
884.4680292795282
 33
0.0
  0
TEXT
  5
280C
  8
DIMENSIONS
  6
CONTINUOUS
 62
     5
 10
153.465642588635
 20
942.7955292795283
 30
0.0
 40
5.0
  1
148 [5.83]
 50
90.0
  0
POINT
  5
280D
  8
DEFPOINTS
 62
     0
 10
191.9515369055121
 20
1032.468029279528
 30
0.0
  0
POINT
  5
280E
  8
DEFPOINTS
 62
     0
 10
191.9515369055121
 20
884.4680292795282
 30
0.0
  0
POINT
  5
280F
  8
DEFPOINTS
 62
     0
 10
155.860642588635
 20
884.4680292795282
 30
0.0
  0
ENDBLK
  5
2806
  8
0
  0
BLOCK
  8
0
  2
*D438
 70
     1
 10
0.0
 20
0.0
 30
0.0
  3
*D438
  1

  0
LINE
  5
2816
  8
DIMENSIONS
  6
BYBLOCK
 62
     0
 10
190.4515369055121
 20
884.4680292795282
 30
0.0
 11
155.680642588635
 21
884.4680292795282
 31
0.0
  0
LINE
  5
2817
  8
DIMENSIONS
  6
BYBLOCK
 62
     0
 10
219.9515369055121
 20
705.4680292795283
 30
0.0
 11
155.680642588635
 21
705.4680292795283
 31
0.0
  0
LINE
  5
2818
  8
DIMENSIONS
  6
BYBLOCK
 62
     0
 10
155.860642588635
 20
879.4680292795282
 30
0.0
 11
155.860642588635
 21
710.4680292795283
 31
0.0
  0
SOLID
  5
2819
  8
DIMENSIONS
 62
     0
 10
156.6939759219683
 20
879.4680292795282
 30
0.0
 11
155.0273092553016
 21
879.4680292795282
 31
0.0
 12
155.860642588635
 22
884.4680292795282
 32
0.0
 13
155.860642588635
 23
884.4680292795282
 33
0.0
  0
SOLID
  5
281A
  8
DIMENSIONS
 62
     0
 10
155.0273092553016
 20
710.4680292795283
 30
0.0
 11
156.6939759219683
 21
710.4680292795283
 31
0.0
 12
155.860642588635
 22
705.4680292795283
 32
0.0
 13
155.860642588635
 23
705.4680292795283
 33
0.0
  0
TEXT
  5
281B
  8
DIMENSIONS
  6
CONTINUOUS
 62
     5
 10
153.465642588635
 20
779.2955292795283
 30
0.0
 40
5.0
  1
179 [7.05]
 50
90.0
  0
POINT
  5
281C
  8
DEFPOINTS
 62
     0
 10
191.9515369055121
 20
884.4680292795282
 30
0.0
  0
POINT
  5
281D
  8
DEFPOINTS
 62
     0
 10
221.4515369055121
 20
705.4680292795283
 30
0.0
  0
POINT
  5
281E
  8
DEFPOINTS
 62
     0
 10
155.860642588635
 20
705.4680292795283
 30
0.0
  0
ENDBLK
  5
2815
  8
0
  0
BLOCK
  8
0
  2
*D439
 70
     1
 10
0.0
 20
0.0
 30
0.0
  3
*D439
  1

  0
LINE
  5
2825
  8
DIMENSIONS
  6
BYBLOCK
 62
     0
 10
219.9515369055121
 20
705.4680292795283
 30
0.0
 11
155.680642588635
 21
705.4680292795283
 31
0.0
  0
LINE
  5
2826
  8
DIMENSIONS
  6
BYBLOCK
 62
     0
 10
219.9515369055121
 20
446.9680292795283
 30
0.0
 11
155.6806425886349
 21
446.9680292795283
 31
0.0
  0
LINE
  5
2827
  8
DIMENSIONS
  6
BYBLOCK
 62
     0
 10
155.860642588635
 20
700.4680292795283
 30
0.0
 11
155.8606425886349
 21
451.9680292795283
 31
0.0
  0
SOLID
  5
2828
  8
DIMENSIONS
 62
     0
 10
156.6939759219683
 20
700.4680292795283
 30
0.0
 11
155.0273092553016
 21
700.4680292795283
 31
0.0
 12
155.860642588635
 22
705.4680292795283
 32
0.0
 13
155.860642588635
 23
705.4680292795283
 33
0.0
  0
SOLID
  5
2829
  8
DIMENSIONS
 62
     0
 10
155.0273092553016
 20
451.9680292795283
 30
0.0
 11
156.6939759219683
 21
451.9680292795283
 31
0.0
 12
155.8606425886349
 22
446.9680292795283
 32
0.0
 13
155.8606425886349
 23
446.9680292795283
 33
0.0
  0
TEXT
  5
282A
  8
DIMENSIONS
  6
CONTINUOUS
 62
     5
 10
153.465642588635
 20
555.9730292795283
 30
0.0
 40
5.0
  1
258.5 [10.18]
 50
90.0
  0
POINT
  5
282B
  8
DEFPOINTS
 62
     0
 10
221.4515369055121
 20
705.4680292795283
 30
0.0
  0
POINT
  5
282C
  8
DEFPOINTS
 62
     0
 10
221.4515369055121
 20
446.9680292795283
 30
0.0
  0
POINT
  5
282D
  8
DEFPOINTS
 62
     0
 10
155.8606425886349
 20
446.9680292795283
 30
0.0
  0
ENDBLK
  5
2824
  8
0
  0
BLOCK
  8
0
  2
*D440
 70
     1
 10
0.0
 20
0.0
 30
0.0
  3
*D440
  1

  0
LINE
  5
2834
  8
DIMENSIONS
  6
BYBLOCK
 62
     0
 10
219.9515369055121
 20
446.9680292795283
 30
0.0
 11
139.3767640668111
 21
446.9680292795283
 31
0.0
  0
LINE
  5
2835
  8
DIMENSIONS
  6
BYBLOCK
 62
     0
 10
171.9515369055121
 20
424.4680292795283
 30
0.0
 11
139.3767640668111
 21
424.4680292795283
 31
0.0
  0
LINE
  5
2836
  8
DIMENSIONS
  6
BYBLOCK
 62
     0
 10
139.5567640668111
 20
446.9680292795283
 30
0.0
 11
139.5567640668111
 21
486.2880292795282
 31
0.0
  0
LINE
  5
2837
  8
DIMENSIONS
  6
BYBLOCK
 62
     0
 10
139.5567640668111
 20
441.9680292795283
 30
0.0
 11
139.5567640668111
 21
429.4680292795283
 31
0.0
  0
SOLID
  5
2838
  8
DIMENSIONS
 62
     0
 10
140.3900974001444
 20
441.9680292795283
 30
0.0
 11
138.7234307334778
 21
441.9680292795283
 31
0.0
 12
139.5567640668111
 22
446.9680292795283
 32
0.0
 13
139.5567640668111
 23
446.9680292795283
 33
0.0
  0
SOLID
  5
2839
  8
DIMENSIONS
 62
     0
 10
138.7234307334778
 20
429.4680292795283
 30
0.0
 11
140.3900974001444
 21
429.4680292795283
 31
0.0
 12
139.5567640668111
 22
424.4680292795283
 32
0.0
 13
139.5567640668111
 23
424.4680292795283
 33
0.0
  0
TEXT
  5
283A
  8
DIMENSIONS
  6
CONTINUOUS
 62
     5
 10
137.1617640668111
 20
452.7630292795283
 30
0.0
 40
5.0
  1
22.5 [0.89]
 50
90.0
  0
POINT
  5
283B
  8
DEFPOINTS
 62
     0
 10
221.4515369055121
 20
446.9680292795283
 30
0.0
  0
POINT
  5
283C
  8
DEFPOINTS
 62
     0
 10
173.4515369055121
 20
424.4680292795283
 30
0.0
  0
POINT
  5
283E
  8
DEFPOINTS
 62
     0
 10
139.5567640668111
 20
424.4680292795283
 30
0.0
  0
ENDBLK
  5
2833
  8
0
  0
BLOCK
  8
0
  2
*D441
 70
     1
 10
0.0
 20
0.0
 30
0.0
  3
*D441
  1

  0
LINE
  5
2845
  8
DIMENSIONS
  6
BYBLOCK
 62
     0
 10
171.9515369055121
 20
424.4680292795283
 30
0.0
 11
121.4693158327505
 21
424.4680292795283
 31
0.0
  0
LINE
  5
2846
  8
DIMENSIONS
  6
BYBLOCK
 62
     0
 10
171.9515369055121
 20
1314.468029279528
 30
0.0
 11
121.4693158327505
 21
1314.468029279528
 31
0.0
  0
LINE
  5
2847
  8
DIMENSIONS
  6
BYBLOCK
 62
     0
 10
121.6493158327505
 20
429.4680292795283
 30
0.0
 11
121.6493158327505
 21
1309.468029279528
 31
0.0
  0
SOLID
  5
2848
  8
DIMENSIONS
 62
     0
 10
120.8159824994171
 20
429.4680292795283
 30
0.0
 11
122.4826491660838
 21
429.4680292795283
 31
0.0
 12
121.6493158327505
 22
424.4680292795283
 32
0.0
 13
121.6493158327505
 23
424.4680292795283
 33
0.0
  0
SOLID
  5
2849
  8
DIMENSIONS
 62
     0
 10
122.4826491660838
 20
1309.468029279528
 30
0.0
 11
120.8159824994172
 21
1309.468029279528
 31
0.0
 12
121.6493158327505
 22
1314.468029279528
 32
0.0
 13
121.6493158327505
 23
1314.468029279528
 33
0.0
  0
TEXT
  5
284A
  8
DIMENSIONS
  6
CONTINUOUS
 62
     5
 10
119.2543158327505
 20
852.0930292795283
 30
0.0
 40
5.0
  1
890 [35.04]
 50
90.0
  0
POINT
  5
284B
  8
DEFPOINTS
 62
     0
 10
173.4515369055121
 20
424.4680292795283
 30
0.0
  0
POINT
  5
284C
  8
DEFPOINTS
 62
     0
 10
173.4515369055121
 20
1314.468029279528
 30
0.0
  0
POINT
  5
284D
  8
DEFPOINTS
 62
     0
 10
121.6493158327505
 20
1314.468029279528
 30
0.0
  0
ENDBLK
  5
2844
  8
0
  0
BLOCK
  8
0
  2
*D442
 70
     1
 10
0.0
 20
0.0
 30
0.0
  3
*D442
  1

  0
LINE
  5
2854
  8
DIMENSIONS
  6
BYBLOCK
 62
     0
 10
521.4515369055121
 20
706.9680292795283
 30
0.0
 11
521.4515369055121
 21
722.1359409300946
 31
0.0
  0
LINE
  5
2855
  8
DIMENSIONS
  6
BYBLOCK
 62
     0
 10
553.4515369055122
 20
706.9680292795283
 30
0.0
 11
553.4515369055122
 21
722.1359409300946
 31
0.0
  0
LINE
  5
2856
  8
DIMENSIONS
  6
BYBLOCK
 62
     0
 10
526.4515369055121
 20
721.9559409300947
 30
0.0
 11
548.4515369055122
 21
721.9559409300947
 31
0.0
  0
SOLID
  5
2857
  8
DIMENSIONS
 62
     0
 10
526.4515369055121
 20
722.7892742634281
 30
0.0
 11
526.4515369055121
 21
721.1226075967613
 31
0.0
 12
521.4515369055121
 22
721.9559409300947
 32
0.0
 13
521.4515369055121
 23
721.9559409300947
 33
0.0
  0
SOLID
  5
2858
  8
DIMENSIONS
 62
     0
 10
548.4515369055122
 20
721.1226075967613
 30
0.0
 11
548.4515369055122
 21
722.7892742634281
 31
0.0
 12
553.4515369055122
 22
721.9559409300947
 32
0.0
 13
553.4515369055122
 23
721.9559409300947
 33
0.0
  0
TEXT
  5
2859
  8
DIMENSIONS
  6
CONTINUOUS
 62
     5
 10
523.9515369055121
 20
724.3509409300947
 30
0.0
 40
5.0
  1
32 [1.26]
  0
POINT
  5
285A
  8
DEFPOINTS
 62
     0
 10
521.4515369055121
 20
705.4680292795283
 30
0.0
  0
POINT
  5
285B
  8
DEFPOINTS
 62
     0
 10
553.4515369055122
 20
705.4680292795283
 30
0.0
  0
POINT
  5
285C
  8
DEFPOINTS
 62
     0
 10
553.4515369055122
 20
721.9559409300947
 30
0.0
  0
ENDBLK
  5
2853
  8
0
  0
ENDSEC
  0
SECTION
  2
ENTITIES
  0
TEXT
  5
25BF
  8
DIMENSIONS
  6
BYBLOCK
 10
177.0453220085568
 20
400.943812311563
 30
0.0
 40
5.0
  1
Note:
  0
TEXT
  5
25C0
  8
DIMENSIONS
  6
BYBLOCK
 10
177.1792480488423
 20
390.4148444635699
 30
0.0
 40
5.0
  1
Primary dimensions in millimeters.
  0
TEXT
  5
25C1
  8
DIMENSIONS
  6
BYBLOCK
 10
177.4006619852323
 20
379.8428188547859
 30
0.0
 40
5.0
  1
Secondary dimensions in inches.
  0
POLYLINE
  5
27C0
  8
0
 66
     1
 10
0.0
 20
0.0
 30
0.0
 70
     1
  0
VERTEX
  5
287A
  8
0
 10
555.9515369055121
 20
1316.968029279528
 30
0.0
  0
VERTEX
  5
287B
  8
0
 10
555.9515369055121
 20
421.9680292795282
 30
0.0
  0
VERTEX
  5
287C
  8
0
 10
170.9515369055115
 20
421.9680292795282
 30
0.0
  0
VERTEX
  5
287D
  8
0
 10
170.9515369055115
 20
1316.968029279528
 30
0.0
  0
SEQEND
  5
288E
  8
0
  0
POLYLINE
  5
27C1
  8
0
 66
     1
 10
0.0
 20
0.0
 30
0.0
 70
     1
  0
VERTEX
  5
287E
  8
0
 10
173.4515369055121
 20
424.4680292795283
 30
0.0
  0
VERTEX
  5
287F
  8
0
 10
173.4515369055121
 20
1314.468029279528
 30
0.0
  0
VERTEX
  5
2880
  8
0
 10
553.4515369055122
 20
1314.468029279528
 30
0.0
  0
VERTEX
  5
2881
  8
0
 10
553.4515369055122
 20
424.4680292795283
 30
0.0
  0
SEQEND
  5
288F
  8
0
  0
POLYLINE
  5
27C2
  8
0
 66
     1
 10
0.0
 20
0.0
 30
0.0
 70
     1
  0
VERTEX
  5
2882
  8
0
 10
221.4515369055121
 20
446.9680292795283
 30
0.0
  0
VERTEX
  5
2883
  8
0
 10
221.4515369055121
 20
705.4680292795283
 30
0.0
  0
VERTEX
  5
2884
  8
0
 10
521.4515369055121
 20
705.4680292795283
 30
0.0
  0
VERTEX
  5
2885
  8
0
 10
521.4515369055121
 20
446.9680292795283
 30
0.0
  0
SEQEND
  5
2890
  8
0
  0
POLYLINE
  5
27C3
  8
0
 66
     1
 10
0.0
 20
0.0
 30
0.0
 70
     1
  0
VERTEX
  5
2886
  8
0
 10
191.9515369055121
 20
1032.468029279528
 30
0.0
  0
VERTEX
  5
2887
  8
0
 10
191.9515369055121
 20
884.4680292795282
 30
0.0
  0
VERTEX
  5
2888
  8
0
 10
534.9515369055121
 20
884.4680292795282
 30
0.0
  0
VERTEX
  5
2889
  8
0
 10
534.9515369055121
 20
1032.468029279528
 30
0.0
  0
SEQEND
  5
2891
  8
0
  0
INSERT
  5
27C4
  8
0
  2
*X432
 10
170.9515369055122
 20
421.9680292795281
 30
0.0
  0
DIMENSION
  5
27C5
  8
DIMENSIONS
  6
BYBLOCK
  2
*D433
 10
553.4515369055122
 20
1331.100653691484
 30
0.0
 11
363.4515369055121
 21
1335.303153691485
 31
0.0
 70
    32
  3
DUAL-DIM
 13
173.4515369055121
 23
1314.468029279528
 33
0.0
 14
553.4515369055122
 24
1314.468029279528
 34
0.0
1001
ACAD
1000
DSTYLE
1002
{
1070
   287
1070
     5
1070
   279
1070
     2
1002
}
  0
DIMENSION
  5
27D4
  8
DIMENSIONS
  6
BYBLOCK
  2
*D434
 10
534.9515369055121
 20
1049.41435777938
 30
0.0
 11
363.4515369055121
 21
1053.61685777938
 31
0.0
 70
    32
  3
DUAL-DIM
 13
191.9515369055121
 23
1032.468029279528
 33
0.0
 14
534.9515369055121
 24
1032.468029279528
 34
0.0
1001
ACAD
1000
DSTYLE
1002
{
1070
   287
1070
     5
1070
   279
1070
     2
1002
}
  0
DIMENSION
  5
27E3
  8
DIMENSIONS
  6
BYBLOCK
  2
*D435
 10
521.4515369055121
 20
721.9559409300947
 30
0.0
 11
371.4515369055121
 21
726.1584409300947
 31
0.0
 70
    32
  3
DUAL-DIM
 13
221.4515369055121
 23
705.4680292795283
 33
0.0
 14
521.4515369055121
 24
705.4680292795283
 34
0.0
1001
ACAD
1000
DSTYLE
1002
{
1070
   287
1070
     5
1070
   279
1070
     2
1002
}
  0
DIMENSION
  5
27F2
  8
DIMENSIONS
  6
BYBLOCK
  2
*D436
 10
155.860642588635
 20
1032.468029279528
 30
0.0
 11
151.6581425886349
 21
1173.468029279528
 31
0.0
 70
    32
  3
DUAL-DIM
 13
173.4515369055121
 23
1314.468029279528
 33
0.0
 14
191.9515369055121
 24
1032.468029279528
 34
0.0
 50
90.0
1001
ACAD
1000
DSTYLE
1002
{
1070
   287
1070
     5
1070
   279
1070
     2
1002
}
  0
DIMENSION
  5
2801
  8
DIMENSIONS
  6
BYBLOCK
  2
*D437
 10
155.860642588635
 20
884.4680292795282
 30
0.0
 11
151.658142588635
 21
958.4680292795283
 31
0.0
 70
    32
  3
DUAL-DIM
 13
191.9515369055121
 23
1032.468029279528
 33
0.0
 14
191.9515369055121
 24
884.4680292795282
 34
0.0
 50
90.0
1001
ACAD
1000
DSTYLE
1002
{
1070
   287
1070
     5
1070
   279
1070
     2
1002
}
  0
DIMENSION
  5
2810
  8
DIMENSIONS
  6
BYBLOCK
  2
*D438
 10
155.860642588635
 20
705.4680292795283
 30
0.0
 11
151.658142588635
 21
794.9680292795283
 31
0.0
 70
    32
  3
DUAL-DIM
 13
191.9515369055121
 23
884.4680292795282
 33
0.0
 14
221.4515369055121
 24
705.4680292795283
 34
0.0
 50
90.0
1001
ACAD
1000
DSTYLE
1002
{
1070
   287
1070
     5
1070
   279
1070
     2
1002
}
  0
DIMENSION
  5
281F
  8
DIMENSIONS
  6
BYBLOCK
  2
*D439
 10
155.8606425886349
 20
446.9680292795283
 30
0.0
 11
151.658142588635
 21
576.2180292795283
 31
0.0
 70
    32
  3
DUAL-DIM
 13
221.4515369055121
 23
705.4680292795283
 33
0.0
 14
221.4515369055121
 24
446.9680292795283
 34
0.0
 50
90.0
1001
ACAD
1000
DSTYLE
1002
{
1070
   287
1070
     5
1070
   279
1070
     2
1002
}
  0
DIMENSION
  5
282E
  8
DIMENSIONS
  6
BYBLOCK
  2
*D440
 10
139.5567640668111
 20
424.4680292795283
 30
0.0
 11
139.5567640668111
 21
469.1280292795283
 31
0.0
 70
   160
  3
DUAL-DIM
 13
221.4515369055121
 23
446.9680292795283
 33
0.0
 14
173.4515369055121
 24
424.4680292795283
 34
0.0
 50
90.0
1001
ACAD
1000
DSTYLE
1002
{
1070
   287
1070
     3
1070
   289
1070
     3
1070
   279
1070
     0
1002
}
  0
DIMENSION
  5
283F
  8
DIMENSIONS
  6
BYBLOCK
  2
*D441
 10
121.6493158327505
 20
1314.468029279528
 30
0.0
 11
117.4468158327505
 21
869.4680292795283
 31
0.0
 70
    32
  3
DUAL-DIM
 13
173.4515369055121
 23
424.4680292795283
 33
0.0
 14
173.4515369055121
 24
1314.468029279528
 34
0.0
 50
90.0
1001
ACAD
1000
DSTYLE
1002
{
1070
   287
1070
     5
1070
   279
1070
     2
1002
}
  0
DIMENSION
  5
284E
  8
DIMENSIONS
  6
BYBLOCK
  2
*D442
 10
553.4515369055122
 20
721.9559409300947
 30
0.0
 11
537.4515369055121
 21
726.1584409300947
 31
0.0
 70
    32
  3
DUAL-DIM
 13
521.4515369055121
 23
705.4680292795283
 33
0.0
 14
553.4515369055122
 24
705.4680292795283
 34
0.0
1001
ACAD
1000
DSTYLE
1002
{
1070
   287
1070
     5
1070
   279
1070
     2
1002
}
  0
POLYLINE
  5
2879
  8
0
  6
BYBLOCK
 66
     1
 10
0.0
 20
0.0
 30
0.0
 70
     1
  0
VERTEX
  5
288A
  8
0
  6
BYBLOCK
 10
57.03167182116681
 20
362.010471302023
 30
0.0
  0
VERTEX
  5
288B
  8
0
  6
BYBLOCK
 10
57.03167182116681
 20
1387.150777285264
 30
0.0
  0
VERTEX
  5
288C
  8
0
  6
BYBLOCK
 10
621.9696732608476
 20
1387.150777285264
 30
0.0
  0
VERTEX
  5
288D
  8
0
  6
BYBLOCK
 10
621.9696732608476
 20
362.010471302023
 30
0.0
  0
SEQEND
  5
2892
  8
0
  6
BYBLOCK
  0
VIEWPORT
  5
B1C
 67
     1
  8
0
 10
5.25
 20
3.5
 30
0.0
 40
12.6
 41
8.4
 68
     1
 69
     1
1001
ACAD
1000
MVIEW
1002
{
1070
    16
1010
0.0
1020
0.0
1030
0.0
1010
0.0
1020
0.0
1030
1.0
1040
0.0
1040
8.4
1040
5.25
1040
3.5
1040
50.0
1040
0.0
1040
0.0
1070
     0
1070
   100
1070
     0
1070
     3
1070
     0
1070
     0
1070
     0
1070
     0
1040
0.0
1040
0.0
1040
0.0
1040
0.5
1040
0.5
1040
0.0
1040
0.0
1070
     0
1002
{
1002
}
1002
}
  0
VIEWPORT
  5
B1D
 67
     1
  8
0
 10
5.25
 20
3.5
 30
0.0
 40
8.4
 41
5.600000000000001
 68
     2
 69
     2
1001
ACAD
1000
MVIEW
1002
{
1070
    16
1010
0.0
1020
0.0
1030
0.0
1010
0.0
1020
0.0
1030
1.0
1040
0.0
1040
278.6419840998563
1040
207.1268606538857
1040
36.27547653054833
1040
50.0
1040
0.0
1040
0.0
1070
     0
1070
   100
1070
     0
1070
     3
1070
     0
1070
     0
1070
     0
1070
     0
1040
0.0
1040
0.0
1040
0.0
1040
0.5
1040
0.5
1040
0.0
1040
0.0
1070
     0
1002
{
1002
}
1002
}
  0
ENDSEC
  0
EOF
