  0
SECTION
  2
HEADER
  9
$ACADVER
  1
AC1009
  9
$DWGCODEPAGE
  3
ansi_1252
  9
$INSBASE
 10
0.0
 20
0.0
 30
0.0
  9
$EXTMIN
 10
-139.6000212805484
 20
-167.4479393849284
 30
0.0
  9
$EXTMAX
 10
644.3864418869363
 20
1241.508864703806
 30
0.0
  9
$LIMMIN
 10
0.0
 20
0.0
  9
$LIMMAX
 10
594.0
 20
420.0
  9
$ORTHOMODE
 70
     0
  9
$REGENMODE
 70
     1
  9
$FILLMODE
 70
     1
  9
$QTEXTMODE
 70
     0
  9
$MIRRTEXT
 70
     1
  9
$DRAGMODE
 70
     2
  9
$LTSCALE
 40
32.67
  9
$OSMODE
 70
   511
  9
$ATTMODE
 70
     1
  9
$TEXTSIZE
 40
0.2
  9
$TRACEWID
 40
0.05
  9
$TEXTSTYLE
  7
STANDARD
  9
$CLAYER
  8
DIMENSIONS
  9
$CELTYPE
  6
BYBLOCK
  9
$CECOLOR
 62
   256
  9
$DIMSCALE
 40
1.0
  9
$DIMASZ
 40
5.0
  9
$DIMEXO
 40
1.5
  9
$DIMDLI
 40
1.0
  9
$DIMRND
 40
0.0
  9
$DIMDLE
 40
0.0
  9
$DIMEXE
 40
0.18
  9
$DIMTP
 40
0.0
  9
$DIMTM
 40
0.0
  9
$DIMTXT
 40
5.0
  9
$DIMCEN
 40
2.5
  9
$DIMTSZ
 40
0.0
  9
$DIMTOL
 70
     0
  9
$DIMLIM
 70
     0
  9
$DIMTIH
 70
     0
  9
$DIMTOH
 70
     0
  9
$DIMSE1
 70
     0
  9
$DIMSE2
 70
     0
  9
$DIMTAD
 70
     1
  9
$DIMZIN
 70
     8
  9
$DIMBLK
  1

  9
$DIMASO
 70
     1
  9
$DIMSHO
 70
     1
  9
$DIMPOST
  1

  9
$DIMAPOST
  1

  9
$DIMALT
 70
     1
  9
$DIMALTD
 70
     2
  9
$DIMALTF
 40
0.03937
  9
$DIMLFAC
 40
1.0
  9
$DIMTOFL
 70
     1
  9
$DIMTVP
 40
0.0
  9
$DIMTIX
 70
     0
  9
$DIMSOXD
 70
     0
  9
$DIMSAH
 70
     0
  9
$DIMBLK1
  1

  9
$DIMBLK2
  1

  9
$DIMSTYLE
  2
DUAL-DIM
  9
$DIMCLRD
 70
     0
  9
$DIMCLRE
 70
     0
  9
$DIMCLRT
 70
     5
  9
$DIMTFAC
 40
1.0
  9
$DIMGAP
 40
1.0
  9
$LUNITS
 70
     2
  9
$LUPREC
 70
     4
  9
$SKETCHINC
 40
0.1
  9
$FILLETRAD
 40
15.0
  9
$AUNITS
 70
     0
  9
$AUPREC
 70
     0
  9
$MENU
  1
.
  9
$ELEVATION
 40
0.0
  9
$PELEVATION
 40
0.0
  9
$THICKNESS
 40
0.0
  9
$LIMCHECK
 70
     0
  9
$CHAMFERA
 40
0.0
  9
$CHAMFERB
 40
0.0
  9
$SKPOLY
 70
     0
  9
$TDCREATE
 40
2457428.35467787
  9
$TDUPDATE
 40
2457438.400406644
  9
$TDINDWG
 40
0.0540220023
  9
$TDUSRTIMER
 40
2457438.355361991
  9
$USRTIMER
 70
     1
  9
$ANGBASE
 50
0.0
  9
$ANGDIR
 70
     0
  9
$PDMODE
 70
     3
  9
$PDSIZE
 40
0.3125
  9
$PLINEWID
 40
0.0
  9
$COORDS
 70
     2
  9
$SPLFRAME
 70
     0
  9
$SPLINETYPE
 70
     6
  9
$SPLINESEGS
 70
     8
  9
$ATTDIA
 70
     0
  9
$ATTREQ
 70
     1
  9
$HANDLING
 70
     1
  9
$HANDSEED
  5
1A99
  9
$SURFTAB1
 70
     6
  9
$SURFTAB2
 70
     6
  9
$SURFTYPE
 70
     6
  9
$SURFU
 70
     6
  9
$SURFV
 70
     6
  9
$UCSNAME
  2

  9
$UCSORG
 10
0.0
 20
0.0
 30
0.0
  9
$UCSXDIR
 10
1.0
 20
0.0
 30
0.0
  9
$UCSYDIR
 10
0.0
 20
1.0
 30
0.0
  9
$PUCSNAME
  2

  9
$PUCSORG
 10
0.0
 20
0.0
 30
0.0
  9
$PUCSXDIR
 10
1.0
 20
0.0
 30
0.0
  9
$PUCSYDIR
 10
0.0
 20
1.0
 30
0.0
  9
$USERI1
 70
     0
  9
$USERI2
 70
     0
  9
$USERI3
 70
     0
  9
$USERI4
 70
     0
  9
$USERI5
 70
     0
  9
$USERR1
 40
0.0
  9
$USERR2
 40
0.0
  9
$USERR3
 40
0.0
  9
$USERR4
 40
0.0
  9
$USERR5
 40
0.0
  9
$WORLDVIEW
 70
     1
  9
$SHADEDGE
 70
     3
  9
$SHADEDIF
 70
    70
  9
$TILEMODE
 70
     1
  9
$MAXACTVP
 70
    64
  9
$PLIMCHECK
 70
     0
  9
$PEXTMIN
 10
1.000000000000000E+20
 20
1.000000000000000E+20
 30
1.000000000000000E+20
  9
$PEXTMAX
 10
-1.000000000000000E+20
 20
-1.000000000000000E+20
 30
-1.000000000000000E+20
  9
$PLIMMIN
 10
0.0
 20
0.0
  9
$PLIMMAX
 10
0.0
 20
0.0
  9
$UNITMODE
 70
     0
  9
$VISRETAIN
 70
     1
  9
$PLINEGEN
 70
     0
  9
$PSLTSCALE
 70
     1
  0
ENDSEC
  0
SECTION
  2
TABLES
  0
TABLE
  2
VPORT
 70
     1
  0
VPORT
  2
*ACTIVE
 70
     0
 10
0.0
 20
0.0
 11
1.0
 21
1.0
 12
1374.562136107003
 22
328.2166588282405
 13
0.0
 23
0.0
 14
0.5
 24
0.5
 15
0.5
 25
0.5
 16
0.0
 26
0.0
 36
1.0
 17
0.0
 27
0.0
 37
0.0
 40
2103.265570408051
 41
2.450549450549451
 42
50.0
 43
0.0
 44
0.0
 50
0.0
 51
0.0
 71
    16
 72
   100
 73
     1
 74
     3
 75
     0
 76
     0
 77
     0
 78
     0
  0
ENDTAB
  0
TABLE
  2
LTYPE
 70
     6
  0
LTYPE
  2
CONTINUOUS
 70
     0
  3
Solid line
 72
    65
 73
     0
 40
0.0
  0
LTYPE
  2
CENTER
 70
     0
  3
____ _ ____ _ ____ _ ____ _ ____ _ ____ _ ____
 72
    65
 73
     4
 40
0.6
 49
0.375
 49
-0.075
 49
0.075
 49
-0.075
  0
LTYPE
  2
HIDDEN
 70
     0
  3
- - - - - - - - - - - - - - - - - - - -
 72
    65
 73
     2
 40
0.2
 49
0.1
 49
-0.1
  0
LTYPE
  2
PHANTOM
 70
     0
  3
_____ _ _ _____ _ _ _____ _ _ _____
 72
    65
 73
     6
 40
0.8
 49
0.45
 49
-0.05
 49
0.1
 49
-0.05
 49
0.1
 49
-0.05
  0
LTYPE
  2
DOT
 70
     0
  3
. . . . . . . . . . . . . . . . . . . .
 72
    65
 73
     2
 40
0.2
 49
0.1
 49
-0.1
  0
LTYPE
  2
DASHED
 70
     0
  3
- - - - - - - - - - - - - - - - - - - -
 72
    65
 73
     2
 40
0.2
 49
0.1
 49
-0.1
  0
ENDTAB
  0
TABLE
  2
LAYER
 70
    15
  0
LAYER
  2
0
 70
     0
 62
     7
  6
CONTINUOUS
  0
LAYER
  2
DEFAULT_1
 70
     0
 62
     7
  6
CENTER
  0
LAYER
  2
DEFAULT_2
 70
     0
 62
     8
  6
HIDDEN
  0
LAYER
  2
DEFAULT_3
 70
     0
 62
     7
  6
PHANTOM
  0
LAYER
  2
01___PRT_ALL_DTM_PLN
 70
     0
 62
     7
  6
CONTINUOUS
  0
LAYER
  2
01___PRT_DEF_DTM_PLN
 70
     0
 62
     7
  6
CONTINUOUS
  0
LAYER
  2
02___PRT_ALL_AXES
 70
     0
 62
     7
  6
CONTINUOUS
  0
LAYER
  2
03___PRT_ALL_CURVES
 70
     0
 62
     7
  6
CONTINUOUS
  0
LAYER
  2
04___PRT_ALL_DTM_PNT
 70
     0
 62
     7
  6
CONTINUOUS
  0
LAYER
  2
05___PRT_ALL_DTM_CSYS
 70
     0
 62
     7
  6
CONTINUOUS
  0
LAYER
  2
05___PRT_DEF_DTM_CSYS
 70
     0
 62
     7
  6
CONTINUOUS
  0
LAYER
  2
06___PRT_ALL_SURFS
 70
     0
 62
     7
  6
CONTINUOUS
  0
LAYER
  2
DEFPOINTS
 70
     0
 62
     7
  6
CONTINUOUS
  0
LAYER
  2
DIMENSIONS
 70
     0
 62
     2
  6
CONTINUOUS
  0
LAYER
  2
AM_5
 70
     0
 62
     3
  6
CONTINUOUS
  0
ENDTAB
  0
TABLE
  2
STYLE
 70
     2
  0
STYLE
  2
STANDARD
 70
     0
 40
0.0
 41
1.0
 50
0.0
 71
     0
 42
0.2
  3
arial.ttf
  4

  0
STYLE
  2
TEXTSTYLE_1
 70
     0
 40
0.0
 41
0.8
 50
0.0
 71
     0
 42
0.2
  3
gdt
  4

  0
ENDTAB
  0
TABLE
  2
VIEW
 70
     0
  0
ENDTAB
  0
TABLE
  2
UCS
 70
     0
  0
ENDTAB
  0
TABLE
  2
APPID
 70
     8
  0
APPID
  2
ACAD
 70
     0
  0
APPID
  2
ACAECLAYERSTANDARD
 70
     0
  0
APPID
  2
ACAD_DSTYLE_DIMRADIAL_EXTE
 70
     0
  0
APPID
  2
ACAD_DSTYLE_DIMJOGGED_JOGA
 70
     0
  0
APPID
  2
ACAD_DSTYLE_DIMJAG
 70
     0
  0
APPID
  2
ACAD_DSTYLE_DIMBREAK
 70
     0
  0
APPID
  2
ACAD_PSEXT
 70
     0
  0
APPID
  2
ACAD_DSTYLE_DIMINSPECT
 70
     0
  0
ENDTAB
  0
TABLE
  2
DIMSTYLE
 70
     5
  0
DIMSTYLE
  2
STANDARD
 70
     0
  3

  4

  5

  6

  7

 40
1.0
 41
0.18
 42
0.0625
 43
0.38
 44
0.18
 45
0.0
 46
0.0
 47
0.0
 48
0.0
140
0.18
141
0.09
142
0.0
143
25.4
144
1.0
145
0.0
146
1.0
147
0.09
 71
     0
 72
     0
 73
     1
 74
     1
 75
     0
 76
     0
 77
     0
 78
     0
170
     0
171
     2
172
     0
173
     0
174
     0
175
     0
176
     0
177
     0
178
     0
  0
DIMSTYLE
  2
DUAL-DIM
 70
     0
  3

  4

  5

  6

  7

 40
1.0
 41
5.0
 42
1.5
 43
1.0
 44
0.18
 45
0.0
 46
0.0
 47
0.0
 48
0.0
140
5.0
141
2.5
142
0.0
143
0.03937
144
1.0
145
0.0
146
1.0
147
1.0
 71
     0
 72
     0
 73
     0
 74
     0
 75
     0
 76
     0
 77
     1
 78
     8
170
     1
171
     2
172
     1
173
     0
174
     0
175
     0
176
     0
177
     0
178
     5
  0
DIMSTYLE
  2
AM_ISO
 70
     0
  3

  4
"
  5

  6

  7

 40
1.0
 41
3.5
 42
1.0
 43
10.0
 44
1.0
 45
0.0
 46
0.0
 47
0.1
 48
0.1
140
3.5
141
0.0
142
0.0
143
0.0393701
144
1.0
145
0.0
146
0.71
147
1.5
 71
     0
 72
     0
 73
     0
 74
     0
 75
     0
 76
     0
 77
     1
 78
     8
170
     0
171
     2
172
     1
173
     0
174
     0
175
     0
176
   256
177
   256
178
     2
  0
DIMSTYLE
  2
AM_ISO$3
 70
     0
  3

  4
"
  5

  6

  7

 40
1.0
 41
3.5
 42
1.0
 43
10.0
 44
1.0
 45
0.0
 46
0.0
 47
0.1
 48
0.1
140
3.5
141
0.0
142
0.0
143
0.0393701
144
1.0
145
0.0
146
0.71
147
1.5
 71
     0
 72
     0
 73
     0
 74
     1
 75
     0
 76
     0
 77
     1
 78
     8
170
     0
171
     2
172
     0
173
     0
174
     0
175
     0
176
   256
177
   256
178
     2
  0
DIMSTYLE
  2
AM_ISO$0
 70
     0
  3

  4
"
  5

  6

  7

 40
1.0
 41
3.5
 42
1.0
 43
10.0
 44
1.0
 45
0.0
 46
0.0
 47
0.1
 48
0.1
140
3.5
141
0.0
142
0.0
143
0.0393701
144
1.0
145
0.0
146
0.71
147
1.5
 71
     0
 72
     0
 73
     0
 74
     0
 75
     0
 76
     0
 77
     1
 78
     8
170
     0
171
     2
172
     1
173
     0
174
     0
175
     0
176
   256
177
   256
178
     2
  0
ENDTAB
  0
ENDSEC
  0
SECTION
  2
BLOCKS
  0
BLOCK
  8
0
  2
$MODEL_SPACE
 70
     0
 10
0.0
 20
0.0
 30
0.0
  3
$MODEL_SPACE
  1

  0
ENDBLK
  5
110
  8
0
  0
BLOCK
 67
     1
  8
0
  2
$PAPER_SPACE
 70
     0
 10
0.0
 20
0.0
 30
0.0
  3
$PAPER_SPACE
  1

  0
ENDBLK
  5
112
 67
     1
  8
0
  0
BLOCK
  8
0
  2
_FILLED
 70
     0
 10
0.0
 20
0.0
 30
0.0
  3
_FILLED
  1

  0
SOLID
  5
3D
  8
0
  6
BYBLOCK
 62
     0
 10
0.0
 20
0.0
 30
0.0
 11
-1.0
 21
0.2
 31
0.0
 12
-1.0
 22
-0.2
 32
0.0
 13
-1.0
 23
-0.2
 33
0.0
  0
ENDBLK
  5
3E
  8
0
  6
BYBLOCK
 62
     0
  0
BLOCK
  8
0
  2
*D369
 70
     1
 10
0.0
 20
0.0
 30
0.0
  3
*D369
  1

  0
LINE
  5
19A7
  8
DIMENSIONS
  6
BYBLOCK
 62
     0
 10
53.64299070344441
 20
1106.690804520605
 30
0.0
 11
53.64299070344441
 21
1154.061699305893
 31
0.0
  0
LINE
  5
19A8
  8
DIMENSIONS
  6
BYBLOCK
 62
     0
 10
483.6429907034444
 20
1106.690804520605
 30
0.0
 11
483.6429907034444
 21
1154.061699305893
 31
0.0
  0
LINE
  5
19A9
  8
DIMENSIONS
  6
BYBLOCK
 62
     0
 10
58.64299070344441
 20
1153.881699305893
 30
0.0
 11
478.6429907034444
 21
1153.881699305893
 31
0.0
  0
SOLID
  5
19AA
  8
DIMENSIONS
 62
     0
 10
58.64299070344441
 20
1154.715032639226
 30
0.0
 11
58.64299070344441
 21
1153.04836597256
 31
0.0
 12
53.64299070344441
 22
1153.881699305893
 32
0.0
 13
53.64299070344441
 23
1153.881699305893
 33
0.0
  0
SOLID
  5
19AB
  8
DIMENSIONS
 62
     0
 10
478.6429907034444
 20
1153.04836597256
 30
0.0
 11
478.6429907034444
 21
1154.715032639226
 31
0.0
 12
483.6429907034444
 22
1153.881699305893
 32
0.0
 13
483.6429907034444
 23
1153.881699305893
 33
0.0
  0
TEXT
  5
19AC
  8
DIMENSIONS
  6
CONTINUOUS
 62
     5
 10
251.3654907034444
 20
1156.276699305893
 30
0.0
 40
5.0
  1
430 [16.93]
  0
POINT
  5
19AD
  8
DEFPOINTS
 62
     0
 10
53.64299070344441
 20
1105.190804520605
 30
0.0
  0
POINT
  5
19AE
  8
DEFPOINTS
 62
     0
 10
483.6429907034444
 20
1105.190804520605
 30
0.0
  0
POINT
  5
19AF
  8
DEFPOINTS
 62
     0
 10
483.6429907034444
 20
1153.881699305893
 30
0.0
  0
ENDBLK
  5
19A6
  8
0
  0
BLOCK
  8
0
  2
*D370
 70
     1
 10
0.0
 20
0.0
 30
0.0
  3
*D370
  1

  0
LINE
  5
19B6
  8
DIMENSIONS
  6
BYBLOCK
 62
     0
 10
43.64299070344441
 20
1115.240804520605
 30
0.0
 11
43.64299070344441
 21
1170.224567880366
 31
0.0
  0
LINE
  5
19B7
  8
DIMENSIONS
  6
BYBLOCK
 62
     0
 10
493.6429907034444
 20
1115.240804520605
 30
0.0
 11
493.6429907034444
 21
1170.224567880366
 31
0.0
  0
LINE
  5
19B8
  8
DIMENSIONS
  6
BYBLOCK
 62
     0
 10
48.64299070344441
 20
1170.044567880366
 30
0.0
 11
488.6429907034444
 21
1170.044567880366
 31
0.0
  0
SOLID
  5
19B9
  8
DIMENSIONS
 62
     0
 10
48.64299070344441
 20
1170.877901213699
 30
0.0
 11
48.64299070344441
 21
1169.211234547033
 31
0.0
 12
43.64299070344441
 22
1170.044567880366
 32
0.0
 13
43.64299070344441
 23
1170.044567880366
 33
0.0
  0
SOLID
  5
19BA
  8
DIMENSIONS
 62
     0
 10
488.6429907034444
 20
1169.211234547033
 30
0.0
 11
488.6429907034444
 21
1170.877901213699
 31
0.0
 12
493.6429907034444
 22
1170.044567880366
 32
0.0
 13
493.6429907034444
 23
1170.044567880366
 33
0.0
  0
TEXT
  5
19BB
  8
DIMENSIONS
  6
CONTINUOUS
 62
     5
 10
251.3654907034444
 20
1172.439567880366
 30
0.0
 40
5.0
  1
450 [17.72]
  0
POINT
  5
19BC
  8
DEFPOINTS
 62
     0
 10
43.64299070344441
 20
1113.740804520605
 30
0.0
  0
POINT
  5
19BD
  8
DEFPOINTS
 62
     0
 10
493.6429907034444
 20
1113.740804520605
 30
0.0
  0
POINT
  5
19BE
  8
DEFPOINTS
 62
     0
 10
493.6429907034444
 20
1170.044567880366
 30
0.0
  0
ENDBLK
  5
19B5
  8
0
  0
BLOCK
  8
0
  2
*D371
 70
     1
 10
0.0
 20
0.0
 30
0.0
  3
*D371
  1

  0
LINE
  5
19C7
  8
DIMENSIONS
  6
BYBLOCK
 62
     0
 10
20.64299070344441
 20
1139.540804520605
 30
0.0
 11
20.64299070344441
 21
1185.639259413901
 31
0.0
  0
LINE
  5
19C8
  8
DIMENSIONS
  6
BYBLOCK
 62
     0
 10
516.6429907034444
 20
1139.540804520605
 30
0.0
 11
516.6429907034444
 21
1185.639259413901
 31
0.0
  0
LINE
  5
19C9
  8
DIMENSIONS
  6
BYBLOCK
 62
     0
 10
25.64299070344441
 20
1185.459259413901
 30
0.0
 11
511.6429907034444
 21
1185.459259413901
 31
0.0
  0
SOLID
  5
19CA
  8
DIMENSIONS
 62
     0
 10
25.64299070344441
 20
1186.292592747234
 30
0.0
 11
25.64299070344441
 21
1184.625926080568
 31
0.0
 12
20.64299070344441
 22
1185.459259413901
 32
0.0
 13
20.64299070344441
 23
1185.459259413901
 33
0.0
  0
SOLID
  5
19CB
  8
DIMENSIONS
 62
     0
 10
511.6429907034444
 20
1184.625926080568
 30
0.0
 11
511.6429907034444
 21
1186.292592747234
 31
0.0
 12
516.6429907034444
 22
1185.459259413901
 32
0.0
 13
516.6429907034444
 23
1185.459259413901
 33
0.0
  0
TEXT
  5
19CC
  8
DIMENSIONS
  6
CONTINUOUS
 62
     5
 10
251.3654907034444
 20
1187.854259413901
 30
0.0
 40
5.0
  1
496 [19.53]
  0
POINT
  5
19CD
  8
DEFPOINTS
 62
     0
 10
20.64299070344441
 20
1138.040804520605
 30
0.0
  0
POINT
  5
19CE
  8
DEFPOINTS
 62
     0
 10
516.6429907034444
 20
1138.040804520605
 30
0.0
  0
POINT
  5
19CF
  8
DEFPOINTS
 62
     0
 10
516.6429907034444
 20
1185.459259413901
 30
0.0
  0
ENDBLK
  5
19C6
  8
0
  0
BLOCK
  8
0
  2
*D372
 70
     1
 10
0.0
 20
0.0
 30
0.0
  3
*D372
  1

  0
LINE
  5
19D6
  8
DIMENSIONS
  6
BYBLOCK
 62
     0
 10
19.14299070344441
 20
1138.040804520605
 30
0.0
 11
-12.52291310012848
 21
1138.040804520605
 31
0.0
  0
LINE
  5
19D7
  8
DIMENSIONS
  6
BYBLOCK
 62
     0
 10
42.14299070344441
 20
1113.740804520605
 30
0.0
 11
-12.52291310012848
 21
1113.740804520605
 31
0.0
  0
LINE
  5
19D8
  8
DIMENSIONS
  6
BYBLOCK
 62
     0
 10
-12.34291310012848
 20
1113.740804520605
 30
0.0
 11
-12.34291310012849
 21
1074.420804520604
 31
0.0
  0
LINE
  5
19D9
  8
DIMENSIONS
  6
BYBLOCK
 62
     0
 10
-12.34291310012848
 20
1133.040804520605
 30
0.0
 11
-12.34291310012848
 21
1118.740804520605
 31
0.0
  0
SOLID
  5
19DA
  8
DIMENSIONS
 62
     0
 10
-11.50957976679515
 20
1133.040804520605
 30
0.0
 11
-13.17624643346181
 21
1133.040804520605
 31
0.0
 12
-12.34291310012848
 22
1138.040804520605
 32
0.0
 13
-12.34291310012848
 23
1138.040804520605
 33
0.0
  0
SOLID
  5
19DB
  8
DIMENSIONS
 62
     0
 10
-13.17624643346182
 20
1118.740804520605
 30
0.0
 11
-11.50957976679515
 21
1118.740804520605
 31
0.0
 12
-12.34291310012848
 22
1113.740804520605
 32
0.0
 13
-12.34291310012848
 23
1113.740804520605
 33
0.0
  0
TEXT
  5
19DC
  8
DIMENSIONS
  6
CONTINUOUS
 62
     5
 10
-14.73791310012871
 20
1075.215804520604
 30
0.0
 40
5.0
  1
24.3 [0.96]
 50
90.0
  0
POINT
  5
19DD
  8
DEFPOINTS
 62
     0
 10
20.64299070344441
 20
1138.040804520605
 30
0.0
  0
POINT
  5
19DE
  8
DEFPOINTS
 62
     0
 10
43.64299070344441
 20
1113.740804520605
 30
0.0
  0
POINT
  5
1A74
  8
DEFPOINTS
 62
     0
 10
-12.34291310012848
 20
1113.740804520605
 30
0.0
  0
ENDBLK
  5
19D5
  8
0
  0
BLOCK
  8
0
  2
*D373
 70
     1
 10
0.0
 20
0.0
 30
0.0
  3
*D373
  1

  0
LINE
  5
19E5
  8
DIMENSIONS
  6
BYBLOCK
 62
     0
 10
42.14299070344441
 20
1113.740804520605
 30
0.0
 11
2.938481427461605
 21
1113.740804520605
 31
0.0
  0
LINE
  5
19E6
  8
DIMENSIONS
  6
BYBLOCK
 62
     0
 10
42.14299070344441
 20
701.2408045206046
 30
0.0
 11
2.938481427461579
 21
701.2408045206046
 31
0.0
  0
LINE
  5
19E7
  8
DIMENSIONS
  6
BYBLOCK
 62
     0
 10
3.118481427461604
 20
1108.740804520605
 30
0.0
 11
3.11848142746158
 21
706.2408045206046
 31
0.0
  0
SOLID
  5
19E8
  8
DIMENSIONS
 62
     0
 10
3.951814760794938
 20
1108.740804520605
 30
0.0
 11
2.285148094128271
 21
1108.740804520605
 31
0.0
 12
3.118481427461605
 22
1113.740804520605
 32
0.0
 13
3.118481427461605
 23
1113.740804520605
 33
0.0
  0
SOLID
  5
19E9
  8
DIMENSIONS
 62
     0
 10
2.285148094128246
 20
706.2408045206046
 30
0.0
 11
3.951814760794913
 21
706.2408045206046
 31
0.0
 12
3.11848142746158
 22
701.2408045206046
 32
0.0
 13
3.11848142746158
 23
701.2408045206046
 33
0.0
  0
TEXT
  5
19EA
  8
DIMENSIONS
  6
CONTINUOUS
 62
     5
 10
0.7234814274615928
 20
887.3033045206046
 30
0.0
 40
5.0
  1
412.5 [16.24]
 50
90.0
  0
POINT
  5
19EB
  8
DEFPOINTS
 62
     0
 10
43.64299070344441
 20
1113.740804520605
 30
0.0
  0
POINT
  5
19EC
  8
DEFPOINTS
 62
     0
 10
43.64299070344441
 20
701.2408045206046
 30
0.0
  0
POINT
  5
19ED
  8
DEFPOINTS
 62
     0
 10
3.11848142746158
 20
701.2408045206046
 30
0.0
  0
ENDBLK
  5
19E4
  8
0
  0
BLOCK
  8
0
  2
*D374
 70
     1
 10
0.0
 20
0.0
 30
0.0
  3
*D374
  1

  0
LINE
  5
19F4
  8
DIMENSIONS
  6
BYBLOCK
 62
     0
 10
42.14299070344441
 20
701.2408045206046
 30
0.0
 11
2.93848142746158
 21
701.2408045206046
 31
0.0
  0
LINE
  5
19F5
  8
DIMENSIONS
  6
BYBLOCK
 62
     0
 10
42.14299070344441
 20
341.2408045206046
 30
0.0
 11
2.938481427461558
 21
341.2408045206046
 31
0.0
  0
LINE
  5
19F6
  8
DIMENSIONS
  6
BYBLOCK
 62
     0
 10
3.11848142746158
 20
696.2408045206046
 30
0.0
 11
3.118481427461558
 21
346.2408045206046
 31
0.0
  0
SOLID
  5
19F7
  8
DIMENSIONS
 62
     0
 10
3.951814760794913
 20
696.2408045206046
 30
0.0
 11
2.285148094128246
 21
696.2408045206046
 31
0.0
 12
3.11848142746158
 22
701.2408045206046
 32
0.0
 13
3.11848142746158
 23
701.2408045206046
 33
0.0
  0
SOLID
  5
19F8
  8
DIMENSIONS
 62
     0
 10
2.285148094128225
 20
346.2408045206046
 30
0.0
 11
3.951814760794892
 21
346.2408045206046
 31
0.0
 12
3.118481427461558
 22
341.2408045206046
 32
0.0
 13
3.118481427461558
 23
341.2408045206046
 33
0.0
  0
TEXT
  5
19F9
  8
DIMENSIONS
  6
CONTINUOUS
 62
     5
 10
0.7234814274615928
 20
503.8608045206046
 30
0.0
 40
5.0
  1
360 [14.17]
 50
90.0
  0
POINT
  5
19FA
  8
DEFPOINTS
 62
     0
 10
43.64299070344441
 20
701.2408045206046
 30
0.0
  0
POINT
  5
19FB
  8
DEFPOINTS
 62
     0
 10
43.64299070344441
 20
341.2408045206046
 30
0.0
  0
POINT
  5
19FC
  8
DEFPOINTS
 62
     0
 10
3.118481427461558
 20
341.2408045206046
 30
0.0
  0
ENDBLK
  5
19F3
  8
0
  0
BLOCK
  8
0
  2
*D375
 70
     1
 10
0.0
 20
0.0
 30
0.0
  3
*D375
  1

  0
LINE
  5
1A03
  8
DIMENSIONS
  6
BYBLOCK
 62
     0
 10
42.14299070344441
 20
341.2408045206046
 30
0.0
 11
2.938481427461558
 21
341.2408045206046
 31
0.0
  0
LINE
  5
1A04
  8
DIMENSIONS
  6
BYBLOCK
 62
     0
 10
42.14299070344441
 20
-71.25919547939543
 30
0.0
 11
2.938481427461532
 21
-71.25919547939543
 31
0.0
  0
LINE
  5
1A05
  8
DIMENSIONS
  6
BYBLOCK
 62
     0
 10
3.118481427461557
 20
336.2408045206046
 30
0.0
 11
3.118481427461533
 21
-66.25919547939543
 31
0.0
  0
SOLID
  5
1A06
  8
DIMENSIONS
 62
     0
 10
3.951814760794891
 20
336.2408045206046
 30
0.0
 11
2.285148094128224
 21
336.2408045206046
 31
0.0
 12
3.118481427461558
 22
341.2408045206046
 32
0.0
 13
3.118481427461558
 23
341.2408045206046
 33
0.0
  0
SOLID
  5
1A07
  8
DIMENSIONS
 62
     0
 10
2.285148094128199
 20
-66.25919547939543
 30
0.0
 11
3.951814760794866
 21
-66.25919547939543
 31
0.0
 12
3.118481427461532
 22
-71.25919547939543
 32
0.0
 13
3.118481427461532
 23
-71.25919547939543
 33
0.0
  0
TEXT
  5
1A08
  8
DIMENSIONS
  6
CONTINUOUS
 62
     5
 10
0.7234814274615928
 20
114.8033045206046
 30
0.0
 40
5.0
  1
412.5 [16.24]
 50
90.0
  0
POINT
  5
1A09
  8
DEFPOINTS
 62
     0
 10
43.64299070344441
 20
341.2408045206046
 30
0.0
  0
POINT
  5
1A0A
  8
DEFPOINTS
 62
     0
 10
43.64299070344441
 20
-71.25919547939543
 30
0.0
  0
POINT
  5
1A0B
  8
DEFPOINTS
 62
     0
 10
3.118481427461532
 20
-71.25919547939543
 30
0.0
  0
ENDBLK
  5
1A02
  8
0
  0
BLOCK
  8
0
  2
*D376
 70
     1
 10
0.0
 20
0.0
 30
0.0
  3
*D376
  1

  0
LINE
  5
1A12
  8
DIMENSIONS
  6
BYBLOCK
 62
     0
 10
42.14299070344441
 20
-71.25919547939543
 30
0.0
 11
-11.04672542383113
 21
-71.25919547939543
 31
0.0
  0
LINE
  5
1A13
  8
DIMENSIONS
  6
BYBLOCK
 62
     0
 10
19.14299070344441
 20
-93.75919547939543
 30
0.0
 11
-11.04672542383113
 21
-93.75919547939543
 31
0.0
  0
LINE
  5
1A14
  8
DIMENSIONS
  6
BYBLOCK
 62
     0
 10
-10.86672542383113
 20
-71.25919547939543
 30
0.0
 11
-10.86672542383113
 21
-31.93919547939544
 31
0.0
  0
LINE
  5
1A15
  8
DIMENSIONS
  6
BYBLOCK
 62
     0
 10
-10.86672542383113
 20
-76.25919547939543
 30
0.0
 11
-10.86672542383113
 21
-88.75919547939543
 31
0.0
  0
SOLID
  5
1A16
  8
DIMENSIONS
 62
     0
 10
-10.0333920904978
 20
-76.25919547939543
 30
0.0
 11
-11.70005875716446
 21
-76.25919547939543
 31
0.0
 12
-10.86672542383113
 22
-71.25919547939543
 32
0.0
 13
-10.86672542383113
 23
-71.25919547939543
 33
0.0
  0
SOLID
  5
1A17
  8
DIMENSIONS
 62
     0
 10
-11.70005875716446
 20
-88.75919547939543
 30
0.0
 11
-10.0333920904978
 21
-88.75919547939543
 31
0.0
 12
-10.86672542383113
 22
-93.75919547939543
 32
0.0
 13
-10.86672542383113
 23
-93.75919547939543
 33
0.0
  0
TEXT
  5
1A18
  8
DIMENSIONS
  6
CONTINUOUS
 62
     5
 10
-13.26172542383112
 20
-65.46419547939544
 30
0.0
 40
5.0
  1
22.5 [0.89]
 50
90.0
  0
POINT
  5
1A19
  8
DEFPOINTS
 62
     0
 10
43.64299070344441
 20
-71.25919547939543
 30
0.0
  0
POINT
  5
1A1A
  8
DEFPOINTS
 62
     0
 10
20.64299070344441
 20
-93.75919547939543
 30
0.0
  0
POINT
  5
1A75
  8
DEFPOINTS
 62
     0
 10
-10.86672542383113
 20
-93.75919547939543
 30
0.0
  0
ENDBLK
  5
1A11
  8
0
  0
BLOCK
  8
0
  2
*D377
 70
     1
 10
0.0
 20
0.0
 30
0.0
  3
*D377
  1

  0
LINE
  5
1A21
  8
DIMENSIONS
  6
BYBLOCK
 62
     0
 10
518.1429907034444
 20
1138.040804520605
 30
0.0
 11
554.7936145796261
 21
1138.040804520605
 31
0.0
  0
LINE
  5
1A22
  8
DIMENSIONS
  6
BYBLOCK
 62
     0
 10
485.1429907034444
 20
1105.190804520605
 30
0.0
 11
554.7936145796261
 21
1105.190804520605
 31
0.0
  0
LINE
  5
1A23
  8
DIMENSIONS
  6
BYBLOCK
 62
     0
 10
554.6136145796262
 20
1105.190804520605
 30
0.0
 11
554.6136145796262
 21
1065.677669669673
 31
0.0
  0
LINE
  5
1A24
  8
DIMENSIONS
  6
BYBLOCK
 62
     0
 10
554.6136145796262
 20
1133.040804520605
 30
0.0
 11
554.6136145796262
 21
1110.190804520605
 31
0.0
  0
SOLID
  5
1A25
  8
DIMENSIONS
 62
     0
 10
555.4469479129596
 20
1133.040804520605
 30
0.0
 11
553.7802812462928
 21
1133.040804520605
 31
0.0
 12
554.6136145796262
 22
1138.040804520605
 32
0.0
 13
554.6136145796262
 23
1138.040804520605
 33
0.0
  0
SOLID
  5
1A26
  8
DIMENSIONS
 62
     0
 10
553.7802812462928
 20
1110.190804520605
 30
0.0
 11
555.4469479129596
 21
1110.190804520605
 31
0.0
 12
554.6136145796262
 22
1105.190804520605
 32
0.0
 13
554.6136145796262
 23
1105.190804520605
 33
0.0
  0
TEXT
  5
1A27
  8
DIMENSIONS
  6
CONTINUOUS
 62
     5
 10
552.2186145796261
 20
1066.382669669673
 30
0.0
 40
5.0
  1
32.9 [1.29]
 50
90.0
  0
POINT
  5
1A28
  8
DEFPOINTS
 62
     0
 10
516.6429907034444
 20
1138.040804520605
 30
0.0
  0
POINT
  5
1A29
  8
DEFPOINTS
 62
     0
 10
483.6429907034444
 20
1105.190804520605
 30
0.0
  0
POINT
  5
1A76
  8
DEFPOINTS
 62
     0
 10
554.6136145796262
 20
1105.190804520605
 30
0.0
  0
ENDBLK
  5
1A20
  8
0
  0
BLOCK
  8
0
  2
*D378
 70
     1
 10
0.0
 20
0.0
 30
0.0
  3
*D378
  1

  0
LINE
  5
1A30
  8
DIMENSIONS
  6
BYBLOCK
 62
     0
 10
485.1429907034444
 20
1105.190804520605
 30
0.0
 11
535.4485637364822
 21
1105.190804520605
 31
0.0
  0
LINE
  5
1A31
  8
DIMENSIONS
  6
BYBLOCK
 62
     0
 10
485.1429907034444
 20
405.1908045206046
 30
0.0
 11
535.4485637364822
 21
405.1908045206046
 31
0.0
  0
LINE
  5
1A32
  8
DIMENSIONS
  6
BYBLOCK
 62
     0
 10
535.2685637364823
 20
1100.190804520605
 30
0.0
 11
535.2685637364823
 21
410.1908045206046
 31
0.0
  0
SOLID
  5
1A33
  8
DIMENSIONS
 62
     0
 10
536.1018970698157
 20
1100.190804520605
 30
0.0
 11
534.4352304031489
 21
1100.190804520605
 31
0.0
 12
535.2685637364823
 22
1105.190804520605
 32
0.0
 13
535.2685637364823
 23
1105.190804520605
 33
0.0
  0
SOLID
  5
1A34
  8
DIMENSIONS
 62
     0
 10
534.4352304031489
 20
410.1908045206046
 30
0.0
 11
536.1018970698157
 21
410.1908045206046
 31
0.0
 12
535.2685637364823
 22
405.1908045206046
 32
0.0
 13
535.2685637364823
 23
405.1908045206046
 33
0.0
  0
TEXT
  5
1A35
  8
DIMENSIONS
  6
CONTINUOUS
 62
     5
 10
532.8735637364822
 20
737.7933045206046
 30
0.0
 40
5.0
  1
700 [27.56]
 50
90.0
  0
POINT
  5
1A36
  8
DEFPOINTS
 62
     0
 10
483.6429907034444
 20
1105.190804520605
 30
0.0
  0
POINT
  5
1A37
  8
DEFPOINTS
 62
     0
 10
483.6429907034444
 20
405.1908045206046
 30
0.0
  0
POINT
  5
1A38
  8
DEFPOINTS
 62
     0
 10
535.2685637364823
 20
405.1908045206046
 30
0.0
  0
ENDBLK
  5
1A2F
  8
0
  0
BLOCK
  8
0
  2
*D379
 70
     1
 10
0.0
 20
0.0
 30
0.0
  3
*D379
  1

  0
LINE
  5
1A3F
  8
DIMENSIONS
  6
BYBLOCK
 62
     0
 10
485.1429907034444
 20
405.1908045206046
 30
0.0
 11
535.4485637364822
 21
405.1908045206046
 31
0.0
  0
LINE
  5
1A40
  8
DIMENSIONS
  6
BYBLOCK
 62
     0
 10
485.1429907034444
 20
325.1908045206046
 30
0.0
 11
535.4485637364822
 21
325.1908045206046
 31
0.0
  0
LINE
  5
1A41
  8
DIMENSIONS
  6
BYBLOCK
 62
     0
 10
535.2685637364823
 20
400.1908045206046
 30
0.0
 11
535.2685637364823
 21
330.1908045206046
 31
0.0
  0
SOLID
  5
1A42
  8
DIMENSIONS
 62
     0
 10
536.1018970698157
 20
400.1908045206046
 30
0.0
 11
534.4352304031489
 21
400.1908045206046
 31
0.0
 12
535.2685637364823
 22
405.1908045206046
 32
0.0
 13
535.2685637364823
 23
405.1908045206046
 33
0.0
  0
SOLID
  5
1A43
  8
DIMENSIONS
 62
     0
 10
534.4352304031489
 20
330.1908045206046
 30
0.0
 11
536.1018970698157
 21
330.1908045206046
 31
0.0
 12
535.2685637364823
 22
325.1908045206046
 32
0.0
 13
535.2685637364823
 23
325.1908045206046
 33
0.0
  0
TEXT
  5
1A44
  8
DIMENSIONS
  6
CONTINUOUS
 62
     5
 10
532.8735637364823
 20
351.6958045206046
 30
0.0
 40
5.0
  1
80 [3.15]
 50
90.0
  0
POINT
  5
1A45
  8
DEFPOINTS
 62
     0
 10
483.6429907034444
 20
405.1908045206046
 30
0.0
  0
POINT
  5
1A46
  8
DEFPOINTS
 62
     0
 10
483.6429907034444
 20
325.1908045206046
 30
0.0
  0
POINT
  5
1A47
  8
DEFPOINTS
 62
     0
 10
535.2685637364823
 20
325.1908045206046
 30
0.0
  0
ENDBLK
  5
1A3E
  8
0
  0
BLOCK
  8
0
  2
*D380
 70
     1
 10
0.0
 20
0.0
 30
0.0
  3
*D380
  1

  0
LINE
  5
1A4E
  8
DIMENSIONS
  6
BYBLOCK
 62
     0
 10
485.1429907034444
 20
325.1908045206046
 30
0.0
 11
535.4435468512277
 21
325.1908045206046
 31
0.0
  0
LINE
  5
1A4F
  8
DIMENSIONS
  6
BYBLOCK
 62
     0
 10
485.1429907034444
 20
-24.80919547939538
 30
0.0
 11
535.4435468512277
 21
-24.80919547939539
 31
0.0
  0
LINE
  5
1A50
  8
DIMENSIONS
  6
BYBLOCK
 62
     0
 10
535.2635468512277
 20
320.1908045206046
 30
0.0
 11
535.2635468512277
 21
-19.80919547939539
 31
0.0
  0
SOLID
  5
1A51
  8
DIMENSIONS
 62
     0
 10
536.0968801845611
 20
320.1908045206046
 30
0.0
 11
534.4302135178943
 21
320.1908045206046
 31
0.0
 12
535.2635468512277
 22
325.1908045206046
 32
0.0
 13
535.2635468512277
 23
325.1908045206046
 33
0.0
  0
SOLID
  5
1A52
  8
DIMENSIONS
 62
     0
 10
534.4302135178943
 20
-19.80919547939539
 30
0.0
 11
536.0968801845611
 21
-19.80919547939539
 31
0.0
 12
535.2635468512277
 22
-24.80919547939539
 32
0.0
 13
535.2635468512277
 23
-24.80919547939539
 33
0.0
  0
TEXT
  5
1A53
  8
DIMENSIONS
  6
CONTINUOUS
 62
     5
 10
532.8685468512277
 20
132.8108045206046
 30
0.0
 40
5.0
  1
350 [13.78]
 50
90.0
  0
POINT
  5
1A54
  8
DEFPOINTS
 62
     0
 10
483.6429907034444
 20
325.1908045206046
 30
0.0
  0
POINT
  5
1A55
  8
DEFPOINTS
 62
     0
 10
483.6429907034444
 20
-24.80919547939538
 30
0.0
  0
POINT
  5
1A56
  8
DEFPOINTS
 62
     0
 10
535.2635468512277
 20
-24.80919547939539
 30
0.0
  0
ENDBLK
  5
1A4D
  8
0
  0
BLOCK
  8
0
  2
*D381
 70
     1
 10
0.0
 20
0.0
 30
0.0
  3
*D381
  1

  0
LINE
  5
1A5D
  8
DIMENSIONS
  6
BYBLOCK
 62
     0
 10
485.1429907034444
 20
-24.80919547939538
 30
0.0
 11
535.4435468512277
 21
-24.80919547939538
 31
0.0
  0
LINE
  5
1A5E
  8
DIMENSIONS
  6
BYBLOCK
 62
     0
 10
518.1429907034444
 20
-93.75919547939543
 30
0.0
 11
535.4435468512277
 21
-93.75919547939543
 31
0.0
  0
LINE
  5
1A5F
  8
DIMENSIONS
  6
BYBLOCK
 62
     0
 10
535.2635468512277
 20
-29.80919547939538
 30
0.0
 11
535.2635468512277
 21
-88.75919547939543
 31
0.0
  0
SOLID
  5
1A60
  8
DIMENSIONS
 62
     0
 10
536.0968801845611
 20
-29.80919547939538
 30
0.0
 11
534.4302135178943
 21
-29.80919547939538
 31
0.0
 12
535.2635468512277
 22
-24.80919547939538
 32
0.0
 13
535.2635468512277
 23
-24.80919547939538
 33
0.0
  0
SOLID
  5
1A61
  8
DIMENSIONS
 62
     0
 10
534.4302135178943
 20
-88.75919547939543
 30
0.0
 11
536.0968801845611
 21
-88.75919547939543
 31
0.0
 12
535.2635468512277
 22
-93.75919547939543
 32
0.0
 13
535.2635468512277
 23
-93.75919547939543
 33
0.0
  0
TEXT
  5
1A62
  8
DIMENSIONS
  6
CONTINUOUS
 62
     5
 10
532.8685468512277
 20
-72.76669547939537
 30
0.0
 40
5.0
  1
69 [2.71]
 50
90.0
  0
POINT
  5
1A63
  8
DEFPOINTS
 62
     0
 10
483.6429907034444
 20
-24.80919547939538
 30
0.0
  0
POINT
  5
1A64
  8
DEFPOINTS
 62
     0
 10
516.6429907034444
 20
-93.75919547939543
 30
0.0
  0
POINT
  5
1A65
  8
DEFPOINTS
 62
     0
 10
535.2635468512277
 20
-93.75919547939543
 30
0.0
  0
ENDBLK
  5
1A5C
  8
0
  0
BLOCK
  8
0
  2
*D382
 70
     1
 10
0.0
 20
0.0
 30
0.0
  3
*D382
  1

  0
LINE
  5
1A6C
  8
DIMENSIONS
  6
BYBLOCK
 62
     0
 10
485.1431681338379
 20
-71.31411619686689
 30
0.0
 11
439.2379446225092
 21
-71.61072801320594
 31
0.0
  0
LINE
  5
1A6D
  8
DIMENSIONS
  6
BYBLOCK
 62
     0
 10
502.1428132730509
 20
-71.20427476192395
 30
0.0
 11
507.1427089022312
 21
-71.17196845752898
 31
0.0
  0
TEXT
  5
1A6E
  8
DIMENSIONS
  6
CONTINUOUS
 62
     5
 10
439.9419379724358
 20
-69.1311275689288
 30
0.0
 40
5.0
  1
Ø7 [Ø0.28]
 50
0.3702055546135793
  0
LINE
  5
1A6F
  8
DIMENSIONS
  6
BYBLOCK
 62
     0
 10
497.1429176438706
 20
-71.23658106631893
 30
0.0
 11
490.1430637630182
 21
-71.28180989247191
 31
0.0
  0
SOLID
  5
1A70
  8
DIMENSIONS
 62
     0
 10
502.137428888985
 20
-70.37095882372724
 30
0.0
 11
502.1481976571167
 21
-72.03759070012067
 31
0.0
 12
497.1429176438706
 22
-71.23658106631893
 32
0.0
 13
497.1429176438706
 23
-71.23658106631893
 33
0.0
  0
SOLID
  5
1A71
  8
DIMENSIONS
 62
     0
 10
485.1485525179037
 20
-72.14743213506361
 30
0.0
 11
485.137783749772
 21
-70.48080025867017
 31
0.0
 12
490.1430637630182
 22
-71.28180989247191
 32
0.0
 13
490.1430637630182
 23
-71.28180989247191
 33
0.0
  0
POINT
  5
1A72
  8
DEFPOINTS
 62
     0
 10
490.1430637630182
 20
-71.28180989247191
 30
0.0
  0
POINT
  5
1A73
  8
DEFPOINTS
 62
     0
 10
497.1429176438706
 20
-71.23658106631893
 30
0.0
  0
ENDBLK
  5
1A6B
  8
0
  0
BLOCK
  8
0
  2
*D383
 70
     1
 10
0.0
 20
0.0
 30
0.0
  3
*D383
  1

  0
LINE
  5
1A84
  8
DIMENSIONS
  6
BYBLOCK
 62
     0
 10
19.14299070344441
 20
-93.75919547939543
 30
0.0
 11
-30.81637749146212
 21
-93.75919547939543
 31
0.0
  0
LINE
  5
1A85
  8
DIMENSIONS
  6
BYBLOCK
 62
     0
 10
19.14299070344441
 20
1138.040804520605
 30
0.0
 11
-30.81637749146204
 21
1138.040804520605
 31
0.0
  0
LINE
  5
1A86
  8
DIMENSIONS
  6
BYBLOCK
 62
     0
 10
-30.63637749146212
 20
-88.75919547939543
 30
0.0
 11
-30.63637749146204
 21
1133.040804520605
 31
0.0
  0
SOLID
  5
1A87
  8
DIMENSIONS
 62
     0
 10
-31.46971082479545
 20
-88.75919547939543
 30
0.0
 11
-29.80304415812878
 21
-88.75919547939543
 31
0.0
 12
-30.63637749146212
 22
-93.75919547939543
 32
0.0
 13
-30.63637749146212
 23
-93.75919547939543
 33
0.0
  0
SOLID
  5
1A88
  8
DIMENSIONS
 62
     0
 10
-29.80304415812871
 20
1133.040804520605
 30
0.0
 11
-31.46971082479537
 21
1133.040804520605
 31
0.0
 12
-30.63637749146204
 22
1138.040804520605
 32
0.0
 13
-30.63637749146204
 23
1138.040804520605
 33
0.0
  0
TEXT
  5
1A89
  8
DIMENSIONS
  6
CONTINUOUS
 62
     5
 10
-33.03137749146208
 20
501.6183045206046
 30
0.0
 40
5.0
  1
1231.8 [48.5]
 50
90.0
  0
POINT
  5
1A8A
  8
DEFPOINTS
 62
     0
 10
20.64299070344441
 20
-93.75919547939543
 30
0.0
  0
POINT
  5
1A8B
  8
DEFPOINTS
 62
     0
 10
20.64299070344441
 20
1138.040804520605
 30
0.0
  0
POINT
  5
1A8C
  8
DEFPOINTS
 62
     0
 10
-30.63637749146204
 20
1138.040804520605
 30
0.0
  0
ENDBLK
  5
1A83
  8
0
  0
ENDSEC
  0
SECTION
  2
ENTITIES
  0
TEXT
  5
C0B
  8
DIMENSIONS
  6
BYBLOCK
 10
23.54280363492791
 20
-120.5359226212439
 30
0.0
 40
7.999999999999999
  1
Note:
 50
0.2102616414016837
  0
TEXT
  5
C0C
  8
DIMENSIONS
  6
BYBLOCK
 10
23.5868406312831
 20
-132.5358418185949
 30
0.0
 40
7.999999999999999
  1
Primary dimensions in millimeters.
 50
0.2102616414016837
  0
TEXT
  5
C0D
  8
DIMENSIONS
  6
BYBLOCK
 10
23.63087762763828
 20
-144.5357610159458
 30
0.0
 40
7.999999999999999
  1
Secondary dimensions in inches.
 50
0.2102616414016837
  0
LINE
  5
198D
  8
0
  6
CONTINUOUS
 62
     7
 10
516.6429907034444
 20
-93.75919547939543
 30
0.0
 11
20.64299070344441
 21
-93.75919547939543
 31
0.0
  0
LINE
  5
198E
  8
0
  6
CONTINUOUS
 62
     7
 10
483.6429907034444
 20
-24.80919547939538
 30
0.0
 11
53.64299070344441
 21
-24.80919547939538
 31
0.0
  0
LINE
  5
198F
  8
0
  6
CONTINUOUS
 62
     7
 10
20.64299070344441
 20
-93.75919547939543
 30
0.0
 11
20.64299070344441
 21
1138.040804520605
 31
0.0
  0
LINE
  5
1990
  8
0
  6
CONTINUOUS
 62
     7
 10
53.64299070344441
 20
-24.80919547939538
 30
0.0
 11
53.64299070344441
 21
325.1908045206046
 31
0.0
  0
LINE
  5
1991
  8
0
  6
CONTINUOUS
 62
     7
 10
53.64299070344441
 20
405.1908045206046
 30
0.0
 11
53.64299070344441
 21
1105.190804520605
 31
0.0
  0
LINE
  5
1992
  8
0
  6
CONTINUOUS
 62
     7
 10
53.64299070344441
 20
325.1908045206046
 30
0.0
 11
483.6429907034444
 21
325.1908045206046
 31
0.0
  0
LINE
  5
1993
  8
0
  6
CONTINUOUS
 62
     7
 10
483.6429907034444
 20
405.1908045206046
 30
0.0
 11
53.64299070344441
 21
405.1908045206046
 31
0.0
  0
LINE
  5
1994
  8
0
  6
CONTINUOUS
 62
     7
 10
483.6429907034444
 20
1105.190804520605
 30
0.0
 11
483.6429907034444
 21
405.1908045206046
 31
0.0
  0
LINE
  5
1995
  8
0
  6
CONTINUOUS
 62
     7
 10
483.6429907034444
 20
325.1908045206046
 30
0.0
 11
483.6429907034444
 21
-24.80919547939538
 31
0.0
  0
LINE
  5
1996
  8
0
  6
CONTINUOUS
 62
     7
 10
516.6429907034444
 20
1138.040804520605
 30
0.0
 11
516.6429907034444
 21
-93.75919547939543
 31
0.0
  0
LINE
  5
1997
  8
0
  6
CONTINUOUS
 62
     7
 10
53.64299070344441
 20
1105.190804520605
 30
0.0
 11
483.6429907034444
 21
1105.190804520605
 31
0.0
  0
LINE
  5
1998
  8
0
  6
CONTINUOUS
 62
     7
 10
20.64299070344441
 20
1138.040804520605
 30
0.0
 11
516.6429907034444
 21
1138.040804520605
 31
0.0
  0
CIRCLE
  5
1999
  8
02___PRT_ALL_AXES
  6
CONTINUOUS
 62
     7
 10
43.64299070344441
 20
-71.25919547939543
 30
0.0
 40
3.5
  0
CIRCLE
  5
199A
  8
02___PRT_ALL_AXES
  6
CONTINUOUS
 62
     7
 10
493.6429907034444
 20
341.2408045206046
 30
0.0
 40
3.5
  0
CIRCLE
  5
199B
  8
02___PRT_ALL_AXES
  6
CONTINUOUS
 62
     7
 10
493.6429907034444
 20
-71.25919547939543
 30
0.0
 40
3.5
  0
CIRCLE
  5
199C
  8
02___PRT_ALL_AXES
  6
CONTINUOUS
 62
     7
 10
43.64299070344441
 20
341.2408045206046
 30
0.0
 40
3.5
  0
CIRCLE
  5
199D
  8
02___PRT_ALL_AXES
  6
CONTINUOUS
 62
     7
 10
43.64299070344441
 20
701.2408045206046
 30
0.0
 40
3.5
  0
CIRCLE
  5
199E
  8
02___PRT_ALL_AXES
  6
CONTINUOUS
 62
     7
 10
493.6429907034444
 20
701.2408045206046
 30
0.0
 40
3.5
  0
CIRCLE
  5
199F
  8
02___PRT_ALL_AXES
  6
CONTINUOUS
 62
     7
 10
43.64299070344441
 20
1113.740804520605
 30
0.0
 40
3.5
  0
CIRCLE
  5
19A0
  8
02___PRT_ALL_AXES
  6
CONTINUOUS
 62
     7
 10
493.6429907034444
 20
1113.740804520605
 30
0.0
 40
3.5
  0
DIMENSION
  5
19A1
  8
DIMENSIONS
  6
BYBLOCK
  2
*D369
 10
483.6429907034444
 20
1153.881699305893
 30
0.0
 11
268.6429907034444
 21
1158.084199305893
 31
0.0
 70
    32
  3
DUAL-DIM
 13
53.64299070344441
 23
1105.190804520605
 33
0.0
 14
483.6429907034444
 24
1105.190804520605
 34
0.0
  0
DIMENSION
  5
19B0
  8
DIMENSIONS
  6
BYBLOCK
  2
*D370
 10
493.6429907034444
 20
1170.044567880366
 30
0.0
 11
268.6429907034444
 21
1174.247067880366
 31
0.0
 70
    32
  3
DUAL-DIM
 13
43.64299070344441
 23
1113.740804520605
 33
0.0
 14
493.6429907034444
 24
1113.740804520605
 34
0.0
  0
DIMENSION
  5
19C1
  8
DIMENSIONS
  6
BYBLOCK
  2
*D371
 10
516.6429907034444
 20
1185.459259413901
 30
0.0
 11
268.6429907034444
 21
1189.661759413901
 31
0.0
 70
    32
  3
DUAL-DIM
 13
20.64299070344441
 23
1138.040804520605
 33
0.0
 14
516.6429907034444
 24
1138.040804520605
 34
0.0
  0
DIMENSION
  5
19D0
  8
DIMENSIONS
  6
BYBLOCK
  2
*D372
 10
-12.34291310012848
 20
1113.740804520605
 30
0.0
 11
-12.34291310012848
 21
1091.580804520604
 31
0.0
 70
   160
  3
DUAL-DIM
 13
20.64299070344441
 23
1138.040804520605
 33
0.0
 14
43.64299070344441
 24
1113.740804520605
 34
0.0
 50
90.0
1001
ACAD
1000
DSTYLE
1002
{
1070
   287
1070
     2
1070
   279
1070
     0
1002
}
  0
DIMENSION
  5
19DF
  8
DIMENSIONS
  6
BYBLOCK
  2
*D373
 10
3.11848142746158
 20
701.2408045206046
 30
0.0
 11
-1.084018572538394
 21
907.4908045206046
 31
0.0
 70
    32
  3
DUAL-DIM
 13
43.64299070344441
 23
1113.740804520605
 33
0.0
 14
43.64299070344441
 24
701.2408045206046
 34
0.0
 50
90.0
  0
DIMENSION
  5
19EE
  8
DIMENSIONS
  6
BYBLOCK
  2
*D374
 10
3.118481427461558
 20
341.2408045206046
 30
0.0
 11
-1.084018572538417
 21
521.2408045206046
 31
0.0
 70
    32
  3
DUAL-DIM
 13
43.64299070344441
 23
701.2408045206046
 33
0.0
 14
43.64299070344441
 24
341.2408045206046
 34
0.0
 50
90.0
  0
DIMENSION
  5
19FD
  8
DIMENSIONS
  6
BYBLOCK
  2
*D375
 10
3.118481427461532
 20
-71.25919547939543
 30
0.0
 11
-1.084018572538441
 21
134.9908045206046
 31
0.0
 70
    32
  3
DUAL-DIM
 13
43.64299070344441
 23
341.2408045206046
 33
0.0
 14
43.64299070344441
 24
-71.25919547939543
 34
0.0
 50
90.0
  0
DIMENSION
  5
1A0C
  8
DIMENSIONS
  6
BYBLOCK
  2
*D376
 10
-10.86672542383113
 20
-93.75919547939543
 30
0.0
 11
-10.86672542383113
 21
-49.09919547939543
 31
0.0
 70
   160
  3
DUAL-DIM
 13
43.64299070344441
 23
-71.25919547939543
 33
0.0
 14
20.64299070344441
 24
-93.75919547939543
 34
0.0
 50
90.0
1001
ACAD
1000
DSTYLE
1002
{
1070
   287
1070
     2
1070
   279
1070
     0
1002
}
  0
DIMENSION
  5
1A1B
  8
DIMENSIONS
  6
BYBLOCK
  2
*D377
 10
554.6136145796262
 20
1105.190804520605
 30
0.0
 11
554.6136145796262
 21
1082.792669669673
 31
0.0
 70
   160
  3
DUAL-DIM
 13
516.6429907034444
 23
1138.040804520605
 33
0.0
 14
483.6429907034444
 24
1105.190804520605
 34
0.0
 50
90.0
1001
ACAD
1000
DSTYLE
1002
{
1070
   287
1070
     2
1070
   279
1070
     0
1002
}
  0
DIMENSION
  5
1A2A
  8
DIMENSIONS
  6
BYBLOCK
  2
*D378
 10
535.2685637364823
 20
405.1908045206046
 30
0.0
 11
531.0660637364823
 21
755.1908045206046
 31
0.0
 70
    32
  3
DUAL-DIM
 13
483.6429907034444
 23
1105.190804520605
 33
0.0
 14
483.6429907034444
 24
405.1908045206046
 34
0.0
 50
90.0
  0
DIMENSION
  5
1A39
  8
DIMENSIONS
  6
BYBLOCK
  2
*D379
 10
535.2685637364823
 20
325.1908045206046
 30
0.0
 11
531.0660637364823
 21
365.1908045206046
 31
0.0
 70
    32
  3
DUAL-DIM
 13
483.6429907034444
 23
405.1908045206046
 33
0.0
 14
483.6429907034444
 24
325.1908045206046
 34
0.0
 50
90.0
  0
DIMENSION
  5
1A48
  8
DIMENSIONS
  6
BYBLOCK
  2
*D380
 10
535.2635468512277
 20
-24.80919547939539
 30
0.0
 11
531.0610468512277
 21
150.1908045206046
 31
0.0
 70
    32
  3
DUAL-DIM
 13
483.6429907034444
 23
325.1908045206046
 33
0.0
 14
483.6429907034444
 24
-24.80919547939538
 34
0.0
 50
90.0
  0
DIMENSION
  5
1A57
  8
DIMENSIONS
  6
BYBLOCK
  2
*D381
 10
535.2635468512277
 20
-93.75919547939543
 30
0.0
 11
531.0610468512277
 21
-59.28419547939541
 31
0.0
 70
    32
  3
DUAL-DIM
 13
483.6429907034444
 23
-24.80919547939538
 33
0.0
 14
516.6429907034444
 24
-93.75919547939543
 34
0.0
 50
90.0
  0
DIMENSION
  5
1A66
  8
DIMENSIONS
  6
BYBLOCK
  2
*D382
 10
497.1429176438706
 20
-71.23658106631893
 30
0.0
 11
456.9400750976221
 21
-71.4963475424955
 31
0.0
 70
   163
  1
<>
  3
DUAL-DIM
 15
490.1430637630182
 25
-71.28180989247191
 35
0.0
 40
0.0
1001
ACAD_DSTYLE_DIMRADIAL_EXTE
1070
   387
1070
     1
1070
   388
1040
0.0
1070
   390
1040
6.283185307179586
1001
ACAD
1000
DSTYLE
1002
{
1070
   287
1070
     2
1070
   279
1070
     0
1002
}
  0
DIMENSION
  5
1A7E
  8
DIMENSIONS
  6
BYBLOCK
  2
*D383
 10
-30.63637749146204
 20
1138.040804520605
 30
0.0
 11
-34.83887749146206
 21
522.1408045206045
 31
0.0
 70
    32
  3
DUAL-DIM
 13
20.64299070344441
 23
-93.75919547939543
 33
0.0
 14
20.64299070344441
 24
1138.040804520605
 34
0.0
 50
90.0
  0
POLYLINE
  5
1A8D
  8
0
  6
BYBLOCK
 66
     1
 10
0.0
 20
0.0
 30
0.0
 70
     1
  0
VERTEX
  5
1A94
  8
0
  6
BYBLOCK
 10
-139.6000212805484
 20
-167.4479393849284
 30
0.0
  0
VERTEX
  5
1A95
  8
0
  6
BYBLOCK
 10
-139.6000212805484
 20
1241.508864703806
 30
0.0
  0
VERTEX
  5
1A96
  8
0
  6
BYBLOCK
 10
644.3864418869363
 20
1241.508864703806
 30
0.0
  0
VERTEX
  5
1A97
  8
0
  6
BYBLOCK
 10
644.3864418869363
 20
-167.4479393849284
 30
0.0
  0
SEQEND
  5
1A98
  8
0
  6
BYBLOCK
  0
ENDSEC
  0
EOF
