  0
SECTION
  2
HEADER
  9
$ACADVER
  1
AC1009
  9
$DWGCODEPAGE
  3
ansi_1252
  9
$INSBASE
 10
0.0
 20
0.0
 30
0.0
  9
$EXTMIN
 10
-77.48786514464223
 20
-169.6189384256478
 30
0.0
  9
$EXTMAX
 10
563.892767780458
 20
997.0688022084095
 30
0.0
  9
$LIMMIN
 10
0.0
 20
0.0
  9
$LIMMAX
 10
594.0
 20
420.0
  9
$ORTHOMODE
 70
     0
  9
$REGENMODE
 70
     1
  9
$FILLMODE
 70
     1
  9
$QTEXTMODE
 70
     0
  9
$MIRRTEXT
 70
     1
  9
$DRAGMODE
 70
     2
  9
$LTSCALE
 40
32.67
  9
$OSMODE
 70
   511
  9
$ATTMODE
 70
     1
  9
$TEXTSIZE
 40
0.2
  9
$TRACEWID
 40
0.05
  9
$TEXTSTYLE
  7
STANDARD
  9
$CLAYER
  8
DIMENSIONS
  9
$CELTYPE
  6
BYBLOCK
  9
$CECOLOR
 62
   256
  9
$DIMSCALE
 40
1.0
  9
$DIMASZ
 40
5.0
  9
$DIMEXO
 40
1.5
  9
$DIMDLI
 40
1.0
  9
$DIMRND
 40
0.0
  9
$DIMDLE
 40
0.0
  9
$DIMEXE
 40
0.18
  9
$DIMTP
 40
0.0
  9
$DIMTM
 40
0.0
  9
$DIMTXT
 40
5.0
  9
$DIMCEN
 40
2.5
  9
$DIMTSZ
 40
0.0
  9
$DIMTOL
 70
     0
  9
$DIMLIM
 70
     0
  9
$DIMTIH
 70
     0
  9
$DIMTOH
 70
     0
  9
$DIMSE1
 70
     0
  9
$DIMSE2
 70
     0
  9
$DIMTAD
 70
     1
  9
$DIMZIN
 70
     8
  9
$DIMBLK
  1

  9
$DIMASO
 70
     1
  9
$DIMSHO
 70
     1
  9
$DIMPOST
  1

  9
$DIMAPOST
  1

  9
$DIMALT
 70
     1
  9
$DIMALTD
 70
     2
  9
$DIMALTF
 40
0.03937
  9
$DIMLFAC
 40
1.0
  9
$DIMTOFL
 70
     1
  9
$DIMTVP
 40
0.0
  9
$DIMTIX
 70
     0
  9
$DIMSOXD
 70
     0
  9
$DIMSAH
 70
     0
  9
$DIMBLK1
  1

  9
$DIMBLK2
  1

  9
$DIMSTYLE
  2
DUAL-DIM
  9
$DIMCLRD
 70
     0
  9
$DIMCLRE
 70
     0
  9
$DIMCLRT
 70
     5
  9
$DIMTFAC
 40
1.0
  9
$DIMGAP
 40
1.0
  9
$LUNITS
 70
     2
  9
$LUPREC
 70
     4
  9
$SKETCHINC
 40
0.1
  9
$FILLETRAD
 40
15.0
  9
$AUNITS
 70
     0
  9
$AUPREC
 70
     0
  9
$MENU
  1
.
  9
$ELEVATION
 40
0.0
  9
$PELEVATION
 40
0.0
  9
$THICKNESS
 40
0.0
  9
$LIMCHECK
 70
     0
  9
$CHAMFERA
 40
0.0
  9
$CHAMFERB
 40
0.0
  9
$SKPOLY
 70
     0
  9
$TDCREATE
 40
2457428.35467787
  9
$TDUPDATE
 40
2457438.389686655
  9
$TDINDWG
 40
0.0517724537
  9
$TDUSRTIMER
 40
2457438.345856921
  9
$USRTIMER
 70
     1
  9
$ANGBASE
 50
0.0
  9
$ANGDIR
 70
     0
  9
$PDMODE
 70
     3
  9
$PDSIZE
 40
0.3125
  9
$PLINEWID
 40
0.0
  9
$COORDS
 70
     2
  9
$SPLFRAME
 70
     0
  9
$SPLINETYPE
 70
     6
  9
$SPLINESEGS
 70
     8
  9
$ATTDIA
 70
     0
  9
$ATTREQ
 70
     1
  9
$HANDLING
 70
     1
  9
$HANDSEED
  5
17BC
  9
$SURFTAB1
 70
     6
  9
$SURFTAB2
 70
     6
  9
$SURFTYPE
 70
     6
  9
$SURFU
 70
     6
  9
$SURFV
 70
     6
  9
$UCSNAME
  2

  9
$UCSORG
 10
0.0
 20
0.0
 30
0.0
  9
$UCSXDIR
 10
1.0
 20
0.0
 30
0.0
  9
$UCSYDIR
 10
0.0
 20
1.0
 30
0.0
  9
$PUCSNAME
  2

  9
$PUCSORG
 10
0.0
 20
0.0
 30
0.0
  9
$PUCSXDIR
 10
1.0
 20
0.0
 30
0.0
  9
$PUCSYDIR
 10
0.0
 20
1.0
 30
0.0
  9
$USERI1
 70
     0
  9
$USERI2
 70
     0
  9
$USERI3
 70
     0
  9
$USERI4
 70
     0
  9
$USERI5
 70
     0
  9
$USERR1
 40
0.0
  9
$USERR2
 40
0.0
  9
$USERR3
 40
0.0
  9
$USERR4
 40
0.0
  9
$USERR5
 40
0.0
  9
$WORLDVIEW
 70
     1
  9
$SHADEDGE
 70
     3
  9
$SHADEDIF
 70
    70
  9
$TILEMODE
 70
     1
  9
$MAXACTVP
 70
    64
  9
$PLIMCHECK
 70
     0
  9
$PEXTMIN
 10
1.000000000000000E+20
 20
1.000000000000000E+20
 30
1.000000000000000E+20
  9
$PEXTMAX
 10
-1.000000000000000E+20
 20
-1.000000000000000E+20
 30
-1.000000000000000E+20
  9
$PLIMMIN
 10
0.0
 20
0.0
  9
$PLIMMAX
 10
0.0
 20
0.0
  9
$UNITMODE
 70
     0
  9
$VISRETAIN
 70
     1
  9
$PLINEGEN
 70
     0
  9
$PSLTSCALE
 70
     1
  0
ENDSEC
  0
SECTION
  2
TABLES
  0
TABLE
  2
VPORT
 70
     1
  0
VPORT
  2
*ACTIVE
 70
     0
 10
0.0
 20
0.0
 11
1.0
 21
1.0
 12
911.8226945776862
 22
432.3845881385673
 13
0.0
 23
0.0
 14
0.5
 24
0.5
 15
0.5
 25
0.5
 16
0.0
 26
0.0
 36
1.0
 17
0.0
 27
0.0
 37
0.0
 40
1322.452272970384
 41
2.450549450549451
 42
50.0
 43
0.0
 44
0.0
 50
0.0
 51
0.0
 71
    16
 72
   100
 73
     1
 74
     3
 75
     0
 76
     0
 77
     0
 78
     0
  0
ENDTAB
  0
TABLE
  2
LTYPE
 70
     6
  0
LTYPE
  2
CONTINUOUS
 70
     0
  3
Solid line
 72
    65
 73
     0
 40
0.0
  0
LTYPE
  2
CENTER
 70
     0
  3
____ _ ____ _ ____ _ ____ _ ____ _ ____ _ ____
 72
    65
 73
     4
 40
0.6
 49
0.375
 49
-0.075
 49
0.075
 49
-0.075
  0
LTYPE
  2
HIDDEN
 70
     0
  3
- - - - - - - - - - - - - - - - - - - -
 72
    65
 73
     2
 40
0.2
 49
0.1
 49
-0.1
  0
LTYPE
  2
PHANTOM
 70
     0
  3
_____ _ _ _____ _ _ _____ _ _ _____
 72
    65
 73
     6
 40
0.8
 49
0.45
 49
-0.05
 49
0.1
 49
-0.05
 49
0.1
 49
-0.05
  0
LTYPE
  2
DOT
 70
     0
  3
. . . . . . . . . . . . . . . . . . . .
 72
    65
 73
     2
 40
0.2
 49
0.1
 49
-0.1
  0
LTYPE
  2
DASHED
 70
     0
  3
- - - - - - - - - - - - - - - - - - - -
 72
    65
 73
     2
 40
0.2
 49
0.1
 49
-0.1
  0
ENDTAB
  0
TABLE
  2
LAYER
 70
    15
  0
LAYER
  2
0
 70
     0
 62
     7
  6
CONTINUOUS
  0
LAYER
  2
DEFAULT_1
 70
     0
 62
     7
  6
CENTER
  0
LAYER
  2
DEFAULT_2
 70
     0
 62
     8
  6
HIDDEN
  0
LAYER
  2
DEFAULT_3
 70
     0
 62
     7
  6
PHANTOM
  0
LAYER
  2
01___PRT_ALL_DTM_PLN
 70
     0
 62
     7
  6
CONTINUOUS
  0
LAYER
  2
01___PRT_DEF_DTM_PLN
 70
     0
 62
     7
  6
CONTINUOUS
  0
LAYER
  2
02___PRT_ALL_AXES
 70
     0
 62
     7
  6
CONTINUOUS
  0
LAYER
  2
03___PRT_ALL_CURVES
 70
     0
 62
     7
  6
CONTINUOUS
  0
LAYER
  2
04___PRT_ALL_DTM_PNT
 70
     0
 62
     7
  6
CONTINUOUS
  0
LAYER
  2
05___PRT_ALL_DTM_CSYS
 70
     0
 62
     7
  6
CONTINUOUS
  0
LAYER
  2
05___PRT_DEF_DTM_CSYS
 70
     0
 62
     7
  6
CONTINUOUS
  0
LAYER
  2
06___PRT_ALL_SURFS
 70
     0
 62
     7
  6
CONTINUOUS
  0
LAYER
  2
DEFPOINTS
 70
     0
 62
     7
  6
CONTINUOUS
  0
LAYER
  2
DIMENSIONS
 70
     0
 62
     2
  6
CONTINUOUS
  0
LAYER
  2
AM_5
 70
     0
 62
     3
  6
CONTINUOUS
  0
ENDTAB
  0
TABLE
  2
STYLE
 70
     2
  0
STYLE
  2
STANDARD
 70
     0
 40
0.0
 41
1.0
 50
0.0
 71
     0
 42
0.2
  3
arial.ttf
  4

  0
STYLE
  2
TEXTSTYLE_1
 70
     0
 40
0.0
 41
0.8
 50
0.0
 71
     0
 42
0.2
  3
gdt
  4

  0
ENDTAB
  0
TABLE
  2
VIEW
 70
     0
  0
ENDTAB
  0
TABLE
  2
UCS
 70
     0
  0
ENDTAB
  0
TABLE
  2
APPID
 70
     8
  0
APPID
  2
ACAD
 70
     0
  0
APPID
  2
ACAECLAYERSTANDARD
 70
     0
  0
APPID
  2
ACAD_DSTYLE_DIMRADIAL_EXTE
 70
     0
  0
APPID
  2
ACAD_DSTYLE_DIMJOGGED_JOGA
 70
     0
  0
APPID
  2
ACAD_DSTYLE_DIMJAG
 70
     0
  0
APPID
  2
ACAD_DSTYLE_DIMBREAK
 70
     0
  0
APPID
  2
ACAD_PSEXT
 70
     0
  0
APPID
  2
ACAD_DSTYLE_DIMINSPECT
 70
     0
  0
ENDTAB
  0
TABLE
  2
DIMSTYLE
 70
     5
  0
DIMSTYLE
  2
STANDARD
 70
     0
  3

  4

  5

  6

  7

 40
1.0
 41
0.18
 42
0.0625
 43
0.38
 44
0.18
 45
0.0
 46
0.0
 47
0.0
 48
0.0
140
0.18
141
0.09
142
0.0
143
25.4
144
1.0
145
0.0
146
1.0
147
0.09
 71
     0
 72
     0
 73
     1
 74
     1
 75
     0
 76
     0
 77
     0
 78
     0
170
     0
171
     2
172
     0
173
     0
174
     0
175
     0
176
     0
177
     0
178
     0
  0
DIMSTYLE
  2
DUAL-DIM
 70
     0
  3

  4

  5

  6

  7

 40
1.0
 41
5.0
 42
1.5
 43
1.0
 44
0.18
 45
0.0
 46
0.0
 47
0.0
 48
0.0
140
5.0
141
2.5
142
0.0
143
0.03937
144
1.0
145
0.0
146
1.0
147
1.0
 71
     0
 72
     0
 73
     0
 74
     0
 75
     0
 76
     0
 77
     1
 78
     8
170
     1
171
     2
172
     1
173
     0
174
     0
175
     0
176
     0
177
     0
178
     5
  0
DIMSTYLE
  2
AM_ISO
 70
     0
  3

  4
"
  5

  6

  7

 40
1.0
 41
3.5
 42
1.0
 43
10.0
 44
1.0
 45
0.0
 46
0.0
 47
0.1
 48
0.1
140
3.5
141
0.0
142
0.0
143
0.0393701
144
1.0
145
0.0
146
0.71
147
1.5
 71
     0
 72
     0
 73
     0
 74
     0
 75
     0
 76
     0
 77
     1
 78
     8
170
     0
171
     2
172
     1
173
     0
174
     0
175
     0
176
   256
177
   256
178
     2
  0
DIMSTYLE
  2
AM_ISO$3
 70
     0
  3

  4
"
  5

  6

  7

 40
1.0
 41
3.5
 42
1.0
 43
10.0
 44
1.0
 45
0.0
 46
0.0
 47
0.1
 48
0.1
140
3.5
141
0.0
142
0.0
143
0.0393701
144
1.0
145
0.0
146
0.71
147
1.5
 71
     0
 72
     0
 73
     0
 74
     1
 75
     0
 76
     0
 77
     1
 78
     8
170
     0
171
     2
172
     0
173
     0
174
     0
175
     0
176
   256
177
   256
178
     2
  0
DIMSTYLE
  2
AM_ISO$0
 70
     0
  3

  4
"
  5

  6

  7

 40
1.0
 41
3.5
 42
1.0
 43
10.0
 44
1.0
 45
0.0
 46
0.0
 47
0.1
 48
0.1
140
3.5
141
0.0
142
0.0
143
0.0393701
144
1.0
145
0.0
146
0.71
147
1.5
 71
     0
 72
     0
 73
     0
 74
     0
 75
     0
 76
     0
 77
     1
 78
     8
170
     0
171
     2
172
     1
173
     0
174
     0
175
     0
176
   256
177
   256
178
     2
  0
ENDTAB
  0
ENDSEC
  0
SECTION
  2
BLOCKS
  0
BLOCK
  8
0
  2
$MODEL_SPACE
 70
     0
 10
0.0
 20
0.0
 30
0.0
  3
$MODEL_SPACE
  1

  0
ENDBLK
  5
110
  8
0
  0
BLOCK
 67
     1
  8
0
  2
$PAPER_SPACE
 70
     0
 10
0.0
 20
0.0
 30
0.0
  3
$PAPER_SPACE
  1

  0
ENDBLK
  5
112
 67
     1
  8
0
  0
BLOCK
  8
0
  2
_FILLED
 70
     0
 10
0.0
 20
0.0
 30
0.0
  3
_FILLED
  1

  0
SOLID
  5
3D
  8
0
  6
BYBLOCK
 62
     0
 10
0.0
 20
0.0
 30
0.0
 11
-1.0
 21
0.2
 31
0.0
 12
-1.0
 22
-0.2
 32
0.0
 13
-1.0
 23
-0.2
 33
0.0
  0
ENDBLK
  5
3E
  8
0
  6
BYBLOCK
 62
     0
  0
BLOCK
  8
0
  2
*D326
 70
     1
 10
0.0
 20
0.0
 30
0.0
  3
*D326
  1

  0
LINE
  5
167F
  8
DIMENSIONS
  6
BYBLOCK
 62
     0
 10
93.64954888273107
 20
847.5179570675523
 30
0.0
 11
93.6495488827311
 21
898.6967693819907
 31
0.0
  0
LINE
  5
1680
  8
DIMENSIONS
  6
BYBLOCK
 62
     0
 10
423.6495488827311
 20
847.5179570675523
 30
0.0
 11
423.6495488827311
 21
898.6967693819907
 31
0.0
  0
LINE
  5
1681
  8
DIMENSIONS
  6
BYBLOCK
 62
     0
 10
98.6495488827311
 20
898.5167693819908
 30
0.0
 11
418.6495488827311
 21
898.5167693819908
 31
0.0
  0
SOLID
  5
1682
  8
DIMENSIONS
 62
     0
 10
98.6495488827311
 20
899.3501027153242
 30
0.0
 11
98.6495488827311
 21
897.6834360486574
 31
0.0
 12
93.6495488827311
 22
898.5167693819908
 32
0.0
 13
93.6495488827311
 23
898.5167693819908
 33
0.0
  0
SOLID
  5
1683
  8
DIMENSIONS
 62
     0
 10
418.6495488827311
 20
897.6834360486574
 30
0.0
 11
418.6495488827311
 21
899.3501027153242
 31
0.0
 12
423.6495488827311
 22
898.5167693819908
 32
0.0
 13
423.6495488827311
 23
898.5167693819908
 33
0.0
  0
TEXT
  5
1684
  8
DIMENSIONS
  6
CONTINUOUS
 62
     5
 10
241.2695488827311
 20
900.9117693819908
 30
0.0
 40
5.0
  1
330 [12.99]
  0
POINT
  5
1685
  8
DEFPOINTS
 62
     0
 10
93.64954888273107
 20
846.0179570675523
 30
0.0
  0
POINT
  5
1686
  8
DEFPOINTS
 62
     0
 10
423.6495488827311
 20
846.0179570675523
 30
0.0
  0
POINT
  5
1687
  8
DEFPOINTS
 62
     0
 10
423.6495488827311
 20
898.5167693819908
 30
0.0
  0
ENDBLK
  5
167E
  8
0
  0
BLOCK
  8
0
  2
*D327
 70
     1
 10
0.0
 20
0.0
 30
0.0
  3
*D327
  1

  0
LINE
  5
168E
  8
DIMENSIONS
  6
BYBLOCK
 62
     0
 10
433.6206813692311
 20
855.0579570675523
 30
0.0
 11
433.6206813692311
 21
919.9975268275277
 31
0.0
  0
LINE
  5
168F
  8
DIMENSIONS
  6
BYBLOCK
 62
     0
 10
83.62068136923108
 20
855.0579570675523
 30
0.0
 11
83.62068136923108
 21
919.9975268275277
 31
0.0
  0
LINE
  5
1690
  8
DIMENSIONS
  6
BYBLOCK
 62
     0
 10
428.6206813692311
 20
919.8175268275278
 30
0.0
 11
88.62068136923108
 21
919.8175268275278
 31
0.0
  0
SOLID
  5
1691
  8
DIMENSIONS
 62
     0
 10
428.6206813692311
 20
918.9841934941944
 30
0.0
 11
428.6206813692311
 21
920.6508601608612
 31
0.0
 12
433.6206813692311
 22
919.8175268275278
 32
0.0
 13
433.6206813692311
 23
919.8175268275278
 33
0.0
  0
SOLID
  5
1692
  8
DIMENSIONS
 62
     0
 10
88.62068136923108
 20
920.6508601608612
 30
0.0
 11
88.62068136923108
 21
918.9841934941944
 31
0.0
 12
83.62068136923108
 22
919.8175268275278
 32
0.0
 13
83.62068136923108
 23
919.8175268275278
 33
0.0
  0
TEXT
  5
1693
  8
DIMENSIONS
  6
CONTINUOUS
 62
     5
 10
241.2406813692311
 20
922.2125268275278
 30
0.0
 40
5.0
  1
350 [13.78]
  0
POINT
  5
1694
  8
DEFPOINTS
 62
     0
 10
433.6206813692311
 20
853.5579570675523
 30
0.0
  0
POINT
  5
1695
  8
DEFPOINTS
 62
     0
 10
83.62068136923108
 20
853.5579570675523
 30
0.0
  0
POINT
  5
1696
  8
DEFPOINTS
 62
     0
 10
83.62068136923108
 20
919.8175268275278
 30
0.0
  0
ENDBLK
  5
168D
  8
0
  0
BLOCK
  8
0
  2
*D328
 70
     1
 10
0.0
 20
0.0
 30
0.0
  3
*D328
  1

  0
LINE
  5
169D
  8
DIMENSIONS
  6
BYBLOCK
 62
     0
 10
61.12068136923108
 20
879.3579570675522
 30
0.0
 11
61.12068136923108
 21
940.888654322189
 31
0.0
  0
LINE
  5
169E
  8
DIMENSIONS
  6
BYBLOCK
 62
     0
 10
456.1206813692311
 20
879.3579570675522
 30
0.0
 11
456.1206813692311
 21
940.888654322189
 31
0.0
  0
LINE
  5
169F
  8
DIMENSIONS
  6
BYBLOCK
 62
     0
 10
66.12068136923108
 20
940.7086543221891
 30
0.0
 11
451.1206813692311
 21
940.7086543221891
 31
0.0
  0
SOLID
  5
16A0
  8
DIMENSIONS
 62
     0
 10
66.12068136923108
 20
941.5419876555225
 30
0.0
 11
66.12068136923108
 21
939.8753209888557
 31
0.0
 12
61.12068136923108
 22
940.7086543221891
 32
0.0
 13
61.12068136923108
 23
940.7086543221891
 33
0.0
  0
SOLID
  5
16A1
  8
DIMENSIONS
 62
     0
 10
451.1206813692311
 20
939.8753209888557
 30
0.0
 11
451.1206813692311
 21
941.5419876555225
 31
0.0
 12
456.1206813692311
 22
940.7086543221891
 32
0.0
 13
456.1206813692311
 23
940.7086543221891
 33
0.0
  0
TEXT
  5
16A2
  8
DIMENSIONS
  6
CONTINUOUS
 62
     5
 10
241.2406813692311
 20
943.1036543221891
 30
0.0
 40
5.0
  1
395 [15.55]
  0
POINT
  5
16A3
  8
DEFPOINTS
 62
     0
 10
61.12068136923108
 20
877.8579570675522
 30
0.0
  0
POINT
  5
16A4
  8
DEFPOINTS
 62
     0
 10
456.1206813692311
 20
877.8579570675522
 30
0.0
  0
POINT
  5
16A5
  8
DEFPOINTS
 62
     0
 10
456.1206813692311
 20
940.7086543221891
 30
0.0
  0
ENDBLK
  5
169C
  8
0
  0
BLOCK
  8
0
  2
*D329
 70
     1
 10
0.0
 20
0.0
 30
0.0
  3
*D329
  1

  0
LINE
  5
16AC
  8
DIMENSIONS
  6
BYBLOCK
 62
     0
 10
59.62068136923108
 20
877.8579570675522
 30
0.0
 11
14.89908874436518
 21
877.8579570675522
 31
0.0
  0
LINE
  5
16AD
  8
DIMENSIONS
  6
BYBLOCK
 62
     0
 10
82.12068136923108
 20
853.5579570675523
 30
0.0
 11
14.89908874436518
 21
853.5579570675523
 31
0.0
  0
LINE
  5
16AE
  8
DIMENSIONS
  6
BYBLOCK
 62
     0
 10
15.07908874436518
 20
853.5579570675523
 30
0.0
 11
15.07908874436518
 21
814.2379570675523
 31
0.0
  0
LINE
  5
16AF
  8
DIMENSIONS
  6
BYBLOCK
 62
     0
 10
15.07908874436518
 20
872.8579570675522
 30
0.0
 11
15.07908874436518
 21
858.5579570675523
 31
0.0
  0
SOLID
  5
16B0
  8
DIMENSIONS
 62
     0
 10
15.91242207769852
 20
872.8579570675522
 30
0.0
 11
14.24575541103185
 21
872.8579570675522
 31
0.0
 12
15.07908874436518
 22
877.8579570675522
 32
0.0
 13
15.07908874436518
 23
877.8579570675522
 33
0.0
  0
SOLID
  5
16B1
  8
DIMENSIONS
 62
     0
 10
14.24575541103185
 20
858.5579570675523
 30
0.0
 11
15.91242207769852
 21
858.5579570675523
 31
0.0
 12
15.07908874436518
 22
853.5579570675523
 32
0.0
 13
15.07908874436518
 23
853.5579570675523
 33
0.0
  0
TEXT
  5
16B2
  8
DIMENSIONS
  6
CONTINUOUS
 62
     5
 10
12.68408874436523
 20
815.0329570675523
 30
0.0
 40
5.0
  1
24.3 [0.96]
 50
90.0
  0
POINT
  5
16B3
  8
DEFPOINTS
 62
     0
 10
61.12068136923108
 20
877.8579570675522
 30
0.0
  0
POINT
  5
16B4
  8
DEFPOINTS
 62
     0
 10
83.62068136923108
 20
853.5579570675523
 30
0.0
  0
POINT
  5
1777
  8
DEFPOINTS
 62
     0
 10
15.07908874436518
 20
853.5579570675523
 30
0.0
  0
ENDBLK
  5
16AB
  8
0
  0
BLOCK
  8
0
  2
*D330
 70
     1
 10
0.0
 20
0.0
 30
0.0
  3
*D330
  1

  0
LINE
  5
16BB
  8
DIMENSIONS
  6
BYBLOCK
 62
     0
 10
82.12068136923108
 20
853.5579570675523
 30
0.0
 11
36.98454287199062
 21
853.5579570675523
 31
0.0
  0
LINE
  5
16BC
  8
DIMENSIONS
  6
BYBLOCK
 62
     0
 10
82.12068136923108
 20
566.0579570675523
 30
0.0
 11
36.98454287199061
 21
566.0579570675523
 31
0.0
  0
LINE
  5
16BD
  8
DIMENSIONS
  6
BYBLOCK
 62
     0
 10
37.16454287199062
 20
848.5579570675523
 30
0.0
 11
37.16454287199061
 21
571.0579570675523
 31
0.0
  0
SOLID
  5
16BE
  8
DIMENSIONS
 62
     0
 10
37.99787620532395
 20
848.5579570675523
 30
0.0
 11
36.33120953865728
 21
848.5579570675523
 31
0.0
 12
37.16454287199062
 22
853.5579570675523
 32
0.0
 13
37.16454287199062
 23
853.5579570675523
 33
0.0
  0
SOLID
  5
16BF
  8
DIMENSIONS
 62
     0
 10
36.33120953865727
 20
571.0579570675523
 30
0.0
 11
37.99787620532394
 21
571.0579570675523
 31
0.0
 12
37.16454287199061
 22
566.0579570675523
 32
0.0
 13
37.16454287199061
 23
566.0579570675523
 33
0.0
  0
TEXT
  5
16C0
  8
DIMENSIONS
  6
CONTINUOUS
 62
     5
 10
34.76954287199067
 20
689.5629570675522
 30
0.0
 40
5.0
  1
287.5 [11.32]
 50
90.0
  0
POINT
  5
16C1
  8
DEFPOINTS
 62
     0
 10
83.62068136923108
 20
853.5579570675523
 30
0.0
  0
POINT
  5
16C2
  8
DEFPOINTS
 62
     0
 10
83.62068136923108
 20
566.0579570675523
 30
0.0
  0
POINT
  5
16C3
  8
DEFPOINTS
 62
     0
 10
37.16454287199061
 20
566.0579570675523
 30
0.0
  0
ENDBLK
  5
16BA
  8
0
  0
BLOCK
  8
0
  2
*D331
 70
     1
 10
0.0
 20
0.0
 30
0.0
  3
*D331
  1

  0
LINE
  5
16CA
  8
DIMENSIONS
  6
BYBLOCK
 62
     0
 10
82.12068136923108
 20
566.0579570675523
 30
0.0
 11
36.98454287199061
 21
566.0579570675523
 31
0.0
  0
LINE
  5
16CB
  8
DIMENSIONS
  6
BYBLOCK
 62
     0
 10
82.12068136923108
 20
206.0579570675523
 30
0.0
 11
36.98454287199058
 21
206.0579570675523
 31
0.0
  0
LINE
  5
16CC
  8
DIMENSIONS
  6
BYBLOCK
 62
     0
 10
37.16454287199061
 20
561.0579570675523
 30
0.0
 11
37.16454287199058
 21
211.0579570675523
 31
0.0
  0
SOLID
  5
16CD
  8
DIMENSIONS
 62
     0
 10
37.99787620532394
 20
561.0579570675523
 30
0.0
 11
36.33120953865727
 21
561.0579570675523
 31
0.0
 12
37.16454287199061
 22
566.0579570675523
 32
0.0
 13
37.16454287199061
 23
566.0579570675523
 33
0.0
  0
SOLID
  5
16CE
  8
DIMENSIONS
 62
     0
 10
36.33120953865725
 20
211.0579570675523
 30
0.0
 11
37.99787620532392
 21
211.0579570675523
 31
0.0
 12
37.16454287199058
 22
206.0579570675523
 32
0.0
 13
37.16454287199058
 23
206.0579570675523
 33
0.0
  0
TEXT
  5
16CF
  8
DIMENSIONS
  6
CONTINUOUS
 62
     5
 10
34.76954287199061
 20
368.6779570675523
 30
0.0
 40
5.0
  1
360 [14.17]
 50
90.0
  0
POINT
  5
16D0
  8
DEFPOINTS
 62
     0
 10
83.62068136923108
 20
566.0579570675523
 30
0.0
  0
POINT
  5
16D1
  8
DEFPOINTS
 62
     0
 10
83.62068136923108
 20
206.0579570675523
 30
0.0
  0
POINT
  5
16D2
  8
DEFPOINTS
 62
     0
 10
37.16454287199058
 20
206.0579570675523
 30
0.0
  0
ENDBLK
  5
16C9
  8
0
  0
BLOCK
  8
0
  2
*D332
 70
     1
 10
0.0
 20
0.0
 30
0.0
  3
*D332
  1

  0
LINE
  5
16D9
  8
DIMENSIONS
  6
BYBLOCK
 62
     0
 10
82.12068136923108
 20
206.0579570675523
 30
0.0
 11
36.98454287199058
 21
206.0579570675523
 31
0.0
  0
LINE
  5
16DA
  8
DIMENSIONS
  6
BYBLOCK
 62
     0
 10
82.12068136923108
 20
-81.44204293244769
 30
0.0
 11
36.98454287199057
 21
-81.44204293244769
 31
0.0
  0
LINE
  5
16DB
  8
DIMENSIONS
  6
BYBLOCK
 62
     0
 10
37.16454287199058
 20
201.0579570675523
 30
0.0
 11
37.16454287199057
 21
-76.44204293244769
 31
0.0
  0
SOLID
  5
16DC
  8
DIMENSIONS
 62
     0
 10
37.99787620532392
 20
201.0579570675523
 30
0.0
 11
36.33120953865725
 21
201.0579570675523
 31
0.0
 12
37.16454287199058
 22
206.0579570675523
 32
0.0
 13
37.16454287199058
 23
206.0579570675523
 33
0.0
  0
SOLID
  5
16DD
  8
DIMENSIONS
 62
     0
 10
36.33120953865723
 20
-76.44204293244769
 30
0.0
 11
37.99787620532391
 21
-76.44204293244769
 31
0.0
 12
37.16454287199057
 22
-81.44204293244769
 32
0.0
 13
37.16454287199057
 23
-81.44204293244769
 33
0.0
  0
TEXT
  5
16DE
  8
DIMENSIONS
  6
CONTINUOUS
 62
     5
 10
34.76954287199058
 20
42.06295706755231
 30
0.0
 40
5.0
  1
287.5 [11.32]
 50
90.0
  0
POINT
  5
16DF
  8
DEFPOINTS
 62
     0
 10
83.62068136923108
 20
206.0579570675523
 30
0.0
  0
POINT
  5
16E0
  8
DEFPOINTS
 62
     0
 10
83.62068136923108
 20
-81.44204293244769
 30
0.0
  0
POINT
  5
16E1
  8
DEFPOINTS
 62
     0
 10
37.16454287199057
 20
-81.44204293244769
 30
0.0
  0
ENDBLK
  5
16D8
  8
0
  0
BLOCK
  8
0
  2
*D333
 70
     1
 10
0.0
 20
0.0
 30
0.0
  3
*D333
  1

  0
LINE
  5
16E8
  8
DIMENSIONS
  6
BYBLOCK
 62
     0
 10
457.6206813692311
 20
877.8579570675522
 30
0.0
 11
505.8208605124028
 21
877.8579570675522
 31
0.0
  0
LINE
  5
16E9
  8
DIMENSIONS
  6
BYBLOCK
 62
     0
 10
425.1495488827311
 20
846.0179570675523
 30
0.0
 11
505.8208605124028
 21
846.0179570675523
 31
0.0
  0
LINE
  5
16EA
  8
DIMENSIONS
  6
BYBLOCK
 62
     0
 10
505.6408605124028
 20
846.0179570675523
 30
0.0
 11
505.6408605124028
 21
806.7879570675523
 31
0.0
  0
LINE
  5
16EB
  8
DIMENSIONS
  6
BYBLOCK
 62
     0
 10
505.6408605124028
 20
872.8579570675522
 30
0.0
 11
505.6408605124028
 21
851.0179570675523
 31
0.0
  0
SOLID
  5
16EC
  8
DIMENSIONS
 62
     0
 10
506.4741938457361
 20
872.8579570675522
 30
0.0
 11
504.8075271790695
 21
872.8579570675522
 31
0.0
 12
505.6408605124028
 22
877.8579570675522
 32
0.0
 13
505.6408605124028
 23
877.8579570675522
 33
0.0
  0
SOLID
  5
16ED
  8
DIMENSIONS
 62
     0
 10
504.8075271790695
 20
851.0179570675523
 30
0.0
 11
506.4741938457361
 21
851.0179570675523
 31
0.0
 12
505.6408605124028
 22
846.0179570675523
 32
0.0
 13
505.6408605124028
 23
846.0179570675523
 33
0.0
  0
TEXT
  5
16EE
  8
DIMENSIONS
  6
CONTINUOUS
 62
     5
 10
503.2458605124028
 20
807.4929570675522
 30
0.0
 40
5.0
  1
31.8 [1.25]
 50
90.0
  0
POINT
  5
16EF
  8
DEFPOINTS
 62
     0
 10
456.1206813692311
 20
877.8579570675522
 30
0.0
  0
POINT
  5
16F0
  8
DEFPOINTS
 62
     0
 10
423.6495488827311
 20
846.0179570675523
 30
0.0
  0
POINT
  5
1778
  8
DEFPOINTS
 62
     0
 10
505.6408605124028
 20
846.0179570675523
 30
0.0
  0
ENDBLK
  5
16E7
  8
0
  0
BLOCK
  8
0
  2
*D334
 70
     1
 10
0.0
 20
0.0
 30
0.0
  3
*D334
  1

  0
LINE
  5
16F7
  8
DIMENSIONS
  6
BYBLOCK
 62
     0
 10
425.1495488827311
 20
846.0179570675523
 30
0.0
 11
482.6070208562133
 21
846.0179570675523
 31
0.0
  0
LINE
  5
16F8
  8
DIMENSIONS
  6
BYBLOCK
 62
     0
 10
425.1495488827311
 20
536.0179570675523
 30
0.0
 11
482.6070208562133
 21
536.0179570675523
 31
0.0
  0
LINE
  5
16F9
  8
DIMENSIONS
  6
BYBLOCK
 62
     0
 10
482.4270208562133
 20
841.0179570675523
 30
0.0
 11
482.4270208562133
 21
541.0179570675523
 31
0.0
  0
SOLID
  5
16FA
  8
DIMENSIONS
 62
     0
 10
483.2603541895466
 20
841.0179570675523
 30
0.0
 11
481.59368752288
 21
841.0179570675523
 31
0.0
 12
482.4270208562133
 22
846.0179570675523
 32
0.0
 13
482.4270208562133
 23
846.0179570675523
 33
0.0
  0
SOLID
  5
16FB
  8
DIMENSIONS
 62
     0
 10
481.59368752288
 20
541.0179570675523
 30
0.0
 11
483.2603541895466
 21
541.0179570675523
 31
0.0
 12
482.4270208562133
 22
536.0179570675523
 32
0.0
 13
482.4270208562133
 23
536.0179570675523
 33
0.0
  0
TEXT
  5
16FC
  8
DIMENSIONS
  6
CONTINUOUS
 62
     5
 10
480.0320208562133
 20
675.5779570675522
 30
0.0
 40
5.0
  1
310 [12.2]
 50
90.0
  0
POINT
  5
16FD
  8
DEFPOINTS
 62
     0
 10
423.6495488827311
 20
846.0179570675523
 30
0.0
  0
POINT
  5
16FE
  8
DEFPOINTS
 62
     0
 10
423.6495488827311
 20
536.0179570675523
 30
0.0
  0
POINT
  5
16FF
  8
DEFPOINTS
 62
     0
 10
482.4270208562133
 20
536.0179570675523
 30
0.0
  0
ENDBLK
  5
16F6
  8
0
  0
BLOCK
  8
0
  2
*D335
 70
     1
 10
0.0
 20
0.0
 30
0.0
  3
*D335
  1

  0
LINE
  5
1706
  8
DIMENSIONS
  6
BYBLOCK
 62
     0
 10
425.1495488827311
 20
536.0179570675523
 30
0.0
 11
482.6070208562133
 21
536.0179570675523
 31
0.0
  0
LINE
  5
1707
  8
DIMENSIONS
  6
BYBLOCK
 62
     0
 10
410.1495488827311
 20
342.3579570675523
 30
0.0
 11
482.6070208562133
 21
342.3579570675523
 31
0.0
  0
LINE
  5
1708
  8
DIMENSIONS
  6
BYBLOCK
 62
     0
 10
482.4270208562133
 20
531.0179570675523
 30
0.0
 11
482.4270208562133
 21
347.3579570675523
 31
0.0
  0
SOLID
  5
1709
  8
DIMENSIONS
 62
     0
 10
483.2603541895466
 20
531.0179570675523
 30
0.0
 11
481.59368752288
 21
531.0179570675523
 31
0.0
 12
482.4270208562133
 22
536.0179570675523
 32
0.0
 13
482.4270208562133
 23
536.0179570675523
 33
0.0
  0
SOLID
  5
170A
  8
DIMENSIONS
 62
     0
 10
481.59368752288
 20
347.3579570675523
 30
0.0
 11
483.2603541895466
 21
347.3579570675523
 31
0.0
 12
482.4270208562133
 22
342.3579570675523
 32
0.0
 13
482.4270208562133
 23
342.3579570675523
 33
0.0
  0
TEXT
  5
170B
  8
DIMENSIONS
  6
CONTINUOUS
 62
     5
 10
480.0320208562134
 20
420.6054570675523
 30
0.0
 40
5.0
  1
193.7 [7.62]
 50
90.0
  0
POINT
  5
170C
  8
DEFPOINTS
 62
     0
 10
423.6495488827311
 20
536.0179570675523
 30
0.0
  0
POINT
  5
170D
  8
DEFPOINTS
 62
     0
 10
408.6495488827311
 20
342.3579570675523
 30
0.0
  0
POINT
  5
170E
  8
DEFPOINTS
 62
     0
 10
482.4270208562133
 20
342.3579570675523
 30
0.0
  0
ENDBLK
  5
1705
  8
0
  0
BLOCK
  8
0
  2
*D336
 70
     1
 10
0.0
 20
0.0
 30
0.0
  3
*D336
  1

  0
LINE
  5
1715
  8
DIMENSIONS
  6
BYBLOCK
 62
     0
 10
410.1495488827311
 20
342.3579570675523
 30
0.0
 11
482.6070208562133
 21
342.3579570675523
 31
0.0
  0
LINE
  5
1716
  8
DIMENSIONS
  6
BYBLOCK
 62
     0
 10
410.1495488827311
 20
115.3579570675523
 30
0.0
 11
482.6070208562133
 21
115.3579570675523
 31
0.0
  0
LINE
  5
1717
  8
DIMENSIONS
  6
BYBLOCK
 62
     0
 10
482.4270208562133
 20
337.3579570675523
 30
0.0
 11
482.4270208562133
 21
120.3579570675523
 31
0.0
  0
SOLID
  5
1718
  8
DIMENSIONS
 62
     0
 10
483.2603541895466
 20
337.3579570675523
 30
0.0
 11
481.59368752288
 21
337.3579570675523
 31
0.0
 12
482.4270208562133
 22
342.3579570675523
 32
0.0
 13
482.4270208562133
 23
342.3579570675523
 33
0.0
  0
SOLID
  5
1719
  8
DIMENSIONS
 62
     0
 10
481.59368752288
 20
120.3579570675523
 30
0.0
 11
483.2603541895466
 21
120.3579570675523
 31
0.0
 12
482.4270208562133
 22
115.3579570675523
 32
0.0
 13
482.4270208562133
 23
115.3579570675523
 33
0.0
  0
TEXT
  5
171A
  8
DIMENSIONS
  6
CONTINUOUS
 62
     5
 10
480.0320208562133
 20
213.4629570675523
 30
0.0
 40
5.0
  1
227 [8.94]
 50
90.0
  0
POINT
  5
171B
  8
DEFPOINTS
 62
     0
 10
408.6495488827311
 20
342.3579570675523
 30
0.0
  0
POINT
  5
171C
  8
DEFPOINTS
 62
     0
 10
408.6495488827311
 20
115.3579570675523
 30
0.0
  0
POINT
  5
171D
  8
DEFPOINTS
 62
     0
 10
482.4270208562133
 20
115.3579570675523
 30
0.0
  0
ENDBLK
  5
1714
  8
0
  0
BLOCK
  8
0
  2
*D337
 70
     1
 10
0.0
 20
0.0
 30
0.0
  3
*D337
  1

  0
LINE
  5
1724
  8
DIMENSIONS
  6
BYBLOCK
 62
     0
 10
410.1495488827311
 20
115.3579570675523
 30
0.0
 11
482.6070208562133
 21
115.3579570675523
 31
0.0
  0
LINE
  5
1725
  8
DIMENSIONS
  6
BYBLOCK
 62
     0
 10
457.6206813692311
 20
-103.9420429324477
 30
0.0
 11
482.6070208562133
 21
-103.9420429324477
 31
0.0
  0
LINE
  5
1726
  8
DIMENSIONS
  6
BYBLOCK
 62
     0
 10
482.4270208562133
 20
110.3579570675523
 30
0.0
 11
482.4270208562133
 21
-98.94204293244769
 31
0.0
  0
SOLID
  5
1727
  8
DIMENSIONS
 62
     0
 10
483.2603541895466
 20
110.3579570675523
 30
0.0
 11
481.59368752288
 21
110.3579570675523
 31
0.0
 12
482.4270208562133
 22
115.3579570675523
 32
0.0
 13
482.4270208562133
 23
115.3579570675523
 33
0.0
  0
SOLID
  5
1728
  8
DIMENSIONS
 62
     0
 10
481.59368752288
 20
-98.94204293244769
 30
0.0
 11
483.2603541895466
 21
-98.94204293244769
 31
0.0
 12
482.4270208562133
 22
-103.9420429324477
 32
0.0
 13
482.4270208562133
 23
-103.9420429324477
 33
0.0
  0
TEXT
  5
1729
  8
DIMENSIONS
  6
CONTINUOUS
 62
     5
 10
480.0320208562133
 20
-12.59704293244766
 30
0.0
 40
5.0
  1
219.3 [8.63]
 50
90.0
  0
POINT
  5
172A
  8
DEFPOINTS
 62
     0
 10
408.6495488827311
 20
115.3579570675523
 30
0.0
  0
POINT
  5
172B
  8
DEFPOINTS
 62
     0
 10
456.1206813692311
 20
-103.9420429324477
 30
0.0
  0
POINT
  5
172C
  8
DEFPOINTS
 62
     0
 10
482.4270208562133
 20
-103.9420429324477
 30
0.0
  0
ENDBLK
  5
1723
  8
0
  0
BLOCK
  8
0
  2
*D338
 70
     1
 10
0.0
 20
0.0
 30
0.0
  3
*D338
  1

  0
LINE
  5
1733
  8
DIMENSIONS
  6
BYBLOCK
 62
     0
 10
98.64954888273107
 20
113.8579570675523
 30
0.0
 11
98.6495488827311
 21
84.46114737208451
 31
0.0
  0
LINE
  5
1734
  8
DIMENSIONS
  6
BYBLOCK
 62
     0
 10
408.6495488827311
 20
113.8579570675523
 30
0.0
 11
408.6495488827311
 21
84.46114737208451
 31
0.0
  0
LINE
  5
1735
  8
DIMENSIONS
  6
BYBLOCK
 62
     0
 10
103.6495488827311
 20
84.64114737208452
 30
0.0
 11
403.6495488827311
 21
84.64114737208452
 31
0.0
  0
SOLID
  5
1736
  8
DIMENSIONS
 62
     0
 10
103.6495488827311
 20
85.47448070541785
 30
0.0
 11
103.6495488827311
 21
83.80781403875119
 31
0.0
 12
98.6495488827311
 22
84.64114737208452
 32
0.0
 13
98.6495488827311
 23
84.64114737208452
 33
0.0
  0
SOLID
  5
1737
  8
DIMENSIONS
 62
     0
 10
403.6495488827311
 20
83.80781403875119
 30
0.0
 11
403.6495488827311
 21
85.47448070541785
 31
0.0
 12
408.6495488827311
 22
84.64114737208452
 32
0.0
 13
408.6495488827311
 23
84.64114737208452
 33
0.0
  0
TEXT
  5
1738
  8
DIMENSIONS
  6
CONTINUOUS
 62
     5
 10
238.2095488827311
 20
87.03614737208453
 30
0.0
 40
5.0
  1
310 [12.2]
  0
POINT
  5
1739
  8
DEFPOINTS
 62
     0
 10
98.64954888273107
 20
115.3579570675523
 30
0.0
  0
POINT
  5
173A
  8
DEFPOINTS
 62
     0
 10
408.6495488827311
 20
115.3579570675523
 30
0.0
  0
POINT
  5
173B
  8
DEFPOINTS
 62
     0
 10
408.6495488827311
 20
84.64114737208452
 30
0.0
  0
ENDBLK
  5
1732
  8
0
  0
BLOCK
  8
0
  2
*D341
 70
     1
 10
0.0
 20
0.0
 30
0.0
  3
*D341
  1

  0
LINE
  5
1760
  8
DIMENSIONS
  6
BYBLOCK
 62
     0
 10
425.120747911078
 20
-81.47567635287048
 30
0.0
 11
385.0144906405576
 21
-81.63437296137973
 31
0.0
  0
LINE
  5
1761
  8
DIMENSIONS
  6
BYBLOCK
 62
     0
 10
442.1206148273841
 20
-81.40840951202493
 30
0.0
 11
447.1205756851213
 21
-81.38862514707036
 31
0.0
  0
TEXT
  5
1762
  8
DIMENSIONS
  6
CONTINUOUS
 62
     5
 10
385.7246917434193
 20
-79.15654338824639
 30
0.0
 40
5.0
  1
Ø7 [Ø0.28]
 50
0.2267127140522373
  0
LINE
  5
1763
  8
DIMENSIONS
  6
BYBLOCK
 62
     0
 10
437.120653969647
 20
-81.4281938769795
 30
0.0
 11
430.1207087688151
 21
-81.4558919879159
 31
0.0
  0
SOLID
  5
1764
  8
DIMENSIONS
 62
     0
 10
442.117317433225
 20
-80.57508270240209
 30
0.0
 11
442.1239122215433
 21
-82.24173632164778
 31
0.0
 12
437.120653969647
 22
-81.4281938769795
 32
0.0
 13
437.120653969647
 23
-81.4281938769795
 33
0.0
  0
SOLID
  5
1765
  8
DIMENSIONS
 62
     0
 10
425.1240453052371
 20
-82.30900316249333
 30
0.0
 11
425.1174505169188
 21
-80.64234954324763
 31
0.0
 12
430.1207087688151
 22
-81.4558919879159
 32
0.0
 13
430.1207087688151
 23
-81.4558919879159
 33
0.0
  0
POINT
  5
1766
  8
DEFPOINTS
 62
     0
 10
430.1207087688151
 20
-81.4558919879159
 30
0.0
  0
POINT
  5
1767
  8
DEFPOINTS
 62
     0
 10
437.120653969647
 20
-81.4281938769795
 30
0.0
  0
ENDBLK
  5
175F
  8
0
  0
BLOCK
  8
0
  2
*D342
 70
     1
 10
0.0
 20
0.0
 30
0.0
  3
*D342
  1

  0
LINE
  5
176E
  8
DIMENSIONS
  6
BYBLOCK
 62
     0
 10
82.12068136923108
 20
-81.44204293244769
 30
0.0
 11
16.05263339045178
 21
-81.44204293244769
 31
0.0
  0
LINE
  5
176F
  8
DIMENSIONS
  6
BYBLOCK
 62
     0
 10
59.62068136923108
 20
-103.9420429324477
 30
0.0
 11
16.05263339045178
 21
-103.9420429324477
 31
0.0
  0
LINE
  5
1770
  8
DIMENSIONS
  6
BYBLOCK
 62
     0
 10
16.23263339045178
 20
-81.44204293244769
 30
0.0
 11
16.23263339045178
 21
-39.87859386661037
 31
0.0
  0
LINE
  5
1771
  8
DIMENSIONS
  6
BYBLOCK
 62
     0
 10
16.23263339045178
 20
-86.44204293244769
 30
0.0
 11
16.23263339045178
 21
-98.94204293244769
 31
0.0
  0
SOLID
  5
1772
  8
DIMENSIONS
 62
     0
 10
17.06596672378511
 20
-86.44204293244769
 30
0.0
 11
15.39930005711845
 21
-86.44204293244769
 31
0.0
 12
16.23263339045178
 22
-81.44204293244769
 32
0.0
 13
16.23263339045178
 23
-81.44204293244769
 33
0.0
  0
SOLID
  5
1773
  8
DIMENSIONS
 62
     0
 10
15.39930005711845
 20
-98.94204293244769
 30
0.0
 11
17.06596672378511
 21
-98.94204293244769
 31
0.0
 12
16.23263339045178
 22
-103.9420429324477
 32
0.0
 13
16.23263339045178
 23
-103.9420429324477
 33
0.0
  0
TEXT
  5
1774
  8
DIMENSIONS
  6
CONTINUOUS
 62
     5
 10
13.83763339045178
 20
-73.40359386661036
 30
0.0
 40
5.0
  1
22.5 [0.89]
 50
90.0
  0
POINT
  5
1775
  8
DEFPOINTS
 62
     0
 10
83.62068136923108
 20
-81.44204293244769
 30
0.0
  0
POINT
  5
1776
  8
DEFPOINTS
 62
     0
 10
61.12068136923108
 20
-103.9420429324477
 30
0.0
  0
POINT
  5
1779
  8
DEFPOINTS
 62
     0
 10
16.23263339045178
 20
-103.9420429324477
 30
0.0
  0
ENDBLK
  5
176D
  8
0
  0
BLOCK
  8
0
  2
*D343
 70
     1
 10
0.0
 20
0.0
 30
0.0
  3
*D343
  1

  0
LINE
  5
1782
  8
DIMENSIONS
  6
BYBLOCK
 62
     0
 10
98.6495488827311
 20
86.14114737208452
 30
0.0
 11
98.6495488827311
 21
84.82114737208452
 31
0.0
  0
LINE
  5
1783
  8
DIMENSIONS
  6
BYBLOCK
 62
     0
 10
61.12068136923108
 20
86.1411473720845
 30
0.0
 11
61.12068136923108
 21
84.82114737208452
 31
0.0
  0
LINE
  5
1784
  8
DIMENSIONS
  6
BYBLOCK
 62
     0
 10
93.6495488827311
 20
84.64114737208452
 30
0.0
 11
66.12068136923108
 21
84.64114737208452
 31
0.0
  0
SOLID
  5
1785
  8
DIMENSIONS
 62
     0
 10
93.6495488827311
 20
83.80781403875119
 30
0.0
 11
93.6495488827311
 21
85.47448070541785
 31
0.0
 12
98.6495488827311
 22
84.64114737208452
 32
0.0
 13
98.6495488827311
 23
84.64114737208452
 33
0.0
  0
SOLID
  5
1786
  8
DIMENSIONS
 62
     0
 10
66.12068136923108
 20
85.47448070541785
 30
0.0
 11
66.12068136923108
 21
83.80781403875119
 31
0.0
 12
61.12068136923108
 22
84.64114737208452
 32
0.0
 13
61.12068136923108
 23
84.64114737208452
 33
0.0
  0
TEXT
  5
1787
  8
DIMENSIONS
  6
CONTINUOUS
 62
     5
 10
63.47511512598109
 20
87.03614737208453
 30
0.0
 40
5.0
  1
37.5 [1.48]
  0
POINT
  5
1788
  8
DEFPOINTS
 62
     0
 10
98.6495488827311
 20
84.64114737208452
 30
0.0
  0
POINT
  5
1789
  8
DEFPOINTS
 62
     0
 10
61.12068136923108
 20
84.6411473720845
 30
0.0
  0
POINT
  5
178A
  8
DEFPOINTS
 62
     0
 10
61.12068136923108
 20
84.64114737208452
 30
0.0
  0
ENDBLK
  5
1781
  8
0
  0
BLOCK
  8
0
  2
*D344
 70
     1
 10
0.0
 20
0.0
 30
0.0
  3
*D344
  1

  0
LINE
  5
1791
  8
DIMENSIONS
  6
BYBLOCK
 62
     0
 10
408.6495488827311
 20
83.58105275566682
 30
0.0
 11
408.6495488827311
 21
84.4625154311843
 31
0.0
  0
LINE
  5
1792
  8
DIMENSIONS
  6
BYBLOCK
 62
     0
 10
456.1206813692311
 20
83.58105275566686
 30
0.0
 11
456.1206813692311
 21
84.4625154311843
 31
0.0
  0
LINE
  5
1793
  8
DIMENSIONS
  6
BYBLOCK
 62
     0
 10
413.6495488827311
 20
84.64251543118431
 30
0.0
 11
451.1206813692311
 21
84.64251543118431
 31
0.0
  0
SOLID
  5
1794
  8
DIMENSIONS
 62
     0
 10
413.6495488827311
 20
85.47584876451764
 30
0.0
 11
413.6495488827311
 21
83.80918209785098
 31
0.0
 12
408.6495488827311
 22
84.64251543118431
 32
0.0
 13
408.6495488827311
 23
84.64251543118431
 33
0.0
  0
SOLID
  5
1795
  8
DIMENSIONS
 62
     0
 10
451.1206813692311
 20
83.80918209785098
 30
0.0
 11
451.1206813692311
 21
85.47584876451764
 31
0.0
 12
456.1206813692311
 22
84.64251543118431
 32
0.0
 13
456.1206813692311
 23
84.64251543118431
 33
0.0
  0
TEXT
  5
1796
  8
DIMENSIONS
  6
CONTINUOUS
 62
     5
 10
416.0776151259811
 20
87.03751543118432
 30
0.0
 40
5.0
  1
47.5 [1.87]
  0
POINT
  5
1797
  8
DEFPOINTS
 62
     0
 10
408.6495488827311
 20
85.08105275566682
 30
0.0
  0
POINT
  5
1798
  8
DEFPOINTS
 62
     0
 10
456.1206813692311
 20
85.08105275566686
 30
0.0
  0
POINT
  5
1799
  8
DEFPOINTS
 62
     0
 10
456.1206813692311
 20
84.64251543118431
 30
0.0
  0
ENDBLK
  5
1790
  8
0
  0
BLOCK
  8
0
  2
*D345
 70
     1
 10
0.0
 20
0.0
 30
0.0
  3
*D345
  1

  0
LINE
  5
17A7
  8
DIMENSIONS
  6
BYBLOCK
 62
     0
 10
59.62068136923108
 20
877.8579570675522
 30
0.0
 11
-6.453321648191963
 21
877.8579570675522
 31
0.0
  0
LINE
  5
17A8
  8
DIMENSIONS
  6
BYBLOCK
 62
     0
 10
59.62068136923108
 20
-103.9420429324477
 30
0.0
 11
-6.453321648192023
 21
-103.9420429324477
 31
0.0
  0
LINE
  5
17A9
  8
DIMENSIONS
  6
BYBLOCK
 62
     0
 10
-6.273321648191963
 20
872.8579570675522
 30
0.0
 11
-6.273321648192024
 21
-98.94204293244769
 31
0.0
  0
SOLID
  5
17AA
  8
DIMENSIONS
 62
     0
 10
-5.43998831485863
 20
872.8579570675522
 30
0.0
 11
-7.106654981525296
 21
872.8579570675522
 31
0.0
 12
-6.273321648191963
 22
877.8579570675522
 32
0.0
 13
-6.273321648191963
 23
877.8579570675522
 33
0.0
  0
SOLID
  5
17AB
  8
DIMENSIONS
 62
     0
 10
-7.106654981525357
 20
-98.94204293244769
 30
0.0
 11
-5.439988314858691
 21
-98.94204293244769
 31
0.0
 12
-6.273321648192024
 22
-103.9420429324477
 32
0.0
 13
-6.273321648192024
 23
-103.9420429324477
 33
0.0
  0
TEXT
  5
17AC
  8
DIMENSIONS
  6
CONTINUOUS
 62
     5
 10
-8.668321648191977
 20
366.6704570675523
 30
0.0
 40
5.0
  1
981.8 [38.65]
 50
90.0
  0
POINT
  5
17AD
  8
DEFPOINTS
 62
     0
 10
61.12068136923108
 20
877.8579570675522
 30
0.0
  0
POINT
  5
17AE
  8
DEFPOINTS
 62
     0
 10
61.12068136923108
 20
-103.9420429324477
 30
0.0
  0
POINT
  5
17AF
  8
DEFPOINTS
 62
     0
 10
-6.273321648192024
 20
-103.9420429324477
 30
0.0
  0
ENDBLK
  5
17A6
  8
0
  0
ENDSEC
  0
SECTION
  2
ENTITIES
  0
TEXT
  5
C0B
  8
DIMENSIONS
  6
BYBLOCK
 10
61.42416784326014
 20
-131.3849144682974
 30
0.0
 40
7.999999999999999
  1
Note:
 50
0.2102616414016837
  0
TEXT
  5
C0C
  8
DIMENSIONS
  6
BYBLOCK
 10
61.46820483961532
 20
-143.3848336656483
 30
0.0
 40
7.999999999999999
  1
Primary dimensions in millimeters.
 50
0.2102616414016837
  0
TEXT
  5
C0D
  8
DIMENSIONS
  6
BYBLOCK
 10
61.51224183597051
 20
-155.3847528629992
 30
0.0
 40
7.999999999999999
  1
Secondary dimensions in inches.
 50
0.2102616414016837
  0
LINE
  5
1665
  8
0
  6
CONTINUOUS
 62
     7
 10
456.1206813692311
 20
-103.9420429324477
 30
0.0
 11
61.12068136923108
 21
-103.9420429324477
 31
0.0
  0
LINE
  5
1666
  8
0
  6
CONTINUOUS
 62
     7
 10
408.6495488827311
 20
115.3579570675523
 30
0.0
 11
98.64954888273107
 21
115.3579570675523
 31
0.0
  0
LINE
  5
1667
  8
0
  6
CONTINUOUS
 62
     7
 10
61.12068136923108
 20
-103.9420429324477
 30
0.0
 11
61.12068136923108
 21
877.8579570675522
 31
0.0
  0
LINE
  5
1668
  8
0
  6
CONTINUOUS
 62
     7
 10
93.64954888273107
 20
536.0179570675523
 30
0.0
 11
93.64954888273107
 21
846.0179570675523
 31
0.0
  0
LINE
  5
1669
  8
0
  6
CONTINUOUS
 62
     7
 10
98.64954888273107
 20
115.3579570675523
 30
0.0
 11
98.64954888273107
 21
342.3579570675523
 31
0.0
  0
LINE
  5
166A
  8
0
  6
CONTINUOUS
 62
     7
 10
98.64954888273107
 20
342.3579570675523
 30
0.0
 11
408.6495488827311
 21
342.3579570675523
 31
0.0
  0
LINE
  5
166B
  8
0
  6
CONTINUOUS
 62
     7
 10
408.6495488827311
 20
342.3579570675523
 30
0.0
 11
408.6495488827311
 21
115.3579570675523
 31
0.0
  0
LINE
  5
166C
  8
0
  6
CONTINUOUS
 62
     7
 10
423.6495488827311
 20
846.0179570675523
 30
0.0
 11
423.6495488827311
 21
536.0179570675523
 31
0.0
  0
LINE
  5
166D
  8
0
  6
CONTINUOUS
 62
     7
 10
423.6495488827311
 20
536.0179570675523
 30
0.0
 11
93.64954888273107
 21
536.0179570675523
 31
0.0
  0
LINE
  5
166E
  8
0
  6
CONTINUOUS
 62
     7
 10
456.1206813692311
 20
877.8579570675522
 30
0.0
 11
456.1206813692311
 21
-103.9420429324477
 31
0.0
  0
LINE
  5
166F
  8
0
  6
CONTINUOUS
 62
     7
 10
93.64954888273107
 20
846.0179570675523
 30
0.0
 11
423.6495488827311
 21
846.0179570675523
 31
0.0
  0
LINE
  5
1670
  8
0
  6
CONTINUOUS
 62
     7
 10
61.12068136923108
 20
877.8579570675522
 30
0.0
 11
456.1206813692311
 21
877.8579570675522
 31
0.0
  0
CIRCLE
  5
1671
  8
02___PRT_ALL_AXES
  6
CONTINUOUS
 62
     7
 10
433.6206813692311
 20
853.5579570675523
 30
0.0
 40
3.5
  0
CIRCLE
  5
1672
  8
02___PRT_ALL_AXES
  6
CONTINUOUS
 62
     7
 10
83.62068136923108
 20
853.5579570675523
 30
0.0
 40
3.5
  0
CIRCLE
  5
1673
  8
02___PRT_ALL_AXES
  6
CONTINUOUS
 62
     7
 10
433.6206813692311
 20
566.0579570675523
 30
0.0
 40
3.5
  0
CIRCLE
  5
1674
  8
02___PRT_ALL_AXES
  6
CONTINUOUS
 62
     7
 10
83.62068136923108
 20
566.0579570675523
 30
0.0
 40
3.5
  0
CIRCLE
  5
1675
  8
02___PRT_ALL_AXES
  6
CONTINUOUS
 62
     7
 10
83.62068136923108
 20
206.0579570675523
 30
0.0
 40
3.5
  0
CIRCLE
  5
1676
  8
02___PRT_ALL_AXES
  6
CONTINUOUS
 62
     7
 10
433.6206813692311
 20
-81.44204293244769
 30
0.0
 40
3.5
  0
CIRCLE
  5
1677
  8
02___PRT_ALL_AXES
  6
CONTINUOUS
 62
     7
 10
433.6206813692311
 20
206.0579570675523
 30
0.0
 40
3.5
  0
CIRCLE
  5
1678
  8
02___PRT_ALL_AXES
  6
CONTINUOUS
 62
     7
 10
83.62068136923108
 20
-81.44204293244769
 30
0.0
 40
3.5
  0
DIMENSION
  5
1679
  8
DIMENSIONS
  6
BYBLOCK
  2
*D326
 10
423.6495488827311
 20
898.5167693819908
 30
0.0
 11
258.6495488827311
 21
902.7192693819908
 31
0.0
 70
    32
  3
DUAL-DIM
 13
93.64954888273107
 23
846.0179570675523
 33
0.0
 14
423.6495488827311
 24
846.0179570675523
 34
0.0
  0
DIMENSION
  5
1688
  8
DIMENSIONS
  6
BYBLOCK
  2
*D327
 10
83.62068136923108
 20
919.8175268275278
 30
0.0
 11
258.6206813692311
 21
924.0200268275278
 31
0.0
 70
    32
  3
DUAL-DIM
 13
433.6206813692311
 23
853.5579570675523
 33
0.0
 14
83.62068136923108
 24
853.5579570675523
 34
0.0
  0
DIMENSION
  5
1697
  8
DIMENSIONS
  6
BYBLOCK
  2
*D328
 10
456.1206813692311
 20
940.7086543221891
 30
0.0
 11
258.6206813692311
 21
944.9111543221891
 31
0.0
 70
    32
  3
DUAL-DIM
 13
61.12068136923108
 23
877.8579570675522
 33
0.0
 14
456.1206813692311
 24
877.8579570675522
 34
0.0
  0
DIMENSION
  5
16A6
  8
DIMENSIONS
  6
BYBLOCK
  2
*D329
 10
15.07908874436518
 20
853.5579570675523
 30
0.0
 11
15.07908874436518
 21
831.3979570675523
 31
0.0
 70
   160
  3
DUAL-DIM
 13
61.12068136923108
 23
877.8579570675522
 33
0.0
 14
83.62068136923108
 24
853.5579570675523
 34
0.0
 50
90.0
1001
ACAD
1000
DSTYLE
1002
{
1070
   287
1070
     2
1070
   279
1070
     0
1002
}
  0
DIMENSION
  5
16B5
  8
DIMENSIONS
  6
BYBLOCK
  2
*D330
 10
37.16454287199061
 20
566.0579570675523
 30
0.0
 11
32.96204287199063
 21
709.8079570675523
 31
0.0
 70
    32
  3
DUAL-DIM
 13
83.62068136923108
 23
853.5579570675523
 33
0.0
 14
83.62068136923108
 24
566.0579570675523
 34
0.0
 50
90.0
  0
DIMENSION
  5
16C4
  8
DIMENSIONS
  6
BYBLOCK
  2
*D331
 10
37.16454287199058
 20
206.0579570675523
 30
0.0
 11
32.9620428719906
 21
386.0579570675523
 31
0.0
 70
    32
  3
DUAL-DIM
 13
83.62068136923108
 23
566.0579570675523
 33
0.0
 14
83.62068136923108
 24
206.0579570675523
 34
0.0
 50
90.0
  0
DIMENSION
  5
16D3
  8
DIMENSIONS
  6
BYBLOCK
  2
*D332
 10
37.16454287199057
 20
-81.44204293244769
 30
0.0
 11
32.96204287199058
 21
62.30795706755231
 31
0.0
 70
    32
  3
DUAL-DIM
 13
83.62068136923108
 23
206.0579570675523
 33
0.0
 14
83.62068136923108
 24
-81.44204293244769
 34
0.0
 50
90.0
  0
DIMENSION
  5
16E2
  8
DIMENSIONS
  6
BYBLOCK
  2
*D333
 10
505.6408605124028
 20
846.0179570675523
 30
0.0
 11
505.6408605124028
 21
823.9029570675523
 31
0.0
 70
   160
  3
DUAL-DIM
 13
456.1206813692311
 23
877.8579570675522
 33
0.0
 14
423.6495488827311
 24
846.0179570675523
 34
0.0
 50
90.0
1001
ACAD
1000
DSTYLE
1002
{
1070
   287
1070
     2
1070
   279
1070
     0
1002
}
  0
DIMENSION
  5
16F1
  8
DIMENSIONS
  6
BYBLOCK
  2
*D334
 10
482.4270208562133
 20
536.0179570675523
 30
0.0
 11
478.2245208562133
 21
691.0179570675523
 31
0.0
 70
    32
  3
DUAL-DIM
 13
423.6495488827311
 23
846.0179570675523
 33
0.0
 14
423.6495488827311
 24
536.0179570675523
 34
0.0
 50
90.0
  0
DIMENSION
  5
1700
  8
DIMENSIONS
  6
BYBLOCK
  2
*D335
 10
482.4270208562133
 20
342.3579570675523
 30
0.0
 11
478.2245208562133
 21
439.1879570675523
 31
0.0
 70
    32
  3
DUAL-DIM
 13
423.6495488827311
 23
536.0179570675523
 33
0.0
 14
408.6495488827311
 24
342.3579570675523
 34
0.0
 50
90.0
  0
DIMENSION
  5
170F
  8
DIMENSIONS
  6
BYBLOCK
  2
*D336
 10
482.4270208562133
 20
115.3579570675523
 30
0.0
 11
478.2245208562133
 21
228.8579570675523
 31
0.0
 70
    32
  3
DUAL-DIM
 13
408.6495488827311
 23
342.3579570675523
 33
0.0
 14
408.6495488827311
 24
115.3579570675523
 34
0.0
 50
90.0
  0
DIMENSION
  5
171E
  8
DIMENSIONS
  6
BYBLOCK
  2
*D337
 10
482.4270208562133
 20
-103.9420429324477
 30
0.0
 11
478.2245208562133
 21
5.707957067552314
 31
0.0
 70
    32
  3
DUAL-DIM
 13
408.6495488827311
 23
115.3579570675523
 33
0.0
 14
456.1206813692311
 24
-103.9420429324477
 34
0.0
 50
90.0
  0
DIMENSION
  5
172D
  8
DIMENSIONS
  6
BYBLOCK
  2
*D338
 10
408.6495488827311
 20
84.64114737208452
 30
0.0
 11
253.6495488827311
 21
88.84364737208452
 31
0.0
 70
    32
  3
DUAL-DIM
 13
98.64954888273107
 23
115.3579570675523
 33
0.0
 14
408.6495488827311
 24
115.3579570675523
 34
0.0
  0
DIMENSION
  5
175A
  8
DIMENSIONS
  6
BYBLOCK
  2
*D341
 10
437.120653969647
 20
-81.4281938769795
 30
0.0
 11
402.7168520573759
 21
-81.56432641725807
 31
0.0
 70
   163
  1
<>
  3
DUAL-DIM
 15
430.1207087688151
 25
-81.4558919879159
 35
0.0
 40
0.0
1001
ACAD_DSTYLE_DIMRADIAL_EXTE
1070
   387
1070
     1
1070
   388
1040
0.0
1070
   390
1040
6.283185307179586
1001
ACAD
1000
DSTYLE
1002
{
1070
   287
1070
     2
1070
   279
1070
     0
1002
}
  0
DIMENSION
  5
1768
  8
DIMENSIONS
  6
BYBLOCK
  2
*D342
 10
16.23263339045178
 20
-103.9420429324477
 30
0.0
 11
16.23263339045178
 21
-57.03859386661037
 31
0.0
 70
   160
  3
DUAL-DIM
 13
83.62068136923108
 23
-81.44204293244769
 33
0.0
 14
61.12068136923108
 24
-103.9420429324477
 34
0.0
 50
90.0
1001
ACAD
1000
DSTYLE
1002
{
1070
   287
1070
     2
1070
   279
1070
     0
1002
}
  0
DIMENSION
  5
177C
  8
DIMENSIONS
  6
BYBLOCK
  2
*D343
 10
61.12068136923108
 20
84.64114737208452
 30
0.0
 11
79.88511512598109
 21
88.84364737208452
 31
0.0
 70
    32
  3
DUAL-DIM
 13
98.6495488827311
 23
84.64114737208452
 33
0.0
 14
61.12068136923108
 24
84.6411473720845
 34
0.0
  0
DIMENSION
  5
178B
  8
DIMENSIONS
  6
BYBLOCK
  2
*D344
 10
456.1206813692311
 20
84.64251543118431
 30
0.0
 11
432.3851151259811
 21
88.84501543118431
 31
0.0
 70
    32
  3
DUAL-DIM
 13
408.6495488827311
 23
85.08105275566682
 33
0.0
 14
456.1206813692311
 24
85.08105275566686
 34
0.0
  0
DIMENSION
  5
17A1
  8
DIMENSIONS
  6
BYBLOCK
  2
*D345
 10
-6.273321648192024
 20
-103.9420429324477
 30
0.0
 11
-10.47582164819198
 21
386.9579570675522
 31
0.0
 70
    32
  3
DUAL-DIM
 13
61.12068136923108
 23
877.8579570675522
 33
0.0
 14
61.12068136923108
 24
-103.9420429324477
 34
0.0
 50
90.0
  0
POLYLINE
  5
17B0
  8
0
  6
BYBLOCK
 66
     1
 10
0.0
 20
0.0
 30
0.0
 70
     1
  0
VERTEX
  5
17B7
  8
0
  6
BYBLOCK
 10
-77.48786514464223
 20
-169.6189384256478
 30
0.0
  0
VERTEX
  5
17B8
  8
0
  6
BYBLOCK
 10
-77.48786514464223
 20
997.0688022084095
 30
0.0
  0
VERTEX
  5
17B9
  8
0
  6
BYBLOCK
 10
563.892767780458
 20
997.0688022084095
 30
0.0
  0
VERTEX
  5
17BA
  8
0
  6
BYBLOCK
 10
563.892767780458
 20
-169.6189384256478
 30
0.0
  0
SEQEND
  5
17BB
  8
0
  6
BYBLOCK
  0
ENDSEC
  0
EOF
