  0
SECTION
  2
HEADER
  9
$ACADVER
  1
AC1009
  9
$DWGCODEPAGE
  3
ansi_1252
  9
$INSBASE
 10
0.0
 20
0.0
 30
0.0
  9
$EXTMIN
 10
1.000000000000000E+20
 20
1.000000000000000E+20
 30
1.000000000000000E+20
  9
$EXTMAX
 10
-1.000000000000000E+20
 20
-1.000000000000000E+20
 30
-1.000000000000000E+20
  9
$LIMMIN
 10
0.0
 20
0.0
  9
$LIMMAX
 10
594.0
 20
420.0
  9
$ORTHOMODE
 70
     0
  9
$REGENMODE
 70
     1
  9
$FILLMODE
 70
     1
  9
$QTEXTMODE
 70
     0
  9
$MIRRTEXT
 70
     1
  9
$DRAGMODE
 70
     2
  9
$LTSCALE
 40
32.67
  9
$OSMODE
 70
   511
  9
$ATTMODE
 70
     1
  9
$TEXTSIZE
 40
0.2
  9
$TRACEWID
 40
0.05
  9
$TEXTSTYLE
  7
STANDARD
  9
$CLAYER
  8
DIMENSIONS
  9
$CELTYPE
  6
BYBLOCK
  9
$CECOLOR
 62
   256
  9
$DIMSCALE
 40
1.0
  9
$DIMASZ
 40
5.0
  9
$DIMEXO
 40
1.5
  9
$DIMDLI
 40
1.0
  9
$DIMRND
 40
0.0
  9
$DIMDLE
 40
0.0
  9
$DIMEXE
 40
0.18
  9
$DIMTP
 40
0.0
  9
$DIMTM
 40
0.0
  9
$DIMTXT
 40
5.0
  9
$DIMCEN
 40
2.5
  9
$DIMTSZ
 40
0.0
  9
$DIMTOL
 70
     0
  9
$DIMLIM
 70
     0
  9
$DIMTIH
 70
     0
  9
$DIMTOH
 70
     0
  9
$DIMSE1
 70
     0
  9
$DIMSE2
 70
     0
  9
$DIMTAD
 70
     1
  9
$DIMZIN
 70
     8
  9
$DIMBLK
  1

  9
$DIMASO
 70
     1
  9
$DIMSHO
 70
     1
  9
$DIMPOST
  1

  9
$DIMAPOST
  1

  9
$DIMALT
 70
     1
  9
$DIMALTD
 70
     2
  9
$DIMALTF
 40
0.03937
  9
$DIMLFAC
 40
1.0
  9
$DIMTOFL
 70
     0
  9
$DIMTVP
 40
0.0
  9
$DIMTIX
 70
     0
  9
$DIMSOXD
 70
     0
  9
$DIMSAH
 70
     0
  9
$DIMBLK1
  1

  9
$DIMBLK2
  1

  9
$DIMSTYLE
  2
DUAL-DIM
  9
$DIMCLRD
 70
     0
  9
$DIMCLRE
 70
     0
  9
$DIMCLRT
 70
     5
  9
$DIMTFAC
 40
1.0
  9
$DIMGAP
 40
1.0
  9
$LUNITS
 70
     2
  9
$LUPREC
 70
     4
  9
$SKETCHINC
 40
0.1
  9
$FILLETRAD
 40
15.0
  9
$AUNITS
 70
     0
  9
$AUPREC
 70
     0
  9
$MENU
  1
.
  9
$ELEVATION
 40
0.0
  9
$PELEVATION
 40
0.0
  9
$THICKNESS
 40
0.0
  9
$LIMCHECK
 70
     0
  9
$CHAMFERA
 40
0.0
  9
$CHAMFERB
 40
0.0
  9
$SKPOLY
 70
     0
  9
$TDCREATE
 40
2457428.354677859
  9
$TDUPDATE
 40
2457431.676222917
  9
$TDINDWG
 40
0.0829703356
  9
$TDUSRTIMER
 40
2457431.634223588
  9
$USRTIMER
 70
     1
  9
$ANGBASE
 50
0.0
  9
$ANGDIR
 70
     0
  9
$PDMODE
 70
     3
  9
$PDSIZE
 40
0.3125
  9
$PLINEWID
 40
0.0
  9
$COORDS
 70
     1
  9
$SPLFRAME
 70
     0
  9
$SPLINETYPE
 70
     6
  9
$SPLINESEGS
 70
     8
  9
$ATTDIA
 70
     0
  9
$ATTREQ
 70
     1
  9
$HANDLING
 70
     1
  9
$HANDSEED
  5
1C5E
  9
$SURFTAB1
 70
     6
  9
$SURFTAB2
 70
     6
  9
$SURFTYPE
 70
     6
  9
$SURFU
 70
     6
  9
$SURFV
 70
     6
  9
$UCSNAME
  2

  9
$UCSORG
 10
0.0
 20
0.0
 30
0.0
  9
$UCSXDIR
 10
1.0
 20
0.0
 30
0.0
  9
$UCSYDIR
 10
0.0
 20
1.0
 30
0.0
  9
$PUCSNAME
  2

  9
$PUCSORG
 10
0.0
 20
0.0
 30
0.0
  9
$PUCSXDIR
 10
1.0
 20
0.0
 30
0.0
  9
$PUCSYDIR
 10
0.0
 20
1.0
 30
0.0
  9
$USERI1
 70
     0
  9
$USERI2
 70
     0
  9
$USERI3
 70
     0
  9
$USERI4
 70
     0
  9
$USERI5
 70
     0
  9
$USERR1
 40
0.0
  9
$USERR2
 40
0.0
  9
$USERR3
 40
0.0
  9
$USERR4
 40
0.0
  9
$USERR5
 40
0.0
  9
$WORLDVIEW
 70
     1
  9
$SHADEDGE
 70
     3
  9
$SHADEDIF
 70
    70
  9
$TILEMODE
 70
     1
  9
$MAXACTVP
 70
    64
  9
$PLIMCHECK
 70
     0
  9
$PEXTMIN
 10
1.05
 20
0.6999999999999997
 30
0.0
  9
$PEXTMAX
 10
9.45
 20
6.300000000000001
 30
0.0
  9
$PLIMMIN
 10
-0.25
 20
-0.7499999999999999
  9
$PLIMMAX
 10
10.75
 20
7.75
  9
$UNITMODE
 70
     0
  9
$VISRETAIN
 70
     1
  9
$PLINEGEN
 70
     0
  9
$PSLTSCALE
 70
     1
  0
ENDSEC
  0
SECTION
  2
TABLES
  0
TABLE
  2
VPORT
 70
     1
  0
VPORT
  2
*ACTIVE
 70
     0
 10
0.0
 20
0.0
 11
1.0
 21
1.0
 12
837.3626844704888
 22
798.2692611406942
 13
0.0
 23
0.0
 14
0.5
 24
0.5
 15
0.5
 25
0.5
 16
0.0
 26
0.0
 36
1.0
 17
0.0
 27
0.0
 37
0.0
 40
1124.360077274873
 41
2.792291220556745
 42
50.0
 43
0.0
 44
0.0
 50
0.0
 51
0.0
 71
    16
 72
   100
 73
     1
 74
     3
 75
     0
 76
     0
 77
     0
 78
     0
  0
ENDTAB
  0
TABLE
  2
LTYPE
 70
     7
  0
LTYPE
  2
CONTINUOUS
 70
     0
  3
Solid line
 72
    65
 73
     0
 40
0.0
  0
LTYPE
  2
CENTER
 70
     0
  3
____ _ ____ _ ____ _ ____ _ ____ _ ____ _ ____
 72
    65
 73
     4
 40
0.6
 49
0.375
 49
-0.075
 49
0.075
 49
-0.075
  0
LTYPE
  2
HIDDEN
 70
     0
  3
- - - - - - - - - - - - - - - - - - - -
 72
    65
 73
     2
 40
0.2
 49
0.1
 49
-0.1
  0
LTYPE
  2
PHANTOM
 70
     0
  3
_____ _ _ _____ _ _ _____ _ _ _____
 72
    65
 73
     6
 40
0.8
 49
0.45
 49
-0.05
 49
0.1
 49
-0.05
 49
0.1
 49
-0.05
  0
LTYPE
  2
DOT
 70
     0
  3
. . . . . . . . . . . . . . . . . . . .
 72
    65
 73
     2
 40
0.2
 49
0.1
 49
-0.1
  0
LTYPE
  2
DASHED
 70
     0
  3
- - - - - - - - - - - - - - - - - - - -
 72
    65
 73
     2
 40
0.2
 49
0.1
 49
-0.1
  0
LTYPE
  2
STRICHPUNKT
 70
     0
  3
__ . __ . __ . __ . __ . __ . __ . __ . __ . __
 72
    65
 73
     4
 40
1.0
 49
0.5
 49
-0.25
 49
0.0
 49
-0.25
  0
ENDTAB
  0
TABLE
  2
LAYER
 70
    19
  0
LAYER
  2
0
 70
     0
 62
     7
  6
CONTINUOUS
  0
LAYER
  2
DEFAULT_1
 70
     0
 62
     7
  6
CENTER
  0
LAYER
  2
DEFAULT_2
 70
     0
 62
     7
  6
HIDDEN
  0
LAYER
  2
DEFAULT_3
 70
     0
 62
     7
  6
PHANTOM
  0
LAYER
  2
01___PRT_ALL_DTM_PLN
 70
     0
 62
     7
  6
CONTINUOUS
  0
LAYER
  2
01___PRT_DEF_DTM_PLN
 70
     0
 62
     7
  6
CONTINUOUS
  0
LAYER
  2
02___PRT_ALL_AXES
 70
     0
 62
     7
  6
CONTINUOUS
  0
LAYER
  2
03___PRT_ALL_CURVES
 70
     0
 62
     7
  6
CONTINUOUS
  0
LAYER
  2
04___PRT_ALL_DTM_PNT
 70
     0
 62
     7
  6
CONTINUOUS
  0
LAYER
  2
05___PRT_ALL_DTM_CSYS
 70
     0
 62
     7
  6
CONTINUOUS
  0
LAYER
  2
05___PRT_DEF_DTM_CSYS
 70
     0
 62
     7
  6
CONTINUOUS
  0
LAYER
  2
06___PRT_ALL_SURFS
 70
     0
 62
     7
  6
CONTINUOUS
  0
LAYER
  2
DEFPOINTS
 70
     0
 62
     7
  6
CONTINUOUS
  0
LAYER
  2
DIMENSIONS
 70
     0
 62
     2
  6
CONTINUOUS
  0
LAYER
  2
AM_5
 70
     0
 62
     3
  6
CONTINUOUS
  0
LAYER
  2
CUTOUT
 70
     0
 62
     7
  6
CONTINUOUS
  0
LAYER
  2
EXTERNAL_OUTFIT
 70
     0
 62
     7
  6
CENTER
  0
LAYER
  2
OUTLINES
 70
     0
 62
     4
  6
CONTINUOUS
  0
LAYER
  2
3
 70
     0
 62
     4
  6
CONTINUOUS
  0
ENDTAB
  0
TABLE
  2
STYLE
 70
     2
  0
STYLE
  2
STANDARD
 70
     0
 40
0.0
 41
1.0
 50
0.0
 71
     0
 42
0.2
  3
arial.ttf
  4

  0
STYLE
  2
TEXTSTYLE_1
 70
     0
 40
0.0
 41
0.8
 50
0.0
 71
     0
 42
0.2
  3
gdt
  4

  0
ENDTAB
  0
TABLE
  2
VIEW
 70
     0
  0
ENDTAB
  0
TABLE
  2
UCS
 70
     0
  0
ENDTAB
  0
TABLE
  2
APPID
 70
    10
  0
APPID
  2
ACAD
 70
     0
  0
APPID
  2
ACAECLAYERSTANDARD
 70
     0
  0
APPID
  2
ACAD_DSTYLE_DIMRADIAL_EXTE
 70
     0
  0
APPID
  2
ACAD_DSTYLE_DIMJOGGED_JOGA
 70
     0
  0
APPID
  2
ACAD_DSTYLE_DIMJAG
 70
     0
  0
APPID
  2
ACAD_DSTYLE_DIMBREAK
 70
     0
  0
APPID
  2
ACAD_PSEXT
 70
     0
  0
APPID
  2
ACAD_DSTYLE_DIMINSPECT
 70
     0
  0
APPID
  2
ACAD_DSTYLE_DIMRADIAL_EXT0
 70
     0
  0
APPID
  2
ACAD_DSTYLE_DIMJOGGED_JOG0
 70
     0
  0
ENDTAB
  0
TABLE
  2
DIMSTYLE
 70
     5
  0
DIMSTYLE
  2
STANDARD
 70
     0
  3

  4

  5

  6

  7

 40
1.0
 41
0.18
 42
0.0625
 43
0.38
 44
0.18
 45
0.0
 46
0.0
 47
0.0
 48
0.0
140
0.18
141
0.09
142
0.0
143
25.4
144
1.0
145
0.0
146
1.0
147
0.09
 71
     0
 72
     0
 73
     1
 74
     1
 75
     0
 76
     0
 77
     0
 78
     0
170
     0
171
     2
172
     0
173
     0
174
     0
175
     0
176
     0
177
     0
178
     0
  0
DIMSTYLE
  2
DUAL-DIM
 70
     0
  3

  4

  5

  6

  7

 40
1.0
 41
5.0
 42
1.5
 43
1.0
 44
0.18
 45
0.0
 46
0.0
 47
0.0
 48
0.0
140
5.0
141
2.5
142
0.0
143
0.03937
144
1.0
145
0.0
146
1.0
147
1.0
 71
     0
 72
     0
 73
     0
 74
     0
 75
     0
 76
     0
 77
     1
 78
     8
170
     1
171
     2
172
     0
173
     0
174
     0
175
     0
176
     0
177
     0
178
     5
  0
DIMSTYLE
  2
AM_ISO
 70
     0
  3

  4
"
  5

  6

  7

 40
1.0
 41
3.5
 42
1.0
 43
10.0
 44
1.0
 45
0.0
 46
0.0
 47
0.1
 48
0.1
140
3.5
141
0.0
142
0.0
143
0.0393701
144
1.0
145
0.0
146
0.71
147
1.5
 71
     0
 72
     0
 73
     0
 74
     0
 75
     0
 76
     0
 77
     1
 78
     8
170
     0
171
     2
172
     1
173
     0
174
     0
175
     0
176
   256
177
   256
178
     2
  0
DIMSTYLE
  2
AM_ISO$3
 70
     0
  3

  4
"
  5

  6

  7

 40
1.0
 41
3.5
 42
1.0
 43
10.0
 44
1.0
 45
0.0
 46
0.0
 47
0.1
 48
0.1
140
3.5
141
0.0
142
0.0
143
0.0393701
144
1.0
145
0.0
146
0.71
147
1.5
 71
     0
 72
     0
 73
     0
 74
     1
 75
     0
 76
     0
 77
     1
 78
     8
170
     0
171
     2
172
     0
173
     0
174
     0
175
     0
176
   256
177
   256
178
     2
  0
DIMSTYLE
  2
AM_ISO$0
 70
     0
  3

  4
"
  5

  6

  7

 40
1.0
 41
3.5
 42
1.0
 43
10.0
 44
1.0
 45
0.0
 46
0.0
 47
0.1
 48
0.1
140
3.5
141
0.0
142
0.0
143
0.0393701
144
1.0
145
0.0
146
0.71
147
1.5
 71
     0
 72
     0
 73
     0
 74
     0
 75
     0
 76
     0
 77
     1
 78
     8
170
     0
171
     2
172
     1
173
     0
174
     0
175
     0
176
   256
177
   256
178
     2
  0
ENDTAB
  0
ENDSEC
  0
SECTION
  2
BLOCKS
  0
BLOCK
  8
0
  2
$MODEL_SPACE
 70
     0
 10
0.0
 20
0.0
 30
0.0
  3
$MODEL_SPACE
  1

  0
ENDBLK
  5
110
  8
0
  0
BLOCK
 67
     1
  8
0
  2
$PAPER_SPACE
 70
     0
 10
0.0
 20
0.0
 30
0.0
  3
$PAPER_SPACE
  1

  0
ENDBLK
  5
112
 67
     1
  8
0
  0
BLOCK
  8
0
  2
_FILLED
 70
     0
 10
0.0
 20
0.0
 30
0.0
  3
_FILLED
  1

  0
SOLID
  5
3D
  8
0
  6
BYBLOCK
 62
     0
 10
0.0
 20
0.0
 30
0.0
 11
-1.0
 21
0.2
 31
0.0
 12
-1.0
 22
-0.2
 32
0.0
 13
-1.0
 23
-0.2
 33
0.0
  0
ENDBLK
  5
3E
  8
0
  6
BYBLOCK
 62
     0
  0
BLOCK
  8
0
  2
*D113
 70
     1
 10
0.0
 20
0.0
 30
0.0
  3
*D113
  1

  0
LINE
  5
A4D
  8
DIMENSIONS
  6
BYBLOCK
 62
     0
 10
144.6252768296663
 20
83.04500461364285
 30
0.0
 11
144.6252768296663
 21
113.4232731969227
 31
0.0
  0
LINE
  5
A4E
  8
DIMENSIONS
  6
BYBLOCK
 62
     0
 10
314.6252768296665
 20
83.04500461364285
 30
0.0
 11
314.6252768296665
 21
113.4232731969227
 31
0.0
  0
LINE
  5
A4F
  8
DIMENSIONS
  6
BYBLOCK
 62
     0
 10
149.6252768296663
 20
113.2432731969227
 30
0.0
 11
309.6252768296665
 21
113.2432731969227
 31
0.0
  0
SOLID
  5
A50
  8
DIMENSIONS
 62
     0
 10
149.6252768296663
 20
114.076606530256
 30
0.0
 11
149.6252768296663
 21
112.4099398635893
 31
0.0
 12
144.6252768296663
 22
113.2432731969227
 32
0.0
 13
144.6252768296663
 23
113.2432731969227
 33
0.0
  0
SOLID
  5
A51
  8
DIMENSIONS
 62
     0
 10
309.6252768296665
 20
112.4099398635893
 30
0.0
 11
309.6252768296665
 21
114.076606530256
 31
0.0
 12
314.6252768296665
 22
113.2432731969227
 32
0.0
 13
314.6252768296665
 23
113.2432731969227
 33
0.0
  0
TEXT
  5
A52
  8
DIMENSIONS
  6
CONTINUOUS
 62
     5
 10
213.9527768296664
 20
115.6382731969227
 30
0.0
 40
5.0
  1
170 [6.69]
  0
POINT
  5
A53
  8
DEFPOINTS
 62
     0
 10
144.6252768296663
 20
81.54500461364285
 30
0.0
  0
POINT
  5
A54
  8
DEFPOINTS
 62
     0
 10
314.6252768296665
 20
81.54500461364285
 30
0.0
  0
POINT
  5
A55
  8
DEFPOINTS
 62
     0
 10
314.6252768296665
 20
113.2432731969227
 30
0.0
  0
ENDBLK
  5
A4C
  8
0
  0
BLOCK
  8
0
  2
*D114
 70
     1
 10
0.0
 20
0.0
 30
0.0
  3
*D114
  1

  0
LINE
  5
A5D
  8
DIMENSIONS
  6
BYBLOCK
 62
     0
 10
137.1252768296664
 20
75.54500461364285
 30
0.0
 11
137.1252768296664
 21
129.5972230819602
 31
0.0
  0
LINE
  5
A5E
  8
DIMENSIONS
  6
BYBLOCK
 62
     0
 10
322.1252768296664
 20
75.54500461364285
 30
0.0
 11
322.1252768296664
 21
129.5972230819602
 31
0.0
  0
LINE
  5
A5F
  8
DIMENSIONS
  6
BYBLOCK
 62
     0
 10
142.1252768296664
 20
129.4172230819602
 30
0.0
 11
317.1252768296664
 21
129.4172230819602
 31
0.0
  0
SOLID
  5
A60
  8
DIMENSIONS
 62
     0
 10
142.1252768296664
 20
130.2505564152936
 30
0.0
 11
142.1252768296664
 21
128.5838897486269
 31
0.0
 12
137.1252768296664
 22
129.4172230819602
 32
0.0
 13
137.1252768296664
 23
129.4172230819602
 33
0.0
  0
SOLID
  5
A61
  8
DIMENSIONS
 62
     0
 10
317.1252768296664
 20
128.5838897486269
 30
0.0
 11
317.1252768296664
 21
130.2505564152936
 31
0.0
 12
322.1252768296664
 22
129.4172230819602
 32
0.0
 13
322.1252768296664
 23
129.4172230819602
 33
0.0
  0
TEXT
  5
A62
  8
DIMENSIONS
  6
CONTINUOUS
 62
     5
 10
213.9527768296664
 20
131.8122230819602
 30
0.0
 40
5.0
  1
185 [7.28]
  0
POINT
  5
A63
  8
DEFPOINTS
 62
     0
 10
137.1252768296664
 20
74.04500461364285
 30
0.0
  0
POINT
  5
A64
  8
DEFPOINTS
 62
     0
 10
322.1252768296664
 20
74.04500461364285
 30
0.0
  0
POINT
  5
A65
  8
DEFPOINTS
 62
     0
 10
322.1252768296664
 20
129.4172230819602
 30
0.0
  0
ENDBLK
  5
A5C
  8
0
  0
BLOCK
  8
0
  2
*D115
 70
     1
 10
0.0
 20
0.0
 30
0.0
  3
*D115
  1

  0
LINE
  5
A6C
  8
DIMENSIONS
  6
BYBLOCK
 62
     0
 10
126.6252768296663
 20
100.0450046136428
 30
0.0
 11
126.6252768296663
 21
146.3488140343206
 31
0.0
  0
LINE
  5
A6D
  8
DIMENSIONS
  6
BYBLOCK
 62
     0
 10
332.6252768296664
 20
100.0450046136428
 30
0.0
 11
332.6252768296664
 21
146.3488140343206
 31
0.0
  0
LINE
  5
A6E
  8
DIMENSIONS
  6
BYBLOCK
 62
     0
 10
131.6252768296663
 20
146.1688140343206
 30
0.0
 11
327.6252768296664
 21
146.1688140343206
 31
0.0
  0
SOLID
  5
A6F
  8
DIMENSIONS
 62
     0
 10
131.6252768296663
 20
147.0021473676539
 30
0.0
 11
131.6252768296663
 21
145.3354807009873
 31
0.0
 12
126.6252768296663
 22
146.1688140343206
 32
0.0
 13
126.6252768296663
 23
146.1688140343206
 33
0.0
  0
SOLID
  5
A70
  8
DIMENSIONS
 62
     0
 10
327.6252768296664
 20
145.3354807009873
 30
0.0
 11
327.6252768296664
 21
147.0021473676539
 31
0.0
 12
332.6252768296664
 22
146.1688140343206
 32
0.0
 13
332.6252768296664
 23
146.1688140343206
 33
0.0
  0
TEXT
  5
A71
  8
DIMENSIONS
  6
CONTINUOUS
 62
     5
 10
214.2302768296663
 20
148.5638140343206
 30
0.0
 40
5.0
  1
206 [8.11]
  0
POINT
  5
A72
  8
DEFPOINTS
 62
     0
 10
126.6252768296663
 20
98.54500461364285
 30
0.0
  0
POINT
  5
A73
  8
DEFPOINTS
 62
     0
 10
332.6252768296664
 20
98.54500461364285
 30
0.0
  0
POINT
  5
A74
  8
DEFPOINTS
 62
     0
 10
332.6252768296664
 20
146.1688140343206
 30
0.0
  0
ENDBLK
  5
A6B
  8
0
  0
BLOCK
  8
0
  2
*D117
 70
     1
 10
0.0
 20
0.0
 30
0.0
  3
*D117
  1

  0
LINE
  5
A8A
  8
DIMENSIONS
  6
BYBLOCK
 62
     0
 10
135.6252768296664
 20
74.04500461364285
 30
0.0
 11
110.9865679466599
 21
74.04500461364285
 31
0.0
  0
LINE
  5
A8B
  8
DIMENSIONS
  6
BYBLOCK
 62
     0
 10
135.6252768296664
 20
-30.95499538635715
 30
0.0
 11
110.9865679466599
 21
-30.95499538635715
 31
0.0
  0
LINE
  5
A8C
  8
DIMENSIONS
  6
BYBLOCK
 62
     0
 10
111.1665679466599
 20
69.04500461364285
 30
0.0
 11
111.1665679466599
 21
-25.95499538635715
 31
0.0
  0
SOLID
  5
A8D
  8
DIMENSIONS
 62
     0
 10
111.9999012799932
 20
69.04500461364285
 30
0.0
 11
110.3332346133266
 21
69.04500461364285
 31
0.0
 12
111.1665679466599
 22
74.04500461364285
 32
0.0
 13
111.1665679466599
 23
74.04500461364285
 33
0.0
  0
SOLID
  5
A8E
  8
DIMENSIONS
 62
     0
 10
110.3332346133266
 20
-25.95499538635715
 30
0.0
 11
111.9999012799932
 21
-25.95499538635715
 31
0.0
 12
111.1665679466599
 22
-30.95499538635715
 32
0.0
 13
111.1665679466599
 23
-30.95499538635715
 33
0.0
  0
TEXT
  5
A8F
  8
DIMENSIONS
  6
CONTINUOUS
 62
     5
 10
108.7715679466599
 20
5.872504613642846
 30
0.0
 40
5.0
  1
105 [4.13]
 50
90.0
  0
POINT
  5
A90
  8
DEFPOINTS
 62
     0
 10
137.1252768296664
 20
74.04500461364285
 30
0.0
  0
POINT
  5
A91
  8
DEFPOINTS
 62
     0
 10
137.1252768296664
 20
-30.95499538635715
 30
0.0
  0
POINT
  5
A92
  8
DEFPOINTS
 62
     0
 10
111.1665679466599
 20
-30.95499538635715
 30
0.0
  0
ENDBLK
  5
A89
  8
0
  0
BLOCK
  8
0
  2
*D122
 70
     1
 10
0.0
 20
0.0
 30
0.0
  3
*D122
  1

  0
LINE
  5
AD5
  8
DIMENSIONS
  6
BYBLOCK
 62
     0
 10
313.1252796843307
 20
-30.96216364626577
 30
0.0
 11
272.7202925001878
 21
-30.99434515088886
 31
0.0
  0
TEXT
  5
AD6
  8
DIMENSIONS
  6
CONTINUOUS
 62
     5
 10
273.4383210003398
 20
-28.51877247512887
 30
0.0
 40
5.0
  1
Ø8 [Ø0.31]
 50
0.0456345647378388
  0
SOLID
  5
AD7
  8
DIMENSIONS
 62
     0
 10
313.1259434121001
 20
-31.79549671527833
 30
0.0
 11
313.1246159565614
 21
-30.12883057725321
 31
0.0
 12
318.1252780984061
 22
-30.95818127964987
 32
0.0
 13
318.1252780984061
 23
-30.95818127964987
 33
0.0
  0
LINE
  5
AD8
  8
DIMENSIONS
  6
BYBLOCK
 62
     0
 10
319.6252768296664
 20
-30.95499538635715
 30
0.0
 11
324.6252768296664
 21
-30.95499538635715
 31
0.0
  0
LINE
  5
AD9
  8
DIMENSIONS
  6
BYBLOCK
 62
     0
 10
322.1252768296664
 20
-33.45499538635715
 30
0.0
 11
322.1252768296664
 21
-28.45499538635715
 31
0.0
  0
POINT
  5
AE2
  8
DEFPOINTS
 62
     0
 10
318.1252780984061
 20
-30.95818127964987
 30
0.0
  0
POINT
  5
AE3
  8
DEFPOINTS
 62
     0
 10
326.1252755609267
 20
-30.95180949306443
 30
0.0
  0
ENDBLK
  5
AD4
  8
0
  0
BLOCK
  8
0
  2
*D124
 70
     1
 10
0.0
 20
0.0
 30
0.0
  3
*D124
  1

  0
LINE
  5
B03
  8
DIMENSIONS
  6
BYBLOCK
 62
     0
 10
143.1252768296663
 20
81.54500461364285
 30
0.0
 11
94.66871057715198
 21
81.54500461364285
 31
0.0
  0
LINE
  5
B04
  8
DIMENSIONS
  6
BYBLOCK
 62
     0
 10
143.1252768296663
 20
-38.45499538635715
 30
0.0
 11
94.66871057715197
 21
-38.45499538635715
 31
0.0
  0
LINE
  5
B05
  8
DIMENSIONS
  6
BYBLOCK
 62
     0
 10
94.84871057715199
 20
76.54500461364285
 30
0.0
 11
94.84871057715198
 21
-33.45499538635715
 31
0.0
  0
SOLID
  5
B06
  8
DIMENSIONS
 62
     0
 10
95.68204391048532
 20
76.54500461364285
 30
0.0
 11
94.01537724381866
 21
76.54500461364285
 31
0.0
 12
94.84871057715199
 22
81.54500461364285
 32
0.0
 13
94.84871057715199
 23
81.54500461364285
 33
0.0
  0
SOLID
  5
B07
  8
DIMENSIONS
 62
     0
 10
94.01537724381865
 20
-33.45499538635715
 30
0.0
 11
95.6820439104853
 21
-33.45499538635715
 31
0.0
 12
94.84871057715198
 22
-38.45499538635715
 32
0.0
 13
94.84871057715198
 23
-38.45499538635715
 33
0.0
  0
TEXT
  5
B08
  8
DIMENSIONS
  6
CONTINUOUS
 62
     5
 10
92.45371057715198
 20
5.872504613642846
 30
0.0
 40
5.0
  1
120 [4.72]
 50
90.0
  0
POINT
  5
B09
  8
DEFPOINTS
 62
     0
 10
144.6252768296663
 20
81.54500461364285
 30
0.0
  0
POINT
  5
B0A
  8
DEFPOINTS
 62
     0
 10
144.6252768296663
 20
-38.45499538635715
 30
0.0
  0
POINT
  5
B0B
  8
DEFPOINTS
 62
     0
 10
94.84871057715198
 20
-38.45499538635715
 30
0.0
  0
ENDBLK
  5
B02
  8
0
  0
BLOCK
  8
0
  2
*D125
 70
     1
 10
0.0
 20
0.0
 30
0.0
  3
*D125
  1

  0
LINE
  5
B12
  8
DIMENSIONS
  6
BYBLOCK
 62
     0
 10
125.1252768296663
 20
-55.45499538635715
 30
0.0
 11
78.6713825488308
 21
-55.45499538635715
 31
0.0
  0
LINE
  5
B13
  8
DIMENSIONS
  6
BYBLOCK
 62
     0
 10
125.1252768296663
 20
98.54500461364285
 30
0.0
 11
78.67138254883082
 21
98.54500461364285
 31
0.0
  0
LINE
  5
B14
  8
DIMENSIONS
  6
BYBLOCK
 62
     0
 10
78.85138254883081
 20
-50.45499538635715
 30
0.0
 11
78.85138254883083
 21
93.54500461364285
 31
0.0
  0
SOLID
  5
B15
  8
DIMENSIONS
 62
     0
 10
78.01804921549748
 20
-50.45499538635715
 30
0.0
 11
79.68471588216414
 21
-50.45499538635715
 31
0.0
 12
78.85138254883081
 22
-55.45499538635715
 32
0.0
 13
78.85138254883081
 23
-55.45499538635715
 33
0.0
  0
SOLID
  5
B16
  8
DIMENSIONS
 62
     0
 10
79.68471588216416
 20
93.54500461364285
 30
0.0
 11
78.0180492154975
 21
93.54500461364285
 31
0.0
 12
78.85138254883083
 22
98.54500461364285
 32
0.0
 13
78.85138254883083
 23
98.54500461364285
 33
0.0
  0
TEXT
  5
B17
  8
DIMENSIONS
  6
CONTINUOUS
 62
     5
 10
76.45638254883082
 20
5.872504613642846
 30
0.0
 40
5.0
  1
154 [6.06]
 50
90.0
  0
POINT
  5
B18
  8
DEFPOINTS
 62
     0
 10
126.6252768296663
 20
-55.45499538635715
 30
0.0
  0
POINT
  5
B19
  8
DEFPOINTS
 62
     0
 10
126.6252768296663
 20
98.54500461364285
 30
0.0
  0
POINT
  5
B1A
  8
DEFPOINTS
 62
     0
 10
78.85138254883083
 20
98.54500461364285
 30
0.0
  0
ENDBLK
  5
B11
  8
0
  0
BLOCK
  8
0
  2
*X127
 70
     1
 10
0.0
 20
0.0
 30
0.0
  3
*X127
  1

  0
LINE
  5
B59
  8
CUTOUT
 10
109.9999999999998
 20
551.9417382415921
 30
0.0
 11
134.0582617584077
 21
576.0
 31
0.0
  0
LINE
  5
B5A
  8
CUTOUT
 10
109.9999999999998
 20
507.7475644174328
 30
0.0
 11
178.2524355825669
 21
576.0
 31
0.0
  0
LINE
  5
B5B
  8
CUTOUT
 10
109.9999999999998
 20
463.5533905932737
 30
0.0
 11
222.4466094067262
 21
576.0
 31
0.0
  0
LINE
  5
B5C
  8
CUTOUT
 10
109.9999999999998
 20
419.3592167691144
 30
0.0
 11
266.6407832308853
 21
576.0
 31
0.0
  0
LINE
  5
B5D
  8
CUTOUT
 10
130.8349570550446
 20
395.9999999999999
 30
0.0
 11
309.9999999999998
 21
575.1650429449552
 31
0.0
  0
LINE
  5
B5E
  8
CUTOUT
 10
175.0291308792038
 20
395.9999999999999
 30
0.0
 11
309.9999999999998
 21
530.970869120796
 31
0.0
  0
LINE
  5
B5F
  8
CUTOUT
 10
219.223304703363
 20
395.9999999999999
 30
0.0
 11
309.9999999999998
 21
486.7766952966368
 31
0.0
  0
LINE
  5
B60
  8
CUTOUT
 10
263.4174785275222
 20
395.9999999999999
 30
0.0
 11
309.9999999999998
 21
442.5825214724775
 31
0.0
  0
LINE
  5
B61
  8
CUTOUT
 10
307.6116523516814
 20
395.9999999999999
 30
0.0
 11
309.9999999999998
 21
398.3883476483184
 31
0.0
  0
LINE
  5
B62
  8
CUTOUT
 10
341.4999999999998
 20
253.1116523516815
 30
0.0
 11
357.8883476483184
 21
269.5
 31
0.0
  0
LINE
  5
B63
  8
CUTOUT
 10
341.4999999999998
 20
208.9174785275222
 30
0.0
 11
402.0825214724775
 21
269.5
 31
0.0
  0
LINE
  5
B64
  8
CUTOUT
 10
341.4999999999998
 20
164.723304703363
 30
0.0
 11
441.4999999999998
 21
264.723304703363
 31
0.0
  0
LINE
  5
B65
  8
CUTOUT
 10
341.4999999999999
 20
120.5291308792038
 30
0.0
 11
441.4999999999998
 21
220.5291308792038
 31
0.0
  0
LINE
  5
B66
  8
CUTOUT
 10
341.4999999999998
 20
76.33495705504458
 30
0.0
 11
441.4999999999998
 21
176.3349570550446
 31
0.0
  0
LINE
  5
B67
  8
CUTOUT
 10
368.8592167691144
 20
59.49999999999994
 30
0.0
 11
441.4999999999998
 21
132.1407832308853
 31
0.0
  0
LINE
  5
B68
  8
CUTOUT
 10
413.0533905932737
 20
59.5
 30
0.0
 11
441.4999999999998
 21
87.94660940672611
 31
0.0
  0
ENDBLK
  5
B69
  8
0
  0
BLOCK
  8
0
  2
*D128
 70
     1
 10
0.0
 20
0.0
 30
0.0
  3
*D128
  1

  0
LINE
  5
B88
  8
DIMENSIONS
  6
BYBLOCK
 62
     0
 10
151.5668099471721
 20
475.8400518730165
 30
0.0
 11
151.5668099471721
 21
503.2529009477453
 31
0.0
  0
LINE
  5
B89
  8
DIMENSIONS
  6
BYBLOCK
 62
     0
 10
461.5668099471721
 20
475.8400518730165
 30
0.0
 11
461.5668099471721
 21
503.2529009477453
 31
0.0
  0
LINE
  5
B8A
  8
DIMENSIONS
  6
BYBLOCK
 62
     0
 10
156.5668099471721
 20
503.0729009477453
 30
0.0
 11
456.5668099471721
 21
503.0729009477453
 31
0.0
  0
SOLID
  5
B8B
  8
DIMENSIONS
 62
     0
 10
156.5668099471721
 20
503.9062342810786
 30
0.0
 11
156.5668099471721
 21
502.239567614412
 31
0.0
 12
151.5668099471721
 22
503.0729009477453
 32
0.0
 13
151.5668099471721
 23
503.0729009477453
 33
0.0
  0
SOLID
  5
B8C
  8
DIMENSIONS
 62
     0
 10
456.5668099471721
 20
502.239567614412
 30
0.0
 11
456.5668099471721
 21
503.9062342810786
 31
0.0
 12
461.5668099471721
 22
503.0729009477453
 32
0.0
 13
461.5668099471721
 23
503.0729009477453
 33
0.0
  0
TEXT
  5
B8D
  8
DIMENSIONS
  6
CONTINUOUS
 62
     5
 10
289.1868099471721
 20
505.4679009477452
 30
0.0
 40
5.0
  1
310 [12.20]
  0
POINT
  5
B8E
  8
DEFPOINTS
 62
     0
 10
151.5668099471721
 20
474.3400518730165
 30
0.0
  0
POINT
  5
B8F
  8
DEFPOINTS
 62
     0
 10
461.5668099471721
 20
474.3400518730165
 30
0.0
  0
POINT
  5
B90
  8
DEFPOINTS
 62
     0
 10
461.5668099471721
 20
503.0729009477453
 30
0.0
  0
ENDBLK
  5
B87
  8
0
  0
BLOCK
  8
0
  2
*D129
 70
     1
 10
0.0
 20
0.0
 30
0.0
  3
*D129
  1

  0
LINE
  5
B97
  8
DIMENSIONS
  6
BYBLOCK
 62
     0
 10
126.5668099471721
 20
489.8400518730165
 30
0.0
 11
126.5668099471721
 21
520.1535389375928
 31
0.0
  0
LINE
  5
B98
  8
DIMENSIONS
  6
BYBLOCK
 62
     0
 10
486.5668099471722
 20
489.8400518730165
 30
0.0
 11
486.5668099471722
 21
520.1535389375928
 31
0.0
  0
LINE
  5
B99
  8
DIMENSIONS
  6
BYBLOCK
 62
     0
 10
131.5668099471721
 20
519.9735389375928
 30
0.0
 11
481.5668099471722
 21
519.9735389375928
 31
0.0
  0
SOLID
  5
B9A
  8
DIMENSIONS
 62
     0
 10
131.5668099471721
 20
520.8068722709262
 30
0.0
 11
131.5668099471721
 21
519.1402056042594
 31
0.0
 12
126.5668099471721
 22
519.9735389375928
 32
0.0
 13
126.5668099471721
 23
519.9735389375928
 33
0.0
  0
SOLID
  5
B9B
  8
DIMENSIONS
 62
     0
 10
481.5668099471722
 20
519.1402056042594
 30
0.0
 11
481.5668099471722
 21
520.8068722709262
 31
0.0
 12
486.5668099471722
 22
519.9735389375928
 32
0.0
 13
486.5668099471722
 23
519.9735389375928
 33
0.0
  0
TEXT
  5
B9C
  8
DIMENSIONS
  6
CONTINUOUS
 62
     5
 10
289.1868099471722
 20
522.3685389375928
 30
0.0
 40
5.0
  1
360 [14.17]
  0
POINT
  5
B9D
  8
DEFPOINTS
 62
     0
 10
126.5668099471721
 20
488.3400518730165
 30
0.0
  0
POINT
  5
B9E
  8
DEFPOINTS
 62
     0
 10
486.5668099471722
 20
488.3400518730165
 30
0.0
  0
POINT
  5
B9F
  8
DEFPOINTS
 62
     0
 10
486.5668099471722
 20
519.9735389375928
 30
0.0
  0
ENDBLK
  5
B96
  8
0
  0
BLOCK
  8
0
  2
*D130
 70
     1
 10
0.0
 20
0.0
 30
0.0
  3
*D130
  1

  0
LINE
  5
BA6
  8
DIMENSIONS
  6
BYBLOCK
 62
     0
 10
125.0668099471721
 20
488.3400518730165
 30
0.0
 11
95.55201716164282
 21
488.3400518730165
 31
0.0
  0
LINE
  5
BA7
  8
DIMENSIONS
  6
BYBLOCK
 62
     0
 10
150.0668099471721
 20
474.3400518730165
 30
0.0
 11
95.55201716164282
 21
474.3400518730165
 31
0.0
  0
LINE
  5
BA8
  8
DIMENSIONS
  6
BYBLOCK
 62
     0
 10
95.73201716164283
 20
474.3400518730165
 30
0.0
 11
95.73201716164283
 21
440.8046151479924
 31
0.0
  0
LINE
  5
BA9
  8
DIMENSIONS
  6
BYBLOCK
 62
     0
 10
95.73201716164283
 20
483.3400518730165
 30
0.0
 11
95.73201716164283
 21
479.3400518730165
 31
0.0
  0
SOLID
  5
BAA
  8
DIMENSIONS
 62
     0
 10
96.56535049497616
 20
483.3400518730165
 30
0.0
 11
94.8986838283095
 21
483.3400518730165
 31
0.0
 12
95.73201716164283
 22
488.3400518730165
 32
0.0
 13
95.73201716164283
 23
488.3400518730165
 33
0.0
  0
SOLID
  5
BAB
  8
DIMENSIONS
 62
     0
 10
94.8986838283095
 20
479.3400518730165
 30
0.0
 11
96.56535049497616
 21
479.3400518730165
 31
0.0
 12
95.73201716164283
 22
474.3400518730165
 32
0.0
 13
95.73201716164283
 23
474.3400518730165
 33
0.0
  0
TEXT
  5
BAC
  8
DIMENSIONS
  6
CONTINUOUS
 62
     5
 10
93.33701716164279
 20
441.0446151479924
 30
0.0
 40
5.0
  1
14 [0.55]
 50
90.0
  0
POINT
  5
BAD
  8
DEFPOINTS
 62
     0
 10
126.5668099471721
 20
488.3400518730165
 30
0.0
  0
POINT
  5
BAE
  8
DEFPOINTS
 62
     0
 10
151.5668099471721
 20
474.3400518730165
 30
0.0
  0
POINT
  5
CBF
  8
DEFPOINTS
 62
     0
 10
95.73201716164283
 20
474.3400518730165
 30
0.0
  0
ENDBLK
  5
BA5
  8
0
  0
BLOCK
  8
0
  2
*D131
 70
     1
 10
0.0
 20
0.0
 30
0.0
  3
*D131
  1

  0
LINE
  5
BB5
  8
DIMENSIONS
  6
BYBLOCK
 62
     0
 10
150.0668099471721
 20
474.3400518730165
 30
0.0
 11
109.7664125109422
 21
474.3400518730165
 31
0.0
  0
LINE
  5
BB6
  8
DIMENSIONS
  6
BYBLOCK
 62
     0
 10
150.0668099471721
 20
-42.55994812698361
 30
0.0
 11
109.7664125109422
 21
-42.55994812698361
 31
0.0
  0
LINE
  5
BB7
  8
DIMENSIONS
  6
BYBLOCK
 62
     0
 10
109.9464125109422
 20
469.3400518730165
 30
0.0
 11
109.9464125109422
 21
-37.55994812698361
 31
0.0
  0
SOLID
  5
BB8
  8
DIMENSIONS
 62
     0
 10
110.7797458442755
 20
469.3400518730165
 30
0.0
 11
109.1130791776089
 21
469.3400518730165
 31
0.0
 12
109.9464125109422
 22
474.3400518730165
 32
0.0
 13
109.9464125109422
 23
474.3400518730165
 33
0.0
  0
SOLID
  5
BB9
  8
DIMENSIONS
 62
     0
 10
109.1130791776088
 20
-37.55994812698361
 30
0.0
 11
110.7797458442755
 21
-37.55994812698361
 31
0.0
 12
109.9464125109422
 22
-42.55994812698361
 32
0.0
 13
109.9464125109422
 23
-42.55994812698361
 33
0.0
  0
TEXT
  5
BBA
  8
DIMENSIONS
  6
CONTINUOUS
 62
     5
 10
107.5514125109422
 20
195.6025518730164
 30
0.0
 40
5.0
  1
516.9 [20.35]
 50
90.0
  0
POINT
  5
BBB
  8
DEFPOINTS
 62
     0
 10
151.5668099471721
 20
474.3400518730165
 30
0.0
  0
POINT
  5
BBC
  8
DEFPOINTS
 62
     0
 10
151.5668099471721
 20
-42.55994812698361
 30
0.0
  0
POINT
  5
BBD
  8
DEFPOINTS
 62
     0
 10
109.9464125109422
 20
-42.55994812698361
 30
0.0
  0
ENDBLK
  5
BB4
  8
0
  0
BLOCK
  8
0
  2
*D132
 70
     1
 10
0.0
 20
0.0
 30
0.0
  3
*D132
  1

  0
LINE
  5
BC4
  8
DIMENSIONS
  6
BYBLOCK
 62
     0
 10
150.0668099471721
 20
-42.55994812698361
 30
0.0
 11
95.44267804917797
 21
-42.55994812698361
 31
0.0
  0
LINE
  5
BC5
  8
DIMENSIONS
  6
BYBLOCK
 62
     0
 10
125.0668099471721
 20
-56.65994812698358
 30
0.0
 11
95.44267804917797
 21
-56.65994812698358
 31
0.0
  0
LINE
  5
BC6
  8
DIMENSIONS
  6
BYBLOCK
 62
     0
 10
95.62267804917798
 20
-42.55994812698361
 30
0.0
 11
95.62267804917798
 21
-3.794948126983627
 31
0.0
  0
LINE
  5
BC7
  8
DIMENSIONS
  6
BYBLOCK
 62
     0
 10
95.62267804917798
 20
-47.55994812698361
 30
0.0
 11
95.62267804917798
 21
-51.65994812698358
 31
0.0
  0
SOLID
  5
BC8
  8
DIMENSIONS
 62
     0
 10
96.4560113825113
 20
-47.55994812698361
 30
0.0
 11
94.78934471584465
 21
-47.55994812698361
 31
0.0
 12
95.62267804917798
 22
-42.55994812698361
 32
0.0
 13
95.62267804917798
 23
-42.55994812698361
 33
0.0
  0
SOLID
  5
BC9
  8
DIMENSIONS
 62
     0
 10
94.78934471584465
 20
-51.65994812698358
 30
0.0
 11
96.4560113825113
 21
-51.65994812698358
 31
0.0
 12
95.62267804917798
 22
-56.65994812698358
 32
0.0
 13
95.62267804917798
 23
-56.65994812698358
 33
0.0
  0
TEXT
  5
BCA
  8
DIMENSIONS
  6
CONTINUOUS
 62
     5
 10
93.22767804917797
 20
-37.31994812698362
 30
0.0
 40
5.0
  1
14.1 [0.56]
 50
90.0
  0
POINT
  5
BCB
  8
DEFPOINTS
 62
     0
 10
151.5668099471721
 20
-42.55994812698361
 30
0.0
  0
POINT
  5
BCC
  8
DEFPOINTS
 62
     0
 10
126.5668099471721
 20
-56.65994812698358
 30
0.0
  0
POINT
  5
CC0
  8
DEFPOINTS
 62
     0
 10
95.62267804917798
 20
-56.65994812698358
 30
0.0
  0
ENDBLK
  5
BC3
  8
0
  0
BLOCK
  8
0
  2
*D133
 70
     1
 10
0.0
 20
0.0
 30
0.0
  3
*D133
  1

  0
LINE
  5
BD3
  8
DIMENSIONS
  6
BYBLOCK
 62
     0
 10
125.0668099471721
 20
488.3400518730165
 30
0.0
 11
80.27689620004418
 21
488.3400518730165
 31
0.0
  0
LINE
  5
BD4
  8
DIMENSIONS
  6
BYBLOCK
 62
     0
 10
125.0668099471721
 20
-56.65994812698358
 30
0.0
 11
80.27689620004415
 21
-56.65994812698358
 31
0.0
  0
LINE
  5
BD5
  8
DIMENSIONS
  6
BYBLOCK
 62
     0
 10
80.45689620004418
 20
483.3400518730165
 30
0.0
 11
80.45689620004416
 21
-51.65994812698358
 31
0.0
  0
SOLID
  5
BD6
  8
DIMENSIONS
 62
     0
 10
81.29022953337751
 20
483.3400518730165
 30
0.0
 11
79.62356286671086
 21
483.3400518730165
 31
0.0
 12
80.45689620004418
 22
488.3400518730165
 32
0.0
 13
80.45689620004418
 23
488.3400518730165
 33
0.0
  0
SOLID
  5
BD7
  8
DIMENSIONS
 62
     0
 10
79.62356286671083
 20
-51.65994812698358
 30
0.0
 11
81.29022953337748
 21
-51.65994812698358
 31
0.0
 12
80.45689620004416
 22
-56.65994812698358
 32
0.0
 13
80.45689620004416
 23
-56.65994812698358
 33
0.0
  0
TEXT
  5
BD8
  8
DIMENSIONS
  6
CONTINUOUS
 62
     5
 10
78.06189620004423
 20
198.4625518730165
 30
0.0
 40
5.0
  1
545 [21.46]
 50
90.0
  0
POINT
  5
BD9
  8
DEFPOINTS
 62
     0
 10
126.5668099471721
 20
488.3400518730165
 30
0.0
  0
POINT
  5
BDA
  8
DEFPOINTS
 62
     0
 10
126.5668099471721
 20
-56.65994812698358
 30
0.0
  0
POINT
  5
BDB
  8
DEFPOINTS
 62
     0
 10
80.45689620004416
 20
-56.65994812698358
 30
0.0
  0
ENDBLK
  5
BD2
  8
0
  0
BLOCK
  8
0
  2
*D134
 70
     1
 10
0.0
 20
0.0
 30
0.0
  3
*D134
  1

  0
LINE
  5
BE2
  8
DIMENSIONS
  6
BYBLOCK
 62
     0
 10
488.0668099471722
 20
488.3400518730165
 30
0.0
 11
517.9109653109974
 21
488.3400518730165
 31
0.0
  0
LINE
  5
BE3
  8
DIMENSIONS
  6
BYBLOCK
 62
     0
 10
345.566809947172
 20
470.8400518730165
 30
0.0
 11
517.9109653109974
 21
470.8400518730165
 31
0.0
  0
LINE
  5
BE4
  8
DIMENSIONS
  6
BYBLOCK
 62
     0
 10
517.7309653109975
 20
470.8400518730165
 30
0.0
 11
517.7309653109975
 21
431.0563328412957
 31
0.0
  0
LINE
  5
BE5
  8
DIMENSIONS
  6
BYBLOCK
 62
     0
 10
517.7309653109975
 20
483.3400518730165
 30
0.0
 11
517.7309653109975
 21
475.8400518730165
 31
0.0
  0
SOLID
  5
BE6
  8
DIMENSIONS
 62
     0
 10
518.5642986443308
 20
483.3400518730165
 30
0.0
 11
516.8976319776641
 21
483.3400518730165
 31
0.0
 12
517.7309653109975
 22
488.3400518730165
 32
0.0
 13
517.7309653109975
 23
488.3400518730165
 33
0.0
  0
SOLID
  5
BE7
  8
DIMENSIONS
 62
     0
 10
516.8976319776641
 20
475.8400518730165
 30
0.0
 11
518.5642986443308
 21
475.8400518730165
 31
0.0
 12
517.7309653109975
 22
470.8400518730165
 32
0.0
 13
517.7309653109975
 23
470.8400518730165
 33
0.0
  0
TEXT
  5
BE8
  8
DIMENSIONS
  6
CONTINUOUS
 62
     5
 10
515.3359653109974
 20
431.2963328412957
 30
0.0
 40
5.0
  1
17.5 [0.69]
 50
90.0
  0
POINT
  5
BE9
  8
DEFPOINTS
 62
     0
 10
486.5668099471722
 20
488.3400518730165
 30
0.0
  0
POINT
  5
BEA
  8
DEFPOINTS
 62
     0
 10
344.066809947172
 20
470.8400518730165
 30
0.0
  0
POINT
  5
CC1
  8
DEFPOINTS
 62
     0
 10
517.7309653109975
 20
470.8400518730165
 30
0.0
  0
ENDBLK
  5
BE1
  8
0
  0
BLOCK
  8
0
  2
*D135
 70
     1
 10
0.0
 20
0.0
 30
0.0
  3
*D135
  1

  0
LINE
  5
BF1
  8
DIMENSIONS
  6
BYBLOCK
 62
     0
 10
345.566809947172
 20
470.8400518730165
 30
0.0
 11
502.1800146620768
 21
470.8400518730165
 31
0.0
  0
LINE
  5
BF2
  8
DIMENSIONS
  6
BYBLOCK
 62
     0
 10
345.5668099471721
 20
290.8400518730165
 30
0.0
 11
502.1800146620768
 21
290.8400518730165
 31
0.0
  0
LINE
  5
BF3
  8
DIMENSIONS
  6
BYBLOCK
 62
     0
 10
502.0000146620768
 20
465.8400518730165
 30
0.0
 11
502.0000146620768
 21
295.8400518730165
 31
0.0
  0
SOLID
  5
BF4
  8
DIMENSIONS
 62
     0
 10
502.8333479954101
 20
465.8400518730165
 30
0.0
 11
501.1666813287435
 21
465.8400518730165
 31
0.0
 12
502.0000146620768
 22
470.8400518730165
 32
0.0
 13
502.0000146620768
 23
470.8400518730165
 33
0.0
  0
SOLID
  5
BF5
  8
DIMENSIONS
 62
     0
 10
501.1666813287435
 20
295.8400518730165
 30
0.0
 11
502.8333479954101
 21
295.8400518730165
 31
0.0
 12
502.0000146620768
 22
290.8400518730165
 32
0.0
 13
502.0000146620768
 23
290.8400518730165
 33
0.0
  0
TEXT
  5
BF6
  8
DIMENSIONS
  6
CONTINUOUS
 62
     5
 10
499.6050146620769
 20
365.1675518730165
 30
0.0
 40
5.0
  1
180 [7.09]
 50
90.0
  0
POINT
  5
BF7
  8
DEFPOINTS
 62
     0
 10
344.066809947172
 20
470.8400518730165
 30
0.0
  0
POINT
  5
BF8
  8
DEFPOINTS
 62
     0
 10
344.0668099471721
 20
290.8400518730165
 30
0.0
  0
POINT
  5
BF9
  8
DEFPOINTS
 62
     0
 10
502.0000146620768
 20
290.8400518730165
 30
0.0
  0
ENDBLK
  5
BF0
  8
0
  0
BLOCK
  8
0
  2
*D136
 70
     1
 10
0.0
 20
0.0
 30
0.0
  3
*D136
  1

  0
LINE
  5
C00
  8
DIMENSIONS
  6
BYBLOCK
 62
     0
 10
345.5668099471721
 20
290.8400518730165
 30
0.0
 11
502.1800146620768
 21
290.8400518730165
 31
0.0
  0
LINE
  5
C01
  8
DIMENSIONS
  6
BYBLOCK
 62
     0
 10
477.0668099471721
 20
164.3400518730165
 30
0.0
 11
502.1800146620768
 21
164.3400518730165
 31
0.0
  0
LINE
  5
C02
  8
DIMENSIONS
  6
BYBLOCK
 62
     0
 10
502.0000146620768
 20
285.8400518730165
 30
0.0
 11
502.0000146620768
 21
169.3400518730165
 31
0.0
  0
SOLID
  5
C03
  8
DIMENSIONS
 62
     0
 10
502.8333479954101
 20
285.8400518730165
 30
0.0
 11
501.1666813287435
 21
285.8400518730165
 31
0.0
 12
502.0000146620768
 22
290.8400518730165
 32
0.0
 13
502.0000146620768
 23
290.8400518730165
 33
0.0
  0
SOLID
  5
C04
  8
DIMENSIONS
 62
     0
 10
501.1666813287435
 20
169.3400518730165
 30
0.0
 11
502.8333479954101
 21
169.3400518730165
 31
0.0
 12
502.0000146620768
 22
164.3400518730165
 32
0.0
 13
502.0000146620768
 23
164.3400518730165
 33
0.0
  0
TEXT
  5
C05
  8
DIMENSIONS
  6
CONTINUOUS
 62
     5
 10
499.6050146620769
 20
209.0075518730165
 30
0.0
 40
5.0
  1
126.5 [4.98]
 50
90.0
  0
POINT
  5
C06
  8
DEFPOINTS
 62
     0
 10
344.0668099471721
 20
290.8400518730165
 30
0.0
  0
POINT
  5
C07
  8
DEFPOINTS
 62
     0
 10
475.5668099471721
 20
164.3400518730165
 30
0.0
  0
POINT
  5
C08
  8
DEFPOINTS
 62
     0
 10
502.0000146620768
 20
164.3400518730165
 30
0.0
  0
ENDBLK
  5
BFF
  8
0
  0
BLOCK
  8
0
  2
*D137
 70
     1
 10
0.0
 20
0.0
 30
0.0
  3
*D137
  1

  0
LINE
  5
C0F
  8
DIMENSIONS
  6
BYBLOCK
 62
     0
 10
477.0668099471721
 20
164.3400518730165
 30
0.0
 11
502.1800146620768
 21
164.3400518730165
 31
0.0
  0
LINE
  5
C10
  8
DIMENSIONS
  6
BYBLOCK
 62
     0
 10
477.0668099471721
 20
-20.65994812698352
 30
0.0
 11
502.1800146620768
 21
-20.65994812698352
 31
0.0
  0
LINE
  5
C11
  8
DIMENSIONS
  6
BYBLOCK
 62
     0
 10
502.0000146620768
 20
159.3400518730165
 30
0.0
 11
502.0000146620768
 21
-15.65994812698352
 31
0.0
  0
SOLID
  5
C12
  8
DIMENSIONS
 62
     0
 10
502.8333479954101
 20
159.3400518730165
 30
0.0
 11
501.1666813287435
 21
159.3400518730165
 31
0.0
 12
502.0000146620768
 22
164.3400518730165
 32
0.0
 13
502.0000146620768
 23
164.3400518730165
 33
0.0
  0
SOLID
  5
C13
  8
DIMENSIONS
 62
     0
 10
501.1666813287435
 20
-15.65994812698352
 30
0.0
 11
502.8333479954101
 21
-15.65994812698352
 31
0.0
 12
502.0000146620768
 22
-20.65994812698352
 32
0.0
 13
502.0000146620768
 23
-20.65994812698352
 33
0.0
  0
TEXT
  5
C14
  8
DIMENSIONS
  6
CONTINUOUS
 62
     5
 10
499.6050146620769
 20
56.16755187301646
 30
0.0
 40
5.0
  1
185 [7.28]
 50
90.0
  0
POINT
  5
C15
  8
DEFPOINTS
 62
     0
 10
475.5668099471721
 20
164.3400518730165
 30
0.0
  0
POINT
  5
C16
  8
DEFPOINTS
 62
     0
 10
475.5668099471721
 20
-20.65994812698352
 30
0.0
  0
POINT
  5
C17
  8
DEFPOINTS
 62
     0
 10
502.0000146620768
 20
-20.65994812698352
 30
0.0
  0
ENDBLK
  5
C0E
  8
0
  0
BLOCK
  8
0
  2
*D138
 70
     1
 10
0.0
 20
0.0
 30
0.0
  3
*D138
  1

  0
LINE
  5
C1E
  8
DIMENSIONS
  6
BYBLOCK
 62
     0
 10
477.0668099471721
 20
-20.65994812698352
 30
0.0
 11
517.1168093619741
 21
-20.65994812698353
 31
0.0
  0
LINE
  5
C1F
  8
DIMENSIONS
  6
BYBLOCK
 62
     0
 10
452.0668099471721
 20
-45.65994812698352
 30
0.0
 11
517.1168093619741
 21
-45.65994812698354
 31
0.0
  0
LINE
  5
C20
  8
DIMENSIONS
  6
BYBLOCK
 62
     0
 10
516.9368093619742
 20
-20.65994812698353
 30
0.0
 11
516.9368093619742
 21
12.84005187301647
 31
0.0
  0
LINE
  5
C21
  8
DIMENSIONS
  6
BYBLOCK
 62
     0
 10
516.9368093619742
 20
-25.65994812698353
 30
0.0
 11
516.9368093619742
 21
-40.65994812698354
 31
0.0
  0
SOLID
  5
C22
  8
DIMENSIONS
 62
     0
 10
517.7701426953075
 20
-25.65994812698353
 30
0.0
 11
516.1034760286408
 21
-25.65994812698353
 31
0.0
 12
516.9368093619742
 22
-20.65994812698353
 32
0.0
 13
516.9368093619742
 23
-20.65994812698353
 33
0.0
  0
SOLID
  5
C23
  8
DIMENSIONS
 62
     0
 10
516.1034760286408
 20
-40.65994812698354
 30
0.0
 11
517.7701426953075
 21
-40.65994812698354
 31
0.0
 12
516.9368093619742
 22
-45.65994812698354
 32
0.0
 13
516.9368093619742
 23
-45.65994812698354
 33
0.0
  0
TEXT
  5
C24
  8
DIMENSIONS
  6
CONTINUOUS
 62
     5
 10
514.5418093619742
 20
-14.86494812698351
 30
0.0
 40
5.0
  1
25 [0.98]
 50
90.0
  0
POINT
  5
C25
  8
DEFPOINTS
 62
     0
 10
475.5668099471721
 20
-20.65994812698352
 30
0.0
  0
POINT
  5
C26
  8
DEFPOINTS
 62
     0
 10
450.5668099471721
 20
-45.65994812698352
 30
0.0
  0
POINT
  5
CC5
  8
DEFPOINTS
 62
     0
 10
516.9368093619742
 20
-45.65994812698353
 30
0.0
  0
ENDBLK
  5
C1D
  8
0
  0
BLOCK
  8
0
  2
*D139
 70
     1
 10
0.0
 20
0.0
 30
0.0
  3
*D139
  1

  0
LINE
  5
C2D
  8
DIMENSIONS
  6
BYBLOCK
 62
     0
 10
452.0668099471721
 20
-45.65994812698352
 30
0.0
 11
532.8517176571078
 21
-45.65994812698353
 31
0.0
  0
LINE
  5
C2E
  8
DIMENSIONS
  6
BYBLOCK
 62
     0
 10
488.0668099471722
 20
-56.65994812698358
 30
0.0
 11
532.8517176571078
 21
-56.65994812698359
 31
0.0
  0
LINE
  5
C2F
  8
DIMENSIONS
  6
BYBLOCK
 62
     0
 10
532.6717176571078
 20
-45.65994812698353
 30
0.0
 11
532.6717176571078
 21
-7.714948126983593
 31
0.0
  0
LINE
  5
C30
  8
DIMENSIONS
  6
BYBLOCK
 62
     0
 10
532.6717176571078
 20
-40.65994812698353
 30
0.0
 11
532.6717176571078
 21
-35.65994812698353
 31
0.0
  0
LINE
  5
C31
  8
DIMENSIONS
  6
BYBLOCK
 62
     0
 10
532.6717176571078
 20
-61.65994812698359
 30
0.0
 11
532.6717176571078
 21
-66.65994812698358
 31
0.0
  0
SOLID
  5
C32
  8
DIMENSIONS
 62
     0
 10
531.8383843237744
 20
-40.65994812698353
 30
0.0
 11
533.5050509904412
 21
-40.65994812698353
 31
0.0
 12
532.6717176571078
 22
-45.65994812698353
 32
0.0
 13
532.6717176571078
 23
-45.65994812698353
 33
0.0
  0
SOLID
  5
C33
  8
DIMENSIONS
 62
     0
 10
533.5050509904412
 20
-61.65994812698359
 30
0.0
 11
531.8383843237744
 21
-61.65994812698359
 31
0.0
 12
532.6717176571078
 22
-56.65994812698359
 32
0.0
 13
532.6717176571078
 23
-56.65994812698359
 33
0.0
  0
TEXT
  5
C34
  8
DIMENSIONS
  6
CONTINUOUS
 62
     5
 10
530.2767176571078
 20
-35.41994812698351
 30
0.0
 40
5.0
  1
11 [0.43]
 50
90.0
  0
POINT
  5
C35
  8
DEFPOINTS
 62
     0
 10
450.5668099471721
 20
-45.65994812698352
 30
0.0
  0
POINT
  5
C36
  8
DEFPOINTS
 62
     0
 10
486.5668099471722
 20
-56.65994812698358
 30
0.0
  0
POINT
  5
CC4
  8
DEFPOINTS
 62
     0
 10
532.6717176571078
 20
-56.65994812698358
 30
0.0
  0
ENDBLK
  5
C2C
  8
0
  0
BLOCK
  8
0
  2
*D140
 70
     1
 10
0.0
 20
0.0
 30
0.0
  3
*D140
  1

  0
LINE
  5
C3D
  8
DIMENSIONS
  6
BYBLOCK
 62
     0
 10
144.0668099471721
 20
289.3400518730165
 30
0.0
 11
144.0668099471721
 21
258.9319782320788
 31
0.0
  0
LINE
  5
C3E
  8
DIMENSIONS
  6
BYBLOCK
 62
     0
 10
126.5668099471721
 20
289.3400518730165
 30
0.0
 11
126.5668099471721
 21
258.9319782320788
 31
0.0
  0
LINE
  5
C3F
  8
DIMENSIONS
  6
BYBLOCK
 62
     0
 10
144.0668099471721
 20
259.1119782320789
 30
0.0
 11
182.8318099471721
 21
259.1119782320789
 31
0.0
  0
LINE
  5
C40
  8
DIMENSIONS
  6
BYBLOCK
 62
     0
 10
139.0668099471721
 20
259.1119782320789
 30
0.0
 11
131.5668099471721
 21
259.1119782320789
 31
0.0
  0
SOLID
  5
C41
  8
DIMENSIONS
 62
     0
 10
139.0668099471721
 20
258.2786448987455
 30
0.0
 11
139.0668099471721
 21
259.9453115654122
 31
0.0
 12
144.0668099471721
 22
259.1119782320789
 32
0.0
 13
144.0668099471721
 23
259.1119782320789
 33
0.0
  0
SOLID
  5
C42
  8
DIMENSIONS
 62
     0
 10
131.5668099471721
 20
259.9453115654122
 30
0.0
 11
131.5668099471721
 21
258.2786448987455
 31
0.0
 12
126.5668099471721
 22
259.1119782320789
 32
0.0
 13
126.5668099471721
 23
259.1119782320789
 33
0.0
  0
TEXT
  5
C43
  8
DIMENSIONS
  6
CONTINUOUS
 62
     5
 10
149.3068099471721
 20
261.5069782320788
 30
0.0
 40
5.0
  1
17.5 [0.69]
  0
POINT
  5
C44
  8
DEFPOINTS
 62
     0
 10
144.0668099471721
 20
290.8400518730165
 30
0.0
  0
POINT
  5
C45
  8
DEFPOINTS
 62
     0
 10
126.5668099471721
 20
290.8400518730165
 30
0.0
  0
POINT
  5
CC2
  8
DEFPOINTS
 62
     0
 10
126.5668099471721
 20
259.1119782320789
 30
0.0
  0
ENDBLK
  5
C3C
  8
0
  0
BLOCK
  8
0
  2
*D141
 70
     1
 10
0.0
 20
0.0
 30
0.0
  3
*D141
  1

  0
LINE
  5
C4C
  8
DIMENSIONS
  6
BYBLOCK
 62
     0
 10
126.5668099471721
 20
289.3400518730165
 30
0.0
 11
126.5668099471721
 21
271.020512954215
 31
0.0
  0
LINE
  5
C4D
  8
DIMENSIONS
  6
BYBLOCK
 62
     0
 10
344.0668099471721
 20
289.3400518730165
 30
0.0
 11
344.0668099471721
 21
271.020512954215
 31
0.0
  0
LINE
  5
C4E
  8
DIMENSIONS
  6
BYBLOCK
 62
     0
 10
131.5668099471721
 20
271.200512954215
 30
0.0
 11
339.0668099471721
 21
271.200512954215
 31
0.0
  0
SOLID
  5
C4F
  8
DIMENSIONS
 62
     0
 10
131.5668099471721
 20
272.0338462875483
 30
0.0
 11
131.5668099471721
 21
270.3671796208817
 31
0.0
 12
126.5668099471721
 22
271.200512954215
 32
0.0
 13
126.5668099471721
 23
271.200512954215
 33
0.0
  0
SOLID
  5
C50
  8
DIMENSIONS
 62
     0
 10
339.0668099471721
 20
270.3671796208817
 30
0.0
 11
339.0668099471721
 21
272.0338462875483
 31
0.0
 12
344.0668099471721
 22
271.200512954215
 32
0.0
 13
344.0668099471721
 23
271.200512954215
 33
0.0
  0
TEXT
  5
C51
  8
DIMENSIONS
  6
CONTINUOUS
 62
     5
 10
217.0118099471721
 20
273.595512954215
 30
0.0
 40
5.0
  1
217.5 [8.56]
  0
POINT
  5
C52
  8
DEFPOINTS
 62
     0
 10
126.5668099471721
 20
290.8400518730165
 30
0.0
  0
POINT
  5
C53
  8
DEFPOINTS
 62
     0
 10
344.0668099471721
 20
290.8400518730165
 30
0.0
  0
POINT
  5
C54
  8
DEFPOINTS
 62
     0
 10
344.0668099471721
 20
271.200512954215
 30
0.0
  0
ENDBLK
  5
C4B
  8
0
  0
BLOCK
  8
0
  2
*D142
 70
     1
 10
0.0
 20
0.0
 30
0.0
  3
*D142
  1

  0
LINE
  5
C5B
  8
DIMENSIONS
  6
BYBLOCK
 62
     0
 10
344.0668099471721
 20
289.3400518730165
 30
0.0
 11
344.0668099471721
 21
273.9560150525477
 31
0.0
  0
LINE
  5
C5C
  8
DIMENSIONS
  6
BYBLOCK
 62
     0
 10
486.5668099471722
 20
289.3400518730165
 30
0.0
 11
486.5668099471722
 21
273.9560150525477
 31
0.0
  0
LINE
  5
C5D
  8
DIMENSIONS
  6
BYBLOCK
 62
     0
 10
349.0668099471721
 20
274.1360150525477
 30
0.0
 11
481.5668099471722
 21
274.1360150525477
 31
0.0
  0
SOLID
  5
C5E
  8
DIMENSIONS
 62
     0
 10
349.0668099471721
 20
274.969348385881
 30
0.0
 11
349.0668099471721
 21
273.3026817192144
 31
0.0
 12
344.0668099471721
 22
274.1360150525477
 32
0.0
 13
344.0668099471721
 23
274.1360150525477
 33
0.0
  0
SOLID
  5
C5F
  8
DIMENSIONS
 62
     0
 10
481.5668099471722
 20
273.3026817192144
 30
0.0
 11
481.5668099471722
 21
274.969348385881
 31
0.0
 12
486.5668099471722
 22
274.1360150525477
 32
0.0
 13
486.5668099471722
 23
274.1360150525477
 33
0.0
  0
TEXT
  5
C60
  8
DIMENSIONS
  6
CONTINUOUS
 62
     5
 10
396.7343099471722
 20
276.5310150525477
 30
0.0
 40
5.0
  1
142.5 [5.61]
  0
POINT
  5
C61
  8
DEFPOINTS
 62
     0
 10
344.0668099471721
 20
290.8400518730165
 30
0.0
  0
POINT
  5
C62
  8
DEFPOINTS
 62
     0
 10
486.5668099471722
 20
290.8400518730165
 30
0.0
  0
POINT
  5
C63
  8
DEFPOINTS
 62
     0
 10
486.5668099471722
 20
274.1360150525477
 30
0.0
  0
ENDBLK
  5
C5A
  8
0
  0
BLOCK
  8
0
  2
*D143
 70
     1
 10
0.0
 20
0.0
 30
0.0
  3
*D143
  1

  0
LINE
  5
C6A
  8
DIMENSIONS
  6
BYBLOCK
 62
     0
 10
486.5668099471722
 20
165.8400518730165
 30
0.0
 11
486.5668099471722
 21
188.3056788969089
 31
0.0
  0
LINE
  5
C6B
  8
DIMENSIONS
  6
BYBLOCK
 62
     0
 10
475.5668099471721
 20
165.8400518730165
 30
0.0
 11
475.5668099471721
 21
188.3056788969089
 31
0.0
  0
LINE
  5
C6C
  8
DIMENSIONS
  6
BYBLOCK
 62
     0
 10
475.5668099471721
 20
188.1256788969089
 30
0.0
 11
436.9102908933327
 21
188.1256788969089
 31
0.0
  0
LINE
  5
C6D
  8
DIMENSIONS
  6
BYBLOCK
 62
     0
 10
491.5668099471722
 20
188.1256788969089
 30
0.0
 11
496.5668099471722
 21
188.1256788969089
 31
0.0
  0
LINE
  5
C6E
  8
DIMENSIONS
  6
BYBLOCK
 62
     0
 10
470.5668099471721
 20
188.1256788969089
 30
0.0
 11
465.5668099471721
 21
188.1256788969089
 31
0.0
  0
SOLID
  5
C6F
  8
DIMENSIONS
 62
     0
 10
491.5668099471722
 20
188.9590122302423
 30
0.0
 11
491.5668099471722
 21
187.2923455635756
 31
0.0
 12
486.5668099471722
 22
188.1256788969089
 32
0.0
 13
486.5668099471722
 23
188.1256788969089
 33
0.0
  0
SOLID
  5
C70
  8
DIMENSIONS
 62
     0
 10
470.5668099471721
 20
187.2923455635756
 30
0.0
 11
470.5668099471721
 21
188.9590122302423
 31
0.0
 12
475.5668099471721
 22
188.1256788969089
 32
0.0
 13
475.5668099471721
 23
188.1256788969089
 33
0.0
  0
TEXT
  5
C71
  8
DIMENSIONS
  6
CONTINUOUS
 62
     5
 10
437.1502908933327
 20
190.5206788969089
 30
0.0
 40
5.0
  1
11 [0.43]
  0
POINT
  5
C72
  8
DEFPOINTS
 62
     0
 10
486.5668099471722
 20
164.3400518730165
 30
0.0
  0
POINT
  5
C73
  8
DEFPOINTS
 62
     0
 10
475.5668099471721
 20
164.3400518730165
 30
0.0
  0
POINT
  5
CC3
  8
DEFPOINTS
 62
     0
 10
475.5668099471721
 20
188.1256788969089
 30
0.0
  0
ENDBLK
  5
C69
  8
0
  0
BLOCK
  8
0
  2
*D144
 70
     1
 10
0.0
 20
0.0
 30
0.0
  3
*D144
  1

  0
LINE
  5
C7A
  8
DIMENSIONS
  6
BYBLOCK
 62
     0
 10
486.5668099471722
 20
165.8400518730165
 30
0.0
 11
486.5668099471722
 21
182.4920089229822
 31
0.0
  0
LINE
  5
C7B
  8
DIMENSIONS
  6
BYBLOCK
 62
     0
 10
375.5668099471721
 20
165.8400518730165
 30
0.0
 11
375.5668099471721
 21
182.4920089229822
 31
0.0
  0
LINE
  5
C7C
  8
DIMENSIONS
  6
BYBLOCK
 62
     0
 10
481.5668099471722
 20
182.3120089229822
 30
0.0
 11
380.5668099471721
 21
182.3120089229822
 31
0.0
  0
SOLID
  5
C7D
  8
DIMENSIONS
 62
     0
 10
481.5668099471722
 20
181.4786755896488
 30
0.0
 11
481.5668099471722
 21
183.1453422563155
 31
0.0
 12
486.5668099471722
 22
182.3120089229822
 32
0.0
 13
486.5668099471722
 23
182.3120089229822
 33
0.0
  0
SOLID
  5
C7E
  8
DIMENSIONS
 62
     0
 10
380.5668099471721
 20
183.1453422563155
 30
0.0
 11
380.5668099471721
 21
181.4786755896488
 31
0.0
 12
375.5668099471721
 22
182.3120089229822
 32
0.0
 13
375.5668099471721
 23
182.3120089229822
 33
0.0
  0
TEXT
  5
C7F
  8
DIMENSIONS
  6
CONTINUOUS
 62
     5
 10
415.3943099471721
 20
184.7070089229821
 30
0.0
 40
5.0
  1
111 [4.37]
  0
POINT
  5
C80
  8
DEFPOINTS
 62
     0
 10
486.5668099471722
 20
164.3400518730165
 30
0.0
  0
POINT
  5
C81
  8
DEFPOINTS
 62
     0
 10
375.5668099471721
 20
164.3400518730165
 30
0.0
  0
POINT
  5
C82
  8
DEFPOINTS
 62
     0
 10
375.5668099471721
 20
182.3120089229822
 30
0.0
  0
ENDBLK
  5
C79
  8
0
  0
BLOCK
  8
0
  2
*D145
 70
     1
 10
0.0
 20
0.0
 30
0.0
  3
*D145
  1

  0
LINE
  5
C89
  8
DIMENSIONS
  6
BYBLOCK
 62
     0
 10
486.5668099471722
 20
165.8400518730165
 30
0.0
 11
486.5668099471722
 21
181.4920089229822
 31
0.0
  0
LINE
  5
C8A
  8
DIMENSIONS
  6
BYBLOCK
 62
     0
 10
126.5668099471721
 20
214.3400518730165
 30
0.0
 11
126.5668099471721
 21
181.1320089229822
 31
0.0
  0
LINE
  5
C8B
  8
DIMENSIONS
  6
BYBLOCK
 62
     0
 10
481.5668099471722
 20
181.3120089229822
 30
0.0
 11
131.5668099471721
 21
181.3120089229822
 31
0.0
  0
SOLID
  5
C8C
  8
DIMENSIONS
 62
     0
 10
481.5668099471722
 20
180.4786755896488
 30
0.0
 11
481.5668099471722
 21
182.1453422563155
 31
0.0
 12
486.5668099471722
 22
181.3120089229822
 32
0.0
 13
486.5668099471722
 23
181.3120089229822
 33
0.0
  0
SOLID
  5
C8D
  8
DIMENSIONS
 62
     0
 10
131.5668099471721
 20
182.1453422563155
 30
0.0
 11
131.5668099471721
 21
180.4786755896488
 31
0.0
 12
126.5668099471721
 22
181.3120089229822
 32
0.0
 13
126.5668099471721
 23
181.3120089229822
 33
0.0
  0
TEXT
  5
C8E
  8
DIMENSIONS
  6
CONTINUOUS
 62
     5
 10
289.1868099471722
 20
183.7070089229821
 30
0.0
 40
5.0
  1
360 [14.17]
  0
POINT
  5
C8F
  8
DEFPOINTS
 62
     0
 10
486.5668099471722
 20
164.3400518730165
 30
0.0
  0
POINT
  5
C90
  8
DEFPOINTS
 62
     0
 10
126.5668099471721
 20
215.8400518730165
 30
0.0
  0
POINT
  5
C91
  8
DEFPOINTS
 62
     0
 10
126.5668099471721
 20
181.3120089229822
 30
0.0
  0
ENDBLK
  5
C88
  8
0
  0
BLOCK
  8
0
  2
*D146
 70
     1
 10
0.0
 20
0.0
 30
0.0
  3
*D146
  1

  0
LINE
  5
C98
  8
DIMENSIONS
  6
BYBLOCK
 62
     0
 10
475.5668099471721
 20
165.8400518730165
 30
0.0
 11
475.5668099471721
 21
176.2641372146351
 31
0.0
  0
LINE
  5
C99
  8
DIMENSIONS
  6
BYBLOCK
 62
     0
 10
375.5668099471721
 20
165.8400518730165
 30
0.0
 11
375.5668099471721
 21
176.2641372146351
 31
0.0
  0
LINE
  5
C9A
  8
DIMENSIONS
  6
BYBLOCK
 62
     0
 10
470.5668099471721
 20
176.0841372146351
 30
0.0
 11
380.5668099471721
 21
176.0841372146351
 31
0.0
  0
SOLID
  5
C9B
  8
DIMENSIONS
 62
     0
 10
470.5668099471721
 20
175.2508038813018
 30
0.0
 11
470.5668099471721
 21
176.9174705479685
 31
0.0
 12
475.5668099471721
 22
176.0841372146351
 32
0.0
 13
475.5668099471721
 23
176.0841372146351
 33
0.0
  0
SOLID
  5
C9C
  8
DIMENSIONS
 62
     0
 10
380.5668099471721
 20
176.9174705479685
 30
0.0
 11
380.5668099471721
 21
175.2508038813018
 31
0.0
 12
375.5668099471721
 22
176.0841372146351
 32
0.0
 13
375.5668099471721
 23
176.0841372146351
 33
0.0
  0
TEXT
  5
C9D
  8
DIMENSIONS
  6
CONTINUOUS
 62
     5
 10
409.8943099471721
 20
178.4791372146351
 30
0.0
 40
5.0
  1
100 [3.94]
  0
POINT
  5
C9E
  8
DEFPOINTS
 62
     0
 10
475.5668099471721
 20
164.3400518730165
 30
0.0
  0
POINT
  5
C9F
  8
DEFPOINTS
 62
     0
 10
375.5668099471721
 20
164.3400518730165
 30
0.0
  0
POINT
  5
CA0
  8
DEFPOINTS
 62
     0
 10
375.5668099471721
 20
176.0841372146351
 30
0.0
  0
ENDBLK
  5
C97
  8
0
  0
BLOCK
  8
0
  2
*D147
 70
     1
 10
0.0
 20
0.0
 30
0.0
  3
*D147
  1

  0
LINE
  5
CA7
  8
DIMENSIONS
  6
BYBLOCK
 62
     0
 10
375.5668099471721
 20
165.8400518730165
 30
0.0
 11
375.5668099471721
 21
176.2641372146351
 31
0.0
  0
LINE
  5
CA8
  8
DIMENSIONS
  6
BYBLOCK
 62
     0
 10
126.5668099471721
 20
214.3400518730165
 30
0.0
 11
126.5668099471721
 21
175.9041372146351
 31
0.0
  0
LINE
  5
CA9
  8
DIMENSIONS
  6
BYBLOCK
 62
     0
 10
370.5668099471721
 20
176.0841372146351
 30
0.0
 11
131.5668099471721
 21
176.0841372146351
 31
0.0
  0
SOLID
  5
CAA
  8
DIMENSIONS
 62
     0
 10
370.5668099471721
 20
175.2508038813018
 30
0.0
 11
370.5668099471721
 21
176.9174705479685
 31
0.0
 12
375.5668099471721
 22
176.0841372146351
 32
0.0
 13
375.5668099471721
 23
176.0841372146351
 33
0.0
  0
SOLID
  5
CAB
  8
DIMENSIONS
 62
     0
 10
131.5668099471721
 20
176.9174705479685
 30
0.0
 11
131.5668099471721
 21
175.2508038813018
 31
0.0
 12
126.5668099471721
 22
176.0841372146351
 32
0.0
 13
126.5668099471721
 23
176.0841372146351
 33
0.0
  0
TEXT
  5
CAC
  8
DIMENSIONS
  6
CONTINUOUS
 62
     5
 10
235.6718099471721
 20
178.4791372146351
 30
0.0
 40
5.0
  1
249 [9.80]
  0
POINT
  5
CAD
  8
DEFPOINTS
 62
     0
 10
375.5668099471721
 20
164.3400518730165
 30
0.0
  0
POINT
  5
CAE
  8
DEFPOINTS
 62
     0
 10
126.5668099471721
 20
215.8400518730165
 30
0.0
  0
POINT
  5
CAF
  8
DEFPOINTS
 62
     0
 10
126.5668099471721
 20
176.0841372146351
 30
0.0
  0
ENDBLK
  5
CA6
  8
0
  0
BLOCK
  8
0
  2
*D148
 70
     1
 10
0.0
 20
0.0
 30
0.0
  3
*D148
  1

  0
LINE
  5
CB6
  8
DIMENSIONS
  6
BYBLOCK
 62
     0
 10
144.0668099471721
 20
289.3400518730165
 30
0.0
 11
144.0668099471721
 21
273.9560150525477
 31
0.0
  0
LINE
  5
CB7
  8
DIMENSIONS
  6
BYBLOCK
 62
     0
 10
344.0668099471721
 20
289.3400518730165
 30
0.0
 11
344.0668099471721
 21
273.9560150525477
 31
0.0
  0
LINE
  5
CB8
  8
DIMENSIONS
  6
BYBLOCK
 62
     0
 10
149.0668099471721
 20
274.1360150525477
 30
0.0
 11
339.0668099471721
 21
274.1360150525477
 31
0.0
  0
SOLID
  5
CB9
  8
DIMENSIONS
 62
     0
 10
149.0668099471721
 20
274.969348385881
 30
0.0
 11
149.0668099471721
 21
273.3026817192144
 31
0.0
 12
144.0668099471721
 22
274.1360150525477
 32
0.0
 13
144.0668099471721
 23
274.1360150525477
 33
0.0
  0
SOLID
  5
CBA
  8
DIMENSIONS
 62
     0
 10
339.0668099471721
 20
273.3026817192144
 30
0.0
 11
339.0668099471721
 21
274.969348385881
 31
0.0
 12
344.0668099471721
 22
274.1360150525477
 32
0.0
 13
344.0668099471721
 23
274.1360150525477
 33
0.0
  0
TEXT
  5
CBB
  8
DIMENSIONS
  6
CONTINUOUS
 62
     5
 10
228.6718099471721
 20
276.5310150525477
 30
0.0
 40
5.0
  1
200 [7.87]
  0
POINT
  5
CBC
  8
DEFPOINTS
 62
     0
 10
144.0668099471721
 20
290.8400518730165
 30
0.0
  0
POINT
  5
CBD
  8
DEFPOINTS
 62
     0
 10
344.0668099471721
 20
290.8400518730165
 30
0.0
  0
POINT
  5
CBE
  8
DEFPOINTS
 62
     0
 10
344.0668099471721
 20
274.1360150525477
 30
0.0
  0
ENDBLK
  5
CB5
  8
0
  0
BLOCK
  8
0
  2
*D149
 70
     1
 10
0.0
 20
0.0
 30
0.0
  3
*D149
  1

  0
LINE
  5
CCC
  8
DIMENSIONS
  6
BYBLOCK
 62
     0
 10
160.066759382405
 20
-42.53062921698279
 30
0.0
 11
200.4715190212975
 21
-42.39126091597299
 31
0.0
  0
TEXT
  5
CCD
  8
DIMENSIONS
  6
CONTINUOUS
 62
     5
 10
165.7781883785556
 20
-40.03591403846442
 30
0.0
 40
5.0
  1
Ø7 [Ø0.28]
 50
0.1976297804714048
  0
SOLID
  5
CCE
  8
DIMENSIONS
 62
     0
 10
160.0638849794638
 20
-41.69730084097956
 30
0.0
 11
160.0696337853463
 21
-43.36395759298602
 31
0.0
 12
155.0667891263857
 22
-42.54787563463033
 32
0.0
 13
155.0667891263857
 23
-42.54787563463033
 33
0.0
  0
LINE
  5
CCF
  8
DIMENSIONS
  6
BYBLOCK
 62
     0
 10
149.0668099471721
 20
-42.55994812698361
 30
0.0
 11
154.0668099471721
 21
-42.55994812698361
 31
0.0
  0
LINE
  5
CD0
  8
DIMENSIONS
  6
BYBLOCK
 62
     0
 10
151.5668099471721
 20
-45.05994812698361
 30
0.0
 11
151.5668099471721
 21
-40.05994812698361
 31
0.0
  0
POINT
  5
CD1
  8
DEFPOINTS
 62
     0
 10
155.0667891263857
 20
-42.54787563463033
 30
0.0
  0
POINT
  5
CD2
  8
DEFPOINTS
 62
     0
 10
148.0668307679585
 20
-42.57202061933689
 30
0.0
  0
ENDBLK
  5
CCB
  8
0
  0
BLOCK
  8
0
  2
*X151
 70
     1
 10
0.0
 20
0.0
 30
0.0
  3
*X151
  1

  0
LINE
  5
D1F
  8
CUTOUT
 10
109.9999999999998
 20
551.9417382415921
 30
0.0
 11
134.0582617584077
 21
576.0
 31
0.0
  0
LINE
  5
D20
  8
CUTOUT
 10
109.9999999999998
 20
507.7475644174328
 30
0.0
 11
178.2524355825669
 21
576.0
 31
0.0
  0
LINE
  5
D21
  8
CUTOUT
 10
109.9999999999998
 20
463.5533905932737
 30
0.0
 11
222.4466094067262
 21
576.0
 31
0.0
  0
LINE
  5
D22
  8
CUTOUT
 10
109.9999999999998
 20
419.3592167691144
 30
0.0
 11
266.6407832308853
 21
576.0
 31
0.0
  0
LINE
  5
D23
  8
CUTOUT
 10
130.8349570550446
 20
395.9999999999999
 30
0.0
 11
309.9999999999998
 21
575.1650429449552
 31
0.0
  0
LINE
  5
D24
  8
CUTOUT
 10
175.0291308792038
 20
395.9999999999999
 30
0.0
 11
309.9999999999998
 21
530.970869120796
 31
0.0
  0
LINE
  5
D25
  8
CUTOUT
 10
219.223304703363
 20
395.9999999999999
 30
0.0
 11
309.9999999999998
 21
486.7766952966368
 31
0.0
  0
LINE
  5
D26
  8
CUTOUT
 10
263.4174785275222
 20
395.9999999999999
 30
0.0
 11
309.9999999999998
 21
442.5825214724775
 31
0.0
  0
LINE
  5
D27
  8
CUTOUT
 10
307.6116523516814
 20
395.9999999999999
 30
0.0
 11
309.9999999999998
 21
398.3883476483184
 31
0.0
  0
LINE
  5
D28
  8
CUTOUT
 10
341.4999999999998
 20
253.1116523516815
 30
0.0
 11
357.8883476483184
 21
269.5
 31
0.0
  0
LINE
  5
D29
  8
CUTOUT
 10
341.4999999999998
 20
208.9174785275222
 30
0.0
 11
402.0825214724775
 21
269.5
 31
0.0
  0
LINE
  5
D2A
  8
CUTOUT
 10
341.4999999999998
 20
164.723304703363
 30
0.0
 11
441.4999999999998
 21
264.723304703363
 31
0.0
  0
LINE
  5
D2B
  8
CUTOUT
 10
341.4999999999999
 20
120.5291308792038
 30
0.0
 11
441.4999999999998
 21
220.5291308792038
 31
0.0
  0
LINE
  5
D2C
  8
CUTOUT
 10
341.4999999999998
 20
76.33495705504458
 30
0.0
 11
441.4999999999998
 21
176.3349570550446
 31
0.0
  0
LINE
  5
D2D
  8
CUTOUT
 10
368.8592167691144
 20
59.49999999999994
 30
0.0
 11
441.4999999999998
 21
132.1407832308853
 31
0.0
  0
LINE
  5
D2E
  8
CUTOUT
 10
413.0533905932737
 20
59.5
 30
0.0
 11
441.4999999999998
 21
87.94660940672611
 31
0.0
  0
ENDBLK
  5
D2F
  8
0
  0
BLOCK
  8
0
  2
*X153
 70
     1
 10
0.0
 20
0.0
 30
0.0
  3
*X153
  1

  0
LINE
  5
D5D
  8
CUTOUT
 10
183.4999999999999
 20
1686.101910021413
 30
0.0
 11
230.8980899785864
 21
1733.5
 31
0.0
  0
LINE
  5
D5E
  8
CUTOUT
 10
183.4999999999999
 20
1610.971814520343
 30
0.0
 11
306.0281854796571
 21
1733.5
 31
0.0
  0
LINE
  5
D5F
  8
CUTOUT
 10
183.4999999999999
 20
1535.841719019272
 30
0.0
 11
381.1582809807277
 21
1733.5
 31
0.0
  0
LINE
  5
D60
  8
CUTOUT
 10
233.2883764817984
 20
1510.5
 30
0.0
 11
406.4999999999999
 21
1683.711623518202
 31
0.0
  0
LINE
  5
D61
  8
CUTOUT
 10
308.4184719828692
 20
1510.5
 30
0.0
 11
406.4999999999999
 21
1608.581528017131
 31
0.0
  0
LINE
  5
D62
  8
CUTOUT
 10
383.5485674839398
 20
1510.5
 30
0.0
 11
406.5
 21
1533.45143251606
 31
0.0
  0
LINE
  5
D63
  8
CUTOUT
 10
183.4999999999999
 20
333.7601910021411
 30
0.0
 11
186.2398089978585
 21
336.4999999999999
 31
0.0
  0
LINE
  5
D64
  8
CUTOUT
 10
183.4999999999998
 20
258.6300955010704
 30
0.0
 11
261.3699044989292
 21
336.4999999999998
 31
0.0
  0
LINE
  5
D65
  8
CUTOUT
 10
183.4999999999998
 20
183.4999999999998
 30
0.0
 11
336.4999999999998
 21
336.4999999999998
 31
0.0
  0
LINE
  5
D66
  8
CUTOUT
 10
188.6300955010707
 20
113.5
 30
0.0
 11
406.4999999999999
 21
331.3699044989291
 31
0.0
  0
LINE
  5
D67
  8
CUTOUT
 10
263.7601910021413
 20
113.5
 30
0.0
 11
406.4999999999998
 21
256.2398089978586
 31
0.0
  0
LINE
  5
D68
  8
CUTOUT
 10
338.8902865032119
 20
113.5
 30
0.0
 11
406.4999999999999
 21
181.1097134967879
 31
0.0
  0
ENDBLK
  5
D69
  8
0
  0
BLOCK
  8
0
  2
*D154
 70
     1
 10
0.0
 20
0.0
 30
0.0
  3
*D154
  1

  0
LINE
  5
D7B
  8
DIMENSIONS
  6
BYBLOCK
 62
     0
 10
216.4248403962479
 20
1626.560130921493
 30
0.0
 11
216.4248403962479
 21
1701.280422312305
 31
0.0
  0
LINE
  5
D7C
  8
DIMENSIONS
  6
BYBLOCK
 62
     0
 10
439.4248403962479
 20
1626.560130921493
 30
0.0
 11
439.4248403962479
 21
1701.280422312305
 31
0.0
  0
LINE
  5
D7D
  8
DIMENSIONS
  6
BYBLOCK
 62
     0
 10
221.4248403962479
 20
1701.100422312305
 30
0.0
 11
434.4248403962479
 21
1701.100422312305
 31
0.0
  0
SOLID
  5
D7E
  8
DIMENSIONS
 62
     0
 10
221.4248403962479
 20
1701.933755645638
 30
0.0
 11
221.4248403962479
 21
1700.267088978972
 31
0.0
 12
216.4248403962479
 22
1701.100422312305
 32
0.0
 13
216.4248403962479
 23
1701.100422312305
 33
0.0
  0
SOLID
  5
D7F
  8
DIMENSIONS
 62
     0
 10
434.4248403962479
 20
1700.267088978972
 30
0.0
 11
434.4248403962479
 21
1701.933755645638
 31
0.0
 12
439.4248403962479
 22
1701.100422312305
 32
0.0
 13
439.4248403962479
 23
1701.100422312305
 33
0.0
  0
TEXT
  5
D80
  8
DIMENSIONS
  6
CONTINUOUS
 62
     5
 10
312.5298403962479
 20
1703.495422312305
 30
0.0
 40
5.0
  1
223 [8.78]
  0
POINT
  5
D81
  8
DEFPOINTS
 62
     0
 10
216.4248403962479
 20
1625.060130921493
 30
0.0
  0
POINT
  5
D82
  8
DEFPOINTS
 62
     0
 10
439.4248403962479
 20
1625.060130921493
 30
0.0
  0
POINT
  5
D83
  8
DEFPOINTS
 62
     0
 10
439.4248403962479
 20
1701.100422312305
 30
0.0
  0
ENDBLK
  5
D7A
  8
0
  0
BLOCK
  8
0
  2
*D155
 70
     1
 10
0.0
 20
0.0
 30
0.0
  3
*D155
  1

  0
LINE
  5
D8A
  8
DIMENSIONS
  6
BYBLOCK
 62
     0
 10
130.4248403962479
 20
1686.560130921493
 30
0.0
 11
130.4248403962479
 21
1716.567535776129
 31
0.0
  0
LINE
  5
D8B
  8
DIMENSIONS
  6
BYBLOCK
 62
     0
 10
525.4248403962478
 20
1686.560130921493
 30
0.0
 11
525.4248403962478
 21
1716.567535776129
 31
0.0
  0
LINE
  5
D8C
  8
DIMENSIONS
  6
BYBLOCK
 62
     0
 10
135.4248403962479
 20
1716.387535776129
 30
0.0
 11
520.4248403962478
 21
1716.387535776129
 31
0.0
  0
SOLID
  5
D8D
  8
DIMENSIONS
 62
     0
 10
135.4248403962479
 20
1717.220869109462
 30
0.0
 11
135.4248403962479
 21
1715.554202442796
 31
0.0
 12
130.4248403962479
 22
1716.387535776129
 32
0.0
 13
130.4248403962479
 23
1716.387535776129
 33
0.0
  0
SOLID
  5
D8E
  8
DIMENSIONS
 62
     0
 10
520.4248403962478
 20
1715.554202442796
 30
0.0
 11
520.4248403962478
 21
1717.220869109462
 31
0.0
 12
525.4248403962478
 22
1716.387535776129
 32
0.0
 13
525.4248403962478
 23
1716.387535776129
 33
0.0
  0
TEXT
  5
D8F
  8
DIMENSIONS
  6
CONTINUOUS
 62
     5
 10
310.5448403962478
 20
1718.782535776129
 30
0.0
 40
5.0
  1
395 [15.55]
  0
POINT
  5
D90
  8
DEFPOINTS
 62
     0
 10
130.4248403962479
 20
1685.060130921493
 30
0.0
  0
POINT
  5
D91
  8
DEFPOINTS
 62
     0
 10
525.4248403962478
 20
1685.060130921493
 30
0.0
  0
POINT
  5
D92
  8
DEFPOINTS
 62
     0
 10
525.4248403962478
 20
1716.387535776129
 30
0.0
  0
ENDBLK
  5
D89
  8
0
  0
BLOCK
  8
0
  2
*D156
 70
     1
 10
0.0
 20
0.0
 30
0.0
  3
*D156
  1

  0
LINE
  5
DAF
  8
DIMENSIONS
  6
BYBLOCK
 62
     0
 10
128.9248403962479
 20
1685.060130921493
 30
0.0
 11
115.8238882442259
 21
1685.060130921493
 31
0.0
  0
LINE
  5
DB0
  8
DIMENSIONS
  6
BYBLOCK
 62
     0
 10
214.9248403962479
 20
1625.060130921493
 30
0.0
 11
115.8238882442259
 21
1625.060130921493
 31
0.0
  0
LINE
  5
DB1
  8
DIMENSIONS
  6
BYBLOCK
 62
     0
 10
116.0038882442259
 20
1680.060130921493
 30
0.0
 11
116.0038882442259
 21
1630.060130921493
 31
0.0
  0
SOLID
  5
DB2
  8
DIMENSIONS
 62
     0
 10
116.8372215775592
 20
1680.060130921493
 30
0.0
 11
115.1705549108926
 21
1680.060130921493
 31
0.0
 12
116.0038882442259
 22
1685.060130921493
 32
0.0
 13
116.0038882442259
 23
1685.060130921493
 33
0.0
  0
SOLID
  5
DB3
  8
DIMENSIONS
 62
     0
 10
115.1705549108926
 20
1630.060130921493
 30
0.0
 11
116.8372215775592
 21
1630.060130921493
 31
0.0
 12
116.0038882442259
 22
1625.060130921493
 32
0.0
 13
116.0038882442259
 23
1625.060130921493
 33
0.0
  0
TEXT
  5
DB4
  8
DIMENSIONS
  6
CONTINUOUS
 62
     5
 10
113.6088882442257
 20
1641.577630921493
 30
0.0
 40
5.0
  1
60 [2.36]
 50
90.0
  0
POINT
  5
DB5
  8
DEFPOINTS
 62
     0
 10
130.4248403962479
 20
1685.060130921493
 30
0.0
  0
POINT
  5
DB6
  8
DEFPOINTS
 62
     0
 10
216.4248403962479
 20
1625.060130921493
 30
0.0
  0
POINT
  5
DB7
  8
DEFPOINTS
 62
     0
 10
116.0038882442259
 20
1625.060130921493
 30
0.0
  0
ENDBLK
  5
DAE
  8
0
  0
BLOCK
  8
0
  2
*D157
 70
     1
 10
0.0
 20
0.0
 30
0.0
  3
*D157
  1

  0
LINE
  5
DBE
  8
DIMENSIONS
  6
BYBLOCK
 62
     0
 10
214.9248403962479
 20
1625.060130921493
 30
0.0
 11
115.8238882442259
 21
1625.060130921493
 31
0.0
  0
LINE
  5
DBF
  8
DIMENSIONS
  6
BYBLOCK
 62
     0
 10
214.9248403962479
 20
1402.060130921493
 30
0.0
 11
115.8238882442259
 21
1402.060130921493
 31
0.0
  0
LINE
  5
DC0
  8
DIMENSIONS
  6
BYBLOCK
 62
     0
 10
116.0038882442259
 20
1620.060130921493
 30
0.0
 11
116.0038882442259
 21
1407.060130921493
 31
0.0
  0
SOLID
  5
DC1
  8
DIMENSIONS
 62
     0
 10
116.8372215775592
 20
1620.060130921493
 30
0.0
 11
115.1705549108926
 21
1620.060130921493
 31
0.0
 12
116.0038882442259
 22
1625.060130921493
 32
0.0
 13
116.0038882442259
 23
1625.060130921493
 33
0.0
  0
SOLID
  5
DC2
  8
DIMENSIONS
 62
     0
 10
115.1705549108925
 20
1407.060130921493
 30
0.0
 11
116.8372215775592
 21
1407.060130921493
 31
0.0
 12
116.0038882442259
 22
1402.060130921493
 32
0.0
 13
116.0038882442259
 23
1402.060130921493
 33
0.0
  0
TEXT
  5
DC3
  8
DIMENSIONS
  6
CONTINUOUS
 62
     5
 10
113.6088882442257
 20
1498.165130921493
 30
0.0
 40
5.0
  1
223 [8.78]
 50
90.0
  0
POINT
  5
DC4
  8
DEFPOINTS
 62
     0
 10
216.4248403962479
 20
1625.060130921493
 30
0.0
  0
POINT
  5
DC5
  8
DEFPOINTS
 62
     0
 10
216.4248403962479
 20
1402.060130921493
 30
0.0
  0
POINT
  5
DC6
  8
DEFPOINTS
 62
     0
 10
116.0038882442259
 20
1402.060130921493
 30
0.0
  0
ENDBLK
  5
DBD
  8
0
  0
BLOCK
  8
0
  2
*D158
 70
     1
 10
0.0
 20
0.0
 30
0.0
  3
*D158
  1

  0
LINE
  5
DCD
  8
DIMENSIONS
  6
BYBLOCK
 62
     0
 10
214.9248403962479
 20
1402.060130921493
 30
0.0
 11
115.8238882442259
 21
1402.060130921493
 31
0.0
  0
LINE
  5
DCE
  8
DIMENSIONS
  6
BYBLOCK
 62
     0
 10
201.4248403962479
 20
801.0601309214926
 30
0.0
 11
115.8238882442258
 21
801.0601309214926
 31
0.0
  0
LINE
  5
DCF
  8
DIMENSIONS
  6
BYBLOCK
 62
     0
 10
116.0038882442259
 20
1397.060130921493
 30
0.0
 11
116.0038882442258
 21
806.0601309214926
 31
0.0
  0
SOLID
  5
DD0
  8
DIMENSIONS
 62
     0
 10
116.8372215775592
 20
1397.060130921493
 30
0.0
 11
115.1705549108925
 21
1397.060130921493
 31
0.0
 12
116.0038882442259
 22
1402.060130921493
 32
0.0
 13
116.0038882442259
 23
1402.060130921493
 33
0.0
  0
SOLID
  5
DD1
  8
DIMENSIONS
 62
     0
 10
115.1705549108925
 20
806.0601309214926
 30
0.0
 11
116.8372215775592
 21
806.0601309214926
 31
0.0
 12
116.0038882442258
 22
801.0601309214926
 32
0.0
 13
116.0038882442258
 23
801.0601309214926
 33
0.0
  0
TEXT
  5
DD2
  8
DIMENSIONS
  6
CONTINUOUS
 62
     5
 10
113.6088882442257
 20
1084.197630921493
 30
0.0
 40
5.0
  1
601 [23.66]
 50
90.0
  0
POINT
  5
DD3
  8
DEFPOINTS
 62
     0
 10
216.4248403962479
 20
1402.060130921493
 30
0.0
  0
POINT
  5
DD4
  8
DEFPOINTS
 62
     0
 10
202.9248403962479
 20
801.0601309214926
 30
0.0
  0
POINT
  5
DD5
  8
DEFPOINTS
 62
     0
 10
116.0038882442258
 20
801.0601309214926
 30
0.0
  0
ENDBLK
  5
DCC
  8
0
  0
BLOCK
  8
0
  2
*D159
 70
     1
 10
0.0
 20
0.0
 30
0.0
  3
*D159
  1

  0
LINE
  5
DDC
  8
DIMENSIONS
  6
BYBLOCK
 62
     0
 10
201.4248403962479
 20
801.0601309214926
 30
0.0
 11
115.8238882442258
 21
801.0601309214926
 31
0.0
  0
LINE
  5
DDD
  8
DIMENSIONS
  6
BYBLOCK
 62
     0
 10
214.9248403962479
 20
228.0601309214928
 30
0.0
 11
115.8238882442258
 21
228.0601309214928
 31
0.0
  0
LINE
  5
DDE
  8
DIMENSIONS
  6
BYBLOCK
 62
     0
 10
116.0038882442258
 20
796.0601309214926
 30
0.0
 11
116.0038882442258
 21
233.0601309214928
 31
0.0
  0
SOLID
  5
DDF
  8
DIMENSIONS
 62
     0
 10
116.8372215775592
 20
796.0601309214926
 30
0.0
 11
115.1705549108925
 21
796.0601309214926
 31
0.0
 12
116.0038882442258
 22
801.0601309214926
 32
0.0
 13
116.0038882442258
 23
801.0601309214926
 33
0.0
  0
SOLID
  5
DE0
  8
DIMENSIONS
 62
     0
 10
115.1705549108925
 20
233.0601309214928
 30
0.0
 11
116.8372215775591
 21
233.0601309214928
 31
0.0
 12
116.0038882442258
 22
228.0601309214928
 32
0.0
 13
116.0038882442258
 23
228.0601309214928
 33
0.0
  0
TEXT
  5
DE1
  8
DIMENSIONS
  6
CONTINUOUS
 62
     5
 10
113.6088882442258
 20
497.1826309214927
 30
0.0
 40
5.0
  1
573 [22.56]
 50
90.0
  0
POINT
  5
DE2
  8
DEFPOINTS
 62
     0
 10
202.9248403962479
 20
801.0601309214926
 30
0.0
  0
POINT
  5
DE3
  8
DEFPOINTS
 62
     0
 10
216.4248403962479
 20
228.0601309214928
 30
0.0
  0
POINT
  5
DE4
  8
DEFPOINTS
 62
     0
 10
116.0038882442258
 20
228.0601309214928
 30
0.0
  0
ENDBLK
  5
DDB
  8
0
  0
BLOCK
  8
0
  2
*D160
 70
     1
 10
0.0
 20
0.0
 30
0.0
  3
*D160
  1

  0
LINE
  5
DEB
  8
DIMENSIONS
  6
BYBLOCK
 62
     0
 10
214.9248403962479
 20
228.0601309214928
 30
0.0
 11
115.8238882442258
 21
228.0601309214928
 31
0.0
  0
LINE
  5
DEC
  8
DIMENSIONS
  6
BYBLOCK
 62
     0
 10
214.9248403962479
 20
5.060130921492828
 30
0.0
 11
115.8238882442258
 21
5.060130921492834
 31
0.0
  0
LINE
  5
DED
  8
DIMENSIONS
  6
BYBLOCK
 62
     0
 10
116.0038882442258
 20
223.0601309214928
 30
0.0
 11
116.0038882442258
 21
10.06013092149283
 31
0.0
  0
SOLID
  5
DEE
  8
DIMENSIONS
 62
     0
 10
116.8372215775591
 20
223.0601309214928
 30
0.0
 11
115.1705549108925
 21
223.0601309214928
 31
0.0
 12
116.0038882442258
 22
228.0601309214928
 32
0.0
 13
116.0038882442258
 23
228.0601309214928
 33
0.0
  0
SOLID
  5
DEF
  8
DIMENSIONS
 62
     0
 10
115.1705549108925
 20
10.06013092149283
 30
0.0
 11
116.8372215775591
 21
10.06013092149283
 31
0.0
 12
116.0038882442258
 22
5.060130921492834
 32
0.0
 13
116.0038882442258
 23
5.060130921492834
 33
0.0
  0
TEXT
  5
DF0
  8
DIMENSIONS
  6
CONTINUOUS
 62
     5
 10
113.6088882442258
 20
101.1651309214928
 30
0.0
 40
5.0
  1
223 [8.78]
 50
90.0
  0
POINT
  5
DF1
  8
DEFPOINTS
 62
     0
 10
216.4248403962479
 20
228.0601309214928
 30
0.0
  0
POINT
  5
DF2
  8
DEFPOINTS
 62
     0
 10
216.4248403962479
 20
5.060130921492828
 30
0.0
  0
POINT
  5
DF3
  8
DEFPOINTS
 62
     0
 10
116.0038882442258
 20
5.060130921492834
 30
0.0
  0
ENDBLK
  5
DEA
  8
0
  0
BLOCK
  8
0
  2
*D161
 70
     1
 10
0.0
 20
0.0
 30
0.0
  3
*D161
  1

  0
LINE
  5
DFA
  8
DIMENSIONS
  6
BYBLOCK
 62
     0
 10
214.9248403962479
 20
5.060130921492828
 30
0.0
 11
115.8238882442258
 21
5.060130921492835
 31
0.0
  0
LINE
  5
DFB
  8
DIMENSIONS
  6
BYBLOCK
 62
     0
 10
128.9248403962479
 20
-54.93986907850717
 30
0.0
 11
115.8238882442258
 21
-54.93986907850717
 31
0.0
  0
LINE
  5
DFC
  8
DIMENSIONS
  6
BYBLOCK
 62
     0
 10
116.0038882442258
 20
0.0601309214928349
 30
0.0
 11
116.0038882442258
 21
-49.93986907850717
 31
0.0
  0
SOLID
  5
DFD
  8
DIMENSIONS
 62
     0
 10
116.8372215775591
 20
0.0601309214928349
 30
0.0
 11
115.1705549108925
 21
0.0601309214928349
 31
0.0
 12
116.0038882442258
 22
5.060130921492835
 32
0.0
 13
116.0038882442258
 23
5.060130921492835
 33
0.0
  0
SOLID
  5
DFE
  8
DIMENSIONS
 62
     0
 10
115.1705549108925
 20
-49.93986907850717
 30
0.0
 11
116.8372215775591
 21
-49.93986907850717
 31
0.0
 12
116.0038882442258
 22
-54.93986907850717
 32
0.0
 13
116.0038882442258
 23
-54.93986907850717
 33
0.0
  0
TEXT
  5
DFF
  8
DIMENSIONS
  6
CONTINUOUS
 62
     5
 10
113.6088882442258
 20
-38.42236907850717
 30
0.0
 40
5.0
  1
60 [2.36]
 50
90.0
  0
POINT
  5
E00
  8
DEFPOINTS
 62
     0
 10
216.4248403962479
 20
5.060130921492828
 30
0.0
  0
POINT
  5
E01
  8
DEFPOINTS
 62
     0
 10
130.4248403962479
 20
-54.93986907850717
 30
0.0
  0
POINT
  5
E02
  8
DEFPOINTS
 62
     0
 10
116.0038882442258
 20
-54.93986907850717
 30
0.0
  0
ENDBLK
  5
DF9
  8
0
  0
BLOCK
  8
0
  2
*D162
 70
     1
 10
0.0
 20
0.0
 30
0.0
  3
*D162
  1

  0
LINE
  5
E09
  8
DIMENSIONS
  6
BYBLOCK
 62
     0
 10
444.4248436059999
 20
801.0675177863876
 30
0.0
 11
404.0198588636502
 21
801.1026314659263
 31
0.0
  0
TEXT
  5
E0A
  8
DIMENSIONS
  6
CONTINUOUS
 62
     5
 10
404.7420094730141
 20
803.5770048204134
 30
0.0
 40
5.0
  1
Ø7 [Ø0.28]
 50
359.9502075016957
  0
SOLID
  5
E0B
  8
DIMENSIONS
 62
     0
 10
444.4241194035592
 20
800.2341847677359
 30
0.0
 11
444.4255678084405
 21
801.9008508050393
 31
0.0
 12
449.4248417179105
 22
801.0631725717435
 32
0.0
 13
449.4248417179105
 23
801.0631725717435
 33
0.0
  0
LINE
  5
E0C
  8
DIMENSIONS
  6
BYBLOCK
 62
     0
 10
450.4248403962479
 20
801.0601309214926
 30
0.0
 11
455.4248403962479
 21
801.0601309214926
 31
0.0
  0
LINE
  5
E0D
  8
DIMENSIONS
  6
BYBLOCK
 62
     0
 10
452.9248403962479
 20
798.5601309214926
 30
0.0
 11
452.9248403962479
 21
803.5601309214926
 31
0.0
  0
POINT
  5
E0E
  8
DEFPOINTS
 62
     0
 10
449.4248417179105
 20
801.0631725717435
 30
0.0
  0
POINT
  5
E0F
  8
DEFPOINTS
 62
     0
 10
456.4248390745853
 20
801.0570892712418
 30
0.0
  0
ENDBLK
  5
E08
  8
0
  0
BLOCK
  8
0
  2
*X164
 70
     1
 10
0.0
 20
0.0
 30
0.0
  3
*X164
  1

  0
LINE
  5
E73
  8
CUTOUT
 10
22.5
 20
817.9951288348661
 30
0.0
 11
73.50487116513366
 21
868.9999999999998
 31
0.0
  0
LINE
  5
E74
  8
CUTOUT
 10
22.50000000000006
 20
764.962120245875
 30
0.0
 11
126.5378797541248
 21
868.9999999999998
 31
0.0
  0
LINE
  5
E75
  8
CUTOUT
 10
22.50000000000003
 20
711.9291116568838
 30
0.0
 11
179.5708883431158
 21
868.9999999999998
 31
0.0
  0
LINE
  5
E76
  8
CUTOUT
 10
22.50000000000003
 20
658.8961030678929
 30
0.0
 11
232.6038969321069
 21
868.9999999999998
 31
0.0
  0
LINE
  5
E77
  8
CUTOUT
 10
55.63690552109816
 20
638.9999999999999
 30
0.0
 11
285.6369055210979
 21
868.9999999999998
 31
0.0
  0
LINE
  5
E78
  8
CUTOUT
 10
108.6699141100892
 20
638.9999999999999
 30
0.0
 11
338.6699141100889
 21
868.9999999999997
 31
0.0
  0
LINE
  5
E79
  8
CUTOUT
 10
161.7029226990803
 20
638.9999999999999
 30
0.0
 11
391.70292269908
 21
868.9999999999997
 31
0.0
  0
LINE
  5
E7A
  8
CUTOUT
 10
214.7359312880713
 20
638.9999999999999
 30
0.0
 11
442.4999999999999
 21
866.7640687119285
 31
0.0
  0
LINE
  5
E7B
  8
CUTOUT
 10
267.7689398770624
 20
638.9999999999999
 30
0.0
 11
442.5
 21
813.7310601229376
 31
0.0
  0
LINE
  5
E7C
  8
CUTOUT
 10
320.8019484660534
 20
638.9999999999999
 30
0.0
 11
442.5
 21
760.6980515339465
 31
0.0
  0
LINE
  5
E7D
  8
CUTOUT
 10
373.8349570550445
 20
638.9999999999999
 30
0.0
 11
442.5
 21
707.6650429449554
 31
0.0
  0
LINE
  5
E7E
  8
CUTOUT
 10
426.8679656440355
 20
638.9999999999999
 30
0.0
 11
442.5
 21
654.6320343559644
 31
0.0
  0
LINE
  5
E7F
  8
CUTOUT
 10
22.49999999999997
 20
181.5990257669732
 30
0.0
 11
55.90097423302669
 21
214.9999999999999
 31
0.0
  0
LINE
  5
E80
  8
CUTOUT
 10
22.49999999999997
 20
128.5660171779821
 30
0.0
 11
108.9339828220177
 21
214.9999999999999
 31
0.0
  0
LINE
  5
E81
  8
CUTOUT
 10
22.5
 20
75.53300858899104
 30
0.0
 11
161.9669914110088
 21
214.9999999999999
 31
0.0
  0
LINE
  5
E82
  8
CUTOUT
 10
22.5
 20
22.5
 30
0.0
 11
214.9999999999999
 21
214.9999999999999
 31
0.0
  0
LINE
  5
E83
  8
CUTOUT
 10
73.03300858899101
 20
20.0
 30
0.0
 11
268.0330085889909
 21
214.9999999999999
 31
0.0
  0
LINE
  5
E84
  8
CUTOUT
 10
126.0660171779821
 20
19.99999999999994
 30
0.0
 11
321.066017177982
 21
214.9999999999999
 31
0.0
  0
LINE
  5
E85
  8
CUTOUT
 10
179.0990257669731
 20
19.99999999999994
 30
0.0
 11
374.0990257669731
 21
214.9999999999999
 31
0.0
  0
LINE
  5
E86
  8
CUTOUT
 10
232.1320343559642
 20
19.99999999999994
 30
0.0
 11
427.1320343559642
 21
214.9999999999999
 31
0.0
  0
LINE
  5
E87
  8
CUTOUT
 10
285.1650429449552
 20
19.99999999999994
 30
0.0
 11
442.5
 21
177.3349570550447
 31
0.0
  0
LINE
  5
E88
  8
CUTOUT
 10
338.1980515339463
 20
19.99999999999994
 30
0.0
 11
442.5
 21
124.3019484660537
 31
0.0
  0
LINE
  5
E89
  8
CUTOUT
 10
391.2310601229374
 20
19.99999999999994
 30
0.0
 11
442.5
 21
71.26893987706256
 31
0.0
  0
ENDBLK
  5
E8A
  8
0
  0
BLOCK
  8
0
  2
*X166
 70
     1
 10
0.0
 20
0.0
 30
0.0
  3
*X166
  1

  0
LINE
  5
EB9
  8
CUTOUT
 10
22.5
 20
817.9951288348661
 30
0.0
 11
73.50487116513366
 21
868.9999999999998
 31
0.0
  0
LINE
  5
EBA
  8
CUTOUT
 10
22.50000000000006
 20
764.962120245875
 30
0.0
 11
126.5378797541248
 21
868.9999999999998
 31
0.0
  0
LINE
  5
EBB
  8
CUTOUT
 10
22.50000000000003
 20
711.9291116568838
 30
0.0
 11
179.5708883431158
 21
868.9999999999998
 31
0.0
  0
LINE
  5
EBC
  8
CUTOUT
 10
22.50000000000003
 20
658.8961030678929
 30
0.0
 11
232.6038969321069
 21
868.9999999999998
 31
0.0
  0
LINE
  5
EBD
  8
CUTOUT
 10
55.63690552109816
 20
638.9999999999999
 30
0.0
 11
285.6369055210979
 21
868.9999999999998
 31
0.0
  0
LINE
  5
EBE
  8
CUTOUT
 10
108.6699141100892
 20
638.9999999999999
 30
0.0
 11
338.6699141100889
 21
868.9999999999997
 31
0.0
  0
LINE
  5
EBF
  8
CUTOUT
 10
161.7029226990803
 20
638.9999999999999
 30
0.0
 11
391.70292269908
 21
868.9999999999997
 31
0.0
  0
LINE
  5
EC0
  8
CUTOUT
 10
214.7359312880713
 20
638.9999999999999
 30
0.0
 11
442.4999999999999
 21
866.7640687119285
 31
0.0
  0
LINE
  5
EC1
  8
CUTOUT
 10
267.7689398770624
 20
638.9999999999999
 30
0.0
 11
442.5
 21
813.7310601229376
 31
0.0
  0
LINE
  5
EC2
  8
CUTOUT
 10
320.8019484660534
 20
638.9999999999999
 30
0.0
 11
442.5
 21
760.6980515339465
 31
0.0
  0
LINE
  5
EC3
  8
CUTOUT
 10
373.8349570550445
 20
638.9999999999999
 30
0.0
 11
442.5
 21
707.6650429449554
 31
0.0
  0
LINE
  5
EC4
  8
CUTOUT
 10
426.8679656440355
 20
638.9999999999999
 30
0.0
 11
442.5
 21
654.6320343559644
 31
0.0
  0
LINE
  5
EC5
  8
CUTOUT
 10
22.49999999999997
 20
181.5990257669732
 30
0.0
 11
55.90097423302669
 21
214.9999999999999
 31
0.0
  0
LINE
  5
EC6
  8
CUTOUT
 10
22.49999999999997
 20
128.5660171779821
 30
0.0
 11
108.9339828220177
 21
214.9999999999999
 31
0.0
  0
LINE
  5
EC7
  8
CUTOUT
 10
22.5
 20
75.53300858899104
 30
0.0
 11
161.9669914110088
 21
214.9999999999999
 31
0.0
  0
LINE
  5
EC8
  8
CUTOUT
 10
22.5
 20
22.5
 30
0.0
 11
214.9999999999999
 21
214.9999999999999
 31
0.0
  0
LINE
  5
EC9
  8
CUTOUT
 10
73.03300858899101
 20
20.0
 30
0.0
 11
268.0330085889909
 21
214.9999999999999
 31
0.0
  0
LINE
  5
ECA
  8
CUTOUT
 10
126.0660171779821
 20
19.99999999999994
 30
0.0
 11
321.066017177982
 21
214.9999999999999
 31
0.0
  0
LINE
  5
ECB
  8
CUTOUT
 10
179.0990257669731
 20
19.99999999999994
 30
0.0
 11
374.0990257669731
 21
214.9999999999999
 31
0.0
  0
LINE
  5
ECC
  8
CUTOUT
 10
232.1320343559642
 20
19.99999999999994
 30
0.0
 11
427.1320343559642
 21
214.9999999999999
 31
0.0
  0
LINE
  5
ECD
  8
CUTOUT
 10
285.1650429449552
 20
19.99999999999994
 30
0.0
 11
442.5
 21
177.3349570550447
 31
0.0
  0
LINE
  5
ECE
  8
CUTOUT
 10
338.1980515339463
 20
19.99999999999994
 30
0.0
 11
442.5
 21
124.3019484660537
 31
0.0
  0
LINE
  5
ECF
  8
CUTOUT
 10
391.2310601229374
 20
19.99999999999994
 30
0.0
 11
442.5
 21
71.26893987706256
 31
0.0
  0
ENDBLK
  5
ED0
  8
0
  0
BLOCK
  8
0
  2
*X168
 70
     1
 10
0.0
 20
0.0
 30
0.0
  3
*X168
  1

  0
LINE
  5
EFF
  8
CUTOUT
 10
22.5
 20
817.9951288348661
 30
0.0
 11
73.50487116513366
 21
868.9999999999998
 31
0.0
  0
LINE
  5
F00
  8
CUTOUT
 10
22.50000000000006
 20
764.962120245875
 30
0.0
 11
126.5378797541248
 21
868.9999999999998
 31
0.0
  0
LINE
  5
F01
  8
CUTOUT
 10
22.50000000000003
 20
711.9291116568838
 30
0.0
 11
179.5708883431158
 21
868.9999999999998
 31
0.0
  0
LINE
  5
F02
  8
CUTOUT
 10
22.50000000000003
 20
658.8961030678929
 30
0.0
 11
232.6038969321069
 21
868.9999999999998
 31
0.0
  0
LINE
  5
F03
  8
CUTOUT
 10
55.63690552109816
 20
638.9999999999999
 30
0.0
 11
285.6369055210979
 21
868.9999999999998
 31
0.0
  0
LINE
  5
F04
  8
CUTOUT
 10
108.6699141100892
 20
638.9999999999999
 30
0.0
 11
338.6699141100889
 21
868.9999999999997
 31
0.0
  0
LINE
  5
F05
  8
CUTOUT
 10
161.7029226990803
 20
638.9999999999999
 30
0.0
 11
391.70292269908
 21
868.9999999999997
 31
0.0
  0
LINE
  5
F06
  8
CUTOUT
 10
214.7359312880713
 20
638.9999999999999
 30
0.0
 11
442.4999999999999
 21
866.7640687119285
 31
0.0
  0
LINE
  5
F07
  8
CUTOUT
 10
267.7689398770624
 20
638.9999999999999
 30
0.0
 11
442.5
 21
813.7310601229376
 31
0.0
  0
LINE
  5
F08
  8
CUTOUT
 10
320.8019484660534
 20
638.9999999999999
 30
0.0
 11
442.5
 21
760.6980515339465
 31
0.0
  0
LINE
  5
F09
  8
CUTOUT
 10
373.8349570550445
 20
638.9999999999999
 30
0.0
 11
442.5
 21
707.6650429449554
 31
0.0
  0
LINE
  5
F0A
  8
CUTOUT
 10
426.8679656440355
 20
638.9999999999999
 30
0.0
 11
442.5
 21
654.6320343559644
 31
0.0
  0
LINE
  5
F0B
  8
CUTOUT
 10
22.49999999999997
 20
181.5990257669732
 30
0.0
 11
55.90097423302669
 21
214.9999999999999
 31
0.0
  0
LINE
  5
F0C
  8
CUTOUT
 10
22.49999999999997
 20
128.5660171779821
 30
0.0
 11
108.9339828220177
 21
214.9999999999999
 31
0.0
  0
LINE
  5
F0D
  8
CUTOUT
 10
22.5
 20
75.53300858899104
 30
0.0
 11
161.9669914110088
 21
214.9999999999999
 31
0.0
  0
LINE
  5
F0E
  8
CUTOUT
 10
22.5
 20
22.5
 30
0.0
 11
214.9999999999999
 21
214.9999999999999
 31
0.0
  0
LINE
  5
F0F
  8
CUTOUT
 10
73.03300858899101
 20
20.0
 30
0.0
 11
268.0330085889909
 21
214.9999999999999
 31
0.0
  0
LINE
  5
F10
  8
CUTOUT
 10
126.0660171779821
 20
19.99999999999994
 30
0.0
 11
321.066017177982
 21
214.9999999999999
 31
0.0
  0
LINE
  5
F11
  8
CUTOUT
 10
179.0990257669731
 20
19.99999999999994
 30
0.0
 11
374.0990257669731
 21
214.9999999999999
 31
0.0
  0
LINE
  5
F12
  8
CUTOUT
 10
232.1320343559642
 20
19.99999999999994
 30
0.0
 11
427.1320343559642
 21
214.9999999999999
 31
0.0
  0
LINE
  5
F13
  8
CUTOUT
 10
285.1650429449552
 20
19.99999999999994
 30
0.0
 11
442.5
 21
177.3349570550447
 31
0.0
  0
LINE
  5
F14
  8
CUTOUT
 10
338.1980515339463
 20
19.99999999999994
 30
0.0
 11
442.5
 21
124.3019484660537
 31
0.0
  0
LINE
  5
F15
  8
CUTOUT
 10
391.2310601229374
 20
19.99999999999994
 30
0.0
 11
442.5
 21
71.26893987706256
 31
0.0
  0
ENDBLK
  5
F16
  8
0
  0
BLOCK
  8
0
  2
*X170
 70
     1
 10
0.0
 20
0.0
 30
0.0
  3
*X170
  1

  0
LINE
  5
F42
  8
CUTOUT
 10
22.5
 20
817.9951288348661
 30
0.0
 11
73.50487116513366
 21
868.9999999999998
 31
0.0
  0
LINE
  5
F43
  8
CUTOUT
 10
22.50000000000006
 20
764.962120245875
 30
0.0
 11
126.5378797541248
 21
868.9999999999998
 31
0.0
  0
LINE
  5
F44
  8
CUTOUT
 10
22.50000000000003
 20
711.9291116568838
 30
0.0
 11
179.5708883431158
 21
868.9999999999998
 31
0.0
  0
LINE
  5
F45
  8
CUTOUT
 10
22.50000000000003
 20
658.8961030678929
 30
0.0
 11
232.6038969321069
 21
868.9999999999998
 31
0.0
  0
LINE
  5
F46
  8
CUTOUT
 10
55.63690552109816
 20
638.9999999999999
 30
0.0
 11
285.6369055210979
 21
868.9999999999998
 31
0.0
  0
LINE
  5
F47
  8
CUTOUT
 10
108.6699141100892
 20
638.9999999999999
 30
0.0
 11
338.6699141100889
 21
868.9999999999997
 31
0.0
  0
LINE
  5
F48
  8
CUTOUT
 10
161.7029226990803
 20
638.9999999999999
 30
0.0
 11
391.70292269908
 21
868.9999999999997
 31
0.0
  0
LINE
  5
F49
  8
CUTOUT
 10
214.7359312880713
 20
638.9999999999999
 30
0.0
 11
442.4999999999999
 21
866.7640687119285
 31
0.0
  0
LINE
  5
F4A
  8
CUTOUT
 10
267.7689398770624
 20
638.9999999999999
 30
0.0
 11
442.5
 21
813.7310601229376
 31
0.0
  0
LINE
  5
F4B
  8
CUTOUT
 10
320.8019484660534
 20
638.9999999999999
 30
0.0
 11
442.5
 21
760.6980515339465
 31
0.0
  0
LINE
  5
F4C
  8
CUTOUT
 10
373.8349570550445
 20
638.9999999999999
 30
0.0
 11
442.5
 21
707.6650429449554
 31
0.0
  0
LINE
  5
F4D
  8
CUTOUT
 10
426.8679656440355
 20
638.9999999999999
 30
0.0
 11
442.5
 21
654.6320343559644
 31
0.0
  0
LINE
  5
F4E
  8
CUTOUT
 10
22.49999999999997
 20
181.5990257669732
 30
0.0
 11
55.90097423302669
 21
214.9999999999999
 31
0.0
  0
LINE
  5
F4F
  8
CUTOUT
 10
22.49999999999997
 20
128.5660171779821
 30
0.0
 11
108.9339828220177
 21
214.9999999999999
 31
0.0
  0
LINE
  5
F50
  8
CUTOUT
 10
22.5
 20
75.53300858899104
 30
0.0
 11
161.9669914110088
 21
214.9999999999999
 31
0.0
  0
LINE
  5
F51
  8
CUTOUT
 10
22.5
 20
22.5
 30
0.0
 11
214.9999999999999
 21
214.9999999999999
 31
0.0
  0
LINE
  5
F52
  8
CUTOUT
 10
73.03300858899101
 20
20.0
 30
0.0
 11
268.0330085889909
 21
214.9999999999999
 31
0.0
  0
LINE
  5
F53
  8
CUTOUT
 10
126.0660171779821
 20
19.99999999999994
 30
0.0
 11
321.066017177982
 21
214.9999999999999
 31
0.0
  0
LINE
  5
F54
  8
CUTOUT
 10
179.0990257669731
 20
19.99999999999994
 30
0.0
 11
374.0990257669731
 21
214.9999999999999
 31
0.0
  0
LINE
  5
F55
  8
CUTOUT
 10
232.1320343559642
 20
19.99999999999994
 30
0.0
 11
427.1320343559642
 21
214.9999999999999
 31
0.0
  0
LINE
  5
F56
  8
CUTOUT
 10
285.1650429449552
 20
19.99999999999994
 30
0.0
 11
442.5
 21
177.3349570550447
 31
0.0
  0
LINE
  5
F57
  8
CUTOUT
 10
338.1980515339463
 20
19.99999999999994
 30
0.0
 11
442.5
 21
124.3019484660537
 31
0.0
  0
LINE
  5
F58
  8
CUTOUT
 10
391.2310601229374
 20
19.99999999999994
 30
0.0
 11
442.5
 21
71.26893987706256
 31
0.0
  0
ENDBLK
  5
F59
  8
0
  0
BLOCK
  8
0
  2
*X172
 70
     1
 10
0.0
 20
0.0
 30
0.0
  3
*X172
  1

  0
LINE
  5
F87
  8
CUTOUT
 10
22.5
 20
817.9951288348661
 30
0.0
 11
73.50487116513366
 21
868.9999999999998
 31
0.0
  0
LINE
  5
F88
  8
CUTOUT
 10
22.50000000000006
 20
764.962120245875
 30
0.0
 11
126.5378797541248
 21
868.9999999999998
 31
0.0
  0
LINE
  5
F89
  8
CUTOUT
 10
22.50000000000003
 20
711.9291116568838
 30
0.0
 11
179.5708883431158
 21
868.9999999999998
 31
0.0
  0
LINE
  5
F8A
  8
CUTOUT
 10
22.50000000000003
 20
658.8961030678929
 30
0.0
 11
232.6038969321069
 21
868.9999999999998
 31
0.0
  0
LINE
  5
F8B
  8
CUTOUT
 10
55.63690552109816
 20
638.9999999999999
 30
0.0
 11
285.6369055210979
 21
868.9999999999998
 31
0.0
  0
LINE
  5
F8C
  8
CUTOUT
 10
108.6699141100892
 20
638.9999999999999
 30
0.0
 11
338.6699141100889
 21
868.9999999999997
 31
0.0
  0
LINE
  5
F8D
  8
CUTOUT
 10
161.7029226990803
 20
638.9999999999999
 30
0.0
 11
391.70292269908
 21
868.9999999999997
 31
0.0
  0
LINE
  5
F8E
  8
CUTOUT
 10
214.7359312880713
 20
638.9999999999999
 30
0.0
 11
442.4999999999999
 21
866.7640687119285
 31
0.0
  0
LINE
  5
F8F
  8
CUTOUT
 10
267.7689398770624
 20
638.9999999999999
 30
0.0
 11
442.5
 21
813.7310601229376
 31
0.0
  0
LINE
  5
F90
  8
CUTOUT
 10
320.8019484660534
 20
638.9999999999999
 30
0.0
 11
442.5
 21
760.6980515339465
 31
0.0
  0
LINE
  5
F91
  8
CUTOUT
 10
373.8349570550445
 20
638.9999999999999
 30
0.0
 11
442.5
 21
707.6650429449554
 31
0.0
  0
LINE
  5
F92
  8
CUTOUT
 10
426.8679656440355
 20
638.9999999999999
 30
0.0
 11
442.5
 21
654.6320343559644
 31
0.0
  0
LINE
  5
F93
  8
CUTOUT
 10
22.49999999999997
 20
181.5990257669732
 30
0.0
 11
55.90097423302669
 21
214.9999999999999
 31
0.0
  0
LINE
  5
F94
  8
CUTOUT
 10
22.49999999999997
 20
128.5660171779821
 30
0.0
 11
108.9339828220177
 21
214.9999999999999
 31
0.0
  0
LINE
  5
F95
  8
CUTOUT
 10
22.5
 20
75.53300858899104
 30
0.0
 11
161.9669914110088
 21
214.9999999999999
 31
0.0
  0
LINE
  5
F96
  8
CUTOUT
 10
22.5
 20
22.5
 30
0.0
 11
214.9999999999999
 21
214.9999999999999
 31
0.0
  0
LINE
  5
F97
  8
CUTOUT
 10
73.03300858899101
 20
20.0
 30
0.0
 11
268.0330085889909
 21
214.9999999999999
 31
0.0
  0
LINE
  5
F98
  8
CUTOUT
 10
126.0660171779821
 20
19.99999999999994
 30
0.0
 11
321.066017177982
 21
214.9999999999999
 31
0.0
  0
LINE
  5
F99
  8
CUTOUT
 10
179.0990257669731
 20
19.99999999999994
 30
0.0
 11
374.0990257669731
 21
214.9999999999999
 31
0.0
  0
LINE
  5
F9A
  8
CUTOUT
 10
232.1320343559642
 20
19.99999999999994
 30
0.0
 11
427.1320343559642
 21
214.9999999999999
 31
0.0
  0
LINE
  5
F9B
  8
CUTOUT
 10
285.1650429449552
 20
19.99999999999994
 30
0.0
 11
442.5
 21
177.3349570550447
 31
0.0
  0
LINE
  5
F9C
  8
CUTOUT
 10
338.1980515339463
 20
19.99999999999994
 30
0.0
 11
442.5
 21
124.3019484660537
 31
0.0
  0
LINE
  5
F9D
  8
CUTOUT
 10
391.2310601229374
 20
19.99999999999994
 30
0.0
 11
442.5
 21
71.26893987706256
 31
0.0
  0
ENDBLK
  5
F9E
  8
0
  0
BLOCK
  8
0
  2
*X174
 70
     1
 10
0.0
 20
0.0
 30
0.0
  3
*X174
  1

  0
LINE
  5
FCC
  8
CUTOUT
 10
22.5
 20
817.9951288348661
 30
0.0
 11
73.50487116513366
 21
868.9999999999998
 31
0.0
  0
LINE
  5
FCD
  8
CUTOUT
 10
22.50000000000006
 20
764.962120245875
 30
0.0
 11
126.5378797541248
 21
868.9999999999998
 31
0.0
  0
LINE
  5
FCE
  8
CUTOUT
 10
22.50000000000003
 20
711.9291116568838
 30
0.0
 11
179.5708883431158
 21
868.9999999999998
 31
0.0
  0
LINE
  5
FCF
  8
CUTOUT
 10
22.50000000000003
 20
658.8961030678929
 30
0.0
 11
232.6038969321069
 21
868.9999999999998
 31
0.0
  0
LINE
  5
FD0
  8
CUTOUT
 10
55.63690552109816
 20
638.9999999999999
 30
0.0
 11
285.6369055210979
 21
868.9999999999998
 31
0.0
  0
LINE
  5
FD1
  8
CUTOUT
 10
108.6699141100892
 20
638.9999999999999
 30
0.0
 11
338.6699141100889
 21
868.9999999999997
 31
0.0
  0
LINE
  5
FD2
  8
CUTOUT
 10
161.7029226990803
 20
638.9999999999999
 30
0.0
 11
391.70292269908
 21
868.9999999999997
 31
0.0
  0
LINE
  5
FD3
  8
CUTOUT
 10
214.7359312880713
 20
638.9999999999999
 30
0.0
 11
442.4999999999999
 21
866.7640687119285
 31
0.0
  0
LINE
  5
FD4
  8
CUTOUT
 10
267.7689398770624
 20
638.9999999999999
 30
0.0
 11
442.5
 21
813.7310601229376
 31
0.0
  0
LINE
  5
FD5
  8
CUTOUT
 10
320.8019484660534
 20
638.9999999999999
 30
0.0
 11
442.5
 21
760.6980515339465
 31
0.0
  0
LINE
  5
FD6
  8
CUTOUT
 10
373.8349570550445
 20
638.9999999999999
 30
0.0
 11
442.5
 21
707.6650429449554
 31
0.0
  0
LINE
  5
FD7
  8
CUTOUT
 10
426.8679656440355
 20
638.9999999999999
 30
0.0
 11
442.5
 21
654.6320343559644
 31
0.0
  0
LINE
  5
FD8
  8
CUTOUT
 10
22.49999999999997
 20
181.5990257669732
 30
0.0
 11
55.90097423302669
 21
214.9999999999999
 31
0.0
  0
LINE
  5
FD9
  8
CUTOUT
 10
22.49999999999997
 20
128.5660171779821
 30
0.0
 11
108.9339828220177
 21
214.9999999999999
 31
0.0
  0
LINE
  5
FDA
  8
CUTOUT
 10
22.5
 20
75.53300858899104
 30
0.0
 11
161.9669914110088
 21
214.9999999999999
 31
0.0
  0
LINE
  5
FDB
  8
CUTOUT
 10
22.5
 20
22.5
 30
0.0
 11
214.9999999999999
 21
214.9999999999999
 31
0.0
  0
LINE
  5
FDC
  8
CUTOUT
 10
73.03300858899101
 20
20.0
 30
0.0
 11
268.0330085889909
 21
214.9999999999999
 31
0.0
  0
LINE
  5
FDD
  8
CUTOUT
 10
126.0660171779821
 20
19.99999999999994
 30
0.0
 11
321.066017177982
 21
214.9999999999999
 31
0.0
  0
LINE
  5
FDE
  8
CUTOUT
 10
179.0990257669731
 20
19.99999999999994
 30
0.0
 11
374.0990257669731
 21
214.9999999999999
 31
0.0
  0
LINE
  5
FDF
  8
CUTOUT
 10
232.1320343559642
 20
19.99999999999994
 30
0.0
 11
427.1320343559642
 21
214.9999999999999
 31
0.0
  0
LINE
  5
FE0
  8
CUTOUT
 10
285.1650429449552
 20
19.99999999999994
 30
0.0
 11
442.5
 21
177.3349570550447
 31
0.0
  0
LINE
  5
FE1
  8
CUTOUT
 10
338.1980515339463
 20
19.99999999999994
 30
0.0
 11
442.5
 21
124.3019484660537
 31
0.0
  0
LINE
  5
FE2
  8
CUTOUT
 10
391.2310601229374
 20
19.99999999999994
 30
0.0
 11
442.5
 21
71.26893987706256
 31
0.0
  0
ENDBLK
  5
FE3
  8
0
  0
BLOCK
  8
0
  2
*X176
 70
     1
 10
0.0
 20
0.0
 30
0.0
  3
*X176
  1

  0
LINE
  5
1011
  8
CUTOUT
 10
22.5
 20
817.9951288348661
 30
0.0
 11
73.50487116513366
 21
868.9999999999998
 31
0.0
  0
LINE
  5
1012
  8
CUTOUT
 10
22.50000000000006
 20
764.962120245875
 30
0.0
 11
126.5378797541248
 21
868.9999999999998
 31
0.0
  0
LINE
  5
1013
  8
CUTOUT
 10
22.50000000000003
 20
711.9291116568838
 30
0.0
 11
179.5708883431158
 21
868.9999999999998
 31
0.0
  0
LINE
  5
1014
  8
CUTOUT
 10
22.50000000000003
 20
658.8961030678929
 30
0.0
 11
232.6038969321069
 21
868.9999999999998
 31
0.0
  0
LINE
  5
1015
  8
CUTOUT
 10
55.63690552109816
 20
638.9999999999999
 30
0.0
 11
285.6369055210979
 21
868.9999999999998
 31
0.0
  0
LINE
  5
1016
  8
CUTOUT
 10
108.6699141100892
 20
638.9999999999999
 30
0.0
 11
338.6699141100889
 21
868.9999999999997
 31
0.0
  0
LINE
  5
1017
  8
CUTOUT
 10
161.7029226990803
 20
638.9999999999999
 30
0.0
 11
391.70292269908
 21
868.9999999999997
 31
0.0
  0
LINE
  5
1018
  8
CUTOUT
 10
214.7359312880713
 20
638.9999999999999
 30
0.0
 11
442.4999999999999
 21
866.7640687119285
 31
0.0
  0
LINE
  5
1019
  8
CUTOUT
 10
267.7689398770624
 20
638.9999999999999
 30
0.0
 11
442.5
 21
813.7310601229376
 31
0.0
  0
LINE
  5
101A
  8
CUTOUT
 10
320.8019484660534
 20
638.9999999999999
 30
0.0
 11
442.5
 21
760.6980515339465
 31
0.0
  0
LINE
  5
101B
  8
CUTOUT
 10
373.8349570550445
 20
638.9999999999999
 30
0.0
 11
442.5
 21
707.6650429449554
 31
0.0
  0
LINE
  5
101C
  8
CUTOUT
 10
426.8679656440355
 20
638.9999999999999
 30
0.0
 11
442.5
 21
654.6320343559644
 31
0.0
  0
LINE
  5
101D
  8
CUTOUT
 10
22.49999999999997
 20
181.5990257669732
 30
0.0
 11
55.90097423302669
 21
214.9999999999999
 31
0.0
  0
LINE
  5
101E
  8
CUTOUT
 10
22.49999999999997
 20
128.5660171779821
 30
0.0
 11
108.9339828220177
 21
214.9999999999999
 31
0.0
  0
LINE
  5
101F
  8
CUTOUT
 10
22.5
 20
75.53300858899104
 30
0.0
 11
161.9669914110088
 21
214.9999999999999
 31
0.0
  0
LINE
  5
1020
  8
CUTOUT
 10
22.5
 20
22.5
 30
0.0
 11
214.9999999999999
 21
214.9999999999999
 31
0.0
  0
LINE
  5
1021
  8
CUTOUT
 10
73.03300858899101
 20
20.0
 30
0.0
 11
268.0330085889909
 21
214.9999999999999
 31
0.0
  0
LINE
  5
1022
  8
CUTOUT
 10
126.0660171779821
 20
19.99999999999994
 30
0.0
 11
321.066017177982
 21
214.9999999999999
 31
0.0
  0
LINE
  5
1023
  8
CUTOUT
 10
179.0990257669731
 20
19.99999999999994
 30
0.0
 11
374.0990257669731
 21
214.9999999999999
 31
0.0
  0
LINE
  5
1024
  8
CUTOUT
 10
232.1320343559642
 20
19.99999999999994
 30
0.0
 11
427.1320343559642
 21
214.9999999999999
 31
0.0
  0
LINE
  5
1025
  8
CUTOUT
 10
285.1650429449552
 20
19.99999999999994
 30
0.0
 11
442.5
 21
177.3349570550447
 31
0.0
  0
LINE
  5
1026
  8
CUTOUT
 10
338.1980515339463
 20
19.99999999999994
 30
0.0
 11
442.5
 21
124.3019484660537
 31
0.0
  0
LINE
  5
1027
  8
CUTOUT
 10
391.2310601229374
 20
19.99999999999994
 30
0.0
 11
442.5
 21
71.26893987706256
 31
0.0
  0
ENDBLK
  5
1028
  8
0
  0
BLOCK
  8
0
  2
*X178
 70
     1
 10
0.0
 20
0.0
 30
0.0
  3
*X178
  1

  0
LINE
  5
1059
  8
CUTOUT
 10
22.5
 20
817.9951288348661
 30
0.0
 11
73.50487116513366
 21
868.9999999999998
 31
0.0
  0
LINE
  5
105A
  8
CUTOUT
 10
22.50000000000006
 20
764.962120245875
 30
0.0
 11
126.5378797541248
 21
868.9999999999998
 31
0.0
  0
LINE
  5
105B
  8
CUTOUT
 10
22.50000000000003
 20
711.9291116568838
 30
0.0
 11
179.5708883431158
 21
868.9999999999998
 31
0.0
  0
LINE
  5
105C
  8
CUTOUT
 10
22.50000000000003
 20
658.8961030678929
 30
0.0
 11
232.6038969321069
 21
868.9999999999998
 31
0.0
  0
LINE
  5
105D
  8
CUTOUT
 10
55.63690552109816
 20
638.9999999999999
 30
0.0
 11
285.6369055210979
 21
868.9999999999998
 31
0.0
  0
LINE
  5
105E
  8
CUTOUT
 10
108.6699141100892
 20
638.9999999999999
 30
0.0
 11
338.6699141100889
 21
868.9999999999997
 31
0.0
  0
LINE
  5
105F
  8
CUTOUT
 10
161.7029226990803
 20
638.9999999999999
 30
0.0
 11
391.70292269908
 21
868.9999999999997
 31
0.0
  0
LINE
  5
1060
  8
CUTOUT
 10
214.7359312880713
 20
638.9999999999999
 30
0.0
 11
442.4999999999999
 21
866.7640687119285
 31
0.0
  0
LINE
  5
1061
  8
CUTOUT
 10
267.7689398770624
 20
638.9999999999999
 30
0.0
 11
442.5
 21
813.7310601229376
 31
0.0
  0
LINE
  5
1062
  8
CUTOUT
 10
320.8019484660534
 20
638.9999999999999
 30
0.0
 11
442.5
 21
760.6980515339465
 31
0.0
  0
LINE
  5
1063
  8
CUTOUT
 10
373.8349570550445
 20
638.9999999999999
 30
0.0
 11
442.5
 21
707.6650429449554
 31
0.0
  0
LINE
  5
1064
  8
CUTOUT
 10
426.8679656440355
 20
638.9999999999999
 30
0.0
 11
442.5
 21
654.6320343559644
 31
0.0
  0
LINE
  5
1065
  8
CUTOUT
 10
22.49999999999997
 20
181.5990257669732
 30
0.0
 11
55.90097423302669
 21
214.9999999999999
 31
0.0
  0
LINE
  5
1066
  8
CUTOUT
 10
22.49999999999997
 20
128.5660171779821
 30
0.0
 11
108.9339828220177
 21
214.9999999999999
 31
0.0
  0
LINE
  5
1067
  8
CUTOUT
 10
22.5
 20
75.53300858899104
 30
0.0
 11
161.9669914110088
 21
214.9999999999999
 31
0.0
  0
LINE
  5
1068
  8
CUTOUT
 10
22.5
 20
22.5
 30
0.0
 11
214.9999999999999
 21
214.9999999999999
 31
0.0
  0
LINE
  5
1069
  8
CUTOUT
 10
73.03300858899101
 20
20.0
 30
0.0
 11
268.0330085889909
 21
214.9999999999999
 31
0.0
  0
LINE
  5
106A
  8
CUTOUT
 10
126.0660171779821
 20
19.99999999999994
 30
0.0
 11
321.066017177982
 21
214.9999999999999
 31
0.0
  0
LINE
  5
106B
  8
CUTOUT
 10
179.0990257669731
 20
19.99999999999994
 30
0.0
 11
374.0990257669731
 21
214.9999999999999
 31
0.0
  0
LINE
  5
106C
  8
CUTOUT
 10
232.1320343559642
 20
19.99999999999994
 30
0.0
 11
427.1320343559642
 21
214.9999999999999
 31
0.0
  0
LINE
  5
106D
  8
CUTOUT
 10
285.1650429449552
 20
19.99999999999994
 30
0.0
 11
442.5
 21
177.3349570550447
 31
0.0
  0
LINE
  5
106E
  8
CUTOUT
 10
338.1980515339463
 20
19.99999999999994
 30
0.0
 11
442.5
 21
124.3019484660537
 31
0.0
  0
LINE
  5
106F
  8
CUTOUT
 10
391.2310601229374
 20
19.99999999999994
 30
0.0
 11
442.5
 21
71.26893987706256
 31
0.0
  0
ENDBLK
  5
1070
  8
0
  0
BLOCK
  8
0
  2
*D179
 70
     1
 10
0.0
 20
0.0
 30
0.0
  3
*D179
  1

  0
LINE
  5
107F
  8
DIMENSIONS
  6
BYBLOCK
 62
     0
 10
86.27604965988485
 20
978.6095802879282
 30
0.0
 11
86.27604965988485
 21
1129.633412647794
 31
0.0
  0
LINE
  5
1080
  8
DIMENSIONS
  6
BYBLOCK
 62
     0
 10
506.2760496598848
 20
978.6095802879282
 30
0.0
 11
506.2760496598848
 21
1129.633412647794
 31
0.0
  0
LINE
  5
1081
  8
DIMENSIONS
  6
BYBLOCK
 62
     0
 10
91.27604965988485
 20
1129.453412647794
 30
0.0
 11
501.2760496598848
 21
1129.453412647794
 31
0.0
  0
SOLID
  5
1082
  8
DIMENSIONS
 62
     0
 10
91.27604965988485
 20
1130.286745981127
 30
0.0
 11
91.27604965988485
 21
1128.620079314461
 31
0.0
 12
86.27604965988485
 22
1129.453412647794
 32
0.0
 13
86.27604965988485
 23
1129.453412647794
 33
0.0
  0
SOLID
  5
1083
  8
DIMENSIONS
 62
     0
 10
501.2760496598848
 20
1128.620079314461
 30
0.0
 11
501.2760496598848
 21
1130.286745981127
 31
0.0
 12
506.2760496598848
 22
1129.453412647794
 32
0.0
 13
506.2760496598848
 23
1129.453412647794
 33
0.0
  0
TEXT
  5
1084
  8
DIMENSIONS
  6
CONTINUOUS
 62
     5
 10
278.9985496598849
 20
1131.848412647794
 30
0.0
 40
5.0
  1
420 [16.54]
  0
POINT
  5
1085
  8
DEFPOINTS
 62
     0
 10
86.27604965988485
 20
977.1095802879282
 30
0.0
  0
POINT
  5
1086
  8
DEFPOINTS
 62
     0
 10
506.2760496598848
 20
977.1095802879282
 30
0.0
  0
POINT
  5
1087
  8
DEFPOINTS
 62
     0
 10
506.2760496598848
 20
1129.453412647794
 30
0.0
  0
ENDBLK
  5
107E
  8
0
  0
BLOCK
  8
0
  2
*D180
 70
     1
 10
0.0
 20
0.0
 30
0.0
  3
*D180
  1

  0
LINE
  5
108E
  8
DIMENSIONS
  6
BYBLOCK
 62
     0
 10
63.77604965988451
 20
1119.609580287929
 30
0.0
 11
63.77604965988451
 21
1143.899808206838
 31
0.0
  0
LINE
  5
108F
  8
DIMENSIONS
  6
BYBLOCK
 62
     0
 10
528.7760496598848
 20
1119.609580287929
 30
0.0
 11
528.7760496598848
 21
1143.899808206838
 31
0.0
  0
LINE
  5
1090
  8
DIMENSIONS
  6
BYBLOCK
 62
     0
 10
68.7760496598845
 20
1143.719808206838
 30
0.0
 11
523.7760496598848
 21
1143.719808206838
 31
0.0
  0
SOLID
  5
1091
  8
DIMENSIONS
 62
     0
 10
68.7760496598845
 20
1144.553141540171
 30
0.0
 11
68.7760496598845
 21
1142.886474873505
 31
0.0
 12
63.77604965988451
 22
1143.719808206838
 32
0.0
 13
63.77604965988451
 23
1143.719808206838
 33
0.0
  0
SOLID
  5
1092
  8
DIMENSIONS
 62
     0
 10
523.7760496598848
 20
1142.886474873505
 30
0.0
 11
523.7760496598848
 21
1144.553141540171
 31
0.0
 12
528.7760496598848
 22
1143.719808206838
 32
0.0
 13
528.7760496598848
 23
1143.719808206838
 33
0.0
  0
TEXT
  5
1093
  8
DIMENSIONS
  6
CONTINUOUS
 62
     5
 10
278.9985496598847
 20
1146.114808206838
 30
0.0
 40
5.0
  1
465 [18.31]
  0
POINT
  5
1094
  8
DEFPOINTS
 62
     0
 10
63.77604965988451
 20
1118.109580287929
 30
0.0
  0
POINT
  5
1095
  8
DEFPOINTS
 62
     0
 10
528.7760496598848
 20
1118.109580287929
 30
0.0
  0
POINT
  5
1096
  8
DEFPOINTS
 62
     0
 10
528.7760496598848
 20
1143.719808206838
 30
0.0
  0
ENDBLK
  5
108D
  8
0
  0
BLOCK
  8
0
  2
*D181
 70
     1
 10
0.0
 20
0.0
 30
0.0
  3
*D181
  1

  0
LINE
  5
109D
  8
DIMENSIONS
  6
BYBLOCK
 62
     0
 10
62.27604965988451
 20
1118.109580287929
 30
0.0
 11
51.16067631813151
 21
1118.109580287929
 31
0.0
  0
LINE
  5
109E
  8
DIMENSIONS
  6
BYBLOCK
 62
     0
 10
84.77604965988485
 20
977.1095802879282
 30
0.0
 11
51.1606763181315
 21
977.1095802879282
 31
0.0
  0
LINE
  5
109F
  8
DIMENSIONS
  6
BYBLOCK
 62
     0
 10
51.34067631813151
 20
1113.109580287929
 30
0.0
 11
51.3406763181315
 21
982.1095802879282
 31
0.0
  0
SOLID
  5
10A0
  8
DIMENSIONS
 62
     0
 10
52.17400965146484
 20
1113.109580287929
 30
0.0
 11
50.50734298479817
 21
1113.109580287929
 31
0.0
 12
51.34067631813151
 22
1118.109580287929
 32
0.0
 13
51.34067631813151
 23
1118.109580287929
 33
0.0
  0
SOLID
  5
10A1
  8
DIMENSIONS
 62
     0
 10
50.50734298479816
 20
982.1095802879282
 30
0.0
 11
52.17400965146484
 21
982.1095802879282
 31
0.0
 12
51.3406763181315
 22
977.1095802879282
 32
0.0
 13
51.3406763181315
 23
977.1095802879282
 33
0.0
  0
TEXT
  5
10A2
  8
DIMENSIONS
  6
CONTINUOUS
 62
     5
 10
48.94567631813129
 20
1031.937080287928
 30
0.0
 40
5.0
  1
141 [5.55]
 50
90.0
  0
POINT
  5
10A3
  8
DEFPOINTS
 62
     0
 10
63.77604965988451
 20
1118.109580287929
 30
0.0
  0
POINT
  5
10A4
  8
DEFPOINTS
 62
     0
 10
86.27604965988485
 20
977.1095802879282
 30
0.0
  0
POINT
  5
10A5
  8
DEFPOINTS
 62
     0
 10
51.3406763181315
 20
977.1095802879282
 30
0.0
  0
ENDBLK
  5
109C
  8
0
  0
BLOCK
  8
0
  2
*D182
 70
     1
 10
0.0
 20
0.0
 30
0.0
  3
*D182
  1

  0
LINE
  5
10AC
  8
DIMENSIONS
  6
BYBLOCK
 62
     0
 10
84.77604965988485
 20
977.1095802879282
 30
0.0
 11
51.1606763181315
 21
977.1095802879282
 31
0.0
  0
LINE
  5
10AD
  8
DIMENSIONS
  6
BYBLOCK
 62
     0
 10
84.77604965988485
 20
747.1095802879283
 30
0.0
 11
51.16067631813149
 21
747.1095802879283
 31
0.0
  0
LINE
  5
10AE
  8
DIMENSIONS
  6
BYBLOCK
 62
     0
 10
51.3406763181315
 20
972.1095802879282
 30
0.0
 11
51.34067631813149
 21
752.1095802879283
 31
0.0
  0
SOLID
  5
10AF
  8
DIMENSIONS
 62
     0
 10
52.17400965146484
 20
972.1095802879282
 30
0.0
 11
50.50734298479816
 21
972.1095802879282
 31
0.0
 12
51.3406763181315
 22
977.1095802879282
 32
0.0
 13
51.3406763181315
 23
977.1095802879282
 33
0.0
  0
SOLID
  5
10B0
  8
DIMENSIONS
 62
     0
 10
50.50734298479815
 20
752.1095802879283
 30
0.0
 11
52.17400965146482
 21
752.1095802879283
 31
0.0
 12
51.34067631813149
 22
747.1095802879283
 32
0.0
 13
51.34067631813149
 23
747.1095802879283
 33
0.0
  0
TEXT
  5
10B1
  8
DIMENSIONS
  6
CONTINUOUS
 62
     5
 10
48.94567631813152
 20
846.7145802879284
 30
0.0
 40
5.0
  1
230 [9.06]
 50
90.0
  0
POINT
  5
10B2
  8
DEFPOINTS
 62
     0
 10
86.27604965988485
 20
977.1095802879282
 30
0.0
  0
POINT
  5
10B3
  8
DEFPOINTS
 62
     0
 10
86.27604965988485
 20
747.1095802879283
 30
0.0
  0
POINT
  5
10B4
  8
DEFPOINTS
 62
     0
 10
51.34067631813149
 20
747.1095802879283
 30
0.0
  0
ENDBLK
  5
10AB
  8
0
  0
BLOCK
  8
0
  2
*D183
 70
     1
 10
0.0
 20
0.0
 30
0.0
  3
*D183
  1

  0
LINE
  5
10BB
  8
DIMENSIONS
  6
BYBLOCK
 62
     0
 10
84.77604965988485
 20
747.1095802879283
 30
0.0
 11
51.16067631813149
 21
747.1095802879283
 31
0.0
  0
LINE
  5
10BC
  8
DIMENSIONS
  6
BYBLOCK
 62
     0
 10
84.77604965988485
 20
323.1095802879283
 30
0.0
 11
51.16067631813146
 21
323.1095802879283
 31
0.0
  0
LINE
  5
10BD
  8
DIMENSIONS
  6
BYBLOCK
 62
     0
 10
51.34067631813149
 20
742.1095802879283
 30
0.0
 11
51.34067631813146
 21
328.1095802879283
 31
0.0
  0
SOLID
  5
10BE
  8
DIMENSIONS
 62
     0
 10
52.17400965146482
 20
742.1095802879283
 30
0.0
 11
50.50734298479815
 21
742.1095802879283
 31
0.0
 12
51.34067631813149
 22
747.1095802879283
 32
0.0
 13
51.34067631813149
 23
747.1095802879283
 33
0.0
  0
SOLID
  5
10BF
  8
DIMENSIONS
 62
     0
 10
50.50734298479812
 20
328.1095802879283
 30
0.0
 11
52.17400965146479
 21
328.1095802879283
 31
0.0
 12
51.34067631813146
 22
323.1095802879283
 32
0.0
 13
51.34067631813146
 23
323.1095802879283
 33
0.0
  0
TEXT
  5
10C0
  8
DIMENSIONS
  6
CONTINUOUS
 62
     5
 10
48.94567631813152
 20
517.8320802879283
 30
0.0
 40
5.0
  1
424 [16.69]
 50
90.0
  0
POINT
  5
10C1
  8
DEFPOINTS
 62
     0
 10
86.27604965988485
 20
747.1095802879283
 30
0.0
  0
POINT
  5
10C2
  8
DEFPOINTS
 62
     0
 10
86.27604965988485
 20
323.1095802879283
 30
0.0
  0
POINT
  5
10C3
  8
DEFPOINTS
 62
     0
 10
51.34067631813146
 20
323.1095802879283
 30
0.0
  0
ENDBLK
  5
10BA
  8
0
  0
BLOCK
  8
0
  2
*D184
 70
     1
 10
0.0
 20
0.0
 30
0.0
  3
*D184
  1

  0
LINE
  5
10CA
  8
DIMENSIONS
  6
BYBLOCK
 62
     0
 10
84.77604965988485
 20
323.1095802879283
 30
0.0
 11
51.16067631813146
 21
323.1095802879283
 31
0.0
  0
LINE
  5
10CB
  8
DIMENSIONS
  6
BYBLOCK
 62
     0
 10
84.77604965988485
 20
128.1095802879285
 30
0.0
 11
51.16067631813144
 21
128.1095802879285
 31
0.0
  0
LINE
  5
10CC
  8
DIMENSIONS
  6
BYBLOCK
 62
     0
 10
51.34067631813146
 20
318.1095802879283
 30
0.0
 11
51.34067631813144
 21
133.1095802879285
 31
0.0
  0
SOLID
  5
10CD
  8
DIMENSIONS
 62
     0
 10
52.17400965146479
 20
318.1095802879283
 30
0.0
 11
50.50734298479812
 21
318.1095802879283
 31
0.0
 12
51.34067631813146
 22
323.1095802879283
 32
0.0
 13
51.34067631813146
 23
323.1095802879283
 33
0.0
  0
SOLID
  5
10CE
  8
DIMENSIONS
 62
     0
 10
50.50734298479811
 20
133.1095802879285
 30
0.0
 11
52.17400965146478
 21
133.1095802879285
 31
0.0
 12
51.34067631813144
 22
128.1095802879285
 32
0.0
 13
51.34067631813144
 23
128.1095802879285
 33
0.0
  0
TEXT
  5
10CF
  8
DIMENSIONS
  6
CONTINUOUS
 62
     5
 10
48.94567631813149
 20
209.9370802879284
 30
0.0
 40
5.0
  1
195 [7.68]
 50
90.0
  0
POINT
  5
10D0
  8
DEFPOINTS
 62
     0
 10
86.27604965988485
 20
323.1095802879283
 30
0.0
  0
POINT
  5
10D1
  8
DEFPOINTS
 62
     0
 10
86.27604965988485
 20
128.1095802879285
 30
0.0
  0
POINT
  5
10D2
  8
DEFPOINTS
 62
     0
 10
51.34067631813144
 20
128.1095802879285
 30
0.0
  0
ENDBLK
  5
10C9
  8
0
  0
BLOCK
  8
0
  2
*D185
 70
     1
 10
0.0
 20
0.0
 30
0.0
  3
*D185
  1

  0
LINE
  5
10D9
  8
DIMENSIONS
  6
BYBLOCK
 62
     0
 10
84.77604965988485
 20
128.1095802879285
 30
0.0
 11
38.97903789825778
 21
128.1095802879285
 31
0.0
  0
LINE
  5
10DA
  8
DIMENSIONS
  6
BYBLOCK
 62
     0
 10
62.27604965988451
 20
108.1095802879283
 30
0.0
 11
38.97903789825778
 21
108.1095802879283
 31
0.0
  0
LINE
  5
10DB
  8
DIMENSIONS
  6
BYBLOCK
 62
     0
 10
39.15903789825778
 20
128.1095802879285
 30
0.0
 11
39.15903789825778
 21
161.6095802879285
 31
0.0
  0
LINE
  5
10DC
  8
DIMENSIONS
  6
BYBLOCK
 62
     0
 10
39.15903789825778
 20
123.1095802879285
 30
0.0
 11
39.15903789825778
 21
113.1095802879283
 31
0.0
  0
SOLID
  5
10DD
  8
DIMENSIONS
 62
     0
 10
39.99237123159111
 20
123.1095802879285
 30
0.0
 11
38.32570456492444
 21
123.1095802879285
 31
0.0
 12
39.15903789825778
 22
128.1095802879285
 32
0.0
 13
39.15903789825778
 23
128.1095802879285
 33
0.0
  0
SOLID
  5
10DE
  8
DIMENSIONS
 62
     0
 10
38.32570456492444
 20
113.1095802879283
 30
0.0
 11
39.99237123159111
 21
113.1095802879283
 31
0.0
 12
39.15903789825778
 22
108.1095802879283
 32
0.0
 13
39.15903789825778
 23
108.1095802879283
 33
0.0
  0
TEXT
  5
10DF
  8
DIMENSIONS
  6
CONTINUOUS
 62
     5
 10
36.76403789825784
 20
133.9045802879285
 30
0.0
 40
5.0
  1
20 [0.79]
 50
90.0
  0
POINT
  5
10E0
  8
DEFPOINTS
 62
     0
 10
86.27604965988485
 20
128.1095802879285
 30
0.0
  0
POINT
  5
10E1
  8
DEFPOINTS
 62
     0
 10
63.77604965988451
 20
108.1095802879283
 30
0.0
  0
POINT
  5
10F2
  8
DEFPOINTS
 62
     0
 10
39.15903789825778
 20
108.1095802879283
 30
0.0
  0
ENDBLK
  5
10D8
  8
0
  0
BLOCK
  8
0
  2
*D186
 70
     1
 10
0.0
 20
0.0
 30
0.0
  3
*D186
  1

  0
LINE
  5
10E8
  8
DIMENSIONS
  6
BYBLOCK
 62
     0
 10
297.7760496598846
 20
114.6095802879283
 30
0.0
 11
542.6670763631046
 21
114.6095802879283
 31
0.0
  0
LINE
  5
10E9
  8
DIMENSIONS
  6
BYBLOCK
 62
     0
 10
297.7760496598847
 20
108.1095802879283
 30
0.0
 11
542.6670763631046
 21
108.1095802879283
 31
0.0
  0
LINE
  5
10EA
  8
DIMENSIONS
  6
BYBLOCK
 62
     0
 10
542.4870763631046
 20
114.6095802879283
 30
0.0
 11
542.4870763631046
 21
154.9945802879283
 31
0.0
  0
LINE
  5
10EB
  8
DIMENSIONS
  6
BYBLOCK
 62
     0
 10
542.4870763631046
 20
119.6095802879283
 30
0.0
 11
542.4870763631046
 21
124.6095802879283
 31
0.0
  0
LINE
  5
10EC
  8
DIMENSIONS
  6
BYBLOCK
 62
     0
 10
542.4870763631046
 20
103.1095802879283
 30
0.0
 11
542.4870763631046
 21
98.10958028792832
 31
0.0
  0
SOLID
  5
10ED
  8
DIMENSIONS
 62
     0
 10
541.6537430297712
 20
119.6095802879283
 30
0.0
 11
543.320409696438
 21
119.6095802879283
 31
0.0
 12
542.4870763631046
 22
114.6095802879283
 32
0.0
 13
542.4870763631046
 23
114.6095802879283
 33
0.0
  0
SOLID
  5
10EE
  8
DIMENSIONS
 62
     0
 10
543.320409696438
 20
103.1095802879283
 30
0.0
 11
541.6537430297712
 21
103.1095802879283
 31
0.0
 12
542.4870763631046
 22
108.1095802879283
 32
0.0
 13
542.4870763631046
 23
108.1095802879283
 33
0.0
  0
TEXT
  5
10EF
  8
DIMENSIONS
  6
CONTINUOUS
 62
     5
 10
540.0920763631046
 20
125.3495802879283
 30
0.0
 40
5.0
  1
6.5 [0.26]
 50
90.0
  0
POINT
  5
10F0
  8
DEFPOINTS
 62
     0
 10
296.2760496598846
 20
114.6095802879283
 30
0.0
  0
POINT
  5
10F1
  8
DEFPOINTS
 62
     0
 10
296.2760496598847
 20
108.1095802879283
 30
0.0
  0
POINT
  5
10F3
  8
DEFPOINTS
 62
     0
 10
542.4870763631046
 20
108.1095802879283
 30
0.0
  0
ENDBLK
  5
10E7
  8
0
  0
BLOCK
  8
0
  2
*D187
 70
     1
 10
0.0
 20
0.0
 30
0.0
  3
*D187
  1

  0
LINE
  5
10FA
  8
DIMENSIONS
  6
BYBLOCK
 62
     0
 10
288.0260620166268
 20
114.6238591566726
 30
0.0
 11
241.8011312518274
 21
114.7038640909395
 31
0.0
  0
TEXT
  5
10FB
  8
DIMENSIONS
  6
CONTINUOUS
 62
     5
 10
242.5254138340441
 20
117.1776142280992
 30
0.0
 40
5.0
  1
Ø6.5 [Ø0.26]
 50
359.900834021367
  0
SOLID
  5
10FC
  8
DIMENSIONS
 62
     0
 10
288.0246197066526
 20
113.790527071495
 30
0.0
 11
288.0275043266009
 21
115.4571912418501
 31
0.0
 12
293.0260545276922
 22
114.6152052968276
 32
0.0
 13
293.0260545276922
 23
114.6152052968276
 33
0.0
  0
LINE
  5
10FD
  8
DIMENSIONS
  6
BYBLOCK
 62
     0
 10
293.7760496598846
 20
114.6095802879283
 30
0.0
 11
298.7760496598846
 21
114.6095802879283
 31
0.0
  0
LINE
  5
10FE
  8
DIMENSIONS
  6
BYBLOCK
 62
     0
 10
296.2760496598846
 20
112.1095802879283
 30
0.0
 11
296.2760496598846
 21
117.1095802879283
 31
0.0
  0
POINT
  5
10FF
  8
DEFPOINTS
 62
     0
 10
293.0260545276922
 20
114.6152052968276
 30
0.0
  0
POINT
  5
1100
  8
DEFPOINTS
 62
     0
 10
299.5260447920771
 20
114.6039552790291
 30
0.0
  0
ENDBLK
  5
10F9
  8
0
  0
BLOCK
  8
0
  2
*X189
 70
     1
 10
0.0
 20
0.0
 30
0.0
  3
*X189
  1

  0
LINE
  5
1160
  8
CUTOUT
 10
22.5
 20
817.9951288348661
 30
0.0
 11
73.50487116513366
 21
868.9999999999998
 31
0.0
  0
LINE
  5
1161
  8
CUTOUT
 10
22.50000000000006
 20
764.962120245875
 30
0.0
 11
126.5378797541248
 21
868.9999999999998
 31
0.0
  0
LINE
  5
1162
  8
CUTOUT
 10
22.50000000000003
 20
711.9291116568838
 30
0.0
 11
179.5708883431158
 21
868.9999999999998
 31
0.0
  0
LINE
  5
1163
  8
CUTOUT
 10
22.50000000000003
 20
658.8961030678929
 30
0.0
 11
232.6038969321069
 21
868.9999999999998
 31
0.0
  0
LINE
  5
1164
  8
CUTOUT
 10
55.63690552109816
 20
638.9999999999999
 30
0.0
 11
285.6369055210979
 21
868.9999999999998
 31
0.0
  0
LINE
  5
1165
  8
CUTOUT
 10
108.6699141100892
 20
638.9999999999999
 30
0.0
 11
338.6699141100889
 21
868.9999999999997
 31
0.0
  0
LINE
  5
1166
  8
CUTOUT
 10
161.7029226990803
 20
638.9999999999999
 30
0.0
 11
391.70292269908
 21
868.9999999999997
 31
0.0
  0
LINE
  5
1167
  8
CUTOUT
 10
214.7359312880713
 20
638.9999999999999
 30
0.0
 11
442.4999999999999
 21
866.7640687119285
 31
0.0
  0
LINE
  5
1168
  8
CUTOUT
 10
267.7689398770624
 20
638.9999999999999
 30
0.0
 11
442.5
 21
813.7310601229376
 31
0.0
  0
LINE
  5
1169
  8
CUTOUT
 10
320.8019484660534
 20
638.9999999999999
 30
0.0
 11
442.5
 21
760.6980515339465
 31
0.0
  0
LINE
  5
116A
  8
CUTOUT
 10
373.8349570550445
 20
638.9999999999999
 30
0.0
 11
442.5
 21
707.6650429449554
 31
0.0
  0
LINE
  5
116B
  8
CUTOUT
 10
426.8679656440355
 20
638.9999999999999
 30
0.0
 11
442.5
 21
654.6320343559644
 31
0.0
  0
LINE
  5
116C
  8
CUTOUT
 10
22.49999999999997
 20
181.5990257669732
 30
0.0
 11
55.90097423302669
 21
214.9999999999999
 31
0.0
  0
LINE
  5
116D
  8
CUTOUT
 10
22.49999999999997
 20
128.5660171779821
 30
0.0
 11
108.9339828220177
 21
214.9999999999999
 31
0.0
  0
LINE
  5
116E
  8
CUTOUT
 10
22.5
 20
75.53300858899104
 30
0.0
 11
161.9669914110088
 21
214.9999999999999
 31
0.0
  0
LINE
  5
116F
  8
CUTOUT
 10
22.5
 20
22.5
 30
0.0
 11
214.9999999999999
 21
214.9999999999999
 31
0.0
  0
LINE
  5
1170
  8
CUTOUT
 10
73.03300858899101
 20
20.0
 30
0.0
 11
268.0330085889909
 21
214.9999999999999
 31
0.0
  0
LINE
  5
1171
  8
CUTOUT
 10
126.0660171779821
 20
19.99999999999994
 30
0.0
 11
321.066017177982
 21
214.9999999999999
 31
0.0
  0
LINE
  5
1172
  8
CUTOUT
 10
179.0990257669731
 20
19.99999999999994
 30
0.0
 11
374.0990257669731
 21
214.9999999999999
 31
0.0
  0
LINE
  5
1173
  8
CUTOUT
 10
232.1320343559642
 20
19.99999999999994
 30
0.0
 11
427.1320343559642
 21
214.9999999999999
 31
0.0
  0
LINE
  5
1174
  8
CUTOUT
 10
285.1650429449552
 20
19.99999999999994
 30
0.0
 11
442.5
 21
177.3349570550447
 31
0.0
  0
LINE
  5
1175
  8
CUTOUT
 10
338.1980515339463
 20
19.99999999999994
 30
0.0
 11
442.5
 21
124.3019484660537
 31
0.0
  0
LINE
  5
1176
  8
CUTOUT
 10
391.2310601229374
 20
19.99999999999994
 30
0.0
 11
442.5
 21
71.26893987706256
 31
0.0
  0
ENDBLK
  5
1177
  8
0
  0
BLOCK
  8
0
  2
*X191
 70
     1
 10
0.0
 20
0.0
 30
0.0
  3
*X191
  1

  0
LINE
  5
11AF
  8
CUTOUT
 10
14.99999999999997
 20
766.3009550107067
 30
0.0
 11
32.69904498929318
 21
784.0
 31
0.0
  0
LINE
  5
11B0
  8
CUTOUT
 10
14.99999999999997
 20
691.1708595096361
 30
0.0
 11
107.8291404903639
 21
784.0
 31
0.0
  0
LINE
  5
11B1
  8
CUTOUT
 10
42.95923599143453
 20
644.0
 30
0.0
 11
182.9592359914345
 21
784.0
 31
0.0
  0
LINE
  5
11B2
  8
CUTOUT
 10
118.0893314925052
 20
644.0
 30
0.0
 11
258.0893314925053
 21
784.0
 31
0.0
  0
LINE
  5
11B3
  8
CUTOUT
 10
193.2194269935759
 20
644.0
 30
0.0
 11
333.2194269935759
 21
784.0
 31
0.0
  0
LINE
  5
11B4
  8
CUTOUT
 10
268.3495224946466
 20
644.0
 30
0.0
 11
408.3495224946465
 21
784.0
 31
0.0
  0
LINE
  5
11B5
  8
CUTOUT
 10
343.4796179957173
 20
644.0
 30
0.0
 11
435.0
 21
735.5203820042827
 31
0.0
  0
LINE
  5
11B6
  8
CUTOUT
 10
418.6097134967879
 20
644.0
 30
0.0
 11
435.0
 21
660.3902865032121
 31
0.0
  0
LINE
  5
11B7
  8
CUTOUT
 10
110.0000000000001
 20
185.1300955010707
 30
0.0
 11
161.8699044989293
 21
236.9999999999999
 31
0.0
  0
LINE
  5
11B8
  8
CUTOUT
 10
110.0
 20
110.0000000000001
 30
0.0
 11
236.9999999999999
 21
237.0
 31
0.0
  0
LINE
  5
11B9
  8
CUTOUT
 10
112.1300955010707
 20
37.0
 30
0.0
 11
310.0000000000001
 21
234.8699044989294
 31
0.0
  0
LINE
  5
11BA
  8
CUTOUT
 10
187.2601910021413
 20
37.0
 30
0.0
 11
310.0000000000001
 21
159.7398089978587
 31
0.0
  0
LINE
  5
11BB
  8
CUTOUT
 10
262.390286503212
 20
37.0
 30
0.0
 11
310.0000000000001
 21
84.60971349678812
 31
0.0
  0
ENDBLK
  5
11BC
  8
0
  0
BLOCK
  8
0
  2
*D192
 70
     1
 10
0.0
 20
0.0
 30
0.0
  3
*D192
  1

  0
LINE
  5
11CE
  8
DIMENSIONS
  6
BYBLOCK
 62
     0
 10
-442.0643844954623
 20
1234.531360188034
 30
0.0
 11
-442.0643844954623
 21
1282.550050535765
 31
0.0
  0
LINE
  5
11CF
  8
DIMENSIONS
  6
BYBLOCK
 62
     0
 10
-62.06438449546221
 20
1234.531360188034
 30
0.0
 11
-62.06438449546221
 21
1282.550050535765
 31
0.0
  0
LINE
  5
11D0
  8
DIMENSIONS
  6
BYBLOCK
 62
     0
 10
-437.0643844954623
 20
1282.370050535765
 30
0.0
 11
-67.0643844954622
 21
1282.370050535765
 31
0.0
  0
SOLID
  5
11D1
  8
DIMENSIONS
 62
     0
 10
-437.0643844954623
 20
1283.203383869099
 30
0.0
 11
-437.0643844954623
 21
1281.536717202432
 31
0.0
 12
-442.0643844954623
 22
1282.370050535765
 32
0.0
 13
-442.0643844954623
 23
1282.370050535765
 33
0.0
  0
SOLID
  5
11D2
  8
DIMENSIONS
 62
     0
 10
-67.0643844954622
 20
1281.536717202432
 30
0.0
 11
-67.0643844954622
 21
1283.203383869099
 31
0.0
 12
-62.06438449546221
 22
1282.370050535765
 32
0.0
 13
-62.06438449546221
 23
1282.370050535765
 33
0.0
  0
TEXT
  5
11D3
  8
DIMENSIONS
  6
CONTINUOUS
 62
     5
 10
-269.4443844954623
 20
1284.765050535766
 30
0.0
 40
5.0
  1
380 [14.96]
  0
POINT
  5
11D4
  8
DEFPOINTS
 62
     0
 10
-442.0643844954623
 20
1233.031360188034
 30
0.0
  0
POINT
  5
11D5
  8
DEFPOINTS
 62
     0
 10
-62.06438449546221
 20
1233.031360188034
 30
0.0
  0
POINT
  5
11D6
  8
DEFPOINTS
 62
     0
 10
-62.06438449546221
 20
1282.370050535765
 30
0.0
  0
ENDBLK
  5
11CD
  8
0
  0
BLOCK
  8
0
  2
*D193
 70
     1
 10
0.0
 20
0.0
 30
0.0
  3
*D193
  1

  0
LINE
  5
11DD
  8
DIMENSIONS
  6
BYBLOCK
 62
     0
 10
-27.06438449546221
 20
1269.531360188034
 30
0.0
 11
-27.06438449546221
 21
1298.110407948275
 31
0.0
  0
LINE
  5
11DE
  8
DIMENSIONS
  6
BYBLOCK
 62
     0
 10
-477.0643844954623
 20
1269.531360188034
 30
0.0
 11
-477.0643844954623
 21
1298.110407948275
 31
0.0
  0
LINE
  5
11DF
  8
DIMENSIONS
  6
BYBLOCK
 62
     0
 10
-32.06438449546221
 20
1297.930407948275
 30
0.0
 11
-472.0643844954623
 21
1297.930407948275
 31
0.0
  0
SOLID
  5
11E0
  8
DIMENSIONS
 62
     0
 10
-32.06438449546221
 20
1297.097074614942
 30
0.0
 11
-32.06438449546221
 21
1298.763741281608
 31
0.0
 12
-27.06438449546221
 22
1297.930407948275
 32
0.0
 13
-27.06438449546221
 23
1297.930407948275
 33
0.0
  0
SOLID
  5
11E1
  8
DIMENSIONS
 62
     0
 10
-472.0643844954623
 20
1298.763741281608
 30
0.0
 11
-472.0643844954623
 21
1297.097074614942
 31
0.0
 12
-477.0643844954623
 22
1297.930407948275
 32
0.0
 13
-477.0643844954623
 23
1297.930407948275
 33
0.0
  0
TEXT
  5
11E2
  8
DIMENSIONS
  6
CONTINUOUS
 62
     5
 10
-269.3418844954622
 20
1300.325407948275
 30
0.0
 40
5.0
  1
450 [17.72]
  0
POINT
  5
11E3
  8
DEFPOINTS
 62
     0
 10
-27.06438449546221
 20
1268.031360188034
 30
0.0
  0
POINT
  5
11E4
  8
DEFPOINTS
 62
     0
 10
-477.0643844954623
 20
1268.031360188034
 30
0.0
  0
POINT
  5
11E5
  8
DEFPOINTS
 62
     0
 10
-477.0643844954623
 20
1297.930407948275
 30
0.0
  0
ENDBLK
  5
11DC
  8
0
  0
BLOCK
  8
0
  2
*D194
 70
     1
 10
0.0
 20
0.0
 30
0.0
  3
*D194
  1

  0
LINE
  5
11EC
  8
DIMENSIONS
  6
BYBLOCK
 62
     0
 10
-462.0643844954623
 20
903.5313601880339
 30
0.0
 11
-462.0643844954623
 21
916.7090987605646
 31
0.0
  0
LINE
  5
11ED
  8
DIMENSIONS
  6
BYBLOCK
 62
     0
 10
-42.06438449546226
 20
903.5313601880339
 30
0.0
 11
-42.06438449546226
 21
916.7090987605646
 31
0.0
  0
LINE
  5
11EE
  8
DIMENSIONS
  6
BYBLOCK
 62
     0
 10
-457.0643844954623
 20
916.5290987605647
 30
0.0
 11
-47.06438449546226
 21
916.5290987605647
 31
0.0
  0
SOLID
  5
11EF
  8
DIMENSIONS
 62
     0
 10
-457.0643844954623
 20
917.3624320938981
 30
0.0
 11
-457.0643844954623
 21
915.6957654272313
 31
0.0
 12
-462.0643844954623
 22
916.5290987605647
 32
0.0
 13
-462.0643844954623
 23
916.5290987605647
 33
0.0
  0
SOLID
  5
11F0
  8
DIMENSIONS
 62
     0
 10
-47.06438449546226
 20
915.6957654272313
 30
0.0
 11
-47.06438449546226
 21
917.3624320938981
 31
0.0
 12
-42.06438449546226
 22
916.5290987605647
 32
0.0
 13
-42.06438449546226
 23
916.5290987605647
 33
0.0
  0
TEXT
  5
11F1
  8
DIMENSIONS
  6
CONTINUOUS
 62
     5
 10
-269.3418844954622
 20
918.9240987605647
 30
0.0
 40
5.0
  1
420 [16.54]
  0
POINT
  5
11F2
  8
DEFPOINTS
 62
     0
 10
-462.0643844954623
 20
902.0313601880339
 30
0.0
  0
POINT
  5
11F3
  8
DEFPOINTS
 62
     0
 10
-42.06438449546226
 20
902.0313601880339
 30
0.0
  0
POINT
  5
11F4
  8
DEFPOINTS
 62
     0
 10
-42.06438449546226
 20
916.5290987605647
 30
0.0
  0
ENDBLK
  5
11EB
  8
0
  0
BLOCK
  8
0
  2
*D195
 70
     1
 10
0.0
 20
0.0
 30
0.0
  3
*D195
  1

  0
LINE
  5
1211
  8
DIMENSIONS
  6
BYBLOCK
 62
     0
 10
-478.5643844954623
 20
1268.031360188034
 30
0.0
 11
-492.7940413969845
 21
1268.031360188034
 31
0.0
  0
LINE
  5
1212
  8
DIMENSIONS
  6
BYBLOCK
 62
     0
 10
-443.5643844954623
 20
1233.031360188034
 30
0.0
 11
-492.7940413969845
 21
1233.031360188034
 31
0.0
  0
LINE
  5
1213
  8
DIMENSIONS
  6
BYBLOCK
 62
     0
 10
-492.6140413969845
 20
1263.031360188034
 30
0.0
 11
-492.6140413969845
 21
1238.031360188034
 31
0.0
  0
SOLID
  5
1214
  8
DIMENSIONS
 62
     0
 10
-491.7807080636512
 20
1263.031360188034
 30
0.0
 11
-493.4473747303178
 21
1263.031360188034
 31
0.0
 12
-492.6140413969845
 22
1268.031360188034
 32
0.0
 13
-492.6140413969845
 23
1268.031360188034
 33
0.0
  0
SOLID
  5
1215
  8
DIMENSIONS
 62
     0
 10
-493.4473747303178
 20
1238.031360188034
 30
0.0
 11
-491.7807080636512
 21
1238.031360188034
 31
0.0
 12
-492.6140413969845
 22
1233.031360188034
 32
0.0
 13
-492.6140413969845
 23
1233.031360188034
 33
0.0
  0
TEXT
  5
1216
  8
DIMENSIONS
  6
CONTINUOUS
 62
     5
 10
-495.0090413969847
 20
1237.031360188034
 30
0.0
 40
5.0
  1
35 [1.38]
 50
90.0
  0
POINT
  5
1217
  8
DEFPOINTS
 62
     0
 10
-477.0643844954623
 20
1268.031360188034
 30
0.0
  0
POINT
  5
1218
  8
DEFPOINTS
 62
     0
 10
-442.0643844954623
 20
1233.031360188034
 30
0.0
  0
POINT
  5
1219
  8
DEFPOINTS
 62
     0
 10
-492.6140413969845
 20
1233.031360188034
 30
0.0
  0
ENDBLK
  5
1210
  8
0
  0
BLOCK
  8
0
  2
*D196
 70
     1
 10
0.0
 20
0.0
 30
0.0
  3
*D196
  1

  0
LINE
  5
1220
  8
DIMENSIONS
  6
BYBLOCK
 62
     0
 10
-443.5643844954623
 20
1233.031360188034
 30
0.0
 11
-492.7940413969845
 21
1233.031360188034
 31
0.0
  0
LINE
  5
1221
  8
DIMENSIONS
  6
BYBLOCK
 62
     0
 10
-463.5643844954623
 20
902.0313601880339
 30
0.0
 11
-492.7940413969845
 21
902.0313601880339
 31
0.0
  0
LINE
  5
1222
  8
DIMENSIONS
  6
BYBLOCK
 62
     0
 10
-492.6140413969845
 20
1228.031360188034
 30
0.0
 11
-492.6140413969845
 21
907.0313601880339
 31
0.0
  0
SOLID
  5
1223
  8
DIMENSIONS
 62
     0
 10
-491.7807080636512
 20
1228.031360188034
 30
0.0
 11
-493.4473747303178
 21
1228.031360188034
 31
0.0
 12
-492.6140413969845
 22
1233.031360188034
 32
0.0
 13
-492.6140413969845
 23
1233.031360188034
 33
0.0
  0
SOLID
  5
1224
  8
DIMENSIONS
 62
     0
 10
-493.4473747303178
 20
907.0313601880339
 30
0.0
 11
-491.7807080636512
 21
907.0313601880339
 31
0.0
 12
-492.6140413969845
 22
902.0313601880339
 32
0.0
 13
-492.6140413969845
 23
902.0313601880339
 33
0.0
  0
TEXT
  5
1225
  8
DIMENSIONS
  6
CONTINUOUS
 62
     5
 10
-495.0090413969847
 20
1050.151360188034
 30
0.0
 40
5.0
  1
331 [13.03]
 50
90.0
  0
POINT
  5
1226
  8
DEFPOINTS
 62
     0
 10
-442.0643844954623
 20
1233.031360188034
 30
0.0
  0
POINT
  5
1227
  8
DEFPOINTS
 62
     0
 10
-462.0643844954623
 20
902.0313601880339
 30
0.0
  0
POINT
  5
1228
  8
DEFPOINTS
 62
     0
 10
-492.6140413969845
 20
902.0313601880339
 30
0.0
  0
ENDBLK
  5
121F
  8
0
  0
BLOCK
  8
0
  2
*D197
 70
     1
 10
0.0
 20
0.0
 30
0.0
  3
*D197
  1

  0
LINE
  5
122F
  8
DIMENSIONS
  6
BYBLOCK
 62
     0
 10
-463.5643844954623
 20
902.0313601880339
 30
0.0
 11
-492.7940413969845
 21
902.0313601880339
 31
0.0
  0
LINE
  5
1230
  8
DIMENSIONS
  6
BYBLOCK
 62
     0
 10
-463.5643844954623
 20
762.0313601880339
 30
0.0
 11
-492.7940413969845
 21
762.0313601880339
 31
0.0
  0
LINE
  5
1231
  8
DIMENSIONS
  6
BYBLOCK
 62
     0
 10
-492.6140413969845
 20
897.0313601880339
 30
0.0
 11
-492.6140413969845
 21
767.0313601880339
 31
0.0
  0
SOLID
  5
1232
  8
DIMENSIONS
 62
     0
 10
-491.7807080636512
 20
897.0313601880339
 30
0.0
 11
-493.4473747303178
 21
897.0313601880339
 31
0.0
 12
-492.6140413969845
 22
902.0313601880339
 32
0.0
 13
-492.6140413969845
 23
902.0313601880339
 33
0.0
  0
SOLID
  5
1233
  8
DIMENSIONS
 62
     0
 10
-493.4473747303178
 20
767.0313601880339
 30
0.0
 11
-491.7807080636512
 21
767.0313601880339
 31
0.0
 12
-492.6140413969845
 22
762.0313601880339
 32
0.0
 13
-492.6140413969845
 23
762.0313601880339
 33
0.0
  0
TEXT
  5
1234
  8
DIMENSIONS
  6
CONTINUOUS
 62
     5
 10
-495.0090413969845
 20
816.358860188034
 30
0.0
 40
5.0
  1
140 [5.51]
 50
90.0
  0
POINT
  5
1235
  8
DEFPOINTS
 62
     0
 10
-462.0643844954623
 20
902.0313601880339
 30
0.0
  0
POINT
  5
1236
  8
DEFPOINTS
 62
     0
 10
-462.0643844954623
 20
762.0313601880339
 30
0.0
  0
POINT
  5
1237
  8
DEFPOINTS
 62
     0
 10
-492.6140413969845
 20
762.0313601880339
 30
0.0
  0
ENDBLK
  5
122E
  8
0
  0
BLOCK
  8
0
  2
*D198
 70
     1
 10
0.0
 20
0.0
 30
0.0
  3
*D198
  1

  0
LINE
  5
123E
  8
DIMENSIONS
  6
BYBLOCK
 62
     0
 10
-463.5643844954623
 20
762.0313601880339
 30
0.0
 11
-492.7940413969845
 21
762.0313601880339
 31
0.0
  0
LINE
  5
123F
  8
DIMENSIONS
  6
BYBLOCK
 62
     0
 10
-368.5643844954622
 20
355.0313601880339
 30
0.0
 11
-492.7940413969845
 21
355.0313601880339
 31
0.0
  0
LINE
  5
1240
  8
DIMENSIONS
  6
BYBLOCK
 62
     0
 10
-492.6140413969845
 20
757.0313601880339
 30
0.0
 11
-492.6140413969845
 21
360.0313601880339
 31
0.0
  0
SOLID
  5
1241
  8
DIMENSIONS
 62
     0
 10
-491.7807080636512
 20
757.0313601880339
 30
0.0
 11
-493.4473747303178
 21
757.0313601880339
 31
0.0
 12
-492.6140413969845
 22
762.0313601880339
 32
0.0
 13
-492.6140413969845
 23
762.0313601880339
 33
0.0
  0
SOLID
  5
1242
  8
DIMENSIONS
 62
     0
 10
-493.4473747303178
 20
360.0313601880339
 30
0.0
 11
-491.7807080636512
 21
360.0313601880339
 31
0.0
 12
-492.6140413969845
 22
355.0313601880339
 32
0.0
 13
-492.6140413969845
 23
355.0313601880339
 33
0.0
  0
TEXT
  5
1243
  8
DIMENSIONS
  6
CONTINUOUS
 62
     5
 10
-495.0090413969845
 20
541.253860188034
 30
0.0
 40
5.0
  1
407 [16.02]
 50
90.0
  0
POINT
  5
1244
  8
DEFPOINTS
 62
     0
 10
-462.0643844954623
 20
762.0313601880339
 30
0.0
  0
POINT
  5
1245
  8
DEFPOINTS
 62
     0
 10
-367.0643844954622
 20
355.0313601880339
 30
0.0
  0
POINT
  5
1246
  8
DEFPOINTS
 62
     0
 10
-492.6140413969845
 20
355.0313601880339
 30
0.0
  0
ENDBLK
  5
123D
  8
0
  0
BLOCK
  8
0
  2
*D199
 70
     1
 10
0.0
 20
0.0
 30
0.0
  3
*D199
  1

  0
LINE
  5
124D
  8
DIMENSIONS
  6
BYBLOCK
 62
     0
 10
-368.5643844954622
 20
355.0313601880339
 30
0.0
 11
-492.7940413969845
 21
355.0313601880339
 31
0.0
  0
LINE
  5
124E
  8
DIMENSIONS
  6
BYBLOCK
 62
     0
 10
-368.5643844954622
 20
155.0313601880339
 30
0.0
 11
-492.7940413969845
 21
155.0313601880339
 31
0.0
  0
LINE
  5
124F
  8
DIMENSIONS
  6
BYBLOCK
 62
     0
 10
-492.6140413969845
 20
350.0313601880339
 30
0.0
 11
-492.6140413969845
 21
160.0313601880339
 31
0.0
  0
SOLID
  5
1250
  8
DIMENSIONS
 62
     0
 10
-491.7807080636512
 20
350.0313601880339
 30
0.0
 11
-493.4473747303178
 21
350.0313601880339
 31
0.0
 12
-492.6140413969845
 22
355.0313601880339
 32
0.0
 13
-492.6140413969845
 23
355.0313601880339
 33
0.0
  0
SOLID
  5
1251
  8
DIMENSIONS
 62
     0
 10
-493.4473747303178
 20
160.0313601880339
 30
0.0
 11
-491.7807080636512
 21
160.0313601880339
 31
0.0
 12
-492.6140413969845
 22
155.0313601880339
 32
0.0
 13
-492.6140413969845
 23
155.0313601880339
 33
0.0
  0
TEXT
  5
1252
  8
DIMENSIONS
  6
CONTINUOUS
 62
     5
 10
-495.0090413969845
 20
239.6363601880338
 30
0.0
 40
5.0
  1
200 [7.87]
 50
90.0
  0
POINT
  5
1253
  8
DEFPOINTS
 62
     0
 10
-367.0643844954622
 20
355.0313601880339
 30
0.0
  0
POINT
  5
1254
  8
DEFPOINTS
 62
     0
 10
-367.0643844954622
 20
155.0313601880339
 30
0.0
  0
POINT
  5
1255
  8
DEFPOINTS
 62
     0
 10
-492.6140413969845
 20
155.0313601880339
 30
0.0
  0
ENDBLK
  5
124C
  8
0
  0
BLOCK
  8
0
  2
*D200
 70
     1
 10
0.0
 20
0.0
 30
0.0
  3
*D200
  1

  0
LINE
  5
125C
  8
DIMENSIONS
  6
BYBLOCK
 62
     0
 10
-443.5643844954623
 20
153.0313601880339
 30
0.0
 11
-496.0134413336494
 21
153.0313601880339
 31
0.0
  0
LINE
  5
125D
  8
DIMENSIONS
  6
BYBLOCK
 62
     0
 10
-443.5643844954623
 20
1234.531360188034
 30
0.0
 11
-496.0134413336494
 21
1234.531360188034
 31
0.0
  0
LINE
  5
125E
  8
DIMENSIONS
  6
BYBLOCK
 62
     0
 10
-495.8334413336494
 20
158.0313601880339
 30
0.0
 11
-495.8334413336494
 21
1229.531360188034
 31
0.0
  0
SOLID
  5
125F
  8
DIMENSIONS
 62
     0
 10
-496.6667746669827
 20
158.0313601880339
 30
0.0
 11
-495.0001080003161
 21
158.0313601880339
 31
0.0
 12
-495.8334413336494
 22
153.0313601880339
 32
0.0
 13
-495.8334413336494
 23
153.0313601880339
 33
0.0
  0
SOLID
  5
1260
  8
DIMENSIONS
 62
     0
 10
-495.0001080003161
 20
1229.531360188034
 30
0.0
 11
-496.6667746669827
 21
1229.531360188034
 31
0.0
 12
-495.8334413336494
 22
1234.531360188034
 32
0.0
 13
-495.8334413336494
 23
1234.531360188034
 33
0.0
  0
TEXT
  5
1261
  8
DIMENSIONS
  6
CONTINUOUS
 62
     5
 10
-498.2284413336494
 20
671.3188601880339
 30
0.0
 40
5.0
  1
1081.5 [42.58]
 50
90.0
  0
POINT
  5
1262
  8
DEFPOINTS
 62
     0
 10
-442.0643844954623
 20
153.0313601880339
 30
0.0
  0
POINT
  5
1263
  8
DEFPOINTS
 62
     0
 10
-442.0643844954623
 20
1234.531360188034
 30
0.0
  0
POINT
  5
1264
  8
DEFPOINTS
 62
     0
 10
-495.8334413336494
 20
1234.531360188034
 30
0.0
  0
ENDBLK
  5
125B
  8
0
  0
BLOCK
  8
0
  2
*D201
 70
     1
 10
0.0
 20
0.0
 30
0.0
  3
*D201
  1

  0
LINE
  5
126B
  8
DIMENSIONS
  6
BYBLOCK
 62
     0
 10
-478.5643844954623
 20
1268.031360188034
 30
0.0
 11
-516.976148935273
 21
1268.031360188034
 31
0.0
  0
LINE
  5
126C
  8
DIMENSIONS
  6
BYBLOCK
 62
     0
 10
-478.5643844954623
 20
118.0313601880339
 30
0.0
 11
-516.9761489352732
 21
118.0313601880339
 31
0.0
  0
LINE
  5
126D
  8
DIMENSIONS
  6
BYBLOCK
 62
     0
 10
-516.7961489352731
 20
1263.031360188034
 30
0.0
 11
-516.7961489352732
 21
123.0313601880339
 31
0.0
  0
SOLID
  5
126E
  8
DIMENSIONS
 62
     0
 10
-515.9628156019397
 20
1263.031360188034
 30
0.0
 11
-517.6294822686065
 21
1263.031360188034
 31
0.0
 12
-516.7961489352731
 22
1268.031360188034
 32
0.0
 13
-516.7961489352731
 23
1268.031360188034
 33
0.0
  0
SOLID
  5
126F
  8
DIMENSIONS
 62
     0
 10
-517.6294822686066
 20
123.0313601880339
 30
0.0
 11
-515.9628156019398
 21
123.0313601880339
 31
0.0
 12
-516.7961489352732
 22
118.0313601880339
 32
0.0
 13
-516.7961489352732
 23
118.0313601880339
 33
0.0
  0
TEXT
  5
1270
  8
DIMENSIONS
  6
CONTINUOUS
 62
     5
 10
-519.1911489352731
 20
673.4788601880339
 30
0.0
 40
5.0
  1
1150 [45.28]
 50
90.0
  0
POINT
  5
1271
  8
DEFPOINTS
 62
     0
 10
-477.0643844954623
 20
1268.031360188034
 30
0.0
  0
POINT
  5
1272
  8
DEFPOINTS
 62
     0
 10
-477.0643844954623
 20
118.0313601880339
 30
0.0
  0
POINT
  5
1273
  8
DEFPOINTS
 62
     0
 10
-516.7961489352732
 20
118.0313601880339
 30
0.0
  0
ENDBLK
  5
126A
  8
0
  0
BLOCK
  8
0
  2
*D202
 70
     1
 10
0.0
 20
0.0
 30
0.0
  3
*D202
  1

  0
LINE
  5
127A
  8
DIMENSIONS
  6
BYBLOCK
 62
     0
 10
-25.56438449546221
 20
1268.031360188034
 30
0.0
 11
-7.028371364362711
 21
1268.031360188034
 31
0.0
  0
LINE
  5
127B
  8
DIMENSIONS
  6
BYBLOCK
 62
     0
 10
-40.56438449546226
 20
902.0313601880339
 30
0.0
 11
-7.028371364362734
 21
902.0313601880339
 31
0.0
  0
LINE
  5
127C
  8
DIMENSIONS
  6
BYBLOCK
 62
     0
 10
-7.208371364362711
 20
1263.031360188034
 30
0.0
 11
-7.208371364362733
 21
907.0313601880339
 31
0.0
  0
SOLID
  5
127D
  8
DIMENSIONS
 62
     0
 10
-6.375038031029378
 20
1263.031360188034
 30
0.0
 11
-8.041704697696044
 21
1263.031360188034
 31
0.0
 12
-7.208371364362711
 22
1268.031360188034
 32
0.0
 13
-7.208371364362711
 23
1268.031360188034
 33
0.0
  0
SOLID
  5
127E
  8
DIMENSIONS
 62
     0
 10
-8.041704697696067
 20
907.0313601880339
 30
0.0
 11
-6.3750380310294
 21
907.0313601880339
 31
0.0
 12
-7.208371364362733
 22
902.0313601880339
 32
0.0
 13
-7.208371364362733
 23
902.0313601880339
 33
0.0
  0
TEXT
  5
127F
  8
DIMENSIONS
  6
CONTINUOUS
 62
     5
 10
-9.603371364362829
 20
1067.651360188034
 30
0.0
 40
5.0
  1
366 [14.41]
 50
90.0
  0
POINT
  5
1280
  8
DEFPOINTS
 62
     0
 10
-27.06438449546221
 20
1268.031360188034
 30
0.0
  0
POINT
  5
1281
  8
DEFPOINTS
 62
     0
 10
-42.06438449546226
 20
902.0313601880339
 30
0.0
  0
POINT
  5
1282
  8
DEFPOINTS
 62
     0
 10
-7.208371364362733
 20
902.0313601880339
 30
0.0
  0
ENDBLK
  5
1279
  8
0
  0
BLOCK
  8
0
  2
*D203
 70
     1
 10
0.0
 20
0.0
 30
0.0
  3
*D203
  1

  0
LINE
  5
1289
  8
DIMENSIONS
  6
BYBLOCK
 62
     0
 10
-40.56438449546226
 20
902.0313601880339
 30
0.0
 11
-7.028371364362734
 21
902.0313601880339
 31
0.0
  0
LINE
  5
128A
  8
DIMENSIONS
  6
BYBLOCK
 62
     0
 10
-40.56438449546226
 20
762.0313601880339
 30
0.0
 11
-7.028371364362743
 21
762.0313601880339
 31
0.0
  0
LINE
  5
128B
  8
DIMENSIONS
  6
BYBLOCK
 62
     0
 10
-7.208371364362733
 20
897.0313601880339
 30
0.0
 11
-7.208371364362742
 21
767.0313601880339
 31
0.0
  0
SOLID
  5
128C
  8
DIMENSIONS
 62
     0
 10
-6.3750380310294
 20
897.0313601880339
 30
0.0
 11
-8.041704697696067
 21
897.0313601880339
 31
0.0
 12
-7.208371364362733
 22
902.0313601880339
 32
0.0
 13
-7.208371364362733
 23
902.0313601880339
 33
0.0
  0
SOLID
  5
128D
  8
DIMENSIONS
 62
     0
 10
-8.041704697696076
 20
767.0313601880339
 30
0.0
 11
-6.375038031029409
 21
767.0313601880339
 31
0.0
 12
-7.208371364362742
 22
762.0313601880339
 32
0.0
 13
-7.208371364362742
 23
762.0313601880339
 33
0.0
  0
TEXT
  5
128E
  8
DIMENSIONS
  6
CONTINUOUS
 62
     5
 10
-9.603371364362715
 20
816.358860188034
 30
0.0
 40
5.0
  1
140 [5.51]
 50
90.0
  0
POINT
  5
128F
  8
DEFPOINTS
 62
     0
 10
-42.06438449546226
 20
902.0313601880339
 30
0.0
  0
POINT
  5
1290
  8
DEFPOINTS
 62
     0
 10
-42.06438449546226
 20
762.0313601880339
 30
0.0
  0
POINT
  5
1291
  8
DEFPOINTS
 62
     0
 10
-7.208371364362742
 20
762.0313601880339
 30
0.0
  0
ENDBLK
  5
1288
  8
0
  0
BLOCK
  8
0
  2
*D204
 70
     1
 10
0.0
 20
0.0
 30
0.0
  3
*D204
  1

  0
LINE
  5
1298
  8
DIMENSIONS
  6
BYBLOCK
 62
     0
 10
-40.56438449546226
 20
762.0313601880339
 30
0.0
 11
-7.028371364362743
 21
762.0313601880339
 31
0.0
  0
LINE
  5
1299
  8
DIMENSIONS
  6
BYBLOCK
 62
     0
 10
-165.5643844954621
 20
355.0313601880339
 30
0.0
 11
-7.028371364362767
 21
355.0313601880339
 31
0.0
  0
LINE
  5
129A
  8
DIMENSIONS
  6
BYBLOCK
 62
     0
 10
-7.208371364362742
 20
757.0313601880339
 30
0.0
 11
-7.208371364362767
 21
360.0313601880339
 31
0.0
  0
SOLID
  5
129B
  8
DIMENSIONS
 62
     0
 10
-6.375038031029409
 20
757.0313601880339
 30
0.0
 11
-8.041704697696076
 21
757.0313601880339
 31
0.0
 12
-7.208371364362742
 22
762.0313601880339
 32
0.0
 13
-7.208371364362742
 23
762.0313601880339
 33
0.0
  0
SOLID
  5
129C
  8
DIMENSIONS
 62
     0
 10
-8.041704697696101
 20
360.0313601880339
 30
0.0
 11
-6.375038031029434
 21
360.0313601880339
 31
0.0
 12
-7.208371364362767
 22
355.0313601880339
 32
0.0
 13
-7.208371364362767
 23
355.0313601880339
 33
0.0
  0
TEXT
  5
129D
  8
DIMENSIONS
  6
CONTINUOUS
 62
     5
 10
-9.603371364362715
 20
541.2538601880339
 30
0.0
 40
5.0
  1
407 [16.02]
 50
90.0
  0
POINT
  5
129E
  8
DEFPOINTS
 62
     0
 10
-42.06438449546226
 20
762.0313601880339
 30
0.0
  0
POINT
  5
129F
  8
DEFPOINTS
 62
     0
 10
-167.0643844954621
 20
355.0313601880339
 30
0.0
  0
POINT
  5
12A0
  8
DEFPOINTS
 62
     0
 10
-7.208371364362767
 20
355.0313601880339
 30
0.0
  0
ENDBLK
  5
1297
  8
0
  0
BLOCK
  8
0
  2
*D205
 70
     1
 10
0.0
 20
0.0
 30
0.0
  3
*D205
  1

  0
LINE
  5
12A7
  8
DIMENSIONS
  6
BYBLOCK
 62
     0
 10
-165.5643844954621
 20
355.0313601880339
 30
0.0
 11
-7.028371364362767
 21
355.0313601880339
 31
0.0
  0
LINE
  5
12A8
  8
DIMENSIONS
  6
BYBLOCK
 62
     0
 10
-165.5643844954621
 20
155.0313601880339
 30
0.0
 11
-7.02837136436278
 21
155.0313601880339
 31
0.0
  0
LINE
  5
12A9
  8
DIMENSIONS
  6
BYBLOCK
 62
     0
 10
-7.208371364362767
 20
350.0313601880339
 30
0.0
 11
-7.20837136436278
 21
160.0313601880339
 31
0.0
  0
SOLID
  5
12AA
  8
DIMENSIONS
 62
     0
 10
-6.375038031029434
 20
350.0313601880339
 30
0.0
 11
-8.041704697696101
 21
350.0313601880339
 31
0.0
 12
-7.208371364362767
 22
355.0313601880339
 32
0.0
 13
-7.208371364362767
 23
355.0313601880339
 33
0.0
  0
SOLID
  5
12AB
  8
DIMENSIONS
 62
     0
 10
-8.041704697696114
 20
160.0313601880339
 30
0.0
 11
-6.375038031029447
 21
160.0313601880339
 31
0.0
 12
-7.20837136436278
 22
155.0313601880339
 32
0.0
 13
-7.20837136436278
 23
155.0313601880339
 33
0.0
  0
TEXT
  5
12AC
  8
DIMENSIONS
  6
CONTINUOUS
 62
     5
 10
-9.603371364362715
 20
239.6363601880338
 30
0.0
 40
5.0
  1
200 [7.87]
 50
90.0
  0
POINT
  5
12AD
  8
DEFPOINTS
 62
     0
 10
-167.0643844954621
 20
355.0313601880339
 30
0.0
  0
POINT
  5
12AE
  8
DEFPOINTS
 62
     0
 10
-167.0643844954621
 20
155.0313601880339
 30
0.0
  0
POINT
  5
12AF
  8
DEFPOINTS
 62
     0
 10
-7.20837136436278
 20
155.0313601880339
 30
0.0
  0
ENDBLK
  5
12A6
  8
0
  0
BLOCK
  8
0
  2
*D206
 70
     1
 10
0.0
 20
0.0
 30
0.0
  3
*D206
  1

  0
LINE
  5
12B6
  8
DIMENSIONS
  6
BYBLOCK
 62
     0
 10
-165.5643844954621
 20
155.0313601880339
 30
0.0
 11
-7.02837136436278
 21
155.0313601880339
 31
0.0
  0
LINE
  5
12B7
  8
DIMENSIONS
  6
BYBLOCK
 62
     0
 10
-25.56438449546221
 20
118.0313601880339
 30
0.0
 11
-7.028371364362783
 21
118.0313601880339
 31
0.0
  0
LINE
  5
12B8
  8
DIMENSIONS
  6
BYBLOCK
 62
     0
 10
-7.20837136436278
 20
150.0313601880339
 30
0.0
 11
-7.208371364362782
 21
123.0313601880339
 31
0.0
  0
SOLID
  5
12B9
  8
DIMENSIONS
 62
     0
 10
-6.375038031029447
 20
150.0313601880339
 30
0.0
 11
-8.041704697696114
 21
150.0313601880339
 31
0.0
 12
-7.20837136436278
 22
155.0313601880339
 32
0.0
 13
-7.20837136436278
 23
155.0313601880339
 33
0.0
  0
SOLID
  5
12BA
  8
DIMENSIONS
 62
     0
 10
-8.041704697696115
 20
123.0313601880339
 30
0.0
 11
-6.375038031029449
 21
123.0313601880339
 31
0.0
 12
-7.208371364362782
 22
118.0313601880339
 32
0.0
 13
-7.208371364362782
 23
118.0313601880339
 33
0.0
  0
TEXT
  5
12BB
  8
DIMENSIONS
  6
CONTINUOUS
 62
     5
 10
-9.60337136436273
 20
123.0313601880339
 30
0.0
 40
5.0
  1
37 [1.46]
 50
90.0
  0
POINT
  5
12BC
  8
DEFPOINTS
 62
     0
 10
-167.0643844954621
 20
155.0313601880339
 30
0.0
  0
POINT
  5
12BD
  8
DEFPOINTS
 62
     0
 10
-27.06438449546221
 20
118.0313601880339
 30
0.0
  0
POINT
  5
12BE
  8
DEFPOINTS
 62
     0
 10
-7.208371364362782
 20
118.0313601880339
 30
0.0
  0
ENDBLK
  5
12B5
  8
0
  0
BLOCK
  8
0
  2
*D207
 70
     1
 10
0.0
 20
0.0
 30
0.0
  3
*D207
  1

  0
LINE
  5
12C5
  8
DIMENSIONS
  6
BYBLOCK
 62
     0
 10
-367.0643844954622
 20
356.5313601880339
 30
0.0
 11
-367.0643844954622
 21
367.9984377399057
 31
0.0
  0
LINE
  5
12C6
  8
DIMENSIONS
  6
BYBLOCK
 62
     0
 10
-167.0643844954621
 20
356.5313601880339
 30
0.0
 11
-167.0643844954621
 21
367.9984377399057
 31
0.0
  0
LINE
  5
12C7
  8
DIMENSIONS
  6
BYBLOCK
 62
     0
 10
-362.0643844954622
 20
367.8184377399057
 30
0.0
 11
-172.0643844954621
 21
367.8184377399057
 31
0.0
  0
SOLID
  5
12C8
  8
DIMENSIONS
 62
     0
 10
-362.0643844954622
 20
368.651771073239
 30
0.0
 11
-362.0643844954622
 21
366.9851044065724
 31
0.0
 12
-367.0643844954622
 22
367.8184377399057
 32
0.0
 13
-367.0643844954622
 23
367.8184377399057
 33
0.0
  0
SOLID
  5
12C9
  8
DIMENSIONS
 62
     0
 10
-172.0643844954621
 20
366.9851044065724
 30
0.0
 11
-172.0643844954621
 21
368.651771073239
 31
0.0
 12
-167.0643844954621
 22
367.8184377399057
 32
0.0
 13
-167.0643844954621
 23
367.8184377399057
 33
0.0
  0
TEXT
  5
12CA
  8
DIMENSIONS
  6
CONTINUOUS
 62
     5
 10
-282.4593844954621
 20
370.2134377399057
 30
0.0
 40
5.0
  1
200 [7.87]
  0
POINT
  5
12CB
  8
DEFPOINTS
 62
     0
 10
-367.0643844954622
 20
355.0313601880339
 30
0.0
  0
POINT
  5
12CC
  8
DEFPOINTS
 62
     0
 10
-167.0643844954621
 20
355.0313601880339
 30
0.0
  0
POINT
  5
12CD
  8
DEFPOINTS
 62
     0
 10
-167.0643844954621
 20
367.8184377399057
 30
0.0
  0
ENDBLK
  5
12C4
  8
0
  0
BLOCK
  8
0
  2
*D209
 70
     1
 10
0.0
 20
0.0
 30
0.0
  3
*D209
  1

  0
LINE
  5
135C
  8
DIMENSIONS
  6
BYBLOCK
 62
     0
 10
312.1006127007555
 20
714.3903073374223
 30
0.0
 11
357.9979273999382
 21
713.0289441771379
 31
0.0
  0
LINE
  5
135D
  8
DIMENSIONS
  6
BYBLOCK
 62
     0
 10
268.9545880045018
 20
715.670064310552
 30
0.0
 11
223.057273305319
 21
717.0314274708364
 31
0.0
  0
TEXT
  5
135E
  8
DIMENSIONS
  6
CONTINUOUS
 62
     5
 10
269.6206826889075
 20
713.8420123087188
 30
0.0
 40
5.0
  1
Ø135 [Ø5.31]
 50
358.3010443705757
  0
SOLID
  5
135F
  8
DIMENSIONS
 62
     0
 10
352.9754187094356
 20
712.3442172985426
 30
0.0
 11
353.0248320834319
 21
714.0101512997107
 31
0.0
 12
357.9979273999382
 22
713.0289441771379
 32
0.0
 13
357.9979273999382
 23
713.0289441771379
 33
0.0
  0
SOLID
  5
1360
  8
DIMENSIONS
 62
     0
 10
228.0797819958216
 20
717.7161543494317
 30
0.0
 11
228.0303686218253
 21
716.0502203482636
 31
0.0
 12
223.057273305319
 22
717.0314274708364
 32
0.0
 13
223.057273305319
 23
717.0314274708364
 33
0.0
  0
POINT
  5
1361
  8
DEFPOINTS
 62
     0
 10
223.057273305319
 20
717.0314274708364
 30
0.0
  0
POINT
  5
1362
  8
DEFPOINTS
 62
     0
 10
357.9979273999382
 20
713.0289441771379
 30
0.0
  0
ENDBLK
  5
135B
  8
0
  0
BLOCK
  8
0
  2
*D210
 70
     1
 10
0.0
 20
0.0
 30
0.0
  3
*D210
  1

  0
LINE
  5
1369
  8
DIMENSIONS
  6
BYBLOCK
 62
     0
 10
369.0276003526289
 20
794.5301858239868
 30
0.0
 11
369.0276003526289
 21
822.614081247845
 31
0.0
  0
LINE
  5
136A
  8
DIMENSIONS
  6
BYBLOCK
 62
     0
 10
208.0276003526286
 20
794.5301858239872
 30
0.0
 11
208.0276003526286
 21
822.614081247845
 31
0.0
  0
LINE
  5
136B
  8
DIMENSIONS
  6
BYBLOCK
 62
     0
 10
364.0276003526289
 20
822.434081247845
 30
0.0
 11
213.0276003526286
 21
822.434081247845
 31
0.0
  0
SOLID
  5
136C
  8
DIMENSIONS
 62
     0
 10
364.0276003526289
 20
821.6007479145117
 30
0.0
 11
364.0276003526289
 21
823.2674145811784
 31
0.0
 12
369.0276003526289
 22
822.434081247845
 32
0.0
 13
369.0276003526289
 23
822.434081247845
 33
0.0
  0
SOLID
  5
136D
  8
DIMENSIONS
 62
     0
 10
213.0276003526286
 20
823.2674145811784
 30
0.0
 11
213.0276003526286
 21
821.6007479145117
 31
0.0
 12
208.0276003526286
 22
822.434081247845
 32
0.0
 13
208.0276003526286
 23
822.434081247845
 33
0.0
  0
TEXT
  5
136E
  8
DIMENSIONS
  6
CONTINUOUS
 62
     5
 10
272.8551003526288
 20
824.829081247845
 30
0.0
 40
5.0
  1
161 [6.34]
  0
POINT
  5
136F
  8
DEFPOINTS
 62
     0
 10
369.0276003526289
 20
793.0301858239868
 30
0.0
  0
POINT
  5
1370
  8
DEFPOINTS
 62
     0
 10
208.0276003526286
 20
793.0301858239872
 30
0.0
  0
POINT
  5
1371
  8
DEFPOINTS
 62
     0
 10
208.0276003526286
 20
822.434081247845
 30
0.0
  0
ENDBLK
  5
1368
  8
0
  0
BLOCK
  8
0
  2
*D211
 70
     1
 10
0.0
 20
0.0
 30
0.0
  3
*D211
  1

  0
LINE
  5
1378
  8
DIMENSIONS
  6
BYBLOCK
 62
     0
 10
182.5276003526286
 20
811.5301858239872
 30
0.0
 11
182.5276003526286
 21
834.5261333224062
 31
0.0
  0
LINE
  5
1379
  8
DIMENSIONS
  6
BYBLOCK
 62
     0
 10
394.527600352629
 20
811.5301858239872
 30
0.0
 11
394.527600352629
 21
834.5261333224062
 31
0.0
  0
LINE
  5
137A
  8
DIMENSIONS
  6
BYBLOCK
 62
     0
 10
187.5276003526286
 20
834.3461333224062
 30
0.0
 11
389.527600352629
 21
834.3461333224062
 31
0.0
  0
SOLID
  5
137B
  8
DIMENSIONS
 62
     0
 10
187.5276003526286
 20
835.1794666557396
 30
0.0
 11
187.5276003526286
 21
833.5127999890728
 31
0.0
 12
182.5276003526286
 22
834.3461333224062
 32
0.0
 13
182.5276003526286
 23
834.3461333224062
 33
0.0
  0
SOLID
  5
137C
  8
DIMENSIONS
 62
     0
 10
389.527600352629
 20
833.5127999890728
 30
0.0
 11
389.527600352629
 21
835.1794666557396
 31
0.0
 12
394.527600352629
 22
834.3461333224062
 32
0.0
 13
394.527600352629
 23
834.3461333224062
 33
0.0
  0
TEXT
  5
137D
  8
DIMENSIONS
  6
CONTINUOUS
 62
     5
 10
273.1326003526288
 20
836.7411333224062
 30
0.0
 40
5.0
  1
212 [8.35]
  0
POINT
  5
137E
  8
DEFPOINTS
 62
     0
 10
182.5276003526286
 20
810.0301858239872
 30
0.0
  0
POINT
  5
137F
  8
DEFPOINTS
 62
     0
 10
394.527600352629
 20
810.0301858239872
 30
0.0
  0
POINT
  5
1380
  8
DEFPOINTS
 62
     0
 10
394.527600352629
 20
834.3461333224062
 30
0.0
  0
ENDBLK
  5
1377
  8
0
  0
BLOCK
  8
0
  2
*D212
 70
     1
 10
0.0
 20
0.0
 30
0.0
  3
*D212
  1

  0
LINE
  5
1387
  8
DIMENSIONS
  6
BYBLOCK
 62
     0
 10
223.0276003526286
 20
713.5301858239872
 30
0.0
 11
223.0276003526286
 21
627.0103769193224
 31
0.0
  0
LINE
  5
1388
  8
DIMENSIONS
  6
BYBLOCK
 62
     0
 10
358.0276003526286
 20
713.5301858239872
 30
0.0
 11
358.0276003526286
 21
627.0103769193224
 31
0.0
  0
LINE
  5
1389
  8
DIMENSIONS
  6
BYBLOCK
 62
     0
 10
228.0276003526286
 20
627.1903769193224
 30
0.0
 11
353.0276003526286
 21
627.1903769193224
 31
0.0
  0
SOLID
  5
138A
  8
DIMENSIONS
 62
     0
 10
228.0276003526286
 20
628.0237102526557
 30
0.0
 11
228.0276003526286
 21
626.357043585989
 31
0.0
 12
223.0276003526286
 22
627.1903769193224
 32
0.0
 13
223.0276003526286
 23
627.1903769193224
 33
0.0
  0
SOLID
  5
138B
  8
DIMENSIONS
 62
     0
 10
353.0276003526286
 20
626.357043585989
 30
0.0
 11
353.0276003526286
 21
628.0237102526557
 31
0.0
 12
358.0276003526286
 22
627.1903769193224
 32
0.0
 13
358.0276003526286
 23
627.1903769193224
 33
0.0
  0
TEXT
  5
138C
  8
DIMENSIONS
  6
CONTINUOUS
 62
     5
 10
274.8551003526286
 20
629.5853769193224
 30
0.0
 40
5.0
  1
135 [5.31]
  0
POINT
  5
138D
  8
DEFPOINTS
 62
     0
 10
223.0276003526286
 20
715.0301858239872
 30
0.0
  0
POINT
  5
138E
  8
DEFPOINTS
 62
     0
 10
358.0276003526286
 20
715.0301858239872
 30
0.0
  0
POINT
  5
138F
  8
DEFPOINTS
 62
     0
 10
358.0276003526286
 20
627.1903769193224
 30
0.0
  0
ENDBLK
  5
1386
  8
0
  0
BLOCK
  8
0
  2
*D213
 70
     1
 10
0.0
 20
0.0
 30
0.0
  3
*D213
  1

  0
LINE
  5
1396
  8
DIMENSIONS
  6
BYBLOCK
 62
     0
 10
181.0276003526286
 20
810.0301858239872
 30
0.0
 11
156.9428088461459
 21
810.0301858239872
 31
0.0
  0
LINE
  5
1397
  8
DIMENSIONS
  6
BYBLOCK
 62
     0
 10
206.5276003526286
 20
793.0301858239872
 30
0.0
 11
156.9428088461459
 21
793.0301858239872
 31
0.0
  0
LINE
  5
1398
  8
DIMENSIONS
  6
BYBLOCK
 62
     0
 10
157.1228088461459
 20
793.0301858239872
 30
0.0
 11
157.1228088461459
 21
760.0851858239872
 31
0.0
  0
LINE
  5
1399
  8
DIMENSIONS
  6
BYBLOCK
 62
     0
 10
157.1228088461459
 20
805.0301858239872
 30
0.0
 11
157.1228088461459
 21
798.0301858239872
 31
0.0
  0
SOLID
  5
139A
  8
DIMENSIONS
 62
     0
 10
157.9561421794793
 20
805.0301858239872
 30
0.0
 11
156.2894755128126
 21
805.0301858239872
 31
0.0
 12
157.1228088461459
 22
810.0301858239872
 32
0.0
 13
157.1228088461459
 23
810.0301858239872
 33
0.0
  0
SOLID
  5
139B
  8
DIMENSIONS
 62
     0
 10
156.2894755128126
 20
798.0301858239872
 30
0.0
 11
157.9561421794793
 21
798.0301858239872
 31
0.0
 12
157.1228088461459
 22
793.0301858239872
 32
0.0
 13
157.1228088461459
 23
793.0301858239872
 33
0.0
  0
TEXT
  5
139C
  8
DIMENSIONS
  6
CONTINUOUS
 62
     5
 10
154.727808846146
 20
760.3251858239871
 30
0.0
 40
5.0
  1
17 [0.67]
 50
90.0
  0
POINT
  5
139D
  8
DEFPOINTS
 62
     0
 10
182.5276003526286
 20
810.0301858239872
 30
0.0
  0
POINT
  5
139E
  8
DEFPOINTS
 62
     0
 10
208.0276003526286
 20
793.0301858239872
 30
0.0
  0
POINT
  5
1429
  8
DEFPOINTS
 62
     0
 10
157.1228088461459
 20
793.0301858239872
 30
0.0
  0
ENDBLK
  5
1395
  8
0
  0
BLOCK
  8
0
  2
*D214
 70
     1
 10
0.0
 20
0.0
 30
0.0
  3
*D214
  1

  0
LINE
  5
13A5
  8
DIMENSIONS
  6
BYBLOCK
 62
     0
 10
206.5276003526286
 20
793.0301858239872
 30
0.0
 11
169.3328258735559
 21
793.0301858239872
 31
0.0
  0
LINE
  5
13A6
  8
DIMENSIONS
  6
BYBLOCK
 62
     0
 10
221.5276003526286
 20
713.5301858239872
 30
0.0
 11
169.3328258735559
 21
713.5301858239872
 31
0.0
  0
LINE
  5
13A7
  8
DIMENSIONS
  6
BYBLOCK
 62
     0
 10
169.5128258735559
 20
788.0301858239872
 30
0.0
 11
169.5128258735559
 21
718.5301858239872
 31
0.0
  0
SOLID
  5
13A8
  8
DIMENSIONS
 62
     0
 10
170.3461592068892
 20
788.0301858239872
 30
0.0
 11
168.6794925402225
 21
788.0301858239872
 31
0.0
 12
169.5128258735559
 22
793.0301858239872
 32
0.0
 13
169.5128258735559
 23
793.0301858239872
 33
0.0
  0
SOLID
  5
13A9
  8
DIMENSIONS
 62
     0
 10
168.6794925402225
 20
718.5301858239872
 30
0.0
 11
170.3461592068892
 21
718.5301858239872
 31
0.0
 12
169.5128258735559
 22
713.5301858239872
 32
0.0
 13
169.5128258735559
 23
713.5301858239872
 33
0.0
  0
TEXT
  5
13AA
  8
DIMENSIONS
  6
CONTINUOUS
 62
     5
 10
167.1178258735558
 20
736.8526858239873
 30
0.0
 40
5.0
  1
79.5 [3.13]
 50
90.0
  0
POINT
  5
13AB
  8
DEFPOINTS
 62
     0
 10
208.0276003526286
 20
793.0301858239872
 30
0.0
  0
POINT
  5
13AC
  8
DEFPOINTS
 62
     0
 10
223.0276003526286
 20
713.5301858239872
 30
0.0
  0
POINT
  5
13AD
  8
DEFPOINTS
 62
     0
 10
169.5128258735559
 20
713.5301858239872
 30
0.0
  0
ENDBLK
  5
13A4
  8
0
  0
BLOCK
  8
0
  2
*D215
 70
     1
 10
0.0
 20
0.0
 30
0.0
  3
*D215
  1

  0
LINE
  5
13B4
  8
DIMENSIONS
  6
BYBLOCK
 62
     0
 10
221.5276003526286
 20
713.5301858239872
 30
0.0
 11
169.3328258735559
 21
713.5301858239872
 31
0.0
  0
LINE
  5
13B5
  8
DIMENSIONS
  6
BYBLOCK
 62
     0
 10
186.5276003526286
 20
483.5301858239872
 30
0.0
 11
169.3328258735559
 21
483.5301858239872
 31
0.0
  0
LINE
  5
13B6
  8
DIMENSIONS
  6
BYBLOCK
 62
     0
 10
169.5128258735559
 20
708.5301858239872
 30
0.0
 11
169.5128258735559
 21
488.5301858239872
 31
0.0
  0
SOLID
  5
13B7
  8
DIMENSIONS
 62
     0
 10
170.3461592068892
 20
708.5301858239872
 30
0.0
 11
168.6794925402225
 21
708.5301858239872
 31
0.0
 12
169.5128258735559
 22
713.5301858239872
 32
0.0
 13
169.5128258735559
 23
713.5301858239872
 33
0.0
  0
SOLID
  5
13B8
  8
DIMENSIONS
 62
     0
 10
168.6794925402225
 20
488.5301858239872
 30
0.0
 11
170.3461592068892
 21
488.5301858239872
 31
0.0
 12
169.5128258735559
 22
483.5301858239872
 32
0.0
 13
169.5128258735559
 23
483.5301858239872
 33
0.0
  0
TEXT
  5
13B9
  8
DIMENSIONS
  6
CONTINUOUS
 62
     5
 10
167.1178258735558
 20
583.1351858239872
 30
0.0
 40
5.0
  1
230 [9.06]
 50
90.0
  0
POINT
  5
13BA
  8
DEFPOINTS
 62
     0
 10
223.0276003526286
 20
713.5301858239872
 30
0.0
  0
POINT
  5
13BB
  8
DEFPOINTS
 62
     0
 10
188.0276003526286
 20
483.5301858239872
 30
0.0
  0
POINT
  5
13BC
  8
DEFPOINTS
 62
     0
 10
169.5128258735559
 20
483.5301858239872
 30
0.0
  0
ENDBLK
  5
13B3
  8
0
  0
BLOCK
  8
0
  2
*D216
 70
     1
 10
0.0
 20
0.0
 30
0.0
  3
*D216
  1

  0
LINE
  5
13C3
  8
DIMENSIONS
  6
BYBLOCK
 62
     0
 10
186.5276003526286
 20
483.5301858239872
 30
0.0
 11
169.3328258735559
 21
483.5301858239872
 31
0.0
  0
LINE
  5
13C4
  8
DIMENSIONS
  6
BYBLOCK
 62
     0
 10
186.5276003526286
 20
435.5301858239872
 30
0.0
 11
169.3328258735559
 21
435.5301858239872
 31
0.0
  0
LINE
  5
13C5
  8
DIMENSIONS
  6
BYBLOCK
 62
     0
 10
169.5128258735559
 20
478.5301858239872
 30
0.0
 11
169.5128258735559
 21
440.5301858239872
 31
0.0
  0
SOLID
  5
13C6
  8
DIMENSIONS
 62
     0
 10
170.3461592068892
 20
478.5301858239872
 30
0.0
 11
168.6794925402225
 21
478.5301858239872
 31
0.0
 12
169.5128258735559
 22
483.5301858239872
 32
0.0
 13
169.5128258735559
 23
483.5301858239872
 33
0.0
  0
SOLID
  5
13C7
  8
DIMENSIONS
 62
     0
 10
168.6794925402225
 20
440.5301858239872
 30
0.0
 11
170.3461592068892
 21
440.5301858239872
 31
0.0
 12
169.5128258735559
 22
435.5301858239872
 32
0.0
 13
169.5128258735559
 23
435.5301858239872
 33
0.0
  0
TEXT
  5
13C8
  8
DIMENSIONS
  6
CONTINUOUS
 62
     5
 10
167.1178258735558
 20
446.1326858239871
 30
0.0
 40
5.0
  1
48 [1.89]
 50
90.0
  0
POINT
  5
13C9
  8
DEFPOINTS
 62
     0
 10
188.0276003526286
 20
483.5301858239872
 30
0.0
  0
POINT
  5
13CA
  8
DEFPOINTS
 62
     0
 10
188.0276003526286
 20
435.5301858239872
 30
0.0
  0
POINT
  5
13CB
  8
DEFPOINTS
 62
     0
 10
169.5128258735559
 20
435.5301858239872
 30
0.0
  0
ENDBLK
  5
13C2
  8
0
  0
BLOCK
  8
0
  2
*D217
 70
     1
 10
0.0
 20
0.0
 30
0.0
  3
*D217
  1

  0
LINE
  5
13D2
  8
DIMENSIONS
  6
BYBLOCK
 62
     0
 10
186.5276003526286
 20
435.5301858239872
 30
0.0
 11
155.5648819762708
 21
435.5301858239872
 31
0.0
  0
LINE
  5
13D3
  8
DIMENSIONS
  6
BYBLOCK
 62
     0
 10
206.5276003526286
 20
427.0301858239872
 30
0.0
 11
155.5648819762708
 21
427.0301858239872
 31
0.0
  0
LINE
  5
13D4
  8
DIMENSIONS
  6
BYBLOCK
 62
     0
 10
155.7448819762708
 20
435.5301858239872
 30
0.0
 11
155.7448819762708
 21
475.8901858239872
 31
0.0
  0
LINE
  5
13D5
  8
DIMENSIONS
  6
BYBLOCK
 62
     0
 10
155.7448819762708
 20
440.5301858239872
 30
0.0
 11
155.7448819762708
 21
445.5301858239872
 31
0.0
  0
LINE
  5
13D6
  8
DIMENSIONS
  6
BYBLOCK
 62
     0
 10
155.7448819762708
 20
422.0301858239872
 30
0.0
 11
155.7448819762708
 21
417.0301858239872
 31
0.0
  0
SOLID
  5
13D7
  8
DIMENSIONS
 62
     0
 10
154.9115486429374
 20
440.5301858239872
 30
0.0
 11
156.5782153096041
 21
440.5301858239872
 31
0.0
 12
155.7448819762708
 22
435.5301858239872
 32
0.0
 13
155.7448819762708
 23
435.5301858239872
 33
0.0
  0
SOLID
  5
13D8
  8
DIMENSIONS
 62
     0
 10
156.5782153096041
 20
422.0301858239872
 30
0.0
 11
154.9115486429374
 21
422.0301858239872
 31
0.0
 12
155.7448819762708
 22
427.0301858239872
 32
0.0
 13
155.7448819762708
 23
427.0301858239872
 33
0.0
  0
TEXT
  5
13D9
  8
DIMENSIONS
  6
CONTINUOUS
 62
     5
 10
153.3498819762708
 20
446.2451858239872
 30
0.0
 40
5.0
  1
8.5 [0.33]
 50
90.0
  0
POINT
  5
13DA
  8
DEFPOINTS
 62
     0
 10
188.0276003526286
 20
435.5301858239872
 30
0.0
  0
POINT
  5
13DB
  8
DEFPOINTS
 62
     0
 10
208.0276003526286
 20
427.0301858239872
 30
0.0
  0
POINT
  5
1428
  8
DEFPOINTS
 62
     0
 10
155.7448819762708
 20
427.0301858239872
 30
0.0
  0
ENDBLK
  5
13D1
  8
0
  0
BLOCK
  8
0
  2
*D218
 70
     1
 10
0.0
 20
0.0
 30
0.0
  3
*D218
  1

  0
LINE
  5
13E2
  8
DIMENSIONS
  6
BYBLOCK
 62
     0
 10
206.5276003526286
 20
427.0301858239872
 30
0.0
 11
140.5503340237691
 21
427.0301858239872
 31
0.0
  0
LINE
  5
13E3
  8
DIMENSIONS
  6
BYBLOCK
 62
     0
 10
181.0276003526286
 20
410.0301858239872
 30
0.0
 11
140.5503340237691
 21
410.0301858239872
 31
0.0
  0
LINE
  5
13E4
  8
DIMENSIONS
  6
BYBLOCK
 62
     0
 10
140.7303340237691
 20
427.0301858239872
 30
0.0
 11
140.7303340237691
 21
459.9751858239871
 31
0.0
  0
LINE
  5
13E5
  8
DIMENSIONS
  6
BYBLOCK
 62
     0
 10
140.7303340237691
 20
422.0301858239872
 30
0.0
 11
140.7303340237691
 21
415.0301858239872
 31
0.0
  0
SOLID
  5
13E6
  8
DIMENSIONS
 62
     0
 10
141.5636673571024
 20
422.0301858239872
 30
0.0
 11
139.8970006904357
 21
422.0301858239872
 31
0.0
 12
140.7303340237691
 22
427.0301858239872
 32
0.0
 13
140.7303340237691
 23
427.0301858239872
 33
0.0
  0
SOLID
  5
13E7
  8
DIMENSIONS
 62
     0
 10
139.8970006904357
 20
415.0301858239872
 30
0.0
 11
141.5636673571024
 21
415.0301858239872
 31
0.0
 12
140.7303340237691
 22
410.0301858239872
 32
0.0
 13
140.7303340237691
 23
410.0301858239872
 33
0.0
  0
TEXT
  5
13E8
  8
DIMENSIONS
  6
CONTINUOUS
 62
     5
 10
138.3353340237691
 20
432.2701858239872
 30
0.0
 40
5.0
  1
17 [0.67]
 50
90.0
  0
POINT
  5
13E9
  8
DEFPOINTS
 62
     0
 10
208.0276003526286
 20
427.0301858239872
 30
0.0
  0
POINT
  5
13EA
  8
DEFPOINTS
 62
     0
 10
182.5276003526286
 20
410.0301858239872
 30
0.0
  0
POINT
  5
1427
  8
DEFPOINTS
 62
     0
 10
140.7303340237691
 20
410.0301858239872
 30
0.0
  0
ENDBLK
  5
13E1
  8
0
  0
BLOCK
  8
0
  2
*D219
 70
     1
 10
0.0
 20
0.0
 30
0.0
  3
*D219
  1

  0
LINE
  5
13F1
  8
DIMENSIONS
  6
BYBLOCK
 62
     0
 10
208.0276003526286
 20
425.5301858239872
 30
0.0
 11
208.0276003526286
 21
393.3365221268816
 31
0.0
  0
LINE
  5
13F2
  8
DIMENSIONS
  6
BYBLOCK
 62
     0
 10
369.0276003526289
 20
425.5301858239875
 30
0.0
 11
369.0276003526289
 21
393.3365221268816
 31
0.0
  0
LINE
  5
13F3
  8
DIMENSIONS
  6
BYBLOCK
 62
     0
 10
213.0276003526286
 20
393.5165221268816
 30
0.0
 11
364.0276003526289
 21
393.5165221268816
 31
0.0
  0
SOLID
  5
13F4
  8
DIMENSIONS
 62
     0
 10
213.0276003526286
 20
394.3498554602149
 30
0.0
 11
213.0276003526286
 21
392.6831887935483
 31
0.0
 12
208.0276003526286
 22
393.5165221268816
 32
0.0
 13
208.0276003526286
 23
393.5165221268816
 33
0.0
  0
SOLID
  5
13F5
  8
DIMENSIONS
 62
     0
 10
364.0276003526289
 20
392.6831887935483
 30
0.0
 11
364.0276003526289
 21
394.3498554602149
 31
0.0
 12
369.0276003526289
 22
393.5165221268816
 32
0.0
 13
369.0276003526289
 23
393.5165221268816
 33
0.0
  0
TEXT
  5
13F6
  8
DIMENSIONS
  6
CONTINUOUS
 62
     5
 10
272.8551003526288
 20
395.9115221268816
 30
0.0
 40
5.0
  1
161 [6.34]
  0
POINT
  5
13F7
  8
DEFPOINTS
 62
     0
 10
208.0276003526286
 20
427.0301858239872
 30
0.0
  0
POINT
  5
13F8
  8
DEFPOINTS
 62
     0
 10
369.0276003526289
 20
427.0301858239875
 30
0.0
  0
POINT
  5
13F9
  8
DEFPOINTS
 62
     0
 10
369.0276003526289
 20
393.5165221268816
 30
0.0
  0
ENDBLK
  5
13F0
  8
0
  0
BLOCK
  8
0
  2
*D220
 70
     1
 10
0.0
 20
0.0
 30
0.0
  3
*D220
  1

  0
LINE
  5
1400
  8
DIMENSIONS
  6
BYBLOCK
 62
     0
 10
188.0276003526286
 20
434.0301858239872
 30
0.0
 11
188.0276003526286
 21
378.3985790108723
 31
0.0
  0
LINE
  5
1401
  8
DIMENSIONS
  6
BYBLOCK
 62
     0
 10
389.0276003526288
 20
434.0301858239876
 30
0.0
 11
389.0276003526288
 21
378.3985790108723
 31
0.0
  0
LINE
  5
1402
  8
DIMENSIONS
  6
BYBLOCK
 62
     0
 10
193.0276003526286
 20
378.5785790108723
 30
0.0
 11
384.0276003526288
 21
378.5785790108723
 31
0.0
  0
SOLID
  5
1403
  8
DIMENSIONS
 62
     0
 10
193.0276003526286
 20
379.4119123442056
 30
0.0
 11
193.0276003526286
 21
377.745245677539
 31
0.0
 12
188.0276003526286
 22
378.5785790108723
 32
0.0
 13
188.0276003526286
 23
378.5785790108723
 33
0.0
  0
SOLID
  5
1404
  8
DIMENSIONS
 62
     0
 10
384.0276003526288
 20
377.745245677539
 30
0.0
 11
384.0276003526288
 21
379.4119123442056
 31
0.0
 12
389.0276003526288
 22
378.5785790108723
 32
0.0
 13
389.0276003526288
 23
378.5785790108723
 33
0.0
  0
TEXT
  5
1405
  8
DIMENSIONS
  6
CONTINUOUS
 62
     5
 10
273.1326003526287
 20
380.9735790108723
 30
0.0
 40
5.0
  1
201 [7.91]
  0
POINT
  5
1406
  8
DEFPOINTS
 62
     0
 10
188.0276003526286
 20
435.5301858239872
 30
0.0
  0
POINT
  5
1407
  8
DEFPOINTS
 62
     0
 10
389.0276003526288
 20
435.5301858239876
 30
0.0
  0
POINT
  5
1408
  8
DEFPOINTS
 62
     0
 10
389.0276003526288
 20
378.5785790108723
 30
0.0
  0
ENDBLK
  5
13FF
  8
0
  0
BLOCK
  8
0
  2
*D221
 70
     1
 10
0.0
 20
0.0
 30
0.0
  3
*D221
  1

  0
LINE
  5
140F
  8
DIMENSIONS
  6
BYBLOCK
 62
     0
 10
182.5276003526286
 20
408.5301858239872
 30
0.0
 11
182.5276003526286
 21
363.4606358948629
 31
0.0
  0
LINE
  5
1410
  8
DIMENSIONS
  6
BYBLOCK
 62
     0
 10
394.527600352629
 20
408.5301858239872
 30
0.0
 11
394.527600352629
 21
363.4606358948629
 31
0.0
  0
LINE
  5
1411
  8
DIMENSIONS
  6
BYBLOCK
 62
     0
 10
187.5276003526286
 20
363.640635894863
 30
0.0
 11
389.527600352629
 21
363.640635894863
 31
0.0
  0
SOLID
  5
1412
  8
DIMENSIONS
 62
     0
 10
187.5276003526286
 20
364.4739692281963
 30
0.0
 11
187.5276003526286
 21
362.8073025615296
 31
0.0
 12
182.5276003526286
 22
363.640635894863
 32
0.0
 13
182.5276003526286
 23
363.640635894863
 33
0.0
  0
SOLID
  5
1413
  8
DIMENSIONS
 62
     0
 10
389.527600352629
 20
362.8073025615296
 30
0.0
 11
389.527600352629
 21
364.4739692281963
 31
0.0
 12
394.527600352629
 22
363.640635894863
 32
0.0
 13
394.527600352629
 23
363.640635894863
 33
0.0
  0
TEXT
  5
1414
  8
DIMENSIONS
  6
CONTINUOUS
 62
     5
 10
273.1326003526288
 20
366.0356358948629
 30
0.0
 40
5.0
  1
212 [8.35]
  0
POINT
  5
1415
  8
DEFPOINTS
 62
     0
 10
182.5276003526286
 20
410.0301858239872
 30
0.0
  0
POINT
  5
1416
  8
DEFPOINTS
 62
     0
 10
394.527600352629
 20
410.0301858239872
 30
0.0
  0
POINT
  5
1417
  8
DEFPOINTS
 62
     0
 10
394.527600352629
 20
363.640635894863
 30
0.0
  0
ENDBLK
  5
140E
  8
0
  0
BLOCK
  8
0
  2
*D222
 70
     1
 10
0.0
 20
0.0
 30
0.0
  3
*D222
  1

  0
LINE
  5
141E
  8
DIMENSIONS
  6
BYBLOCK
 62
     0
 10
360.5276094921346
 20
427.0426506349651
 30
0.0
 11
320.1226529370436
 21
427.101902480559
 31
0.0
  0
TEXT
  5
141F
  8
DIMENSIONS
  6
CONTINUOUS
 62
     5
 10
320.8462816225407
 20
429.5758439765378
 30
0.0
 40
5.0
  1
Ø7 [Ø0.28]
 50
359.9159786685397
  0
SOLID
  5
1420
  8
DIMENSIONS
 62
     0
 10
360.5263874518427
 20
426.2093181976617
 30
0.0
 11
360.5288315324265
 21
427.8759830722684
 31
0.0
 12
365.5276041159548
 22
427.0353183932136
 32
0.0
 13
365.5276041159548
 23
427.0353183932136
 33
0.0
  0
LINE
  5
1421
  8
DIMENSIONS
  6
BYBLOCK
 62
     0
 10
366.527600352629
 20
427.0301858239875
 30
0.0
 11
371.527600352629
 21
427.0301858239875
 31
0.0
  0
LINE
  5
1422
  8
DIMENSIONS
  6
BYBLOCK
 62
     0
 10
369.027600352629
 20
424.5301858239875
 30
0.0
 11
369.027600352629
 21
429.5301858239875
 31
0.0
  0
POINT
  5
1423
  8
DEFPOINTS
 62
     0
 10
365.5276041159548
 20
427.0353183932136
 30
0.0
  0
POINT
  5
1424
  8
DEFPOINTS
 62
     0
 10
372.5275965893031
 20
427.0250532547615
 30
0.0
  0
ENDBLK
  5
141D
  8
0
  0
BLOCK
  8
0
  2
*D223
 70
     1
 10
0.0
 20
0.0
 30
0.0
  3
*D223
  1

  0
LINE
  5
143F
  8
DIMENSIONS
  6
BYBLOCK
 62
     0
 10
188.0276003526286
 20
485.0301858239872
 30
0.0
 11
188.0276003526286
 21
493.944176485475
 31
0.0
  0
LINE
  5
1440
  8
DIMENSIONS
  6
BYBLOCK
 62
     0
 10
389.0276003526286
 20
485.0301858239876
 30
0.0
 11
389.0276003526286
 21
493.944176485475
 31
0.0
  0
LINE
  5
1441
  8
DIMENSIONS
  6
BYBLOCK
 62
     0
 10
193.0276003526286
 20
493.764176485475
 30
0.0
 11
384.0276003526286
 21
493.764176485475
 31
0.0
  0
SOLID
  5
1442
  8
DIMENSIONS
 62
     0
 10
193.0276003526286
 20
494.5975098188083
 30
0.0
 11
193.0276003526286
 21
492.9308431521417
 31
0.0
 12
188.0276003526286
 22
493.764176485475
 32
0.0
 13
188.0276003526286
 23
493.764176485475
 33
0.0
  0
SOLID
  5
1443
  8
DIMENSIONS
 62
     0
 10
384.0276003526286
 20
492.9308431521417
 30
0.0
 11
384.0276003526286
 21
494.5975098188083
 31
0.0
 12
389.0276003526286
 22
493.764176485475
 32
0.0
 13
389.0276003526286
 23
493.764176485475
 33
0.0
  0
TEXT
  5
1444
  8
DIMENSIONS
  6
CONTINUOUS
 62
     5
 10
273.1326003526286
 20
496.159176485475
 30
0.0
 40
5.0
  1
201 [7.91]
  0
POINT
  5
1445
  8
DEFPOINTS
 62
     0
 10
188.0276003526286
 20
483.5301858239872
 30
0.0
  0
POINT
  5
1446
  8
DEFPOINTS
 62
     0
 10
389.0276003526286
 20
483.5301858239876
 30
0.0
  0
POINT
  5
1447
  8
DEFPOINTS
 62
     0
 10
389.0276003526286
 20
493.764176485475
 30
0.0
  0
ENDBLK
  5
143E
  8
0
  0
BLOCK
  8
0
  2
*X225
 70
     1
 10
0.0
 20
0.0
 30
0.0
  3
*X225
  1

  0
LINE
  5
14E0
  8
0
  6
CENTER
 10
41.6567645151172
 20
527.7926765808686
 30
0.0
 11
105.207323419131
 21
591.3432354848825
 31
0.0
  0
LINE
  5
14E1
  8
0
  6
CENTER
 10
52.9650262735253
 20
494.9067645151175
 30
0.0
 11
138.0932354848821
 21
580.0349737264744
 31
0.0
  0
LINE
  5
14E2
  8
0
  6
CENTER
 10
73.88382002469825
 20
471.6313844421313
 30
0.0
 11
161.3686155578685
 21
559.1161799753015
 31
0.0
  0
LINE
  5
14E3
  8
0
  6
CENTER
 10
105.1338200246983
 20
458.687210617972
 30
0.0
 11
174.3127893820276
 21
527.8661799753015
 31
0.0
  0
LINE
  5
14E4
  8
0
  6
CENTER
 10
41.69796179957119
 20
85.89213562373044
 30
0.0
 11
105.1078643762693
 21
149.3020382004285
 31
0.0
  0
LINE
  5
14E5
  8
0
  6
CENTER
 10
52.94796179957153
 20
52.94796179957152
 30
0.0
 11
138.0520382004282
 21
138.0520382004282
 31
0.0
  0
LINE
  5
14E6
  8
0
  6
CENTER
 10
73.84262274024428
 20
29.64844891608504
 30
0.0
 11
161.3515510839146
 21
117.1573772597554
 31
0.0
  0
LINE
  5
14E7
  8
0
  6
CENTER
 10
105.0926227402443
 20
16.70427509192581
 30
0.0
 11
174.2957249080739
 21
85.90737725975544
 31
0.0
  0
ENDBLK
  5
14E8
  8
0
  0
BLOCK
  8
0
  2
*D226
 70
     1
 10
0.0
 20
0.0
 30
0.0
  3
*D226
  1

  0
LINE
  5
14FC
  8
DIMENSIONS
  6
BYBLOCK
 62
     0
 10
210.9138833827069
 20
1023.433851296149
 30
0.0
 11
210.9138833827069
 21
1051.770513593115
 31
0.0
  0
LINE
  5
14FD
  8
DIMENSIONS
  6
BYBLOCK
 62
     0
 10
371.9138833827066
 20
1023.433851296149
 30
0.0
 11
371.9138833827066
 21
1051.770513593115
 31
0.0
  0
LINE
  5
14FE
  8
DIMENSIONS
  6
BYBLOCK
 62
     0
 10
215.9138833827069
 20
1051.590513593115
 30
0.0
 11
366.9138833827066
 21
1051.590513593115
 31
0.0
  0
SOLID
  5
14FF
  8
DIMENSIONS
 62
     0
 10
215.9138833827069
 20
1052.423846926448
 30
0.0
 11
215.9138833827069
 21
1050.757180259781
 31
0.0
 12
210.9138833827069
 22
1051.590513593115
 32
0.0
 13
210.9138833827069
 23
1051.590513593115
 33
0.0
  0
SOLID
  5
1500
  8
DIMENSIONS
 62
     0
 10
366.9138833827066
 20
1050.757180259781
 30
0.0
 11
366.9138833827066
 21
1052.423846926448
 31
0.0
 12
371.9138833827066
 22
1051.590513593115
 32
0.0
 13
371.9138833827066
 23
1051.590513593115
 33
0.0
  0
TEXT
  5
1501
  8
DIMENSIONS
  6
CONTINUOUS
 62
     5
 10
275.7413833827068
 20
1053.985513593115
 30
0.0
 40
5.0
  1
161 [6.34]
  0
POINT
  5
1502
  8
DEFPOINTS
 62
     0
 10
210.9138833827069
 20
1021.933851296149
 30
0.0
  0
POINT
  5
1503
  8
DEFPOINTS
 62
     0
 10
371.9138833827066
 20
1021.933851296149
 30
0.0
  0
POINT
  5
1504
  8
DEFPOINTS
 62
     0
 10
371.9138833827066
 20
1051.590513593115
 30
0.0
  0
ENDBLK
  5
14FB
  8
0
  0
BLOCK
  8
0
  2
*D227
 70
     1
 10
0.0
 20
0.0
 30
0.0
  3
*D227
  1

  0
LINE
  5
150B
  8
DIMENSIONS
  6
BYBLOCK
 62
     0
 10
397.4138833827066
 20
1041.433851296149
 30
0.0
 11
397.4138833827066
 21
1064.445487606971
 31
0.0
  0
LINE
  5
150C
  8
DIMENSIONS
  6
BYBLOCK
 62
     0
 10
185.4138833827069
 20
1041.433851296149
 30
0.0
 11
185.4138833827069
 21
1064.445487606971
 31
0.0
  0
LINE
  5
150D
  8
DIMENSIONS
  6
BYBLOCK
 62
     0
 10
392.4138833827066
 20
1064.265487606971
 30
0.0
 11
190.4138833827069
 21
1064.265487606971
 31
0.0
  0
SOLID
  5
150E
  8
DIMENSIONS
 62
     0
 10
392.4138833827066
 20
1063.432154273637
 30
0.0
 11
392.4138833827066
 21
1065.098820940304
 31
0.0
 12
397.4138833827066
 22
1064.265487606971
 32
0.0
 13
397.4138833827066
 23
1064.265487606971
 33
0.0
  0
SOLID
  5
150F
  8
DIMENSIONS
 62
     0
 10
190.4138833827069
 20
1065.098820940304
 30
0.0
 11
190.4138833827069
 21
1063.432154273637
 31
0.0
 12
185.4138833827069
 22
1064.265487606971
 32
0.0
 13
185.4138833827069
 23
1064.265487606971
 33
0.0
  0
TEXT
  5
1510
  8
DIMENSIONS
  6
CONTINUOUS
 62
     5
 10
276.0188833827068
 20
1066.660487606971
 30
0.0
 40
5.0
  1
212 [8.35]
  0
POINT
  5
1511
  8
DEFPOINTS
 62
     0
 10
397.4138833827066
 20
1039.933851296149
 30
0.0
  0
POINT
  5
1512
  8
DEFPOINTS
 62
     0
 10
185.4138833827069
 20
1039.933851296149
 30
0.0
  0
POINT
  5
1513
  8
DEFPOINTS
 62
     0
 10
185.4138833827069
 20
1064.265487606971
 30
0.0
  0
ENDBLK
  5
150A
  8
0
  0
BLOCK
  8
0
  2
*D228
 70
     1
 10
0.0
 20
0.0
 30
0.0
  3
*D228
  1

  0
LINE
  5
151A
  8
DIMENSIONS
  6
BYBLOCK
 62
     0
 10
209.4138833827069
 20
1021.933851296149
 30
0.0
 11
170.8713168166667
 21
1021.933851296149
 31
0.0
  0
LINE
  5
151B
  8
DIMENSIONS
  6
BYBLOCK
 62
     0
 10
209.4138833827069
 20
425.9338512961492
 30
0.0
 11
170.8713168166667
 21
425.9338512961492
 31
0.0
  0
LINE
  5
151C
  8
DIMENSIONS
  6
BYBLOCK
 62
     0
 10
171.0513168166667
 20
1016.933851296149
 30
0.0
 11
171.0513168166667
 21
430.9338512961492
 31
0.0
  0
SOLID
  5
151D
  8
DIMENSIONS
 62
     0
 10
171.8846501500001
 20
1016.933851296149
 30
0.0
 11
170.2179834833334
 21
1016.933851296149
 31
0.0
 12
171.0513168166667
 22
1021.933851296149
 32
0.0
 13
171.0513168166667
 23
1021.933851296149
 33
0.0
  0
SOLID
  5
151E
  8
DIMENSIONS
 62
     0
 10
170.2179834833333
 20
430.9338512961492
 30
0.0
 11
171.88465015
 21
430.9338512961492
 31
0.0
 12
171.0513168166667
 22
425.9338512961492
 32
0.0
 13
171.0513168166667
 23
425.9338512961492
 33
0.0
  0
TEXT
  5
151F
  8
DIMENSIONS
  6
CONTINUOUS
 62
     5
 10
168.6563168166667
 20
706.5563512961493
 30
0.0
 40
5.0
  1
596 [23.46]
 50
90.0
  0
POINT
  5
1520
  8
DEFPOINTS
 62
     0
 10
210.9138833827069
 20
1021.933851296149
 30
0.0
  0
POINT
  5
1521
  8
DEFPOINTS
 62
     0
 10
210.9138833827069
 20
425.9338512961492
 30
0.0
  0
POINT
  5
1522
  8
DEFPOINTS
 62
     0
 10
171.0513168166667
 20
425.9338512961492
 30
0.0
  0
ENDBLK
  5
1519
  8
0
  0
BLOCK
  8
0
  2
*D229
 70
     1
 10
0.0
 20
0.0
 30
0.0
  3
*D229
  1

  0
LINE
  5
1529
  8
DIMENSIONS
  6
BYBLOCK
 62
     0
 10
183.9138833827069
 20
1039.933851296149
 30
0.0
 11
156.0022489589271
 21
1039.933851296149
 31
0.0
  0
LINE
  5
152A
  8
DIMENSIONS
  6
BYBLOCK
 62
     0
 10
183.9138833827069
 20
407.9338512961492
 30
0.0
 11
156.0022489589271
 21
407.9338512961492
 31
0.0
  0
LINE
  5
152B
  8
DIMENSIONS
  6
BYBLOCK
 62
     0
 10
156.1822489589271
 20
1034.933851296149
 30
0.0
 11
156.1822489589271
 21
412.9338512961492
 31
0.0
  0
SOLID
  5
152C
  8
DIMENSIONS
 62
     0
 10
157.0155822922605
 20
1034.933851296149
 30
0.0
 11
155.3489156255938
 21
1034.933851296149
 31
0.0
 12
156.1822489589271
 22
1039.933851296149
 32
0.0
 13
156.1822489589271
 23
1039.933851296149
 33
0.0
  0
SOLID
  5
152D
  8
DIMENSIONS
 62
     0
 10
155.3489156255937
 20
412.9338512961492
 30
0.0
 11
157.0155822922604
 21
412.9338512961492
 31
0.0
 12
156.1822489589271
 22
407.9338512961492
 32
0.0
 13
156.1822489589271
 23
407.9338512961492
 33
0.0
  0
TEXT
  5
152E
  8
DIMENSIONS
  6
CONTINUOUS
 62
     5
 10
153.7872489589271
 20
706.5713512961493
 30
0.0
 40
5.0
  1
632 [24.88]
 50
90.0
  0
POINT
  5
152F
  8
DEFPOINTS
 62
     0
 10
185.4138833827069
 20
1039.933851296149
 30
0.0
  0
POINT
  5
1530
  8
DEFPOINTS
 62
     0
 10
185.4138833827069
 20
407.9338512961492
 30
0.0
  0
POINT
  5
1531
  8
DEFPOINTS
 62
     0
 10
156.1822489589271
 20
407.9338512961492
 30
0.0
  0
ENDBLK
  5
1528
  8
0
  0
BLOCK
  8
0
  2
*D230
 70
     1
 10
0.0
 20
0.0
 30
0.0
  3
*D230
  1

  0
LINE
  5
1538
  8
DIMENSIONS
  6
BYBLOCK
 62
     0
 10
225.9138833827069
 20
931.4338512961492
 30
0.0
 11
225.9138833827069
 21
841.6020861025197
 31
0.0
  0
LINE
  5
1539
  8
DIMENSIONS
  6
BYBLOCK
 62
     0
 10
360.9138833827069
 20
931.4338512961492
 30
0.0
 11
360.9138833827069
 21
841.6020861025197
 31
0.0
  0
LINE
  5
153A
  8
DIMENSIONS
  6
BYBLOCK
 62
     0
 10
230.9138833827069
 20
841.7820861025197
 30
0.0
 11
355.9138833827069
 21
841.7820861025197
 31
0.0
  0
SOLID
  5
153B
  8
DIMENSIONS
 62
     0
 10
230.9138833827069
 20
842.615419435853
 30
0.0
 11
230.9138833827069
 21
840.9487527691863
 31
0.0
 12
225.9138833827069
 22
841.7820861025197
 32
0.0
 13
225.9138833827069
 23
841.7820861025197
 33
0.0
  0
SOLID
  5
153C
  8
DIMENSIONS
 62
     0
 10
355.9138833827069
 20
840.9487527691863
 30
0.0
 11
355.9138833827069
 21
842.615419435853
 31
0.0
 12
360.9138833827069
 22
841.7820861025197
 32
0.0
 13
360.9138833827069
 23
841.7820861025197
 33
0.0
  0
TEXT
  5
153D
  8
DIMENSIONS
  6
CONTINUOUS
 62
     5
 10
277.7413833827069
 20
844.1770861025196
 30
0.0
 40
5.0
  1
135 [5.31]
  0
POINT
  5
153E
  8
DEFPOINTS
 62
     0
 10
225.9138833827069
 20
932.9338512961492
 30
0.0
  0
POINT
  5
153F
  8
DEFPOINTS
 62
     0
 10
360.9138833827069
 20
932.9338512961492
 30
0.0
  0
POINT
  5
1540
  8
DEFPOINTS
 62
     0
 10
360.9138833827069
 20
841.7820861025197
 30
0.0
  0
ENDBLK
  5
1537
  8
0
  0
BLOCK
  8
0
  2
*D231
 70
     1
 10
0.0
 20
0.0
 30
0.0
  3
*D231
  1

  0
LINE
  5
1547
  8
DIMENSIONS
  6
BYBLOCK
 62
     0
 10
398.9138833827066
 20
1039.933851296149
 30
0.0
 11
412.3844675285443
 21
1039.933851296149
 31
0.0
  0
LINE
  5
1548
  8
DIMENSIONS
  6
BYBLOCK
 62
     0
 10
362.4138833827069
 20
932.9338512961492
 30
0.0
 11
412.3844675285443
 21
932.9338512961492
 31
0.0
  0
LINE
  5
1549
  8
DIMENSIONS
  6
BYBLOCK
 62
     0
 10
412.2044675285443
 20
1034.933851296149
 30
0.0
 11
412.2044675285443
 21
937.9338512961492
 31
0.0
  0
SOLID
  5
154A
  8
DIMENSIONS
 62
     0
 10
413.0378008618777
 20
1034.933851296149
 30
0.0
 11
411.371134195211
 21
1034.933851296149
 31
0.0
 12
412.2044675285443
 22
1039.933851296149
 32
0.0
 13
412.2044675285443
 23
1039.933851296149
 33
0.0
  0
SOLID
  5
154B
  8
DIMENSIONS
 62
     0
 10
411.371134195211
 20
937.9338512961492
 30
0.0
 11
413.0378008618777
 21
937.9338512961492
 31
0.0
 12
412.2044675285443
 22
932.9338512961492
 32
0.0
 13
412.2044675285443
 23
932.9338512961492
 33
0.0
  0
TEXT
  5
154C
  8
DIMENSIONS
  6
CONTINUOUS
 62
     5
 10
409.8094675285444
 20
970.7613512961492
 30
0.0
 40
5.0
  1
107 [4.21]
 50
90.0
  0
POINT
  5
154D
  8
DEFPOINTS
 62
     0
 10
397.4138833827066
 20
1039.933851296149
 30
0.0
  0
POINT
  5
154E
  8
DEFPOINTS
 62
     0
 10
360.9138833827069
 20
932.9338512961492
 30
0.0
  0
POINT
  5
154F
  8
DEFPOINTS
 62
     0
 10
412.2044675285443
 20
932.9338512961492
 30
0.0
  0
ENDBLK
  5
1546
  8
0
  0
BLOCK
  8
0
  2
*D232
 70
     1
 10
0.0
 20
0.0
 30
0.0
  3
*D232
  1

  0
LINE
  5
1556
  8
DIMENSIONS
  6
BYBLOCK
 62
     0
 10
362.4138833827069
 20
932.9338512961492
 30
0.0
 11
412.3844675285443
 21
932.9338512961492
 31
0.0
  0
LINE
  5
1557
  8
DIMENSIONS
  6
BYBLOCK
 62
     0
 10
362.4138833827069
 20
490.9338512961492
 30
0.0
 11
412.3844675285443
 21
490.9338512961492
 31
0.0
  0
LINE
  5
1558
  8
DIMENSIONS
  6
BYBLOCK
 62
     0
 10
412.2044675285443
 20
927.9338512961492
 30
0.0
 11
412.2044675285443
 21
495.9338512961492
 31
0.0
  0
SOLID
  5
1559
  8
DIMENSIONS
 62
     0
 10
413.0378008618777
 20
927.9338512961492
 30
0.0
 11
411.371134195211
 21
927.9338512961492
 31
0.0
 12
412.2044675285443
 22
932.9338512961492
 32
0.0
 13
412.2044675285443
 23
932.9338512961492
 33
0.0
  0
SOLID
  5
155A
  8
DIMENSIONS
 62
     0
 10
411.371134195211
 20
495.9338512961492
 30
0.0
 11
413.0378008618777
 21
495.9338512961492
 31
0.0
 12
412.2044675285443
 22
490.9338512961492
 32
0.0
 13
412.2044675285443
 23
490.9338512961492
 33
0.0
  0
TEXT
  5
155B
  8
DIMENSIONS
  6
CONTINUOUS
 62
     5
 10
409.8094675285444
 20
694.6563512961493
 30
0.0
 40
5.0
  1
442 [17.40]
 50
90.0
  0
POINT
  5
155C
  8
DEFPOINTS
 62
     0
 10
360.9138833827069
 20
932.9338512961492
 30
0.0
  0
POINT
  5
155D
  8
DEFPOINTS
 62
     0
 10
360.9138833827069
 20
490.9338512961492
 30
0.0
  0
POINT
  5
155E
  8
DEFPOINTS
 62
     0
 10
412.2044675285443
 20
490.9338512961492
 30
0.0
  0
ENDBLK
  5
1555
  8
0
  0
BLOCK
  8
0
  2
*D233
 70
     1
 10
0.0
 20
0.0
 30
0.0
  3
*D233
  1

  0
LINE
  5
1565
  8
DIMENSIONS
  6
BYBLOCK
 62
     0
 10
362.4138833827069
 20
490.9338512961492
 30
0.0
 11
412.3844675285443
 21
490.9338512961492
 31
0.0
  0
LINE
  5
1566
  8
DIMENSIONS
  6
BYBLOCK
 62
     0
 10
398.9138833827066
 20
407.9338512961492
 30
0.0
 11
412.3844675285443
 21
407.9338512961492
 31
0.0
  0
LINE
  5
1567
  8
DIMENSIONS
  6
BYBLOCK
 62
     0
 10
412.2044675285443
 20
485.9338512961492
 30
0.0
 11
412.2044675285443
 21
412.9338512961492
 31
0.0
  0
SOLID
  5
1568
  8
DIMENSIONS
 62
     0
 10
413.0378008618777
 20
485.9338512961492
 30
0.0
 11
411.371134195211
 21
485.9338512961492
 31
0.0
 12
412.2044675285443
 22
490.9338512961492
 32
0.0
 13
412.2044675285443
 23
490.9338512961492
 33
0.0
  0
SOLID
  5
1569
  8
DIMENSIONS
 62
     0
 10
411.371134195211
 20
412.9338512961492
 30
0.0
 11
413.0378008618777
 21
412.9338512961492
 31
0.0
 12
412.2044675285443
 22
407.9338512961492
 32
0.0
 13
412.2044675285443
 23
407.9338512961492
 33
0.0
  0
TEXT
  5
156A
  8
DIMENSIONS
  6
CONTINUOUS
 62
     5
 10
409.8094675285444
 20
435.9388512961492
 30
0.0
 40
5.0
  1
83 [3.27]
 50
90.0
  0
POINT
  5
156B
  8
DEFPOINTS
 62
     0
 10
360.9138833827069
 20
490.9338512961492
 30
0.0
  0
POINT
  5
156C
  8
DEFPOINTS
 62
     0
 10
397.4138833827066
 20
407.9338512961492
 30
0.0
  0
POINT
  5
156D
  8
DEFPOINTS
 62
     0
 10
412.2044675285443
 20
407.9338512961492
 30
0.0
  0
ENDBLK
  5
1564
  8
0
  0
BLOCK
  8
0
  2
*D234
 70
     1
 10
0.0
 20
0.0
 30
0.0
  3
*D234
  1

  0
LINE
  5
1574
  8
DIMENSIONS
  6
BYBLOCK
 62
     0
 10
363.503319395479
 20
424.7040491101251
 30
0.0
 11
323.5234561126634
 21
418.8581482482076
 31
0.0
  0
TEXT
  5
1575
  8
DIMENSIONS
  6
CONTINUOUS
 62
     5
 10
323.8777908962393
 20
421.4112780649517
 30
0.0
 40
5.0
  1
Ø7 [Ø0.28]
 50
8.318900280815896
  0
SOLID
  5
1576
  8
DIMENSIONS
 62
     0
 10
363.6238882372461
 20
423.8794840133381
 30
0.0
 11
363.382750553712
 21
425.5286142069121
 31
0.0
 12
368.4507099762012
 22
425.4274621607274
 32
0.0
 13
368.4507099762012
 23
425.4274621607274
 33
0.0
  0
LINE
  5
1577
  8
DIMENSIONS
  6
BYBLOCK
 62
     0
 10
369.4138833827067
 20
425.9338512961491
 30
0.0
 11
374.4138833827067
 21
425.9338512961491
 31
0.0
  0
LINE
  5
1578
  8
DIMENSIONS
  6
BYBLOCK
 62
     0
 10
371.9138833827067
 20
423.4338512961491
 30
0.0
 11
371.9138833827067
 21
428.4338512961491
 31
0.0
  0
POINT
  5
1579
  8
DEFPOINTS
 62
     0
 10
368.4507099762012
 20
425.4274621607274
 30
0.0
  0
POINT
  5
157A
  8
DEFPOINTS
 62
     0
 10
375.3770567892121
 20
426.4402404315707
 30
0.0
  0
ENDBLK
  5
1573
  8
0
  0
BLOCK
  8
0
  2
*X236
 70
     1
 10
0.0
 20
0.0
 30
0.0
  3
*X236
  1

  0
LINE
  5
15B8
  8
CUTOUT
  6
CENTER
 10
46.53900781103366
 20
793.4205454393245
 30
0.0
 11
122.5794545606749
 21
869.4609921889657
 31
0.0
  0
LINE
  5
15B9
  8
CUTOUT
  6
CENTER
 10
67.745039100491
 20
757.174150757375
 30
0.0
 11
158.8258492426245
 21
848.2549608995084
 31
0.0
  0
LINE
  5
15BA
  8
CUTOUT
  6
CENTER
 10
108.8933534150142
 20
740.8700391004911
 30
0.0
 11
175.1299608995083
 21
807.1066465849852
 31
0.0
  0
LINE
  5
15BB
  8
CUTOUT
  6
CENTER
 10
51.07296179957126
 20
108.5253877709782
 30
0.0
 11
82.47461222902149
 21
139.9270382004285
 31
0.0
  0
LINE
  5
15BC
  8
CUTOUT
  6
CENTER
 10
52.94796179957152
 20
52.94796179957154
 30
0.0
 11
138.0520382004282
 21
138.0520382004282
 31
0.0
  0
LINE
  5
15BD
  8
CUTOUT
  6
CENTER
 10
83.21762274024428
 20
25.76519676883731
 30
0.0
 11
165.2348032311624
 21
107.7823772597554
 31
0.0
  0
LINE
  5
15BE
  8
CUTOUT
  6
CENTER
 10
146.2474746830586
 20
31.34262274024456
 30
0.0
 11
159.6573772597552
 21
44.75252531694122
 31
0.0
  0
ENDBLK
  5
15BF
  8
0
  0
BLOCK
  8
0
  2
*D237
 70
     1
 10
0.0
 20
0.0
 30
0.0
  3
*D237
  1

  0
LINE
  5
15D7
  8
DIMENSIONS
  6
BYBLOCK
 62
     0
 10
205.8930609486809
 20
1283.211495515572
 30
0.0
 11
205.8930609486809
 21
1312.808125991058
 31
0.0
  0
LINE
  5
15D8
  8
DIMENSIONS
  6
BYBLOCK
 62
     0
 10
366.8930609486806
 20
1283.211495515572
 30
0.0
 11
366.8930609486806
 21
1312.808125991058
 31
0.0
  0
LINE
  5
15D9
  8
DIMENSIONS
  6
BYBLOCK
 62
     0
 10
210.8930609486809
 20
1312.628125991058
 30
0.0
 11
361.8930609486806
 21
1312.628125991058
 31
0.0
  0
SOLID
  5
15DA
  8
DIMENSIONS
 62
     0
 10
210.8930609486809
 20
1313.461459324391
 30
0.0
 11
210.8930609486809
 21
1311.794792657724
 31
0.0
 12
205.8930609486809
 22
1312.628125991058
 32
0.0
 13
205.8930609486809
 23
1312.628125991058
 33
0.0
  0
SOLID
  5
15DB
  8
DIMENSIONS
 62
     0
 10
361.8930609486806
 20
1311.794792657724
 30
0.0
 11
361.8930609486806
 21
1313.461459324391
 31
0.0
 12
366.8930609486806
 22
1312.628125991058
 32
0.0
 13
366.8930609486806
 23
1312.628125991058
 33
0.0
  0
TEXT
  5
15DC
  8
DIMENSIONS
  6
CONTINUOUS
 62
     5
 10
270.7205609486807
 20
1315.023125991058
 30
0.0
 40
5.0
  1
161 [6.34]
  0
POINT
  5
15DD
  8
DEFPOINTS
 62
     0
 10
205.8930609486809
 20
1281.711495515572
 30
0.0
  0
POINT
  5
15DE
  8
DEFPOINTS
 62
     0
 10
366.8930609486806
 20
1281.711495515572
 30
0.0
  0
POINT
  5
15DF
  8
DEFPOINTS
 62
     0
 10
366.8930609486806
 20
1312.628125991058
 30
0.0
  0
ENDBLK
  5
15D6
  8
0
  0
BLOCK
  8
0
  2
*D238
 70
     1
 10
0.0
 20
0.0
 30
0.0
  3
*D238
  1

  0
LINE
  5
15E6
  8
DIMENSIONS
  6
BYBLOCK
 62
     0
 10
180.3930609486809
 20
1301.211495515572
 30
0.0
 11
180.3930609486809
 21
1326.531564383642
 31
0.0
  0
LINE
  5
15E7
  8
DIMENSIONS
  6
BYBLOCK
 62
     0
 10
392.393060948681
 20
1301.211495515572
 30
0.0
 11
392.393060948681
 21
1326.531564383642
 31
0.0
  0
LINE
  5
15E8
  8
DIMENSIONS
  6
BYBLOCK
 62
     0
 10
185.3930609486809
 20
1326.351564383642
 30
0.0
 11
387.393060948681
 21
1326.351564383642
 31
0.0
  0
SOLID
  5
15E9
  8
DIMENSIONS
 62
     0
 10
185.3930609486809
 20
1327.184897716975
 30
0.0
 11
185.3930609486809
 21
1325.518231050308
 31
0.0
 12
180.3930609486809
 22
1326.351564383642
 32
0.0
 13
180.3930609486809
 23
1326.351564383642
 33
0.0
  0
SOLID
  5
15EA
  8
DIMENSIONS
 62
     0
 10
387.393060948681
 20
1325.518231050308
 30
0.0
 11
387.393060948681
 21
1327.184897716975
 31
0.0
 12
392.393060948681
 22
1326.351564383642
 32
0.0
 13
392.393060948681
 23
1326.351564383642
 33
0.0
  0
TEXT
  5
15EB
  8
DIMENSIONS
  6
CONTINUOUS
 62
     5
 10
270.9980609486809
 20
1328.746564383642
 30
0.0
 40
5.0
  1
212 [8.35]
  0
POINT
  5
15EC
  8
DEFPOINTS
 62
     0
 10
180.3930609486809
 20
1299.711495515572
 30
0.0
  0
POINT
  5
15ED
  8
DEFPOINTS
 62
     0
 10
392.393060948681
 20
1299.711495515572
 30
0.0
  0
POINT
  5
15EE
  8
DEFPOINTS
 62
     0
 10
392.393060948681
 20
1326.351564383642
 30
0.0
  0
ENDBLK
  5
15E5
  8
0
  0
BLOCK
  8
0
  2
*D239
 70
     1
 10
0.0
 20
0.0
 30
0.0
  3
*D239
  1

  0
LINE
  5
15F5
  8
DIMENSIONS
  6
BYBLOCK
 62
     0
 10
204.3930609486809
 20
1281.585750697016
 30
0.0
 11
143.4528862071388
 21
1281.585750697016
 31
0.0
  0
LINE
  5
15F6
  8
DIMENSIONS
  6
BYBLOCK
 62
     0
 10
204.3930609486809
 20
426.7114955155719
 30
0.0
 11
143.4528862071387
 21
426.7114955155719
 31
0.0
  0
LINE
  5
15F7
  8
DIMENSIONS
  6
BYBLOCK
 62
     0
 10
143.6328862071388
 20
1276.585750697016
 30
0.0
 11
143.6328862071387
 21
431.7114955155719
 31
0.0
  0
SOLID
  5
15F8
  8
DIMENSIONS
 62
     0
 10
144.4662195404721
 20
1276.585750697016
 30
0.0
 11
142.7995528738055
 21
1276.585750697016
 31
0.0
 12
143.6328862071388
 22
1281.585750697016
 32
0.0
 13
143.6328862071388
 23
1281.585750697016
 33
0.0
  0
SOLID
  5
15F9
  8
DIMENSIONS
 62
     0
 10
142.7995528738054
 20
431.7114955155719
 30
0.0
 11
144.4662195404721
 21
431.7114955155719
 31
0.0
 12
143.6328862071387
 22
426.7114955155719
 32
0.0
 13
143.6328862071387
 23
426.7114955155719
 33
0.0
  0
TEXT
  5
15FA
  8
DIMENSIONS
  6
CONTINUOUS
 62
     5
 10
141.2378862071388
 20
828.0436231062937
 30
0.0
 40
5.0
  1
854.8743 [33.66]
 50
90.0
  0
POINT
  5
15FB
  8
DEFPOINTS
 62
     0
 10
205.8930609486809
 20
1281.585750697016
 30
0.0
  0
POINT
  5
15FC
  8
DEFPOINTS
 62
     0
 10
205.8930609486809
 20
426.7114955155719
 30
0.0
  0
POINT
  5
15FD
  8
DEFPOINTS
 62
     0
 10
143.6328862071387
 20
426.7114955155719
 30
0.0
  0
ENDBLK
  5
15F4
  8
0
  0
BLOCK
  8
0
  2
*D240
 70
     1
 10
0.0
 20
0.0
 30
0.0
  3
*D240
  1

  0
LINE
  5
1604
  8
DIMENSIONS
  6
BYBLOCK
 62
     0
 10
219.3930609486808
 20
491.7114955155719
 30
0.0
 11
163.1558097027952
 21
491.7114955155719
 31
0.0
  0
LINE
  5
1605
  8
DIMENSIONS
  6
BYBLOCK
 62
     0
 10
219.3930609486808
 20
1216.711495515572
 30
0.0
 11
163.1558097027952
 21
1216.711495515572
 31
0.0
  0
LINE
  5
1606
  8
DIMENSIONS
  6
BYBLOCK
 62
     0
 10
163.3358097027952
 20
496.7114955155719
 30
0.0
 11
163.3358097027952
 21
1211.711495515572
 31
0.0
  0
SOLID
  5
1607
  8
DIMENSIONS
 62
     0
 10
162.5024763694618
 20
496.7114955155719
 30
0.0
 11
164.1691430361285
 21
496.7114955155719
 31
0.0
 12
163.3358097027952
 22
491.7114955155719
 32
0.0
 13
163.3358097027952
 23
491.7114955155719
 33
0.0
  0
SOLID
  5
1608
  8
DIMENSIONS
 62
     0
 10
164.1691430361286
 20
1211.711495515572
 30
0.0
 11
162.5024763694619
 21
1211.711495515572
 31
0.0
 12
163.3358097027952
 22
1216.711495515572
 32
0.0
 13
163.3358097027952
 23
1216.711495515572
 33
0.0
  0
TEXT
  5
1609
  8
DIMENSIONS
  6
CONTINUOUS
 62
     5
 10
160.9408097027953
 20
836.8139955155718
 30
0.0
 40
5.0
  1
725 [28.54]
 50
90.0
  0
POINT
  5
160A
  8
DEFPOINTS
 62
     0
 10
220.8930609486808
 20
491.7114955155719
 30
0.0
  0
POINT
  5
160B
  8
DEFPOINTS
 62
     0
 10
220.8930609486808
 20
1216.711495515572
 30
0.0
  0
POINT
  5
160C
  8
DEFPOINTS
 62
     0
 10
163.3358097027952
 20
1216.711495515572
 30
0.0
  0
ENDBLK
  5
1603
  8
0
  0
BLOCK
  8
0
  2
*D241
 70
     1
 10
0.0
 20
0.0
 30
0.0
  3
*D241
  1

  0
LINE
  5
1613
  8
DIMENSIONS
  6
BYBLOCK
 62
     0
 10
178.8930609486809
 20
1299.711495515572
 30
0.0
 11
122.6801218505403
 21
1299.711495515572
 31
0.0
  0
LINE
  5
1614
  8
DIMENSIONS
  6
BYBLOCK
 62
     0
 10
178.8930609486809
 20
408.7114955155719
 30
0.0
 11
122.6801218505403
 21
408.7114955155719
 31
0.0
  0
LINE
  5
1615
  8
DIMENSIONS
  6
BYBLOCK
 62
     0
 10
122.8601218505403
 20
1294.711495515572
 30
0.0
 11
122.8601218505403
 21
413.7114955155719
 31
0.0
  0
SOLID
  5
1616
  8
DIMENSIONS
 62
     0
 10
123.6934551838737
 20
1294.711495515572
 30
0.0
 11
122.026788517207
 21
1294.711495515572
 31
0.0
 12
122.8601218505403
 22
1299.711495515572
 32
0.0
 13
122.8601218505403
 23
1299.711495515572
 33
0.0
  0
SOLID
  5
1617
  8
DIMENSIONS
 62
     0
 10
122.026788517207
 20
413.7114955155719
 30
0.0
 11
123.6934551838736
 21
413.7114955155719
 31
0.0
 12
122.8601218505403
 22
408.7114955155719
 32
0.0
 13
122.8601218505403
 23
408.7114955155719
 33
0.0
  0
TEXT
  5
1618
  8
DIMENSIONS
  6
CONTINUOUS
 62
     5
 10
120.4651218505403
 20
836.8364955155718
 30
0.0
 40
5.0
  1
891 [35.08]
 50
90.0
  0
POINT
  5
1619
  8
DEFPOINTS
 62
     0
 10
180.3930609486809
 20
1299.711495515572
 30
0.0
  0
POINT
  5
161A
  8
DEFPOINTS
 62
     0
 10
180.3930609486809
 20
408.7114955155719
 30
0.0
  0
POINT
  5
161B
  8
DEFPOINTS
 62
     0
 10
122.8601218505403
 20
408.7114955155719
 30
0.0
  0
ENDBLK
  5
1612
  8
0
  0
BLOCK
  8
0
  2
*D242
 70
     1
 10
0.0
 20
0.0
 30
0.0
  3
*D242
  1

  0
LINE
  5
162C
  8
DIMENSIONS
  6
BYBLOCK
 62
     0
 10
358.3930684543417
 20
854.2227913636287
 30
0.0
 11
317.9881041327228
 21
854.2764865095979
 31
0.0
  0
TEXT
  5
162D
  8
DIMENSIONS
  6
CONTINUOUS
 62
     5
 10
318.7113925821187
 20
856.7505274993495
 30
0.0
 40
5.0
  1
Ø7 [Ø0.28]
 50
359.9238582811556
  0
SOLID
  5
162E
  8
DIMENSIONS
 62
     0
 10
358.3919610182577
 20
853.3894587661446
 30
0.0
 11
358.3941758904257
 21
855.0561239611129
 31
0.0
 12
363.393064039247
 22
854.2161467471248
 32
0.0
 13
363.393064039247
 23
854.2161467471248
 33
0.0
  0
LINE
  5
162F
  8
DIMENSIONS
  6
BYBLOCK
 62
     0
 10
364.3930609486806
 20
854.2114955155719
 30
0.0
 11
369.3930609486806
 21
854.2114955155719
 31
0.0
  0
LINE
  5
1630
  8
DIMENSIONS
  6
BYBLOCK
 62
     0
 10
366.8930609486806
 20
851.7114955155719
 30
0.0
 11
366.8930609486806
 21
856.7114955155719
 31
0.0
  0
POINT
  5
1631
  8
DEFPOINTS
 62
     0
 10
363.393064039247
 20
854.2161467471248
 30
0.0
  0
POINT
  5
1632
  8
DEFPOINTS
 62
     0
 10
370.3930578581142
 20
854.2068442840191
 30
0.0
  0
ENDBLK
  5
162B
  8
0
  0
BLOCK
  8
0
  2
*D243
 70
     1
 10
0.0
 20
0.0
 30
0.0
  3
*D243
  1

  0
LINE
  5
163B
  8
DIMENSIONS
  6
BYBLOCK
 62
     0
 10
220.8930609486808
 20
1215.211495515572
 30
0.0
 11
220.8930609486808
 21
1132.131426113514
 31
0.0
  0
LINE
  5
163C
  8
DIMENSIONS
  6
BYBLOCK
 62
     0
 10
355.8930609486808
 20
1215.211495515572
 30
0.0
 11
355.8930609486808
 21
1132.131426113514
 31
0.0
  0
LINE
  5
163D
  8
DIMENSIONS
  6
BYBLOCK
 62
     0
 10
225.8930609486808
 20
1132.311426113514
 30
0.0
 11
350.8930609486808
 21
1132.311426113514
 31
0.0
  0
SOLID
  5
163E
  8
DIMENSIONS
 62
     0
 10
225.8930609486808
 20
1133.144759446847
 30
0.0
 11
225.8930609486808
 21
1131.478092780181
 31
0.0
 12
220.8930609486808
 22
1132.311426113514
 32
0.0
 13
220.8930609486808
 23
1132.311426113514
 33
0.0
  0
SOLID
  5
163F
  8
DIMENSIONS
 62
     0
 10
350.8930609486808
 20
1131.478092780181
 30
0.0
 11
350.8930609486808
 21
1133.144759446847
 31
0.0
 12
355.8930609486808
 22
1132.311426113514
 32
0.0
 13
355.8930609486808
 23
1132.311426113514
 33
0.0
  0
TEXT
  5
1640
  8
DIMENSIONS
  6
CONTINUOUS
 62
     5
 10
272.7205609486808
 20
1134.706426113514
 30
0.0
 40
5.0
  1
135 [5.31]
  0
POINT
  5
1641
  8
DEFPOINTS
 62
     0
 10
220.8930609486808
 20
1216.711495515572
 30
0.0
  0
POINT
  5
1642
  8
DEFPOINTS
 62
     0
 10
355.8930609486808
 20
1216.711495515572
 30
0.0
  0
POINT
  5
1643
  8
DEFPOINTS
 62
     0
 10
355.8930609486808
 20
1132.311426113514
 30
0.0
  0
ENDBLK
  5
163A
  8
0
  0
BLOCK
  8
0
  2
*X245
 70
     1
 10
0.0
 20
0.0
 30
0.0
  3
*X245
  1

  0
LINE
  5
1694
  8
EXTERNAL_OUTFIT
  6
CENTER
 10
46.01610818780139
 20
797.3170631985082
 30
0.0
 11
94.68293680149148
 21
845.9838918121983
 31
0.0
  0
LINE
  5
1695
  8
EXTERNAL_OUTFIT
  6
CENTER
 10
51.15932700125416
 20
758.2661081878017
 30
0.0
 11
133.733891812198
 21
840.8406729987455
 31
0.0
  0
LINE
  5
1696
  8
EXTERNAL_OUTFIT
  6
CENTER
 10
69.52447635201403
 20
732.4370837144024
 30
0.0
 11
159.5629162855973
 21
822.4755236479857
 31
0.0
  0
LINE
  5
1697
  8
EXTERNAL_OUTFIT
  6
CENTER
 10
100.774476352014
 20
719.4929098902431
 30
0.0
 11
172.5070901097565
 21
791.2255236479856
 31
0.0
  0
LINE
  5
1698
  8
EXTERNAL_OUTFIT
  6
CENTER
 10
41.6979617995712
 20
85.89213562373038
 30
0.0
 11
105.1078643762692
 21
149.3020382004285
 31
0.0
  0
LINE
  5
1699
  8
EXTERNAL_OUTFIT
  6
CENTER
 10
52.94796179957154
 20
52.94796179957154
 30
0.0
 11
138.0520382004282
 21
138.0520382004282
 31
0.0
  0
LINE
  5
169A
  8
EXTERNAL_OUTFIT
  6
CENTER
 10
73.84262274024428
 20
29.64844891608504
 30
0.0
 11
161.3515510839146
 21
117.1573772597554
 31
0.0
  0
LINE
  5
169B
  8
EXTERNAL_OUTFIT
  6
CENTER
 10
105.0926227402443
 20
16.70427509192587
 30
0.0
 11
174.2957249080739
 21
85.90737725975544
 31
0.0
  0
ENDBLK
  5
169C
  8
0
  0
BLOCK
  8
0
  2
*D246
 70
     1
 10
0.0
 20
0.0
 30
0.0
  3
*D246
  1

  0
LINE
  5
16AF
  8
DIMENSIONS
  6
BYBLOCK
 62
     0
 10
203.8283718637688
 20
1293.235592285407
 30
0.0
 11
203.8283718637688
 21
1322.124455335506
 31
0.0
  0
LINE
  5
16B0
  8
DIMENSIONS
  6
BYBLOCK
 62
     0
 10
364.8283718637685
 20
1293.235592285407
 30
0.0
 11
364.8283718637685
 21
1322.124455335506
 31
0.0
  0
LINE
  5
16B1
  8
DIMENSIONS
  6
BYBLOCK
 62
     0
 10
208.8283718637688
 20
1321.944455335506
 30
0.0
 11
359.8283718637685
 21
1321.944455335506
 31
0.0
  0
SOLID
  5
16B2
  8
DIMENSIONS
 62
     0
 10
208.8283718637688
 20
1322.77778866884
 30
0.0
 11
208.8283718637688
 21
1321.111122002173
 31
0.0
 12
203.8283718637688
 22
1321.944455335506
 32
0.0
 13
203.8283718637688
 23
1321.944455335506
 33
0.0
  0
SOLID
  5
16B3
  8
DIMENSIONS
 62
     0
 10
359.8283718637685
 20
1321.111122002173
 30
0.0
 11
359.8283718637685
 21
1322.77778866884
 31
0.0
 12
364.8283718637685
 22
1321.944455335506
 32
0.0
 13
364.8283718637685
 23
1321.944455335506
 33
0.0
  0
TEXT
  5
16B4
  8
DIMENSIONS
  6
CONTINUOUS
 62
     5
 10
268.6558718637687
 20
1324.339455335506
 30
0.0
 40
5.0
  1
161 [6.34]
  0
POINT
  5
16B5
  8
DEFPOINTS
 62
     0
 10
203.8283718637688
 20
1291.735592285407
 30
0.0
  0
POINT
  5
16B6
  8
DEFPOINTS
 62
     0
 10
364.8283718637685
 20
1291.735592285407
 30
0.0
  0
POINT
  5
16B7
  8
DEFPOINTS
 62
     0
 10
364.8283718637685
 20
1321.944455335506
 30
0.0
  0
ENDBLK
  5
16AE
  8
0
  0
BLOCK
  8
0
  2
*D247
 70
     1
 10
0.0
 20
0.0
 30
0.0
  3
*D247
  1

  0
LINE
  5
16BE
  8
DIMENSIONS
  6
BYBLOCK
 62
     0
 10
390.3283718637689
 20
1311.235592285407
 30
0.0
 11
390.3283718637689
 21
1334.711312141506
 31
0.0
  0
LINE
  5
16BF
  8
DIMENSIONS
  6
BYBLOCK
 62
     0
 10
178.3283718637688
 20
1311.235592285407
 30
0.0
 11
178.3283718637688
 21
1334.711312141506
 31
0.0
  0
LINE
  5
16C0
  8
DIMENSIONS
  6
BYBLOCK
 62
     0
 10
385.3283718637689
 20
1334.531312141506
 30
0.0
 11
183.3283718637688
 21
1334.531312141506
 31
0.0
  0
SOLID
  5
16C1
  8
DIMENSIONS
 62
     0
 10
385.3283718637689
 20
1333.697978808172
 30
0.0
 11
385.3283718637689
 21
1335.364645474839
 31
0.0
 12
390.3283718637689
 22
1334.531312141506
 32
0.0
 13
390.3283718637689
 23
1334.531312141506
 33
0.0
  0
SOLID
  5
16C2
  8
DIMENSIONS
 62
     0
 10
183.3283718637688
 20
1335.364645474839
 30
0.0
 11
183.3283718637688
 21
1333.697978808172
 31
0.0
 12
178.3283718637688
 22
1334.531312141506
 32
0.0
 13
178.3283718637688
 23
1334.531312141506
 33
0.0
  0
TEXT
  5
16C3
  8
DIMENSIONS
  6
CONTINUOUS
 62
     5
 10
268.9333718637689
 20
1336.926312141506
 30
0.0
 40
5.0
  1
212 [8.35]
  0
POINT
  5
16C4
  8
DEFPOINTS
 62
     0
 10
390.3283718637689
 20
1309.735592285407
 30
0.0
  0
POINT
  5
16C5
  8
DEFPOINTS
 62
     0
 10
178.3283718637688
 20
1309.735592285407
 30
0.0
  0
POINT
  5
16C6
  8
DEFPOINTS
 62
     0
 10
178.3283718637688
 20
1334.531312141506
 30
0.0
  0
ENDBLK
  5
16BD
  8
0
  0
BLOCK
  8
0
  2
*D248
 70
     1
 10
0.0
 20
0.0
 30
0.0
  3
*D248
  1

  0
LINE
  5
16CD
  8
DIMENSIONS
  6
BYBLOCK
 62
     0
 10
217.3283718637688
 20
1202.735592285407
 30
0.0
 11
162.891136024306
 21
1202.735592285407
 31
0.0
  0
LINE
  5
16CE
  8
DIMENSIONS
  6
BYBLOCK
 62
     0
 10
217.3283718637688
 20
501.7355922854073
 30
0.0
 11
162.891136024306
 21
501.7355922854073
 31
0.0
  0
LINE
  5
16CF
  8
DIMENSIONS
  6
BYBLOCK
 62
     0
 10
163.071136024306
 20
1197.735592285407
 30
0.0
 11
163.071136024306
 21
506.7355922854073
 31
0.0
  0
SOLID
  5
16D0
  8
DIMENSIONS
 62
     0
 10
163.9044693576394
 20
1197.735592285407
 30
0.0
 11
162.2378026909727
 21
1197.735592285407
 31
0.0
 12
163.071136024306
 22
1202.735592285407
 32
0.0
 13
163.071136024306
 23
1202.735592285407
 33
0.0
  0
SOLID
  5
16D1
  8
DIMENSIONS
 62
     0
 10
162.2378026909726
 20
506.7355922854073
 30
0.0
 11
163.9044693576393
 21
506.7355922854073
 31
0.0
 12
163.071136024306
 22
501.7355922854073
 32
0.0
 13
163.071136024306
 23
501.7355922854073
 33
0.0
  0
TEXT
  5
16D2
  8
DIMENSIONS
  6
CONTINUOUS
 62
     5
 10
160.6761360243059
 20
834.8380922854071
 30
0.0
 40
5.0
  1
701 [27.60]
 50
90.0
  0
POINT
  5
16D3
  8
DEFPOINTS
 62
     0
 10
218.8283718637688
 20
1202.735592285407
 30
0.0
  0
POINT
  5
16D4
  8
DEFPOINTS
 62
     0
 10
218.8283718637688
 20
501.7355922854073
 30
0.0
  0
POINT
  5
16D5
  8
DEFPOINTS
 62
     0
 10
163.071136024306
 20
501.7355922854073
 30
0.0
  0
ENDBLK
  5
16CC
  8
0
  0
BLOCK
  8
0
  2
*D249
 70
     1
 10
0.0
 20
0.0
 30
0.0
  3
*D249
  1

  0
LINE
  5
16DC
  8
DIMENSIONS
  6
BYBLOCK
 62
     0
 10
202.3283718637688
 20
436.7355922854073
 30
0.0
 11
162.5076693551754
 21
436.7355922854073
 31
0.0
  0
LINE
  5
16DD
  8
DIMENSIONS
  6
BYBLOCK
 62
     0
 10
202.3283718637688
 20
1291.735592285407
 30
0.0
 11
162.5076693551755
 21
1291.735592285407
 31
0.0
  0
LINE
  5
16DE
  8
DIMENSIONS
  6
BYBLOCK
 62
     0
 10
162.6876693551754
 20
441.7355922854073
 30
0.0
 11
162.6876693551755
 21
1286.735592285407
 31
0.0
  0
SOLID
  5
16DF
  8
DIMENSIONS
 62
     0
 10
161.8543360218421
 20
441.7355922854073
 30
0.0
 11
163.5210026885088
 21
441.7355922854073
 31
0.0
 12
162.6876693551754
 22
436.7355922854073
 32
0.0
 13
162.6876693551754
 23
436.7355922854073
 33
0.0
  0
SOLID
  5
16E0
  8
DIMENSIONS
 62
     0
 10
163.5210026885088
 20
1286.735592285407
 30
0.0
 11
161.8543360218422
 21
1286.735592285407
 31
0.0
 12
162.6876693551755
 22
1291.735592285407
 32
0.0
 13
162.6876693551755
 23
1291.735592285407
 33
0.0
  0
TEXT
  5
16E1
  8
DIMENSIONS
  6
CONTINUOUS
 62
     5
 10
160.2926693551755
 20
846.8605922854072
 30
0.0
 40
5.0
  1
855 [33.66]
 50
90.0
  0
POINT
  5
16E2
  8
DEFPOINTS
 62
     0
 10
203.8283718637688
 20
436.7355922854073
 30
0.0
  0
POINT
  5
16E3
  8
DEFPOINTS
 62
     0
 10
203.8283718637688
 20
1291.735592285407
 30
0.0
  0
POINT
  5
16E4
  8
DEFPOINTS
 62
     0
 10
162.6876693551755
 20
1291.735592285407
 30
0.0
  0
ENDBLK
  5
16DB
  8
0
  0
BLOCK
  8
0
  2
*D250
 70
     1
 10
0.0
 20
0.0
 30
0.0
  3
*D250
  1

  0
LINE
  5
16EB
  8
DIMENSIONS
  6
BYBLOCK
 62
     0
 10
176.8283718637688
 20
1309.735592285407
 30
0.0
 11
147.0006617701843
 21
1309.735592285407
 31
0.0
  0
LINE
  5
16EC
  8
DIMENSIONS
  6
BYBLOCK
 62
     0
 10
176.8283718637688
 20
418.7355922854073
 30
0.0
 11
147.0006617701843
 21
418.7355922854073
 31
0.0
  0
LINE
  5
16ED
  8
DIMENSIONS
  6
BYBLOCK
 62
     0
 10
147.1806617701843
 20
1304.735592285407
 30
0.0
 11
147.1806617701843
 21
423.7355922854073
 31
0.0
  0
SOLID
  5
16EE
  8
DIMENSIONS
 62
     0
 10
148.0139951035177
 20
1304.735592285407
 30
0.0
 11
146.347328436851
 21
1304.735592285407
 31
0.0
 12
147.1806617701843
 22
1309.735592285407
 32
0.0
 13
147.1806617701843
 23
1309.735592285407
 33
0.0
  0
SOLID
  5
16EF
  8
DIMENSIONS
 62
     0
 10
146.3473284368509
 20
423.7355922854073
 30
0.0
 11
148.0139951035176
 21
423.7355922854073
 31
0.0
 12
147.1806617701843
 22
418.7355922854073
 32
0.0
 13
147.1806617701843
 23
418.7355922854073
 33
0.0
  0
TEXT
  5
16F0
  8
DIMENSIONS
  6
CONTINUOUS
 62
     5
 10
144.7856617701843
 20
846.8605922854072
 30
0.0
 40
5.0
  1
891 [35.08]
 50
90.0
  0
POINT
  5
16F1
  8
DEFPOINTS
 62
     0
 10
178.3283718637688
 20
1309.735592285407
 30
0.0
  0
POINT
  5
16F2
  8
DEFPOINTS
 62
     0
 10
178.3283718637688
 20
418.7355922854073
 30
0.0
  0
POINT
  5
16F3
  8
DEFPOINTS
 62
     0
 10
147.1806617701843
 20
418.7355922854073
 30
0.0
  0
ENDBLK
  5
16EA
  8
0
  0
BLOCK
  8
0
  2
*D251
 70
     1
 10
0.0
 20
0.0
 30
0.0
  3
*D251
  1

  0
LINE
  5
16FA
  8
DIMENSIONS
  6
BYBLOCK
 62
     0
 10
391.8283718637689
 20
1309.735592285407
 30
0.0
 11
406.4347220966093
 21
1309.735592285407
 31
0.0
  0
LINE
  5
16FB
  8
DIMENSIONS
  6
BYBLOCK
 62
     0
 10
355.3283718637688
 20
1202.735592285407
 30
0.0
 11
406.4347220966093
 21
1202.735592285407
 31
0.0
  0
LINE
  5
16FC
  8
DIMENSIONS
  6
BYBLOCK
 62
     0
 10
406.2547220966093
 20
1304.735592285407
 30
0.0
 11
406.2547220966093
 21
1207.735592285407
 31
0.0
  0
SOLID
  5
16FD
  8
DIMENSIONS
 62
     0
 10
407.0880554299426
 20
1304.735592285407
 30
0.0
 11
405.421388763276
 21
1304.735592285407
 31
0.0
 12
406.2547220966093
 22
1309.735592285407
 32
0.0
 13
406.2547220966093
 23
1309.735592285407
 33
0.0
  0
SOLID
  5
16FE
  8
DIMENSIONS
 62
     0
 10
405.421388763276
 20
1207.735592285407
 30
0.0
 11
407.0880554299426
 21
1207.735592285407
 31
0.0
 12
406.2547220966093
 22
1202.735592285407
 32
0.0
 13
406.2547220966093
 23
1202.735592285407
 33
0.0
  0
TEXT
  5
16FF
  8
DIMENSIONS
  6
CONTINUOUS
 62
     5
 10
403.8597220966089
 20
1240.563092285407
 30
0.0
 40
5.0
  1
107 [4.21]
 50
90.0
  0
POINT
  5
1700
  8
DEFPOINTS
 62
     0
 10
390.3283718637689
 20
1309.735592285407
 30
0.0
  0
POINT
  5
1701
  8
DEFPOINTS
 62
     0
 10
353.8283718637688
 20
1202.735592285407
 30
0.0
  0
POINT
  5
1702
  8
DEFPOINTS
 62
     0
 10
406.2547220966093
 20
1202.735592285407
 30
0.0
  0
ENDBLK
  5
16F9
  8
0
  0
BLOCK
  8
0
  2
*D252
 70
     1
 10
0.0
 20
0.0
 30
0.0
  3
*D252
  1

  0
LINE
  5
1709
  8
DIMENSIONS
  6
BYBLOCK
 62
     0
 10
355.3283718637688
 20
1202.735592285407
 30
0.0
 11
406.4347220966093
 21
1202.735592285407
 31
0.0
  0
LINE
  5
170A
  8
DIMENSIONS
  6
BYBLOCK
 62
     0
 10
355.3283718637688
 20
501.7355922854073
 30
0.0
 11
406.4347220966092
 21
501.7355922854073
 31
0.0
  0
LINE
  5
170B
  8
DIMENSIONS
  6
BYBLOCK
 62
     0
 10
406.2547220966093
 20
1197.735592285407
 30
0.0
 11
406.2547220966092
 21
506.7355922854073
 31
0.0
  0
SOLID
  5
170C
  8
DIMENSIONS
 62
     0
 10
407.0880554299426
 20
1197.735592285407
 30
0.0
 11
405.421388763276
 21
1197.735592285407
 31
0.0
 12
406.2547220966093
 22
1202.735592285407
 32
0.0
 13
406.2547220966093
 23
1202.735592285407
 33
0.0
  0
SOLID
  5
170D
  8
DIMENSIONS
 62
     0
 10
405.4213887632759
 20
506.7355922854073
 30
0.0
 11
407.0880554299425
 21
506.7355922854073
 31
0.0
 12
406.2547220966092
 22
501.7355922854073
 32
0.0
 13
406.2547220966092
 23
501.7355922854073
 33
0.0
  0
TEXT
  5
170E
  8
DIMENSIONS
  6
CONTINUOUS
 62
     5
 10
403.8597220966093
 20
834.8380922854071
 30
0.0
 40
5.0
  1
701 [27.60]
 50
90.0
  0
POINT
  5
170F
  8
DEFPOINTS
 62
     0
 10
353.8283718637688
 20
1202.735592285407
 30
0.0
  0
POINT
  5
1710
  8
DEFPOINTS
 62
     0
 10
353.8283718637688
 20
501.7355922854073
 30
0.0
  0
POINT
  5
1711
  8
DEFPOINTS
 62
     0
 10
406.2547220966092
 20
501.7355922854073
 30
0.0
  0
ENDBLK
  5
1708
  8
0
  0
BLOCK
  8
0
  2
*D253
 70
     1
 10
0.0
 20
0.0
 30
0.0
  3
*D253
  1

  0
LINE
  5
1718
  8
DIMENSIONS
  6
BYBLOCK
 62
     0
 10
355.3283718637688
 20
501.7355922854073
 30
0.0
 11
406.4347220966092
 21
501.7355922854073
 31
0.0
  0
LINE
  5
1719
  8
DIMENSIONS
  6
BYBLOCK
 62
     0
 10
391.8283718637689
 20
418.7355922854073
 30
0.0
 11
406.4347220966092
 21
418.7355922854073
 31
0.0
  0
LINE
  5
171A
  8
DIMENSIONS
  6
BYBLOCK
 62
     0
 10
406.2547220966092
 20
496.7355922854073
 30
0.0
 11
406.2547220966092
 21
423.7355922854073
 31
0.0
  0
SOLID
  5
171B
  8
DIMENSIONS
 62
     0
 10
407.0880554299425
 20
496.7355922854073
 30
0.0
 11
405.4213887632759
 21
496.7355922854073
 31
0.0
 12
406.2547220966092
 22
501.7355922854073
 32
0.0
 13
406.2547220966092
 23
501.7355922854073
 33
0.0
  0
SOLID
  5
171C
  8
DIMENSIONS
 62
     0
 10
405.4213887632759
 20
423.7355922854073
 30
0.0
 11
407.0880554299425
 21
423.7355922854073
 31
0.0
 12
406.2547220966092
 22
418.7355922854073
 32
0.0
 13
406.2547220966092
 23
418.7355922854073
 33
0.0
  0
TEXT
  5
171D
  8
DIMENSIONS
  6
CONTINUOUS
 62
     5
 10
403.8597220966092
 20
446.7405922854073
 30
0.0
 40
5.0
  1
83 [3.27]
 50
90.0
  0
POINT
  5
171E
  8
DEFPOINTS
 62
     0
 10
353.8283718637688
 20
501.7355922854073
 30
0.0
  0
POINT
  5
171F
  8
DEFPOINTS
 62
     0
 10
390.3283718637689
 20
418.7355922854073
 30
0.0
  0
POINT
  5
1720
  8
DEFPOINTS
 62
     0
 10
406.2547220966092
 20
418.7355922854073
 30
0.0
  0
ENDBLK
  5
1717
  8
0
  0
BLOCK
  8
0
  2
*D254
 70
     1
 10
0.0
 20
0.0
 30
0.0
  3
*D254
  1

  0
LINE
  5
1727
  8
DIMENSIONS
  6
BYBLOCK
 62
     0
 10
218.8283718637688
 20
1201.235592285407
 30
0.0
 11
218.8283718637688
 21
1115.269281603385
 31
0.0
  0
LINE
  5
1728
  8
DIMENSIONS
  6
BYBLOCK
 62
     0
 10
353.8283718637688
 20
1201.235592285407
 30
0.0
 11
353.8283718637688
 21
1115.269281603385
 31
0.0
  0
LINE
  5
1729
  8
DIMENSIONS
  6
BYBLOCK
 62
     0
 10
223.8283718637688
 20
1115.449281603385
 30
0.0
 11
348.8283718637688
 21
1115.449281603385
 31
0.0
  0
SOLID
  5
172A
  8
DIMENSIONS
 62
     0
 10
223.8283718637688
 20
1116.282614936718
 30
0.0
 11
223.8283718637688
 21
1114.615948270052
 31
0.0
 12
218.8283718637688
 22
1115.449281603385
 32
0.0
 13
218.8283718637688
 23
1115.449281603385
 33
0.0
  0
SOLID
  5
172B
  8
DIMENSIONS
 62
     0
 10
348.8283718637688
 20
1114.615948270052
 30
0.0
 11
348.8283718637688
 21
1116.282614936718
 31
0.0
 12
353.8283718637688
 22
1115.449281603385
 32
0.0
 13
353.8283718637688
 23
1115.449281603385
 33
0.0
  0
TEXT
  5
172C
  8
DIMENSIONS
  6
CONTINUOUS
 62
     5
 10
270.6558718637688
 20
1117.844281603385
 30
0.0
 40
5.0
  1
135 [5.31]
  0
POINT
  5
172D
  8
DEFPOINTS
 62
     0
 10
218.8283718637688
 20
1202.735592285407
 30
0.0
  0
POINT
  5
172E
  8
DEFPOINTS
 62
     0
 10
353.8283718637688
 20
1202.735592285407
 30
0.0
  0
POINT
  5
172F
  8
DEFPOINTS
 62
     0
 10
353.8283718637688
 20
1115.449281603385
 30
0.0
  0
ENDBLK
  5
1726
  8
0
  0
BLOCK
  8
0
  2
*D256
 70
     1
 10
0.0
 20
0.0
 30
0.0
  3
*D256
  1

  0
LINE
  5
17A5
  8
DIMENSIONS
  6
BYBLOCK
 62
     0
 10
185.9499039769449
 20
525.5752086032185
 30
0.0
 11
185.9499039769449
 21
543.2704908647117
 31
0.0
  0
LINE
  5
17A6
  8
DIMENSIONS
  6
BYBLOCK
 62
     0
 10
243.9499039769449
 20
525.5752086032185
 30
0.0
 11
243.9499039769449
 21
543.2704908647117
 31
0.0
  0
LINE
  5
17A7
  8
DIMENSIONS
  6
BYBLOCK
 62
     0
 10
190.9499039769449
 20
543.0904908647118
 30
0.0
 11
238.9499039769449
 21
543.0904908647118
 31
0.0
  0
SOLID
  5
17A8
  8
DIMENSIONS
 62
     0
 10
190.9499039769449
 20
543.9238241980452
 30
0.0
 11
190.9499039769449
 21
542.2571575313784
 31
0.0
 12
185.9499039769449
 22
543.0904908647118
 32
0.0
 13
185.9499039769449
 23
543.0904908647118
 33
0.0
  0
SOLID
  5
17A9
  8
DIMENSIONS
 62
     0
 10
238.9499039769449
 20
542.2571575313784
 30
0.0
 11
238.9499039769449
 21
543.9238241980452
 31
0.0
 12
243.9499039769449
 22
543.0904908647118
 32
0.0
 13
243.9499039769449
 23
543.0904908647118
 33
0.0
  0
TEXT
  5
17AA
  8
DIMENSIONS
  6
CONTINUOUS
 62
     5
 10
201.4524039769449
 20
545.4854908647118
 30
0.0
 40
5.0
  1
58 [2.28]
  0
POINT
  5
17AB
  8
DEFPOINTS
 62
     0
 10
185.9499039769449
 20
524.0752086032185
 30
0.0
  0
POINT
  5
17AC
  8
DEFPOINTS
 62
     0
 10
243.9499039769449
 20
524.0752086032185
 30
0.0
  0
POINT
  5
17AD
  8
DEFPOINTS
 62
     0
 10
243.9499039769449
 20
543.0904908647118
 30
0.0
  0
ENDBLK
  5
17A4
  8
0
  0
BLOCK
  8
0
  2
*D257
 70
     1
 10
0.0
 20
0.0
 30
0.0
  3
*D257
  1

  0
LINE
  5
17B4
  8
DIMENSIONS
  6
BYBLOCK
 62
     0
 10
181.9499039769449
 20
527.5752086032185
 30
0.0
 11
181.9499039769449
 21
552.1313775917843
 31
0.0
  0
LINE
  5
17B5
  8
DIMENSIONS
  6
BYBLOCK
 62
     0
 10
247.9499039769449
 20
527.5752086032185
 30
0.0
 11
247.9499039769449
 21
552.1313775917843
 31
0.0
  0
LINE
  5
17B6
  8
DIMENSIONS
  6
BYBLOCK
 62
     0
 10
186.9499039769449
 20
551.9513775917843
 30
0.0
 11
242.9499039769449
 21
551.9513775917843
 31
0.0
  0
SOLID
  5
17B7
  8
DIMENSIONS
 62
     0
 10
186.9499039769449
 20
552.7847109251177
 30
0.0
 11
186.9499039769449
 21
551.1180442584509
 31
0.0
 12
181.9499039769449
 22
551.9513775917843
 32
0.0
 13
181.9499039769449
 23
551.9513775917843
 33
0.0
  0
SOLID
  5
17B8
  8
DIMENSIONS
 62
     0
 10
242.9499039769449
 20
551.1180442584509
 30
0.0
 11
242.9499039769449
 21
552.7847109251177
 31
0.0
 12
247.9499039769449
 22
551.9513775917843
 32
0.0
 13
247.9499039769449
 23
551.9513775917843
 33
0.0
  0
TEXT
  5
17B9
  8
DIMENSIONS
  6
CONTINUOUS
 62
     5
 10
201.467403976945
 20
554.3463775917843
 30
0.0
 40
5.0
  1
66 [2.60]
  0
POINT
  5
17BA
  8
DEFPOINTS
 62
     0
 10
181.9499039769449
 20
526.0752086032185
 30
0.0
  0
POINT
  5
17BB
  8
DEFPOINTS
 62
     0
 10
247.9499039769449
 20
526.0752086032185
 30
0.0
  0
POINT
  5
17BC
  8
DEFPOINTS
 62
     0
 10
247.9499039769449
 20
551.9513775917843
 30
0.0
  0
ENDBLK
  5
17B3
  8
0
  0
BLOCK
  8
0
  2
*D258
 70
     1
 10
0.0
 20
0.0
 30
0.0
  3
*D258
  1

  0
LINE
  5
17C3
  8
DIMENSIONS
  6
BYBLOCK
 62
     0
 10
178.9499039769449
 20
535.5752086032185
 30
0.0
 11
178.9499039769449
 21
561.7980836187918
 31
0.0
  0
LINE
  5
17C4
  8
DIMENSIONS
  6
BYBLOCK
 62
     0
 10
250.9499039769449
 20
535.5752086032185
 30
0.0
 11
250.9499039769449
 21
561.7980836187918
 31
0.0
  0
LINE
  5
17C5
  8
DIMENSIONS
  6
BYBLOCK
 62
     0
 10
183.9499039769449
 20
561.6180836187918
 30
0.0
 11
245.9499039769449
 21
561.6180836187918
 31
0.0
  0
SOLID
  5
17C6
  8
DIMENSIONS
 62
     0
 10
183.9499039769449
 20
562.4514169521252
 30
0.0
 11
183.9499039769449
 21
560.7847502854585
 31
0.0
 12
178.9499039769449
 22
561.6180836187918
 32
0.0
 13
178.9499039769449
 23
561.6180836187918
 33
0.0
  0
SOLID
  5
17C7
  8
DIMENSIONS
 62
     0
 10
245.9499039769449
 20
560.7847502854585
 30
0.0
 11
245.9499039769449
 21
562.4514169521252
 31
0.0
 12
250.9499039769449
 22
561.6180836187918
 32
0.0
 13
250.9499039769449
 23
561.6180836187918
 33
0.0
  0
TEXT
  5
17C8
  8
DIMENSIONS
  6
CONTINUOUS
 62
     5
 10
201.4324039769449
 20
564.0130836187918
 30
0.0
 40
5.0
  1
72 [2.83]
  0
POINT
  5
17C9
  8
DEFPOINTS
 62
     0
 10
178.9499039769449
 20
534.0752086032185
 30
0.0
  0
POINT
  5
17CA
  8
DEFPOINTS
 62
     0
 10
250.9499039769449
 20
534.0752086032185
 30
0.0
  0
POINT
  5
17CB
  8
DEFPOINTS
 62
     0
 10
250.9499039769449
 20
561.6180836187918
 30
0.0
  0
ENDBLK
  5
17C2
  8
0
  0
BLOCK
  8
0
  2
*D259
 70
     1
 10
0.0
 20
0.0
 30
0.0
  3
*D259
  1

  0
LINE
  5
17D6
  8
DIMENSIONS
  6
BYBLOCK
 62
     0
 10
184.4499039769449
 20
459.0752086032185
 30
0.0
 11
171.6572149859633
 21
459.0752086032185
 31
0.0
  0
LINE
  5
17D7
  8
DIMENSIONS
  6
BYBLOCK
 62
     0
 10
184.4499039769449
 20
489.0752086032185
 30
0.0
 11
171.6572149859633
 21
489.0752086032185
 31
0.0
  0
LINE
  5
17D8
  8
DIMENSIONS
  6
BYBLOCK
 62
     0
 10
171.8372149859633
 20
464.0752086032185
 30
0.0
 11
171.8372149859633
 21
484.0752086032185
 31
0.0
  0
SOLID
  5
17D9
  8
DIMENSIONS
 62
     0
 10
171.0038816526299
 20
464.0752086032185
 30
0.0
 11
172.6705483192966
 21
464.0752086032185
 31
0.0
 12
171.8372149859633
 22
459.0752086032185
 32
0.0
 13
171.8372149859633
 23
459.0752086032185
 33
0.0
  0
SOLID
  5
17DA
  8
DIMENSIONS
 62
     0
 10
172.6705483192966
 20
484.0752086032185
 30
0.0
 11
171.0038816526299
 21
484.0752086032185
 31
0.0
 12
171.8372149859633
 22
489.0752086032185
 32
0.0
 13
171.8372149859633
 23
489.0752086032185
 33
0.0
  0
TEXT
  5
17DB
  8
DIMENSIONS
  6
CONTINUOUS
 62
     5
 10
169.4422149859632
 20
460.5752086032185
 30
0.0
 40
5.0
  1
30 [1.18]
 50
90.0
  0
POINT
  5
17DC
  8
DEFPOINTS
 62
     0
 10
185.9499039769449
 20
459.0752086032185
 30
0.0
  0
POINT
  5
17DD
  8
DEFPOINTS
 62
     0
 10
185.9499039769449
 20
489.0752086032185
 30
0.0
  0
POINT
  5
17DE
  8
DEFPOINTS
 62
     0
 10
171.8372149859633
 20
489.0752086032185
 30
0.0
  0
ENDBLK
  5
17D5
  8
0
  0
BLOCK
  8
0
  2
*D260
 70
     1
 10
0.0
 20
0.0
 30
0.0
  3
*D260
  1

  0
LINE
  5
17E5
  8
DIMENSIONS
  6
BYBLOCK
 62
     0
 10
184.4499039769449
 20
424.0752086032185
 30
0.0
 11
162.6104116566512
 21
424.0752086032185
 31
0.0
  0
LINE
  5
17E6
  8
DIMENSIONS
  6
BYBLOCK
 62
     0
 10
184.4499039769449
 20
524.0752086032185
 30
0.0
 11
162.6104116566512
 21
524.0752086032185
 31
0.0
  0
LINE
  5
17E7
  8
DIMENSIONS
  6
BYBLOCK
 62
     0
 10
162.7904116566512
 20
429.0752086032185
 30
0.0
 11
162.7904116566512
 21
519.0752086032185
 31
0.0
  0
SOLID
  5
17E8
  8
DIMENSIONS
 62
     0
 10
161.9570783233179
 20
429.0752086032185
 30
0.0
 11
163.6237449899846
 21
429.0752086032185
 31
0.0
 12
162.7904116566512
 22
424.0752086032185
 32
0.0
 13
162.7904116566512
 23
424.0752086032185
 33
0.0
  0
SOLID
  5
17E9
  8
DIMENSIONS
 62
     0
 10
163.6237449899846
 20
519.0752086032185
 30
0.0
 11
161.9570783233179
 21
519.0752086032185
 31
0.0
 12
162.7904116566512
 22
524.0752086032185
 32
0.0
 13
162.7904116566512
 23
524.0752086032185
 33
0.0
  0
TEXT
  5
17EA
  8
DIMENSIONS
  6
CONTINUOUS
 62
     5
 10
160.3954116566513
 20
458.4027086032185
 30
0.0
 40
5.0
  1
100 [3.94]
 50
90.0
  0
POINT
  5
17EB
  8
DEFPOINTS
 62
     0
 10
185.9499039769449
 20
424.0752086032185
 30
0.0
  0
POINT
  5
17EC
  8
DEFPOINTS
 62
     0
 10
185.9499039769449
 20
524.0752086032185
 30
0.0
  0
POINT
  5
17ED
  8
DEFPOINTS
 62
     0
 10
162.7904116566512
 20
524.0752086032185
 30
0.0
  0
ENDBLK
  5
17E4
  8
0
  0
BLOCK
  8
0
  2
*D261
 70
     1
 10
0.0
 20
0.0
 30
0.0
  3
*D261
  1

  0
LINE
  5
17F4
  8
DIMENSIONS
  6
BYBLOCK
 62
     0
 10
180.4499039769449
 20
422.0752086032185
 30
0.0
 11
152.3260390927895
 21
422.0752086032185
 31
0.0
  0
LINE
  5
17F5
  8
DIMENSIONS
  6
BYBLOCK
 62
     0
 10
180.4499039769449
 20
526.0752086032185
 30
0.0
 11
152.3260390927895
 21
526.0752086032185
 31
0.0
  0
LINE
  5
17F6
  8
DIMENSIONS
  6
BYBLOCK
 62
     0
 10
152.5060390927895
 20
427.0752086032185
 30
0.0
 11
152.5060390927895
 21
521.0752086032185
 31
0.0
  0
SOLID
  5
17F7
  8
DIMENSIONS
 62
     0
 10
151.6727057594561
 20
427.0752086032185
 30
0.0
 11
153.3393724261228
 21
427.0752086032185
 31
0.0
 12
152.5060390927895
 22
422.0752086032185
 32
0.0
 13
152.5060390927895
 23
422.0752086032185
 33
0.0
  0
SOLID
  5
17F8
  8
DIMENSIONS
 62
     0
 10
153.3393724261228
 20
521.0752086032185
 30
0.0
 11
151.6727057594561
 21
521.0752086032185
 31
0.0
 12
152.5060390927895
 22
526.0752086032185
 32
0.0
 13
152.5060390927895
 23
526.0752086032185
 33
0.0
  0
TEXT
  5
17F9
  8
DIMENSIONS
  6
CONTINUOUS
 62
     5
 10
150.1110390927895
 20
458.4027086032185
 30
0.0
 40
5.0
  1
104 [4.09]
 50
90.0
  0
POINT
  5
17FA
  8
DEFPOINTS
 62
     0
 10
181.9499039769449
 20
422.0752086032185
 30
0.0
  0
POINT
  5
17FB
  8
DEFPOINTS
 62
     0
 10
181.9499039769449
 20
526.0752086032185
 30
0.0
  0
POINT
  5
17FC
  8
DEFPOINTS
 62
     0
 10
152.5060390927895
 20
526.0752086032185
 30
0.0
  0
ENDBLK
  5
17F3
  8
0
  0
BLOCK
  8
0
  2
*D262
 70
     1
 10
0.0
 20
0.0
 30
0.0
  3
*D262
  1

  0
LINE
  5
1803
  8
DIMENSIONS
  6
BYBLOCK
 62
     0
 10
177.4499039769449
 20
414.0752086032185
 30
0.0
 11
142.0008831191181
 21
414.0752086032185
 31
0.0
  0
LINE
  5
1804
  8
DIMENSIONS
  6
BYBLOCK
 62
     0
 10
177.4499039769449
 20
534.0752086032185
 30
0.0
 11
142.0008831191181
 21
534.0752086032185
 31
0.0
  0
LINE
  5
1805
  8
DIMENSIONS
  6
BYBLOCK
 62
     0
 10
142.1808831191181
 20
419.0752086032185
 30
0.0
 11
142.1808831191181
 21
529.0752086032185
 31
0.0
  0
SOLID
  5
1806
  8
DIMENSIONS
 62
     0
 10
141.3475497857848
 20
419.0752086032185
 30
0.0
 11
143.0142164524515
 21
419.0752086032185
 31
0.0
 12
142.1808831191181
 22
414.0752086032185
 32
0.0
 13
142.1808831191181
 23
414.0752086032185
 33
0.0
  0
SOLID
  5
1807
  8
DIMENSIONS
 62
     0
 10
143.0142164524515
 20
529.0752086032185
 30
0.0
 11
141.3475497857848
 21
529.0752086032185
 31
0.0
 12
142.1808831191181
 22
534.0752086032185
 32
0.0
 13
142.1808831191181
 23
534.0752086032185
 33
0.0
  0
TEXT
  5
1808
  8
DIMENSIONS
  6
CONTINUOUS
 62
     5
 10
139.7858831191181
 20
458.4027086032185
 30
0.0
 40
5.0
  1
120 [4.72]
 50
90.0
  0
POINT
  5
1809
  8
DEFPOINTS
 62
     0
 10
178.9499039769449
 20
414.0752086032185
 30
0.0
  0
POINT
  5
180A
  8
DEFPOINTS
 62
     0
 10
178.9499039769449
 20
534.0752086032185
 30
0.0
  0
POINT
  5
180B
  8
DEFPOINTS
 62
     0
 10
142.1808831191181
 20
534.0752086032185
 30
0.0
  0
ENDBLK
  5
1802
  8
0
  0
BLOCK
  8
0
  2
*D263
 70
     1
 10
0.0
 20
0.0
 30
0.0
  3
*D263
  1

  0
LINE
  5
1822
  8
DIMENSIONS
  6
BYBLOCK
 62
     0
 10
253.9498952006607
 20
422.085470929155
 30
0.0
 11
294.3548360997
 21
422.1545791423993
 31
0.0
  0
TEXT
  5
1823
  8
DIMENSIONS
  6
CONTINUOUS
 62
     5
 10
259.6656536244876
 20
424.5702507263306
 30
0.0
 40
5.0
  1
Ø2 [Ø0.08]
 50
0.0979980418062452
  0
SOLID
  5
1824
  8
DIMENSIONS
 62
     0
 10
253.948469877614
 20
422.91880304356
 30
0.0
 11
253.9513205237075
 21
421.25213881475
 31
0.0
 12
248.9499025142309
 22
422.0769189908746
 32
0.0
 13
248.9499025142309
 23
422.0769189908746
 33
0.0
  0
LINE
  5
1825
  8
DIMENSIONS
  6
BYBLOCK
 62
     0
 10
245.4499039769449
 20
422.0752086032185
 30
0.0
 11
250.4499039769449
 21
422.0752086032185
 31
0.0
  0
LINE
  5
1826
  8
DIMENSIONS
  6
BYBLOCK
 62
     0
 10
247.9499039769449
 20
419.5752086032185
 30
0.0
 11
247.9499039769449
 21
424.5752086032185
 31
0.0
  0
POINT
  5
1827
  8
DEFPOINTS
 62
     0
 10
248.9499025142309
 20
422.0769189908746
 30
0.0
  0
POINT
  5
1828
  8
DEFPOINTS
 62
     0
 10
246.949905439659
 20
422.0734982155624
 30
0.0
  0
ENDBLK
  5
1821
  8
0
  0
BLOCK
  8
0
  2
*X265
 70
     1
 10
0.0
 20
0.0
 30
0.0
  3
*X265
  1

  0
LINE
  5
186B
  8
CUTOUT
  6
CENTER
 10
16.99999999999935
 20
865.5281374238565
 30
0.0
 11
52.47186257614283
 21
901.0
 31
0.0
  0
LINE
  5
186C
  8
CUTOUT
  6
CENTER
 10
16.99999999999936
 20
812.4951288348655
 30
0.0
 11
105.5048711651339
 21
901.0
 31
0.0
  0
LINE
  5
186D
  8
CUTOUT
  6
CENTER
 10
16.99999999999937
 20
759.4621202458743
 30
0.0
 11
158.537879754125
 21
901.0
 31
0.0
  0
LINE
  5
186E
  8
CUTOUT
  6
CENTER
 10
16.99999999999939
 20
706.4291116568833
 30
0.0
 11
211.570888343116
 21
901.0
 31
0.0
  0
LINE
  5
186F
  8
CUTOUT
  6
CENTER
 10
16.99999999999937
 20
653.3961030678922
 30
0.0
 11
244.9999999999994
 21
881.3961030678922
 31
0.0
  0
LINE
  5
1870
  8
CUTOUT
  6
CENTER
 10
52.63690552109821
 20
636.0
 30
0.0
 11
244.9999999999994
 21
828.3630944789012
 31
0.0
  0
LINE
  5
1871
  8
CUTOUT
  6
CENTER
 10
105.6699141100893
 20
636.0
 30
0.0
 11
244.9999999999994
 21
775.3300858899102
 31
0.0
  0
LINE
  5
1872
  8
CUTOUT
  6
CENTER
 10
158.7029226990803
 20
636.0
 30
0.0
 11
244.9999999999994
 21
722.297077300919
 31
0.0
  0
LINE
  5
1873
  8
CUTOUT
  6
CENTER
 10
211.7359312880714
 20
636.0
 30
0.0
 11
244.9999999999994
 21
669.2640687119281
 31
0.0
  0
LINE
  5
1874
  8
CUTOUT
  6
CENTER
 10
30.9999999999997
 20
137.0660171779818
 30
0.0
 11
54.43398282201782
 21
160.4999999999999
 31
0.0
  0
LINE
  5
1875
  8
CUTOUT
  6
CENTER
 10
30.99999999999972
 20
84.03300858899081
 30
0.0
 11
107.4669914110089
 21
160.5
 31
0.0
  0
LINE
  5
1876
  8
CUTOUT
  6
CENTER
 10
30.99999999999969
 20
30.99999999999966
 30
0.0
 11
160.4999999999999
 21
160.5
 31
0.0
  0
LINE
  5
1877
  8
CUTOUT
  6
CENTER
 10
68.5330085889911
 20
15.5
 30
0.0
 11
213.533008588991
 21
160.4999999999999
 31
0.0
  0
LINE
  5
1878
  8
CUTOUT
  6
CENTER
 10
121.5660171779821
 20
15.50000000000006
 30
0.0
 11
230.9999999999997
 21
124.9339828220176
 31
0.0
  0
LINE
  5
1879
  8
CUTOUT
  6
CENTER
 10
174.5990257669732
 20
15.5
 30
0.0
 11
230.9999999999997
 21
71.90097423302655
 31
0.0
  0
LINE
  5
187A
  8
CUTOUT
  6
CENTER
 10
227.6320343559642
 20
15.5
 30
0.0
 11
230.9999999999997
 21
18.86796564403551
 31
0.0
  0
ENDBLK
  5
187B
  8
0
  0
BLOCK
  8
0
  2
*D266
 70
     1
 10
0.0
 20
0.0
 30
0.0
  3
*D266
  1

  0
LINE
  5
188F
  8
DIMENSIONS
  6
BYBLOCK
 62
     0
 10
197.9938247411052
 20
1336.68945648674
 30
0.0
 11
197.9938247411052
 21
1366.280803873392
 31
0.0
  0
LINE
  5
1890
  8
DIMENSIONS
  6
BYBLOCK
 62
     0
 10
419.9938247411052
 20
1336.689456486739
 30
0.0
 11
419.9938247411052
 21
1366.280803873392
 31
0.0
  0
LINE
  5
1891
  8
DIMENSIONS
  6
BYBLOCK
 62
     0
 10
202.9938247411052
 20
1366.100803873392
 30
0.0
 11
414.9938247411052
 21
1366.100803873392
 31
0.0
  0
SOLID
  5
1892
  8
DIMENSIONS
 62
     0
 10
202.9938247411052
 20
1366.934137206725
 30
0.0
 11
202.9938247411052
 21
1365.267470540058
 31
0.0
 12
197.9938247411052
 22
1366.100803873392
 32
0.0
 13
197.9938247411052
 23
1366.100803873392
 33
0.0
  0
SOLID
  5
1893
  8
DIMENSIONS
 62
     0
 10
414.9938247411052
 20
1365.267470540058
 30
0.0
 11
414.9938247411052
 21
1366.934137206725
 31
0.0
 12
419.9938247411052
 22
1366.100803873392
 32
0.0
 13
419.9938247411052
 23
1366.100803873392
 33
0.0
  0
TEXT
  5
1894
  8
DIMENSIONS
  6
CONTINUOUS
 62
     5
 10
293.5988247411052
 20
1368.495803873392
 30
0.0
 40
5.0
  1
222 [8.74]
  0
POINT
  5
1895
  8
DEFPOINTS
 62
     0
 10
197.9938247411052
 20
1335.18945648674
 30
0.0
  0
POINT
  5
1896
  8
DEFPOINTS
 62
     0
 10
419.9938247411052
 20
1335.189456486739
 30
0.0
  0
POINT
  5
1897
  8
DEFPOINTS
 62
     0
 10
419.9938247411052
 20
1366.100803873392
 30
0.0
  0
ENDBLK
  5
188E
  8
0
  0
BLOCK
  8
0
  2
*D267
 70
     1
 10
0.0
 20
0.0
 30
0.0
  3
*D267
  1

  0
LINE
  5
189E
  8
DIMENSIONS
  6
BYBLOCK
 62
     0
 10
422.9938247411052
 20
1321.68945648674
 30
0.0
 11
422.9938247411052
 21
1377.709767237044
 31
0.0
  0
LINE
  5
189F
  8
DIMENSIONS
  6
BYBLOCK
 62
     0
 10
194.9938247411052
 20
1321.68945648674
 30
0.0
 11
194.9938247411052
 21
1377.709767237044
 31
0.0
  0
LINE
  5
18A0
  8
DIMENSIONS
  6
BYBLOCK
 62
     0
 10
417.9938247411052
 20
1377.529767237044
 30
0.0
 11
199.9938247411052
 21
1377.529767237044
 31
0.0
  0
SOLID
  5
18A1
  8
DIMENSIONS
 62
     0
 10
417.9938247411052
 20
1376.696433903711
 30
0.0
 11
417.9938247411052
 21
1378.363100570378
 31
0.0
 12
422.9938247411052
 22
1377.529767237044
 32
0.0
 13
422.9938247411052
 23
1377.529767237044
 33
0.0
  0
SOLID
  5
18A2
  8
DIMENSIONS
 62
     0
 10
199.9938247411052
 20
1378.363100570378
 30
0.0
 11
199.9938247411052
 21
1376.696433903711
 31
0.0
 12
194.9938247411052
 22
1377.529767237044
 32
0.0
 13
194.9938247411052
 23
1377.529767237044
 33
0.0
  0
TEXT
  5
18A3
  8
DIMENSIONS
  6
CONTINUOUS
 62
     5
 10
293.5988247411052
 20
1379.924767237045
 30
0.0
 40
5.0
  1
228 [8.98]
  0
POINT
  5
18A4
  8
DEFPOINTS
 62
     0
 10
422.9938247411052
 20
1320.18945648674
 30
0.0
  0
POINT
  5
18A5
  8
DEFPOINTS
 62
     0
 10
194.9938247411052
 20
1320.18945648674
 30
0.0
  0
POINT
  5
18A6
  8
DEFPOINTS
 62
     0
 10
194.9938247411052
 20
1377.529767237044
 30
0.0
  0
ENDBLK
  5
189D
  8
0
  0
BLOCK
  8
0
  2
*D268
 70
     1
 10
0.0
 20
0.0
 30
0.0
  3
*D268
  1

  0
LINE
  5
18AD
  8
DIMENSIONS
  6
BYBLOCK
 62
     0
 10
177.9938247411052
 20
1356.68945648674
 30
0.0
 11
177.9938247411052
 21
1388.503788191605
 31
0.0
  0
LINE
  5
18AE
  8
DIMENSIONS
  6
BYBLOCK
 62
     0
 10
439.9938247411054
 20
1356.68945648674
 30
0.0
 11
439.9938247411054
 21
1388.503788191605
 31
0.0
  0
LINE
  5
18AF
  8
DIMENSIONS
  6
BYBLOCK
 62
     0
 10
182.9938247411052
 20
1388.323788191605
 30
0.0
 11
434.9938247411054
 21
1388.323788191605
 31
0.0
  0
SOLID
  5
18B0
  8
DIMENSIONS
 62
     0
 10
182.9938247411052
 20
1389.157121524938
 30
0.0
 11
182.9938247411052
 21
1387.490454858272
 31
0.0
 12
177.9938247411052
 22
1388.323788191605
 32
0.0
 13
177.9938247411052
 23
1388.323788191605
 33
0.0
  0
SOLID
  5
18B1
  8
DIMENSIONS
 62
     0
 10
434.9938247411054
 20
1387.490454858272
 30
0.0
 11
434.9938247411054
 21
1389.157121524938
 31
0.0
 12
439.9938247411054
 22
1388.323788191605
 32
0.0
 13
439.9938247411054
 23
1388.323788191605
 33
0.0
  0
TEXT
  5
18B2
  8
DIMENSIONS
  6
CONTINUOUS
 62
     5
 10
291.6588247411053
 20
1390.718788191605
 30
0.0
 40
5.0
  1
262 [10.31]
  0
POINT
  5
18B3
  8
DEFPOINTS
 62
     0
 10
177.9938247411052
 20
1355.18945648674
 30
0.0
  0
POINT
  5
18B4
  8
DEFPOINTS
 62
     0
 10
439.9938247411054
 20
1355.18945648674
 30
0.0
  0
POINT
  5
18B5
  8
DEFPOINTS
 62
     0
 10
439.9938247411054
 20
1388.323788191605
 30
0.0
  0
ENDBLK
  5
18AC
  8
0
  0
BLOCK
  8
0
  2
*D269
 70
     1
 10
0.0
 20
0.0
 30
0.0
  3
*D269
  1

  0
LINE
  5
18BC
  8
DIMENSIONS
  6
BYBLOCK
 62
     0
 10
196.4938247411052
 20
1335.18945648674
 30
0.0
 11
163.362227242027
 21
1335.18945648674
 31
0.0
  0
LINE
  5
18BD
  8
DIMENSIONS
  6
BYBLOCK
 62
     0
 10
196.4938247411052
 20
439.1894564867397
 30
0.0
 11
163.3622272420269
 21
439.1894564867397
 31
0.0
  0
LINE
  5
18BE
  8
DIMENSIONS
  6
BYBLOCK
 62
     0
 10
163.542227242027
 20
1330.18945648674
 30
0.0
 11
163.5422272420269
 21
444.1894564867397
 31
0.0
  0
SOLID
  5
18BF
  8
DIMENSIONS
 62
     0
 10
164.3755605753603
 20
1330.18945648674
 30
0.0
 11
162.7088939086937
 21
1330.18945648674
 31
0.0
 12
163.542227242027
 22
1335.18945648674
 32
0.0
 13
163.542227242027
 23
1335.18945648674
 33
0.0
  0
SOLID
  5
18C0
  8
DIMENSIONS
 62
     0
 10
162.7088939086936
 20
444.1894564867397
 30
0.0
 11
164.3755605753603
 21
444.1894564867397
 31
0.0
 12
163.5422272420269
 22
439.1894564867397
 32
0.0
 13
163.5422272420269
 23
439.1894564867397
 33
0.0
  0
TEXT
  5
18C1
  8
DIMENSIONS
  6
CONTINUOUS
 62
     5
 10
161.147227242027
 20
869.8144564867398
 30
0.0
 40
5.0
  1
896 [35.28]
 50
90.0
  0
POINT
  5
18C2
  8
DEFPOINTS
 62
     0
 10
197.9938247411052
 20
1335.18945648674
 30
0.0
  0
POINT
  5
18C3
  8
DEFPOINTS
 62
     0
 10
197.9938247411052
 20
439.1894564867397
 30
0.0
  0
POINT
  5
18C4
  8
DEFPOINTS
 62
     0
 10
163.5422272420269
 20
439.1894564867397
 30
0.0
  0
ENDBLK
  5
18BB
  8
0
  0
BLOCK
  8
0
  2
*D270
 70
     1
 10
0.0
 20
0.0
 30
0.0
  3
*D270
  1

  0
LINE
  5
18CB
  8
DIMENSIONS
  6
BYBLOCK
 62
     0
 10
176.4938247411052
 20
1355.18945648674
 30
0.0
 11
148.098302973304
 21
1355.18945648674
 31
0.0
  0
LINE
  5
18CC
  8
DIMENSIONS
  6
BYBLOCK
 62
     0
 10
176.4938247411052
 20
419.1894564867397
 30
0.0
 11
148.0983029733039
 21
419.1894564867397
 31
0.0
  0
LINE
  5
18CD
  8
DIMENSIONS
  6
BYBLOCK
 62
     0
 10
148.278302973304
 20
1350.18945648674
 30
0.0
 11
148.2783029733039
 21
424.1894564867397
 31
0.0
  0
SOLID
  5
18CE
  8
DIMENSIONS
 62
     0
 10
149.1116363066373
 20
1350.18945648674
 30
0.0
 11
147.4449696399707
 21
1350.18945648674
 31
0.0
 12
148.278302973304
 22
1355.18945648674
 32
0.0
 13
148.278302973304
 23
1355.18945648674
 33
0.0
  0
SOLID
  5
18CF
  8
DIMENSIONS
 62
     0
 10
147.4449696399706
 20
424.1894564867397
 30
0.0
 11
149.1116363066373
 21
424.1894564867397
 31
0.0
 12
148.2783029733039
 22
419.1894564867397
 32
0.0
 13
148.2783029733039
 23
419.1894564867397
 33
0.0
  0
TEXT
  5
18D0
  8
DIMENSIONS
  6
CONTINUOUS
 62
     5
 10
145.883302973304
 20
869.8119564867399
 30
0.0
 40
5.0
  1
936 [36.85]
 50
90.0
  0
POINT
  5
18D1
  8
DEFPOINTS
 62
     0
 10
177.9938247411052
 20
1355.18945648674
 30
0.0
  0
POINT
  5
18D2
  8
DEFPOINTS
 62
     0
 10
177.9938247411052
 20
419.1894564867397
 30
0.0
  0
POINT
  5
18D3
  8
DEFPOINTS
 62
     0
 10
148.2783029733039
 20
419.1894564867397
 30
0.0
  0
ENDBLK
  5
18CA
  8
0
  0
BLOCK
  8
0
  2
*D271
 70
     1
 10
0.0
 20
0.0
 30
0.0
  3
*D271
  1

  0
LINE
  5
18DA
  8
DIMENSIONS
  6
BYBLOCK
 62
     0
 10
208.9938247411054
 20
581.1894564867398
 30
0.0
 11
208.9938247411054
 21
591.3255195833831
 31
0.0
  0
LINE
  5
18DB
  8
DIMENSIONS
  6
BYBLOCK
 62
     0
 10
408.9938247411054
 20
581.1894564867398
 30
0.0
 11
408.9938247411054
 21
591.3255195833831
 31
0.0
  0
LINE
  5
18DC
  8
DIMENSIONS
  6
BYBLOCK
 62
     0
 10
213.9938247411054
 20
591.1455195833831
 30
0.0
 11
403.9938247411054
 21
591.1455195833831
 31
0.0
  0
SOLID
  5
18DD
  8
DIMENSIONS
 62
     0
 10
213.9938247411054
 20
591.9788529167165
 30
0.0
 11
213.9938247411054
 21
590.3121862500498
 31
0.0
 12
208.9938247411054
 22
591.1455195833831
 32
0.0
 13
208.9938247411054
 23
591.1455195833831
 33
0.0
  0
SOLID
  5
18DE
  8
DIMENSIONS
 62
     0
 10
403.9938247411054
 20
590.3121862500498
 30
0.0
 11
403.9938247411054
 21
591.9788529167165
 31
0.0
 12
408.9938247411054
 22
591.1455195833831
 32
0.0
 13
408.9938247411054
 23
591.1455195833831
 33
0.0
  0
TEXT
  5
18DF
  8
DIMENSIONS
  6
CONTINUOUS
 62
     5
 10
293.5988247411054
 20
593.5405195833831
 30
0.0
 40
5.0
  1
200 [7.87]
  0
POINT
  5
18E0
  8
DEFPOINTS
 62
     0
 10
208.9938247411054
 20
579.6894564867398
 30
0.0
  0
POINT
  5
18E1
  8
DEFPOINTS
 62
     0
 10
408.9938247411054
 20
579.6894564867398
 30
0.0
  0
POINT
  5
18E2
  8
DEFPOINTS
 62
     0
 10
408.9938247411054
 20
591.1455195833831
 30
0.0
  0
ENDBLK
  5
18D9
  8
0
  0
BLOCK
  8
0
  2
*D272
 70
     1
 10
0.0
 20
0.0
 30
0.0
  3
*D272
  1

  0
LINE
  5
18E9
  8
DIMENSIONS
  6
BYBLOCK
 62
     0
 10
441.4938247411054
 20
1355.18945648674
 30
0.0
 11
459.8285735167371
 21
1355.18945648674
 31
0.0
  0
LINE
  5
18EA
  8
DIMENSIONS
  6
BYBLOCK
 62
     0
 10
424.4938247411052
 20
1320.18945648674
 30
0.0
 11
459.8285735167371
 21
1320.18945648674
 31
0.0
  0
LINE
  5
18EB
  8
DIMENSIONS
  6
BYBLOCK
 62
     0
 10
459.6485735167371
 20
1350.18945648674
 30
0.0
 11
459.6485735167371
 21
1325.18945648674
 31
0.0
  0
SOLID
  5
18EC
  8
DIMENSIONS
 62
     0
 10
460.4819068500704
 20
1350.18945648674
 30
0.0
 11
458.8152401834038
 21
1350.18945648674
 31
0.0
 12
459.6485735167371
 22
1355.18945648674
 32
0.0
 13
459.6485735167371
 23
1355.18945648674
 33
0.0
  0
SOLID
  5
18ED
  8
DIMENSIONS
 62
     0
 10
458.8152401834038
 20
1325.18945648674
 30
0.0
 11
460.4819068500704
 21
1325.18945648674
 31
0.0
 12
459.6485735167371
 22
1320.18945648674
 32
0.0
 13
459.6485735167371
 23
1320.18945648674
 33
0.0
  0
TEXT
  5
18EE
  8
DIMENSIONS
  6
CONTINUOUS
 62
     5
 10
457.2535735167369
 20
1324.18945648674
 30
0.0
 40
5.0
  1
35 [1.38]
 50
90.0
  0
POINT
  5
18EF
  8
DEFPOINTS
 62
     0
 10
439.9938247411054
 20
1355.18945648674
 30
0.0
  0
POINT
  5
18F0
  8
DEFPOINTS
 62
     0
 10
422.9938247411052
 20
1320.18945648674
 30
0.0
  0
POINT
  5
18F1
  8
DEFPOINTS
 62
     0
 10
459.6485735167371
 20
1320.18945648674
 30
0.0
  0
ENDBLK
  5
18E8
  8
0
  0
BLOCK
  8
0
  2
*D273
 70
     1
 10
0.0
 20
0.0
 30
0.0
  3
*D273
  1

  0
LINE
  5
18F8
  8
DIMENSIONS
  6
BYBLOCK
 62
     0
 10
424.4938247411052
 20
1320.18945648674
 30
0.0
 11
459.8285735167371
 21
1320.18945648674
 31
0.0
  0
LINE
  5
18F9
  8
DIMENSIONS
  6
BYBLOCK
 62
     0
 10
424.4938247411052
 20
1055.18945648674
 30
0.0
 11
459.8285735167371
 21
1055.18945648674
 31
0.0
  0
LINE
  5
18FA
  8
DIMENSIONS
  6
BYBLOCK
 62
     0
 10
459.6485735167371
 20
1315.18945648674
 30
0.0
 11
459.6485735167371
 21
1060.18945648674
 31
0.0
  0
SOLID
  5
18FB
  8
DIMENSIONS
 62
     0
 10
460.4819068500704
 20
1315.18945648674
 30
0.0
 11
458.8152401834038
 21
1315.18945648674
 31
0.0
 12
459.6485735167371
 22
1320.18945648674
 32
0.0
 13
459.6485735167371
 23
1320.18945648674
 33
0.0
  0
SOLID
  5
18FC
  8
DIMENSIONS
 62
     0
 10
458.8152401834038
 20
1060.18945648674
 30
0.0
 11
460.4819068500704
 21
1060.18945648674
 31
0.0
 12
459.6485735167371
 22
1055.18945648674
 32
0.0
 13
459.6485735167371
 23
1055.18945648674
 33
0.0
  0
TEXT
  5
18FD
  8
DIMENSIONS
  6
CONTINUOUS
 62
     5
 10
457.2535735167369
 20
1170.35445648674
 30
0.0
 40
5.0
  1
265 [10.43]
 50
90.0
  0
POINT
  5
18FE
  8
DEFPOINTS
 62
     0
 10
422.9938247411052
 20
1320.18945648674
 30
0.0
  0
POINT
  5
18FF
  8
DEFPOINTS
 62
     0
 10
422.9938247411052
 20
1055.18945648674
 30
0.0
  0
POINT
  5
1900
  8
DEFPOINTS
 62
     0
 10
459.6485735167371
 20
1055.18945648674
 30
0.0
  0
ENDBLK
  5
18F7
  8
0
  0
BLOCK
  8
0
  2
*D274
 70
     1
 10
0.0
 20
0.0
 30
0.0
  3
*D274
  1

  0
LINE
  5
1907
  8
DIMENSIONS
  6
BYBLOCK
 62
     0
 10
424.4938247411052
 20
1055.18945648674
 30
0.0
 11
459.8285735167371
 21
1055.18945648674
 31
0.0
  0
LINE
  5
1908
  8
DIMENSIONS
  6
BYBLOCK
 62
     0
 10
410.4938247411054
 20
579.6894564867398
 30
0.0
 11
459.828573516737
 21
579.6894564867398
 31
0.0
  0
LINE
  5
1909
  8
DIMENSIONS
  6
BYBLOCK
 62
     0
 10
459.6485735167371
 20
1050.18945648674
 30
0.0
 11
459.648573516737
 21
584.6894564867398
 31
0.0
  0
SOLID
  5
190A
  8
DIMENSIONS
 62
     0
 10
460.4819068500704
 20
1050.18945648674
 30
0.0
 11
458.8152401834038
 21
1050.18945648674
 31
0.0
 12
459.6485735167371
 22
1055.18945648674
 32
0.0
 13
459.6485735167371
 23
1055.18945648674
 33
0.0
  0
SOLID
  5
190B
  8
DIMENSIONS
 62
     0
 10
458.8152401834037
 20
584.6894564867398
 30
0.0
 11
460.4819068500703
 21
584.6894564867398
 31
0.0
 12
459.648573516737
 22
579.6894564867398
 32
0.0
 13
459.648573516737
 23
579.6894564867398
 33
0.0
  0
TEXT
  5
190C
  8
DIMENSIONS
  6
CONTINUOUS
 62
     5
 10
457.2535735167372
 20
797.2519564867398
 30
0.0
 40
5.0
  1
475.5 [18.72]
 50
90.0
  0
POINT
  5
190D
  8
DEFPOINTS
 62
     0
 10
422.9938247411052
 20
1055.18945648674
 30
0.0
  0
POINT
  5
190E
  8
DEFPOINTS
 62
     0
 10
408.9938247411054
 20
579.6894564867398
 30
0.0
  0
POINT
  5
190F
  8
DEFPOINTS
 62
     0
 10
459.648573516737
 20
579.6894564867398
 30
0.0
  0
ENDBLK
  5
1906
  8
0
  0
BLOCK
  8
0
  2
*D275
 70
     1
 10
0.0
 20
0.0
 30
0.0
  3
*D275
  1

  0
LINE
  5
1916
  8
DIMENSIONS
  6
BYBLOCK
 62
     0
 10
410.4938247411054
 20
579.6894564867398
 30
0.0
 11
459.828573516737
 21
579.6894564867398
 31
0.0
  0
LINE
  5
1917
  8
DIMENSIONS
  6
BYBLOCK
 62
     0
 10
410.4938247411054
 20
434.6894564867398
 30
0.0
 11
459.828573516737
 21
434.6894564867398
 31
0.0
  0
LINE
  5
1918
  8
DIMENSIONS
  6
BYBLOCK
 62
     0
 10
459.648573516737
 20
574.6894564867398
 30
0.0
 11
459.648573516737
 21
439.6894564867398
 31
0.0
  0
SOLID
  5
1919
  8
DIMENSIONS
 62
     0
 10
460.4819068500703
 20
574.6894564867398
 30
0.0
 11
458.8152401834037
 21
574.6894564867398
 31
0.0
 12
459.648573516737
 22
579.6894564867398
 32
0.0
 13
459.648573516737
 23
579.6894564867398
 33
0.0
  0
SOLID
  5
191A
  8
DIMENSIONS
 62
     0
 10
458.8152401834037
 20
439.6894564867398
 30
0.0
 11
460.4819068500703
 21
439.6894564867398
 31
0.0
 12
459.648573516737
 22
434.6894564867398
 32
0.0
 13
459.648573516737
 23
434.6894564867398
 33
0.0
  0
TEXT
  5
191B
  8
DIMENSIONS
  6
CONTINUOUS
 62
     5
 10
457.253573516737
 20
491.5169564867398
 30
0.0
 40
5.0
  1
145 [5.71]
 50
90.0
  0
POINT
  5
191C
  8
DEFPOINTS
 62
     0
 10
408.9938247411054
 20
579.6894564867398
 30
0.0
  0
POINT
  5
191D
  8
DEFPOINTS
 62
     0
 10
408.9938247411054
 20
434.6894564867398
 30
0.0
  0
POINT
  5
191E
  8
DEFPOINTS
 62
     0
 10
459.648573516737
 20
434.6894564867398
 30
0.0
  0
ENDBLK
  5
1915
  8
0
  0
BLOCK
  8
0
  2
*D276
 70
     1
 10
0.0
 20
0.0
 30
0.0
  3
*D276
  1

  0
LINE
  5
1925
  8
DIMENSIONS
  6
BYBLOCK
 62
     0
 10
410.4938247411054
 20
434.6894564867398
 30
0.0
 11
478.2042568415475
 21
434.6894564867398
 31
0.0
  0
LINE
  5
1926
  8
DIMENSIONS
  6
BYBLOCK
 62
     0
 10
441.4938247411054
 20
419.1894564867397
 30
0.0
 11
478.2042568415475
 21
419.1894564867397
 31
0.0
  0
LINE
  5
1927
  8
DIMENSIONS
  6
BYBLOCK
 62
     0
 10
478.0242568415475
 20
434.6894564867398
 30
0.0
 11
478.0242568415475
 21
473.4544564867398
 31
0.0
  0
LINE
  5
1928
  8
DIMENSIONS
  6
BYBLOCK
 62
     0
 10
478.0242568415475
 20
429.6894564867398
 30
0.0
 11
478.0242568415475
 21
424.1894564867397
 31
0.0
  0
SOLID
  5
1929
  8
DIMENSIONS
 62
     0
 10
478.8575901748808
 20
429.6894564867398
 30
0.0
 11
477.1909235082142
 21
429.6894564867398
 31
0.0
 12
478.0242568415475
 22
434.6894564867398
 32
0.0
 13
478.0242568415475
 23
434.6894564867398
 33
0.0
  0
SOLID
  5
192A
  8
DIMENSIONS
 62
     0
 10
477.1909235082142
 20
424.1894564867397
 30
0.0
 11
478.8575901748808
 21
424.1894564867397
 31
0.0
 12
478.0242568415475
 22
419.1894564867397
 32
0.0
 13
478.0242568415475
 23
419.1894564867397
 33
0.0
  0
TEXT
  5
192B
  8
DIMENSIONS
  6
CONTINUOUS
 62
     5
 10
475.6292568415475
 20
439.9294564867398
 30
0.0
 40
5.0
  1
15.5 [0.61]
 50
90.0
  0
POINT
  5
192C
  8
DEFPOINTS
 62
     0
 10
408.9938247411054
 20
434.6894564867398
 30
0.0
  0
POINT
  5
192D
  8
DEFPOINTS
 62
     0
 10
439.9938247411054
 20
419.1894564867397
 30
0.0
  0
POINT
  5
192E
  8
DEFPOINTS
 62
     0
 10
478.0242568415475
 20
419.1894564867397
 30
0.0
  0
ENDBLK
  5
1924
  8
0
  0
BLOCK
  8
0
  2
*D277
 70
     1
 10
0.0
 20
0.0
 30
0.0
  3
*D277
  1

  0
LINE
  5
1935
  8
DIMENSIONS
  6
BYBLOCK
 62
     0
 10
411.4938480895606
 20
1335.209379418164
 30
0.0
 11
371.0889590771301
 21
1335.304083658662
 31
0.0
  0
TEXT
  5
1936
  8
DIMENSIONS
  6
CONTINUOUS
 62
     5
 10
371.8147581882347
 20
1337.777389270656
 30
0.0
 40
5.0
  1
Ø7 [Ø0.28]
 50
359.8657057727789
  0
SOLID
  5
1937
  8
DIMENSIONS
 62
     0
 10
411.4918948609895
 20
1334.376048373895
 30
0.0
 11
411.4958013181317
 21
1336.042710462433
 31
0.0
 12
416.4938343551751
 22
1335.197660046737
 32
0.0
 13
416.4938343551751
 23
1335.197660046737
 33
0.0
  0
LINE
  5
1938
  8
DIMENSIONS
  6
BYBLOCK
 62
     0
 10
417.4938247411052
 20
1335.189456486739
 30
0.0
 11
422.4938247411052
 21
1335.189456486739
 31
0.0
  0
LINE
  5
1939
  8
DIMENSIONS
  6
BYBLOCK
 62
     0
 10
419.9938247411052
 20
1332.689456486739
 30
0.0
 11
419.9938247411052
 21
1337.689456486739
 31
0.0
  0
POINT
  5
193A
  8
DEFPOINTS
 62
     0
 10
416.4938343551751
 20
1335.197660046737
 30
0.0
  0
POINT
  5
193B
  8
DEFPOINTS
 62
     0
 10
423.4938151270354
 20
1335.18125292674
 30
0.0
  0
ENDBLK
  5
1934
  8
0
  0
BLOCK
  8
0
  2
*X279
 70
     1
 10
0.0
 20
0.0
 30
0.0
  3
*X279
  1

  0
LINE
  5
19C3
  8
CUTOUT
 10
-200.2341869772977
 20
1227.237627543045
 30
0.0
 11
-133.6307123583034
 21
1293.84110216204
 31
0.0
  0
LINE
  5
19C4
  8
CUTOUT
 10
-200.2341869772976
 20
1152.107532041975
 30
0.0
 11
-58.50061685723273
 21
1293.84110216204
 31
0.0
  0
LINE
  5
19C5
  8
CUTOUT
 10
-200.2341869772977
 20
1076.977436540904
 30
0.0
 11
16.62947864383801
 21
1293.84110216204
 31
0.0
  0
LINE
  5
19C6
  8
CUTOUT
 10
-200.2341869772977
 20
1001.847341039833
 30
0.0
 11
91.75957414490864
 21
1293.84110216204
 31
0.0
  0
LINE
  5
19C7
  8
CUTOUT
 10
-200.2341869772977
 20
926.7172455387624
 30
0.0
 11
166.8896696459793
 21
1293.84110216204
 31
0.0
  0
LINE
  5
19C8
  8
CUTOUT
 10
-197.9802348529501
 20
853.8411021620394
 30
0.0
 11
209.7658130227023
 21
1261.587150037692
 31
0.0
  0
LINE
  5
19C9
  8
CUTOUT
 10
-122.8501393518794
 20
853.8411021620394
 30
0.0
 11
209.7658130227023
 21
1186.457054536621
 31
0.0
  0
LINE
  5
19CA
  8
CUTOUT
 10
-47.72004385080875
 20
853.8411021620394
 30
0.0
 11
209.7658130227023
 21
1111.326959035551
 31
0.0
  0
LINE
  5
19CB
  8
CUTOUT
 10
27.41005165026192
 20
853.8411021620394
 30
0.0
 11
209.7658130227023
 21
1036.19686353448
 31
0.0
  0
LINE
  5
19CC
  8
CUTOUT
 10
102.5401471513326
 20
853.8411021620394
 30
0.0
 11
209.7658130227023
 21
961.0667680334092
 31
0.0
  0
LINE
  5
19CD
  8
CUTOUT
 10
177.6702426524033
 20
853.8411021620394
 30
0.0
 11
209.7658130227023
 21
885.9366725323384
 31
0.0
  0
LINE
  5
19CE
  8
CUTOUT
 10
-205.2341869772976
 20
95.28619502698507
 30
0.0
 11
-158.1792798422433
 21
142.3411021620394
 31
0.0
  0
LINE
  5
19CF
  8
CUTOUT
 10
-205.2341869772976
 20
20.15609952591444
 30
0.0
 11
-83.04918434117266
 21
142.3411021620394
 31
0.0
  0
LINE
  5
19D0
  8
CUTOUT
 10
-187.9190888401018
 20
-37.65889783796047
 30
0.0
 11
-7.919088840102006
 21
142.3411021620393
 31
0.0
  0
LINE
  5
19D1
  8
CUTOUT
 10
-112.7889933390312
 20
-37.65889783796047
 30
0.0
 11
67.21100666096862
 21
142.3411021620393
 31
0.0
  0
LINE
  5
19D2
  8
CUTOUT
 10
-37.65889783796047
 20
-37.65889783796047
 30
0.0
 11
142.3411021620393
 21
142.3411021620394
 31
0.0
  0
LINE
  5
19D3
  8
CUTOUT
 10
37.47119766311016
 20
-37.65889783796047
 30
0.0
 11
214.7658130227024
 21
139.6357175216318
 31
0.0
  0
LINE
  5
19D4
  8
CUTOUT
 10
112.6012931641808
 20
-37.65889783796047
 30
0.0
 11
214.7658130227024
 21
64.50562202056108
 31
0.0
  0
LINE
  5
19D5
  8
CUTOUT
 10
187.7313886652515
 20
-37.65889783796047
 30
0.0
 11
214.7658130227024
 21
-10.62447348050955
 31
0.0
  0
ENDBLK
  5
19D6
  8
0
  0
BLOCK
  8
0
  2
*D280
 70
     1
 10
0.0
 20
0.0
 30
0.0
  3
*D280
  1

  0
LINE
  5
1A0C
  8
DIMENSIONS
  6
BYBLOCK
 62
     0
 10
583.3135269739396
 20
1800.422199658747
 30
0.0
 11
583.3135269739396
 21
1828.587825068954
 31
0.0
  0
LINE
  5
1A0D
  8
DIMENSIONS
  6
BYBLOCK
 62
     0
 10
233.3135269739396
 20
1800.422199658747
 30
0.0
 11
233.3135269739396
 21
1828.587825068954
 31
0.0
  0
LINE
  5
1A0E
  8
DIMENSIONS
  6
BYBLOCK
 62
     0
 10
578.3135269739396
 20
1828.407825068954
 30
0.0
 11
238.3135269739396
 21
1828.407825068954
 31
0.0
  0
SOLID
  5
1A0F
  8
DIMENSIONS
 62
     0
 10
578.3135269739396
 20
1827.574491735621
 30
0.0
 11
578.3135269739396
 21
1829.241158402288
 31
0.0
 12
583.3135269739396
 22
1828.407825068954
 32
0.0
 13
583.3135269739396
 23
1828.407825068954
 33
0.0
  0
SOLID
  5
1A10
  8
DIMENSIONS
 62
     0
 10
238.3135269739396
 20
1829.241158402288
 30
0.0
 11
238.3135269739396
 21
1827.574491735621
 31
0.0
 12
233.3135269739396
 22
1828.407825068954
 32
0.0
 13
233.3135269739396
 23
1828.407825068954
 33
0.0
  0
TEXT
  5
1A11
  8
DIMENSIONS
  6
CONTINUOUS
 62
     5
 10
390.9335269739396
 20
1830.802825068954
 30
0.0
 40
5.0
  1
350 [13.78]
  0
POINT
  5
1A12
  8
DEFPOINTS
 62
     0
 10
583.3135269739396
 20
1798.922199658747
 30
0.0
  0
POINT
  5
1A13
  8
DEFPOINTS
 62
     0
 10
233.3135269739396
 20
1798.922199658747
 30
0.0
  0
POINT
  5
1A14
  8
DEFPOINTS
 62
     0
 10
233.3135269739396
 20
1828.407825068954
 30
0.0
  0
ENDBLK
  5
1A0B
  8
0
  0
BLOCK
  8
0
  2
*D281
 70
     1
 10
0.0
 20
0.0
 30
0.0
  3
*D281
  1

  0
LINE
  5
1A1B
  8
DIMENSIONS
  6
BYBLOCK
 62
     0
 10
203.3135269739396
 20
1781.877199658747
 30
0.0
 11
203.3135269739396
 21
1844.089348728422
 31
0.0
  0
LINE
  5
1A1C
  8
DIMENSIONS
  6
BYBLOCK
 62
     0
 10
613.3135269739396
 20
1781.877199658747
 30
0.0
 11
613.3135269739396
 21
1844.089348728422
 31
0.0
  0
LINE
  5
1A1D
  8
DIMENSIONS
  6
BYBLOCK
 62
     0
 10
208.3135269739396
 20
1843.909348728422
 30
0.0
 11
608.3135269739396
 21
1843.909348728422
 31
0.0
  0
SOLID
  5
1A1E
  8
DIMENSIONS
 62
     0
 10
208.3135269739396
 20
1844.742682061755
 30
0.0
 11
208.3135269739396
 21
1843.076015395089
 31
0.0
 12
203.3135269739396
 22
1843.909348728422
 32
0.0
 13
203.3135269739396
 23
1843.909348728422
 33
0.0
  0
SOLID
  5
1A1F
  8
DIMENSIONS
 62
     0
 10
608.3135269739396
 20
1843.076015395089
 30
0.0
 11
608.3135269739396
 21
1844.742682061755
 31
0.0
 12
613.3135269739396
 22
1843.909348728422
 32
0.0
 13
613.3135269739396
 23
1843.909348728422
 33
0.0
  0
TEXT
  5
1A20
  8
DIMENSIONS
  6
CONTINUOUS
 62
     5
 10
391.0360269739396
 20
1846.304348728422
 30
0.0
 40
5.0
  1
410 [16.14]
  0
POINT
  5
1A21
  8
DEFPOINTS
 62
     0
 10
203.3135269739396
 20
1780.377199658747
 30
0.0
  0
POINT
  5
1A22
  8
DEFPOINTS
 62
     0
 10
613.3135269739396
 20
1780.377199658747
 30
0.0
  0
POINT
  5
1A23
  8
DEFPOINTS
 62
     0
 10
613.3135269739396
 20
1843.909348728422
 30
0.0
  0
ENDBLK
  5
1A1A
  8
0
  0
BLOCK
  8
0
  2
*D282
 70
     1
 10
0.0
 20
0.0
 30
0.0
  3
*D282
  1

  0
LINE
  5
1A2A
  8
DIMENSIONS
  6
BYBLOCK
 62
     0
 10
638.3135269739396
 20
1815.377199658747
 30
0.0
 11
638.3135269739396
 21
1859.30316410877
 31
0.0
  0
LINE
  5
1A2B
  8
DIMENSIONS
  6
BYBLOCK
 62
     0
 10
178.3135269739396
 20
1815.377199658747
 30
0.0
 11
178.3135269739396
 21
1859.30316410877
 31
0.0
  0
LINE
  5
1A2C
  8
DIMENSIONS
  6
BYBLOCK
 62
     0
 10
633.3135269739396
 20
1859.12316410877
 30
0.0
 11
183.3135269739396
 21
1859.12316410877
 31
0.0
  0
SOLID
  5
1A2D
  8
DIMENSIONS
 62
     0
 10
633.3135269739396
 20
1858.289830775437
 30
0.0
 11
633.3135269739396
 21
1859.956497442104
 31
0.0
 12
638.3135269739396
 22
1859.12316410877
 32
0.0
 13
638.3135269739396
 23
1859.12316410877
 33
0.0
  0
SOLID
  5
1A2E
  8
DIMENSIONS
 62
     0
 10
183.3135269739396
 20
1859.956497442104
 30
0.0
 11
183.3135269739396
 21
1858.289830775437
 31
0.0
 12
178.3135269739396
 22
1859.12316410877
 32
0.0
 13
178.3135269739396
 23
1859.12316410877
 33
0.0
  0
TEXT
  5
1A2F
  8
DIMENSIONS
  6
CONTINUOUS
 62
     5
 10
391.0360269739396
 20
1861.518164108771
 30
0.0
 40
5.0
  1
460 [18.11]
  0
POINT
  5
1A30
  8
DEFPOINTS
 62
     0
 10
638.3135269739396
 20
1813.877199658747
 30
0.0
  0
POINT
  5
1A31
  8
DEFPOINTS
 62
     0
 10
178.3135269739396
 20
1813.877199658747
 30
0.0
  0
POINT
  5
1A32
  8
DEFPOINTS
 62
     0
 10
178.3135269739396
 20
1859.12316410877
 30
0.0
  0
ENDBLK
  5
1A29
  8
0
  0
BLOCK
  8
0
  2
*D283
 70
     1
 10
0.0
 20
0.0
 30
0.0
  3
*D283
  1

  0
LINE
  5
1A39
  8
DIMENSIONS
  6
BYBLOCK
 62
     0
 10
190.0185269739396
 20
888.8771996587468
 30
0.0
 11
161.7805522029699
 21
888.8771996587468
 31
0.0
  0
LINE
  5
1A3A
  8
DIMENSIONS
  6
BYBLOCK
 62
     0
 10
190.0185269739396
 20
1343.877199658747
 30
0.0
 11
161.7805522029699
 21
1343.877199658747
 31
0.0
  0
LINE
  5
1A3B
  8
DIMENSIONS
  6
BYBLOCK
 62
     0
 10
161.9605522029699
 20
893.8771996587468
 30
0.0
 11
161.9605522029699
 21
1338.877199658747
 31
0.0
  0
SOLID
  5
1A3C
  8
DIMENSIONS
 62
     0
 10
161.1272188696365
 20
893.8771996587468
 30
0.0
 11
162.7938855363032
 21
893.8771996587468
 31
0.0
 12
161.9605522029699
 22
888.8771996587468
 32
0.0
 13
161.9605522029699
 23
888.8771996587468
 33
0.0
  0
SOLID
  5
1A3D
  8
DIMENSIONS
 62
     0
 10
162.7938855363032
 20
1338.877199658747
 30
0.0
 11
161.1272188696366
 21
1338.877199658747
 31
0.0
 12
161.9605522029699
 22
1343.877199658747
 32
0.0
 13
161.9605522029699
 23
1343.877199658747
 33
0.0
  0
TEXT
  5
1A3E
  8
DIMENSIONS
  6
CONTINUOUS
 62
     5
 10
159.5655522029697
 20
1099.099699658747
 30
0.0
 40
5.0
  1
455 [17.91]
 50
90.0
  0
POINT
  5
1A3F
  8
DEFPOINTS
 62
     0
 10
191.5185269739396
 20
888.8771996587468
 30
0.0
  0
POINT
  5
1A40
  8
DEFPOINTS
 62
     0
 10
191.5185269739396
 20
1343.877199658747
 30
0.0
  0
POINT
  5
1A41
  8
DEFPOINTS
 62
     0
 10
161.9605522029699
 20
1343.877199658747
 30
0.0
  0
ENDBLK
  5
1A38
  8
0
  0
BLOCK
  8
0
  2
*D284
 70
     1
 10
0.0
 20
0.0
 30
0.0
  3
*D284
  1

  0
LINE
  5
1A48
  8
DIMENSIONS
  6
BYBLOCK
 62
     0
 10
231.8135269739396
 20
1798.922199658747
 30
0.0
 11
147.1703145441415
 21
1798.922199658747
 31
0.0
  0
LINE
  5
1A49
  8
DIMENSIONS
  6
BYBLOCK
 62
     0
 10
231.8135269739396
 20
428.8321996587466
 30
0.0
 11
147.1703145441414
 21
428.8321996587466
 31
0.0
  0
LINE
  5
1A4A
  8
DIMENSIONS
  6
BYBLOCK
 62
     0
 10
147.3503145441415
 20
1793.922199658747
 30
0.0
 11
147.3503145441414
 21
433.8321996587466
 31
0.0
  0
SOLID
  5
1A4B
  8
DIMENSIONS
 62
     0
 10
148.1836478774749
 20
1793.922199658747
 30
0.0
 11
146.5169812108082
 21
1793.922199658747
 31
0.0
 12
147.3503145441415
 22
1798.922199658747
 32
0.0
 13
147.3503145441415
 23
1798.922199658747
 33
0.0
  0
SOLID
  5
1A4C
  8
DIMENSIONS
 62
     0
 10
146.5169812108081
 20
433.8321996587466
 30
0.0
 11
148.1836478774748
 21
433.8321996587466
 31
0.0
 12
147.3503145441414
 22
428.8321996587466
 32
0.0
 13
147.3503145441414
 23
428.8321996587466
 33
0.0
  0
TEXT
  5
1A4D
  8
DIMENSIONS
  6
CONTINUOUS
 62
     5
 10
144.9553145441412
 20
1089.474699658747
 30
0.0
 40
5.0
  1
1370.09 [53.94]
 50
90.0
  0
POINT
  5
1A4E
  8
DEFPOINTS
 62
     0
 10
233.3135269739396
 20
1798.922199658747
 30
0.0
  0
POINT
  5
1A4F
  8
DEFPOINTS
 62
     0
 10
233.3135269739396
 20
428.8321996587466
 30
0.0
  0
POINT
  5
1A50
  8
DEFPOINTS
 62
     0
 10
147.3503145441414
 20
428.8321996587466
 30
0.0
  0
ENDBLK
  5
1A47
  8
0
  0
BLOCK
  8
0
  2
*D285
 70
     1
 10
0.0
 20
0.0
 30
0.0
  3
*D285
  1

  0
LINE
  5
1A57
  8
DIMENSIONS
  6
BYBLOCK
 62
     0
 10
176.8135269739396
 20
1813.877199658747
 30
0.0
 11
132.3737163967872
 21
1813.877199658747
 31
0.0
  0
LINE
  5
1A58
  8
DIMENSIONS
  6
BYBLOCK
 62
     0
 10
176.8135269739396
 20
413.8771996587466
 30
0.0
 11
132.3737163967871
 21
413.8771996587466
 31
0.0
  0
LINE
  5
1A59
  8
DIMENSIONS
  6
BYBLOCK
 62
     0
 10
132.5537163967872
 20
1808.877199658747
 30
0.0
 11
132.5537163967871
 21
418.8771996587466
 31
0.0
  0
SOLID
  5
1A5A
  8
DIMENSIONS
 62
     0
 10
133.3870497301205
 20
1808.877199658747
 30
0.0
 11
131.7203830634538
 21
1808.877199658747
 31
0.0
 12
132.5537163967872
 22
1813.877199658747
 32
0.0
 13
132.5537163967872
 23
1813.877199658747
 33
0.0
  0
SOLID
  5
1A5B
  8
DIMENSIONS
 62
     0
 10
131.7203830634537
 20
418.8771996587466
 30
0.0
 11
133.3870497301204
 21
418.8771996587466
 31
0.0
 12
132.5537163967871
 22
413.8771996587466
 32
0.0
 13
132.5537163967871
 23
413.8771996587466
 33
0.0
  0
TEXT
  5
1A5C
  8
DIMENSIONS
  6
CONTINUOUS
 62
     5
 10
130.158716396787
 20
1094.324699658747
 30
0.0
 40
5.0
  1
1400 [55.12]
 50
90.0
  0
POINT
  5
1A5D
  8
DEFPOINTS
 62
     0
 10
178.3135269739396
 20
1813.877199658747
 30
0.0
  0
POINT
  5
1A5E
  8
DEFPOINTS
 62
     0
 10
178.3135269739396
 20
413.8771996587466
 30
0.0
  0
POINT
  5
1A5F
  8
DEFPOINTS
 62
     0
 10
132.5537163967871
 20
413.8771996587466
 30
0.0
  0
ENDBLK
  5
1A56
  8
0
  0
BLOCK
  8
0
  2
*D286
 70
     1
 10
0.0
 20
0.0
 30
0.0
  3
*D286
  1

  0
LINE
  5
1A66
  8
DIMENSIONS
  6
BYBLOCK
 62
     0
 10
231.8135269739396
 20
1798.832199658747
 30
0.0
 11
146.1571405932135
 21
1798.832199658747
 31
0.0
  0
LINE
  5
1A67
  8
DIMENSIONS
  6
BYBLOCK
 62
     0
 10
231.8135269739396
 20
428.8321996587466
 30
0.0
 11
146.1571405932134
 21
428.8321996587466
 31
0.0
  0
LINE
  5
1A68
  8
DIMENSIONS
  6
BYBLOCK
 62
     0
 10
146.3371405932135
 20
1793.832199658747
 30
0.0
 11
146.3371405932134
 21
433.8321996587466
 31
0.0
  0
SOLID
  5
1A69
  8
DIMENSIONS
 62
     0
 10
147.1704739265468
 20
1793.832199658747
 30
0.0
 11
145.5038072598801
 21
1793.832199658747
 31
0.0
 12
146.3371405932135
 22
1798.832199658747
 32
0.0
 13
146.3371405932135
 23
1798.832199658747
 33
0.0
  0
SOLID
  5
1A6A
  8
DIMENSIONS
 62
     0
 10
145.5038072598801
 20
433.8321996587466
 30
0.0
 11
147.1704739265467
 21
433.8321996587466
 31
0.0
 12
146.3371405932134
 22
428.8321996587466
 32
0.0
 13
146.3371405932134
 23
428.8321996587466
 33
0.0
  0
TEXT
  5
1A6B
  8
DIMENSIONS
  6
CONTINUOUS
 62
     5
 10
143.9421405932133
 20
1094.279699658747
 30
0.0
 40
5.0
  1
1370 [53.94]
 50
90.0
  0
POINT
  5
1A6C
  8
DEFPOINTS
 62
     0
 10
233.3135269739396
 20
1798.832199658747
 30
0.0
  0
POINT
  5
1A6D
  8
DEFPOINTS
 62
     0
 10
233.3135269739396
 20
428.8321996587466
 30
0.0
  0
POINT
  5
1A6E
  8
DEFPOINTS
 62
     0
 10
146.3371405932134
 20
428.8321996587466
 30
0.0
  0
ENDBLK
  5
1A65
  8
0
  0
BLOCK
  8
0
  2
*D287
 70
     1
 10
0.0
 20
0.0
 30
0.0
  3
*D287
  1

  0
LINE
  5
1A75
  8
DIMENSIONS
  6
BYBLOCK
 62
     0
 10
198.3135269739396
 20
630.3771996587467
 30
0.0
 11
198.3135269739396
 21
643.8038753779991
 31
0.0
  0
LINE
  5
1A76
  8
DIMENSIONS
  6
BYBLOCK
 62
     0
 10
618.3135269739396
 20
630.3771996587467
 30
0.0
 11
618.3135269739396
 21
643.8038753779991
 31
0.0
  0
LINE
  5
1A77
  8
DIMENSIONS
  6
BYBLOCK
 62
     0
 10
203.3135269739396
 20
643.6238753779992
 30
0.0
 11
613.3135269739396
 21
643.6238753779992
 31
0.0
  0
SOLID
  5
1A78
  8
DIMENSIONS
 62
     0
 10
203.3135269739396
 20
644.4572087113326
 30
0.0
 11
203.3135269739396
 21
642.7905420446658
 31
0.0
 12
198.3135269739396
 22
643.6238753779992
 32
0.0
 13
198.3135269739396
 23
643.6238753779992
 33
0.0
  0
SOLID
  5
1A79
  8
DIMENSIONS
 62
     0
 10
613.3135269739396
 20
642.7905420446658
 30
0.0
 11
613.3135269739396
 21
644.4572087113326
 31
0.0
 12
618.3135269739396
 22
643.6238753779992
 32
0.0
 13
618.3135269739396
 23
643.6238753779992
 33
0.0
  0
TEXT
  5
1A7A
  8
DIMENSIONS
  6
CONTINUOUS
 62
     5
 10
391.0360269739396
 20
646.0188753779992
 30
0.0
 40
5.0
  1
420 [16.54]
  0
POINT
  5
1A7B
  8
DEFPOINTS
 62
     0
 10
198.3135269739396
 20
628.8771996587467
 30
0.0
  0
POINT
  5
1A7C
  8
DEFPOINTS
 62
     0
 10
618.3135269739396
 20
628.8771996587467
 30
0.0
  0
POINT
  5
1A7D
  8
DEFPOINTS
 62
     0
 10
618.3135269739396
 20
643.6238753779992
 30
0.0
  0
ENDBLK
  5
1A74
  8
0
  0
BLOCK
  8
0
  2
*D288
 70
     1
 10
0.0
 20
0.0
 30
0.0
  3
*D288
  1

  0
LINE
  5
1A84
  8
DIMENSIONS
  6
BYBLOCK
 62
     0
 10
639.8135269739396
 20
1813.877199658747
 30
0.0
 11
678.0828544742625
 21
1813.877199658747
 31
0.0
  0
LINE
  5
1A85
  8
DIMENSIONS
  6
BYBLOCK
 62
     0
 10
614.8135269739396
 20
1780.377199658747
 30
0.0
 11
678.0828544742625
 21
1780.377199658747
 31
0.0
  0
LINE
  5
1A86
  8
DIMENSIONS
  6
BYBLOCK
 62
     0
 10
677.9028544742625
 20
1780.377199658747
 30
0.0
 11
677.9028544742625
 21
1741.147199658747
 31
0.0
  0
LINE
  5
1A87
  8
DIMENSIONS
  6
BYBLOCK
 62
     0
 10
677.9028544742625
 20
1808.877199658747
 30
0.0
 11
677.9028544742625
 21
1785.377199658747
 31
0.0
  0
SOLID
  5
1A88
  8
DIMENSIONS
 62
     0
 10
678.7361878075959
 20
1808.877199658747
 30
0.0
 11
677.0695211409292
 21
1808.877199658747
 31
0.0
 12
677.9028544742625
 22
1813.877199658747
 32
0.0
 13
677.9028544742625
 23
1813.877199658747
 33
0.0
  0
SOLID
  5
1A89
  8
DIMENSIONS
 62
     0
 10
677.0695211409292
 20
1785.377199658747
 30
0.0
 11
678.7361878075959
 21
1785.377199658747
 31
0.0
 12
677.9028544742625
 22
1780.377199658747
 32
0.0
 13
677.9028544742625
 23
1780.377199658747
 33
0.0
  0
TEXT
  5
1A8A
  8
DIMENSIONS
  6
CONTINUOUS
 62
     5
 10
675.5078544742623
 20
1741.852199658747
 30
0.0
 40
5.0
  1
33.5 [1.32]
 50
90.0
  0
POINT
  5
1A8B
  8
DEFPOINTS
 62
     0
 10
638.3135269739396
 20
1813.877199658747
 30
0.0
  0
POINT
  5
1A8C
  8
DEFPOINTS
 62
     0
 10
613.3135269739396
 20
1780.377199658747
 30
0.0
  0
POINT
  5
1AEE
  8
DEFPOINTS
 62
     0
 10
677.9028544742625
 20
1780.377199658747
 30
0.0
  0
ENDBLK
  5
1A83
  8
0
  0
BLOCK
  8
0
  2
*D289
 70
     1
 10
0.0
 20
0.0
 30
0.0
  3
*D289
  1

  0
LINE
  5
1A93
  8
DIMENSIONS
  6
BYBLOCK
 62
     0
 10
614.8135269739396
 20
1780.377199658747
 30
0.0
 11
657.264386358174
 21
1780.377199658747
 31
0.0
  0
LINE
  5
1A94
  8
DIMENSIONS
  6
BYBLOCK
 62
     0
 10
614.8135269739396
 20
1340.377199658747
 30
0.0
 11
657.264386358174
 21
1340.377199658747
 31
0.0
  0
LINE
  5
1A95
  8
DIMENSIONS
  6
BYBLOCK
 62
     0
 10
657.084386358174
 20
1775.377199658747
 30
0.0
 11
657.084386358174
 21
1345.377199658747
 31
0.0
  0
SOLID
  5
1A96
  8
DIMENSIONS
 62
     0
 10
657.9177196915074
 20
1775.377199658747
 30
0.0
 11
656.2510530248406
 21
1775.377199658747
 31
0.0
 12
657.084386358174
 22
1780.377199658747
 32
0.0
 13
657.084386358174
 23
1780.377199658747
 33
0.0
  0
SOLID
  5
1A97
  8
DIMENSIONS
 62
     0
 10
656.2510530248406
 20
1345.377199658747
 30
0.0
 11
657.9177196915074
 21
1345.377199658747
 31
0.0
 12
657.084386358174
 22
1340.377199658747
 32
0.0
 13
657.084386358174
 23
1340.377199658747
 33
0.0
  0
TEXT
  5
1A98
  8
DIMENSIONS
  6
CONTINUOUS
 62
     5
 10
654.6893863581736
 20
1543.099699658746
 30
0.0
 40
5.0
  1
440 [17.32]
 50
90.0
  0
POINT
  5
1A99
  8
DEFPOINTS
 62
     0
 10
613.3135269739396
 20
1780.377199658747
 30
0.0
  0
POINT
  5
1A9A
  8
DEFPOINTS
 62
     0
 10
613.3135269739396
 20
1340.377199658747
 30
0.0
  0
POINT
  5
1A9B
  8
DEFPOINTS
 62
     0
 10
657.084386358174
 20
1340.377199658747
 30
0.0
  0
ENDBLK
  5
1A92
  8
0
  0
BLOCK
  8
0
  2
*D290
 70
     1
 10
0.0
 20
0.0
 30
0.0
  3
*D290
  1

  0
LINE
  5
1AA2
  8
DIMENSIONS
  6
BYBLOCK
 62
     0
 10
614.8135269739396
 20
1340.377199658747
 30
0.0
 11
657.264386358174
 21
1340.377199658747
 31
0.0
  0
LINE
  5
1AA3
  8
DIMENSIONS
  6
BYBLOCK
 62
     0
 10
619.8135269739396
 20
628.8771996587467
 30
0.0
 11
657.264386358174
 21
628.8771996587467
 31
0.0
  0
LINE
  5
1AA4
  8
DIMENSIONS
  6
BYBLOCK
 62
     0
 10
657.084386358174
 20
1335.377199658747
 30
0.0
 11
657.084386358174
 21
633.8771996587467
 31
0.0
  0
SOLID
  5
1AA5
  8
DIMENSIONS
 62
     0
 10
657.9177196915074
 20
1335.377199658747
 30
0.0
 11
656.2510530248406
 21
1335.377199658747
 31
0.0
 12
657.084386358174
 22
1340.377199658747
 32
0.0
 13
657.084386358174
 23
1340.377199658747
 33
0.0
  0
SOLID
  5
1AA6
  8
DIMENSIONS
 62
     0
 10
656.2510530248406
 20
633.8771996587467
 30
0.0
 11
657.9177196915074
 21
633.8771996587467
 31
0.0
 12
657.084386358174
 22
628.8771996587467
 32
0.0
 13
657.084386358174
 23
628.8771996587467
 33
0.0
  0
TEXT
  5
1AA7
  8
DIMENSIONS
  6
CONTINUOUS
 62
     5
 10
654.6893863581741
 20
964.3196996587466
 30
0.0
 40
5.0
  1
711.5 [28.01]
 50
90.0
  0
POINT
  5
1AA8
  8
DEFPOINTS
 62
     0
 10
613.3135269739396
 20
1340.377199658747
 30
0.0
  0
POINT
  5
1AA9
  8
DEFPOINTS
 62
     0
 10
618.3135269739396
 20
628.8771996587467
 30
0.0
  0
POINT
  5
1AAA
  8
DEFPOINTS
 62
     0
 10
657.084386358174
 20
628.8771996587467
 30
0.0
  0
ENDBLK
  5
1AA1
  8
0
  0
BLOCK
  8
0
  2
*D291
 70
     1
 10
0.0
 20
0.0
 30
0.0
  3
*D291
  1

  0
LINE
  5
1AB1
  8
DIMENSIONS
  6
BYBLOCK
 62
     0
 10
619.8135269739396
 20
628.8771996587467
 30
0.0
 11
657.264386358174
 21
628.8771996587467
 31
0.0
  0
LINE
  5
1AB2
  8
DIMENSIONS
  6
BYBLOCK
 62
     0
 10
619.8135269739396
 20
448.8771996587468
 30
0.0
 11
657.264386358174
 21
448.8771996587468
 31
0.0
  0
LINE
  5
1AB3
  8
DIMENSIONS
  6
BYBLOCK
 62
     0
 10
657.084386358174
 20
623.8771996587467
 30
0.0
 11
657.084386358174
 21
453.8771996587468
 31
0.0
  0
SOLID
  5
1AB4
  8
DIMENSIONS
 62
     0
 10
657.9177196915074
 20
623.8771996587467
 30
0.0
 11
656.2510530248406
 21
623.8771996587467
 31
0.0
 12
657.084386358174
 22
628.8771996587467
 32
0.0
 13
657.084386358174
 23
628.8771996587467
 33
0.0
  0
SOLID
  5
1AB5
  8
DIMENSIONS
 62
     0
 10
656.2510530248406
 20
453.8771996587468
 30
0.0
 11
657.9177196915074
 21
453.8771996587468
 31
0.0
 12
657.084386358174
 22
448.8771996587468
 32
0.0
 13
657.084386358174
 23
448.8771996587468
 33
0.0
  0
TEXT
  5
1AB6
  8
DIMENSIONS
  6
CONTINUOUS
 62
     5
 10
654.6893863581739
 20
523.2046996587468
 30
0.0
 40
5.0
  1
180 [7.09]
 50
90.0
  0
POINT
  5
1AB7
  8
DEFPOINTS
 62
     0
 10
618.3135269739396
 20
628.8771996587467
 30
0.0
  0
POINT
  5
1AB8
  8
DEFPOINTS
 62
     0
 10
618.3135269739396
 20
448.8771996587468
 30
0.0
  0
POINT
  5
1AB9
  8
DEFPOINTS
 62
     0
 10
657.084386358174
 20
448.8771996587468
 30
0.0
  0
ENDBLK
  5
1AB0
  8
0
  0
BLOCK
  8
0
  2
*D292
 70
     1
 10
0.0
 20
0.0
 30
0.0
  3
*D292
  1

  0
LINE
  5
1AC0
  8
DIMENSIONS
  6
BYBLOCK
 62
     0
 10
619.8135269739396
 20
448.8771996587468
 30
0.0
 11
657.264386358174
 21
448.8771996587468
 31
0.0
  0
LINE
  5
1AC1
  8
DIMENSIONS
  6
BYBLOCK
 62
     0
 10
639.8135269739396
 20
413.8771996587466
 30
0.0
 11
657.264386358174
 21
413.8771996587466
 31
0.0
  0
LINE
  5
1AC2
  8
DIMENSIONS
  6
BYBLOCK
 62
     0
 10
657.084386358174
 20
443.8771996587468
 30
0.0
 11
657.084386358174
 21
418.8771996587466
 31
0.0
  0
SOLID
  5
1AC3
  8
DIMENSIONS
 62
     0
 10
657.9177196915074
 20
443.8771996587468
 30
0.0
 11
656.2510530248406
 21
443.8771996587468
 31
0.0
 12
657.084386358174
 22
448.8771996587468
 32
0.0
 13
657.084386358174
 23
448.8771996587468
 33
0.0
  0
SOLID
  5
1AC4
  8
DIMENSIONS
 62
     0
 10
656.2510530248406
 20
418.8771996587466
 30
0.0
 11
657.9177196915074
 21
418.8771996587466
 31
0.0
 12
657.084386358174
 22
413.8771996587466
 32
0.0
 13
657.084386358174
 23
413.8771996587466
 33
0.0
  0
TEXT
  5
1AC5
  8
DIMENSIONS
  6
CONTINUOUS
 62
     5
 10
654.689386358174
 20
417.8771996587467
 30
0.0
 40
5.0
  1
35 [1.38]
 50
90.0
  0
POINT
  5
1AC6
  8
DEFPOINTS
 62
     0
 10
618.3135269739396
 20
448.8771996587468
 30
0.0
  0
POINT
  5
1AC7
  8
DEFPOINTS
 62
     0
 10
638.3135269739396
 20
413.8771996587466
 30
0.0
  0
POINT
  5
1AC8
  8
DEFPOINTS
 62
     0
 10
657.084386358174
 20
413.8771996587466
 30
0.0
  0
ENDBLK
  5
1ABF
  8
0
  0
BLOCK
  8
0
  2
*D293
 70
     1
 10
0.0
 20
0.0
 30
0.0
  3
*D293
  1

  0
LINE
  5
1AE5
  8
DIMENSIONS
  6
BYBLOCK
 62
     0
 10
616.0635369130723
 20
888.8905751696096
 30
0.0
 11
575.6585815342568
 21
888.9506237825445
 31
0.0
  0
TEXT
  5
1AE6
  8
DIMENSIONS
  6
CONTINUOUS
 62
     5
 10
576.3822590046134
 20
891.4245510084141
 30
0.0
 40
5.0
  1
Ø8 [Ø0.31]
 50
359.9148488218464
  0
SOLID
  5
1AE7
  8
DIMENSIONS
 62
     0
 10
616.0622984398443
 20
888.0572427565663
 30
0.0
 11
616.0647753863003
 21
889.7239075826529
 31
0.0
 12
621.0635313913319
 22
888.8831443302414
 32
0.0
 13
621.0635313913319
 23
888.8831443302414
 33
0.0
  0
LINE
  5
1AE8
  8
DIMENSIONS
  6
BYBLOCK
 62
     0
 10
622.5635269739396
 20
888.8771996587468
 30
0.0
 11
627.5635269739396
 21
888.8771996587468
 31
0.0
  0
LINE
  5
1AE9
  8
DIMENSIONS
  6
BYBLOCK
 62
     0
 10
625.0635269739396
 20
886.3771996587468
 30
0.0
 11
625.0635269739396
 21
891.3771996587468
 31
0.0
  0
POINT
  5
1AEA
  8
DEFPOINTS
 62
     0
 10
621.0635313913319
 20
888.8831443302414
 30
0.0
  0
POINT
  5
1AEB
  8
DEFPOINTS
 62
     0
 10
629.0635225565471
 20
888.8712549872522
 30
0.0
  0
ENDBLK
  5
1AE4
  8
0
  0
BLOCK
  8
0
  2
*X295
 70
     1
 10
0.0
 20
0.0
 30
0.0
  3
*X295
  1

  0
LINE
  5
1B57
  8
CUTOUT
 10
-200.2341869772977
 20
1227.237627543045
 30
0.0
 11
-133.6307123583034
 21
1293.84110216204
 31
0.0
  0
LINE
  5
1B58
  8
CUTOUT
 10
-200.2341869772976
 20
1152.107532041975
 30
0.0
 11
-58.50061685723273
 21
1293.84110216204
 31
0.0
  0
LINE
  5
1B59
  8
CUTOUT
 10
-200.2341869772977
 20
1076.977436540904
 30
0.0
 11
16.62947864383801
 21
1293.84110216204
 31
0.0
  0
LINE
  5
1B5A
  8
CUTOUT
 10
-200.2341869772977
 20
1001.847341039833
 30
0.0
 11
91.75957414490864
 21
1293.84110216204
 31
0.0
  0
LINE
  5
1B5B
  8
CUTOUT
 10
-200.2341869772977
 20
926.7172455387624
 30
0.0
 11
166.8896696459793
 21
1293.84110216204
 31
0.0
  0
LINE
  5
1B5C
  8
CUTOUT
 10
-197.9802348529501
 20
853.8411021620394
 30
0.0
 11
209.7658130227023
 21
1261.587150037692
 31
0.0
  0
LINE
  5
1B5D
  8
CUTOUT
 10
-122.8501393518794
 20
853.8411021620394
 30
0.0
 11
209.7658130227023
 21
1186.457054536621
 31
0.0
  0
LINE
  5
1B5E
  8
CUTOUT
 10
-47.72004385080875
 20
853.8411021620394
 30
0.0
 11
209.7658130227023
 21
1111.326959035551
 31
0.0
  0
LINE
  5
1B5F
  8
CUTOUT
 10
27.41005165026192
 20
853.8411021620394
 30
0.0
 11
209.7658130227023
 21
1036.19686353448
 31
0.0
  0
LINE
  5
1B60
  8
CUTOUT
 10
102.5401471513326
 20
853.8411021620394
 30
0.0
 11
209.7658130227023
 21
961.0667680334092
 31
0.0
  0
LINE
  5
1B61
  8
CUTOUT
 10
177.6702426524033
 20
853.8411021620394
 30
0.0
 11
209.7658130227023
 21
885.9366725323384
 31
0.0
  0
LINE
  5
1B62
  8
CUTOUT
 10
-205.2341869772976
 20
95.28619502698507
 30
0.0
 11
-158.1792798422433
 21
142.3411021620394
 31
0.0
  0
LINE
  5
1B63
  8
CUTOUT
 10
-205.2341869772976
 20
20.15609952591444
 30
0.0
 11
-83.04918434117266
 21
142.3411021620394
 31
0.0
  0
LINE
  5
1B64
  8
CUTOUT
 10
-187.9190888401018
 20
-37.65889783796047
 30
0.0
 11
-7.919088840102006
 21
142.3411021620393
 31
0.0
  0
LINE
  5
1B65
  8
CUTOUT
 10
-112.7889933390312
 20
-37.65889783796047
 30
0.0
 11
67.21100666096862
 21
142.3411021620393
 31
0.0
  0
LINE
  5
1B66
  8
CUTOUT
 10
-37.65889783796047
 20
-37.65889783796047
 30
0.0
 11
142.3411021620393
 21
142.3411021620394
 31
0.0
  0
LINE
  5
1B67
  8
CUTOUT
 10
37.47119766311016
 20
-37.65889783796047
 30
0.0
 11
214.7658130227024
 21
139.6357175216318
 31
0.0
  0
LINE
  5
1B68
  8
CUTOUT
 10
112.6012931641808
 20
-37.65889783796047
 30
0.0
 11
214.7658130227024
 21
64.50562202056108
 31
0.0
  0
LINE
  5
1B69
  8
CUTOUT
 10
187.7313886652515
 20
-37.65889783796047
 30
0.0
 11
214.7658130227024
 21
-10.62447348050955
 31
0.0
  0
ENDBLK
  5
1B6A
  8
0
  0
BLOCK
  8
0
  2
*X297
 70
     1
 10
0.0
 20
0.0
 30
0.0
  3
*X297
  1

  0
LINE
  5
1BAE
  8
CUTOUT
 10
-542.7426080630848
 20
942.1816324286649
 30
0.0
 11
-493.5393800619598
 21
991.38486042979
 31
0.0
  0
LINE
  5
1BAF
  8
CUTOUT
 10
-542.7426080630848
 20
889.1486238396739
 30
0.0
 11
-440.5063714729687
 21
991.38486042979
 31
0.0
  0
LINE
  5
1BB0
  8
CUTOUT
 10
-542.7426080630848
 20
836.1156152506827
 30
0.0
 11
-422.7426080630848
 21
956.1156152506828
 31
0.0
  0
LINE
  5
1BB1
  8
CUTOUT
 10
-542.7426080630848
 20
783.0826066616917
 30
0.0
 11
-422.7426080630848
 21
903.0826066616917
 31
0.0
  0
LINE
  5
1BB2
  8
CUTOUT
 10
-542.7426080630848
 20
730.0495980727006
 30
0.0
 11
-422.7426080630848
 21
850.0495980727006
 31
0.0
  0
LINE
  5
1BB3
  8
CUTOUT
 10
-542.7426080630848
 20
677.0165894837096
 30
0.0
 11
-422.7426080630848
 21
797.0165894837096
 31
0.0
  0
LINE
  5
1BB4
  8
CUTOUT
 10
-542.7426080630848
 20
623.9835808947184
 30
0.0
 11
-422.7426080630848
 21
743.9835808947186
 31
0.0
  0
LINE
  5
1BB5
  8
CUTOUT
 10
-542.7426080630848
 20
570.9505723057274
 30
0.0
 11
-422.7426080630848
 21
690.9505723057275
 31
0.0
  0
LINE
  5
1BB6
  8
CUTOUT
 10
-519.2753113500313
 20
541.3848604297899
 30
0.0
 11
-422.7426080630848
 21
637.9175637167364
 31
0.0
  0
LINE
  5
1BB7
  8
CUTOUT
 10
-466.2423027610403
 20
541.3848604297899
 30
0.0
 11
-422.7426080630848
 21
584.8845551277453
 31
0.0
  0
LINE
  5
1BB8
  8
CUTOUT
 10
-96.74260806308507
 20
963.9175637167363
 30
0.0
 11
-69.2753113500313
 21
991.38486042979
 31
0.0
  0
LINE
  5
1BB9
  8
CUTOUT
 10
-96.74260806308507
 20
910.8845551277452
 30
0.0
 11
-16.24230276104026
 21
991.38486042979
 31
0.0
  0
LINE
  5
1BBA
  8
CUTOUT
 10
-96.74260806308507
 20
857.8515465387541
 30
0.0
 11
23.25739193691493
 21
977.8515465387541
 31
0.0
  0
LINE
  5
1BBB
  8
CUTOUT
 10
-96.74260806308507
 20
804.818537949763
 30
0.0
 11
23.25739193691493
 21
924.818537949763
 31
0.0
  0
LINE
  5
1BBC
  8
CUTOUT
 10
-96.74260806308507
 20
751.785529360772
 30
0.0
 11
23.25739193691493
 21
871.785529360772
 31
0.0
  0
LINE
  5
1BBD
  8
CUTOUT
 10
-96.74260806308507
 20
698.7525207717808
 30
0.0
 11
23.25739193691493
 21
818.7525207717808
 31
0.0
  0
LINE
  5
1BBE
  8
CUTOUT
 10
-96.74260806308507
 20
645.7195121827898
 30
0.0
 11
23.25739193691493
 21
765.7195121827899
 31
0.0
  0
LINE
  5
1BBF
  8
CUTOUT
 10
-96.74260806308507
 20
592.6865035937988
 30
0.0
 11
23.25739193691493
 21
712.6865035937988
 31
0.0
  0
LINE
  5
1BC0
  8
CUTOUT
 10
-95.01124263810286
 20
541.3848604297899
 30
0.0
 11
23.25739193691493
 21
659.6534950048077
 31
0.0
  0
LINE
  5
1BC1
  8
CUTOUT
 10
-41.97823404911179
 20
541.3848604297899
 30
0.0
 11
23.25739193691493
 21
606.6204864158167
 31
0.0
  0
LINE
  5
1BC2
  8
CUTOUT
 10
11.05477453987925
 20
541.3848604297899
 30
0.0
 11
23.25739193691493
 21
553.5874778268255
 31
0.0
  0
ENDBLK
  5
1BC3
  8
0
  0
BLOCK
  8
0
  2
*D298
 70
     1
 10
0.0
 20
0.0
 30
0.0
  3
*D298
  1

  0
LINE
  5
1BD7
  8
DIMENSIONS
  6
BYBLOCK
 62
     0
 10
317.1699544845131
 20
894.4192039050581
 30
0.0
 11
317.1699544845131
 21
933.3574870397036
 31
0.0
  0
LINE
  5
1BD8
  8
DIMENSIONS
  6
BYBLOCK
 62
     0
 10
643.1699544845129
 20
894.4192039050581
 30
0.0
 11
643.1699544845129
 21
933.3574870397036
 31
0.0
  0
LINE
  5
1BD9
  8
DIMENSIONS
  6
BYBLOCK
 62
     0
 10
322.1699544845131
 20
933.1774870397037
 30
0.0
 11
638.1699544845129
 21
933.1774870397037
 31
0.0
  0
SOLID
  5
1BDA
  8
DIMENSIONS
 62
     0
 10
322.1699544845131
 20
934.0108203730371
 30
0.0
 11
322.1699544845131
 21
932.3441537063703
 31
0.0
 12
317.1699544845131
 22
933.1774870397037
 32
0.0
 13
317.1699544845131
 23
933.1774870397037
 33
0.0
  0
SOLID
  5
1BDB
  8
DIMENSIONS
 62
     0
 10
638.1699544845129
 20
932.3441537063703
 30
0.0
 11
638.1699544845129
 21
934.0108203730371
 31
0.0
 12
643.1699544845129
 22
933.1774870397037
 32
0.0
 13
643.1699544845129
 23
933.1774870397037
 33
0.0
  0
TEXT
  5
1BDC
  8
DIMENSIONS
  6
CONTINUOUS
 62
     5
 10
462.789954484513
 20
935.5724870397037
 30
0.0
 40
5.0
  1
326 [12.83]
  0
POINT
  5
1BDD
  8
DEFPOINTS
 62
     0
 10
317.1699544845131
 20
892.9192039050581
 30
0.0
  0
POINT
  5
1BDE
  8
DEFPOINTS
 62
     0
 10
643.1699544845129
 20
892.9192039050581
 30
0.0
  0
POINT
  5
1BDF
  8
DEFPOINTS
 62
     0
 10
643.1699544845129
 20
933.1774870397037
 30
0.0
  0
ENDBLK
  5
1BD6
  8
0
  0
BLOCK
  8
0
  2
*D299
 70
     1
 10
0.0
 20
0.0
 30
0.0
  3
*D299
  1

  0
LINE
  5
1BE6
  8
DIMENSIONS
  6
BYBLOCK
 62
     0
 10
197.1699544845131
 20
894.4192039050581
 30
0.0
 11
197.1699544845131
 21
948.8718196951238
 31
0.0
  0
LINE
  5
1BE7
  8
DIMENSIONS
  6
BYBLOCK
 62
     0
 10
763.1699544845129
 20
894.4192039050581
 30
0.0
 11
763.1699544845129
 21
948.8718196951238
 31
0.0
  0
LINE
  5
1BE8
  8
DIMENSIONS
  6
BYBLOCK
 62
     0
 10
202.1699544845131
 20
948.6918196951239
 30
0.0
 11
758.1699544845129
 21
948.6918196951239
 31
0.0
  0
SOLID
  5
1BE9
  8
DIMENSIONS
 62
     0
 10
202.1699544845131
 20
949.5251530284572
 30
0.0
 11
202.1699544845131
 21
947.8584863617905
 31
0.0
 12
197.1699544845131
 22
948.6918196951239
 32
0.0
 13
197.1699544845131
 23
948.6918196951239
 33
0.0
  0
SOLID
  5
1BEA
  8
DIMENSIONS
 62
     0
 10
758.1699544845129
 20
947.8584863617905
 30
0.0
 11
758.1699544845129
 21
949.5251530284572
 31
0.0
 12
763.1699544845129
 22
948.6918196951239
 32
0.0
 13
763.1699544845129
 23
948.6918196951239
 33
0.0
  0
TEXT
  5
1BEB
  8
DIMENSIONS
  6
CONTINUOUS
 62
     5
 10
462.792454484513
 20
951.0868196951238
 30
0.0
 40
5.0
  1
566 [22.28]
  0
POINT
  5
1BEC
  8
DEFPOINTS
 62
     0
 10
197.1699544845131
 20
892.9192039050581
 30
0.0
  0
POINT
  5
1BED
  8
DEFPOINTS
 62
     0
 10
763.1699544845129
 20
892.9192039050581
 30
0.0
  0
POINT
  5
1BEE
  8
DEFPOINTS
 62
     0
 10
763.1699544845129
 20
948.6918196951239
 30
0.0
  0
ENDBLK
  5
1BE5
  8
0
  0
BLOCK
  8
0
  2
*D300
 70
     1
 10
0.0
 20
0.0
 30
0.0
  3
*D300
  1

  0
LINE
  5
1BF5
  8
DIMENSIONS
  6
BYBLOCK
 62
     0
 10
780.6824279244858
 20
920.4441507850031
 30
0.0
 11
780.6824279244858
 21
979.4611807786409
 31
0.0
  0
LINE
  5
1BF6
  8
DIMENSIONS
  6
BYBLOCK
 62
     0
 10
180.6824279244855
 20
920.4441507850031
 30
0.0
 11
180.6824279244855
 21
979.4611807786409
 31
0.0
  0
LINE
  5
1BF7
  8
DIMENSIONS
  6
BYBLOCK
 62
     0
 10
775.6824279244858
 20
979.281180778641
 30
0.0
 11
185.6824279244855
 21
979.281180778641
 31
0.0
  0
SOLID
  5
1BF8
  8
DIMENSIONS
 62
     0
 10
775.6824279244858
 20
978.4478474453076
 30
0.0
 11
775.6824279244858
 21
980.1145141119744
 31
0.0
 12
780.6824279244858
 22
979.281180778641
 32
0.0
 13
780.6824279244858
 23
979.281180778641
 33
0.0
  0
SOLID
  5
1BF9
  8
DIMENSIONS
 62
     0
 10
185.6824279244855
 20
980.1145141119744
 30
0.0
 11
185.6824279244855
 21
978.4478474453076
 31
0.0
 12
180.6824279244855
 22
979.281180778641
 32
0.0
 13
180.6824279244855
 23
979.281180778641
 33
0.0
  0
TEXT
  5
1BFA
  8
DIMENSIONS
  6
CONTINUOUS
 62
     5
 10
463.3199279244856
 20
981.676180778641
 30
0.0
 40
5.0
  1
600 [23.62]
  0
POINT
  5
1BFB
  8
DEFPOINTS
 62
     0
 10
780.6824279244858
 20
918.9441507850031
 30
0.0
  0
POINT
  5
1BFC
  8
DEFPOINTS
 62
     0
 10
180.6824279244855
 20
918.9441507850031
 30
0.0
  0
POINT
  5
1BFD
  8
DEFPOINTS
 62
     0
 10
180.6824279244855
 20
979.281180778641
 30
0.0
  0
ENDBLK
  5
1BF4
  8
0
  0
BLOCK
  8
0
  2
*D301
 70
     1
 10
0.0
 20
0.0
 30
0.0
  3
*D301
  1

  0
LINE
  5
1C04
  8
DIMENSIONS
  6
BYBLOCK
 62
     0
 10
187.1699544845131
 20
852.919203905058
 30
0.0
 11
163.2297540111802
 21
852.919203905058
 31
0.0
  0
LINE
  5
1C05
  8
DIMENSIONS
  6
BYBLOCK
 62
     0
 10
187.1699544845131
 20
482.919203905058
 30
0.0
 11
163.2297540111801
 21
482.919203905058
 31
0.0
  0
LINE
  5
1C06
  8
DIMENSIONS
  6
BYBLOCK
 62
     0
 10
163.4097540111802
 20
847.919203905058
 30
0.0
 11
163.4097540111802
 21
487.919203905058
 31
0.0
  0
SOLID
  5
1C07
  8
DIMENSIONS
 62
     0
 10
164.2430873445135
 20
847.919203905058
 30
0.0
 11
162.5764206778468
 21
847.919203905058
 31
0.0
 12
163.4097540111802
 22
852.919203905058
 32
0.0
 13
163.4097540111802
 23
852.919203905058
 33
0.0
  0
SOLID
  5
1C08
  8
DIMENSIONS
 62
     0
 10
162.5764206778468
 20
487.919203905058
 30
0.0
 11
164.2430873445135
 21
487.919203905058
 31
0.0
 12
163.4097540111802
 22
482.919203905058
 32
0.0
 13
163.4097540111802
 23
482.919203905058
 33
0.0
  0
TEXT
  5
1C09
  8
DIMENSIONS
  6
CONTINUOUS
 62
     5
 10
161.0147540111802
 20
650.539203905058
 30
0.0
 40
5.0
  1
370 [14.57]
 50
90.0
  0
POINT
  5
1C0A
  8
DEFPOINTS
 62
     0
 10
188.6699544845131
 20
852.919203905058
 30
0.0
  0
POINT
  5
1C0B
  8
DEFPOINTS
 62
     0
 10
188.6699544845131
 20
482.919203905058
 30
0.0
  0
POINT
  5
1C0C
  8
DEFPOINTS
 62
     0
 10
163.4097540111802
 20
482.919203905058
 30
0.0
  0
ENDBLK
  5
1C03
  8
0
  0
BLOCK
  8
0
  2
*D302
 70
     1
 10
0.0
 20
0.0
 30
0.0
  3
*D302
  1

  0
LINE
  5
1C13
  8
DIMENSIONS
  6
BYBLOCK
 62
     0
 10
195.6699544845131
 20
892.9192039050581
 30
0.0
 11
147.5898801520194
 21
892.9192039050581
 31
0.0
  0
LINE
  5
1C14
  8
DIMENSIONS
  6
BYBLOCK
 62
     0
 10
195.6699544845131
 20
442.919203905058
 30
0.0
 11
147.5898801520194
 21
442.919203905058
 31
0.0
  0
LINE
  5
1C15
  8
DIMENSIONS
  6
BYBLOCK
 62
     0
 10
147.7698801520195
 20
887.9192039050581
 30
0.0
 11
147.7698801520194
 21
447.919203905058
 31
0.0
  0
SOLID
  5
1C16
  8
DIMENSIONS
 62
     0
 10
148.6032134853528
 20
887.9192039050581
 30
0.0
 11
146.9365468186861
 21
887.9192039050581
 31
0.0
 12
147.7698801520195
 22
892.9192039050581
 32
0.0
 13
147.7698801520195
 23
892.9192039050581
 33
0.0
  0
SOLID
  5
1C17
  8
DIMENSIONS
 62
     0
 10
146.9365468186861
 20
447.919203905058
 30
0.0
 11
148.6032134853528
 21
447.919203905058
 31
0.0
 12
147.7698801520194
 22
442.919203905058
 32
0.0
 13
147.7698801520194
 23
442.919203905058
 33
0.0
  0
TEXT
  5
1C18
  8
DIMENSIONS
  6
CONTINUOUS
 62
     5
 10
145.3748801520195
 20
650.6417039050581
 30
0.0
 40
5.0
  1
450 [17.72]
 50
90.0
  0
POINT
  5
1C19
  8
DEFPOINTS
 62
     0
 10
197.1699544845131
 20
892.9192039050581
 30
0.0
  0
POINT
  5
1C1A
  8
DEFPOINTS
 62
     0
 10
197.1699544845131
 20
442.919203905058
 30
0.0
  0
POINT
  5
1C1B
  8
DEFPOINTS
 62
     0
 10
147.7698801520194
 20
442.919203905058
 30
0.0
  0
ENDBLK
  5
1C12
  8
0
  0
BLOCK
  8
0
  2
*D303
 70
     1
 10
0.0
 20
0.0
 30
0.0
  3
*D303
  1

  0
LINE
  5
1C22
  8
DIMENSIONS
  6
BYBLOCK
 62
     0
 10
178.6699544845129
 20
417.9192039050579
 30
0.0
 11
133.0544831198181
 21
417.9192039050579
 31
0.0
  0
LINE
  5
1C23
  8
DIMENSIONS
  6
BYBLOCK
 62
     0
 10
178.6699544845129
 20
917.919203905058
 30
0.0
 11
133.0544831198181
 21
917.919203905058
 31
0.0
  0
LINE
  5
1C24
  8
DIMENSIONS
  6
BYBLOCK
 62
     0
 10
133.2344831198181
 20
422.9192039050579
 30
0.0
 11
133.2344831198182
 21
912.919203905058
 31
0.0
  0
SOLID
  5
1C25
  8
DIMENSIONS
 62
     0
 10
132.4011497864848
 20
422.9192039050579
 30
0.0
 11
134.0678164531515
 21
422.9192039050579
 31
0.0
 12
133.2344831198181
 22
417.9192039050579
 32
0.0
 13
133.2344831198181
 23
417.9192039050579
 33
0.0
  0
SOLID
  5
1C26
  8
DIMENSIONS
 62
     0
 10
134.0678164531515
 20
912.919203905058
 30
0.0
 11
132.4011497864848
 21
912.919203905058
 31
0.0
 12
133.2344831198182
 22
917.919203905058
 32
0.0
 13
133.2344831198182
 23
917.919203905058
 33
0.0
  0
TEXT
  5
1C27
  8
DIMENSIONS
  6
CONTINUOUS
 62
     5
 10
130.8394831198182
 20
650.541703905058
 30
0.0
 40
5.0
  1
500 [19.69]
 50
90.0
  0
POINT
  5
1C28
  8
DEFPOINTS
 62
     0
 10
180.1699544845129
 20
417.9192039050579
 30
0.0
  0
POINT
  5
1C29
  8
DEFPOINTS
 62
     0
 10
180.1699544845129
 20
917.919203905058
 30
0.0
  0
POINT
  5
1C2A
  8
DEFPOINTS
 62
     0
 10
133.2344831198182
 20
917.919203905058
 30
0.0
  0
ENDBLK
  5
1C21
  8
0
  0
BLOCK
  8
0
  2
*D304
 70
     1
 10
0.0
 20
0.0
 30
0.0
  3
*D304
  1

  0
LINE
  5
1C31
  8
DIMENSIONS
  6
BYBLOCK
 62
     0
 10
188.6699544845131
 20
854.419203905058
 30
0.0
 11
188.6699544845131
 21
964.3852276630975
 31
0.0
  0
LINE
  5
1C32
  8
DIMENSIONS
  6
BYBLOCK
 62
     0
 10
771.6699544845129
 20
854.419203905058
 30
0.0
 11
771.6699544845129
 21
964.3852276630975
 31
0.0
  0
LINE
  5
1C33
  8
DIMENSIONS
  6
BYBLOCK
 62
     0
 10
193.6699544845131
 20
964.2052276630975
 30
0.0
 11
766.6699544845129
 21
964.2052276630975
 31
0.0
  0
SOLID
  5
1C34
  8
DIMENSIONS
 62
     0
 10
193.6699544845131
 20
965.0385609964309
 30
0.0
 11
193.6699544845131
 21
963.3718943297641
 31
0.0
 12
188.6699544845131
 22
964.2052276630975
 32
0.0
 13
188.6699544845131
 23
964.2052276630975
 33
0.0
  0
SOLID
  5
1C35
  8
DIMENSIONS
 62
     0
 10
766.6699544845129
 20
963.3718943297641
 30
0.0
 11
766.6699544845129
 21
965.0385609964309
 31
0.0
 12
771.6699544845129
 22
964.2052276630975
 32
0.0
 13
771.6699544845129
 23
964.2052276630975
 33
0.0
  0
TEXT
  5
1C36
  8
DIMENSIONS
  6
CONTINUOUS
 62
     5
 10
462.792454484513
 20
966.6002276630975
 30
0.0
 40
5.0
  1
583 [22.95]
  0
POINT
  5
1C37
  8
DEFPOINTS
 62
     0
 10
188.6699544845131
 20
852.919203905058
 30
0.0
  0
POINT
  5
1C38
  8
DEFPOINTS
 62
     0
 10
771.6699544845129
 20
852.919203905058
 30
0.0
  0
POINT
  5
1C39
  8
DEFPOINTS
 62
     0
 10
771.6699544845129
 20
964.2052276630975
 30
0.0
  0
ENDBLK
  5
1C30
  8
0
  0
BLOCK
  8
0
  2
*D305
 70
     1
 10
0.0
 20
0.0
 30
0.0
  3
*D305
  1

  0
LINE
  5
1C40
  8
DIMENSIONS
  6
BYBLOCK
 62
     0
 10
471.1699644083232
 20
482.9058387083851
 30
0.0
 11
430.7650089607171
 21
482.8458364004333
 31
0.0
  0
TEXT
  5
1C41
  8
DIMENSIONS
  6
CONTINUOUS
 62
     5
 10
431.4813327377273
 20
485.3219028871194
 30
0.0
 40
5.0
  1
Ø8 [Ø0.31]
 50
0.0850855159081947
  0
SOLID
  5
1C42
  8
DIMENSIONS
 62
     0
 10
471.1712019265337
 20
482.0725062939231
 30
0.0
 11
471.1687268901127
 21
483.7391711228472
 31
0.0
 12
476.1699588950954
 22
482.9132638176478
 32
0.0
 13
476.1699588950954
 23
482.9132638176478
 33
0.0
  0
LINE
  5
1C43
  8
DIMENSIONS
  6
BYBLOCK
 62
     0
 10
477.6699544845131
 20
482.919203905058
 30
0.0
 11
482.6699544845131
 21
482.919203905058
 31
0.0
  0
LINE
  5
1C44
  8
DIMENSIONS
  6
BYBLOCK
 62
     0
 10
480.1699544845131
 20
480.419203905058
 30
0.0
 11
480.1699544845131
 21
485.419203905058
 31
0.0
  0
POINT
  5
1C45
  8
DEFPOINTS
 62
     0
 10
476.1699588950954
 20
482.9132638176478
 30
0.0
  0
POINT
  5
1C46
  8
DEFPOINTS
 62
     0
 10
484.1699500739309
 20
482.9251439924681
 30
0.0
  0
ENDBLK
  5
1C3F
  8
0
  0
ENDSEC
  0
SECTION
  2
ENTITIES
  0
TEXT
  5
698
  8
DIMENSIONS
  6
BYBLOCK
 10
178.4698660298072
 20
400.1020324403623
 30
0.0
 40
5.0
  1
Note:
  0
TEXT
  5
699
  8
DIMENSIONS
  6
BYBLOCK
 10
178.6037920700927
 20
389.5730645923692
 30
0.0
 40
5.0
  1
Primary dimensions in millimeters.
  0
TEXT
  5
69A
  8
DIMENSIONS
  6
BYBLOCK
 10
178.8252060064828
 20
379.0010389835852
 30
0.0
 40
5.0
  1
Secondary dimensions in inches.
  0
POLYLINE
  5
1BC7
  8
0
 66
     1
 10
0.0
 20
0.0
 30
0.0
 70
     1
  0
VERTEX
  5
1C4A
  8
0
 10
780.1699544845131
 20
917.919203905058
 30
0.0
  0
VERTEX
  5
1C4B
  8
0
 10
780.1699544845131
 20
417.9192039050579
 30
0.0
  0
VERTEX
  5
1C4C
  8
0
 10
180.1699544845129
 20
417.9192039050579
 30
0.0
  0
VERTEX
  5
1C4D
  8
0
 10
180.1699544845129
 20
917.919203905058
 30
0.0
  0
SEQEND
  5
1C5A
  8
0
  0
POLYLINE
  5
1BC8
  8
0
 66
     1
 10
0.0
 20
0.0
 30
0.0
 70
     1
  0
VERTEX
  5
1C4E
  8
0
 10
197.1699544845131
 20
442.919203905058
 30
0.0
  0
VERTEX
  5
1C4F
  8
0
 10
197.1699544845131
 20
892.9192039050581
 30
0.0
  0
VERTEX
  5
1C50
  8
0
 10
317.1699544845131
 20
892.9192039050581
 30
0.0
  0
VERTEX
  5
1C51
  8
0
 10
317.1699544845131
 20
442.919203905058
 30
0.0
  0
SEQEND
  5
1C5B
  8
0
  0
POLYLINE
  5
1BC9
  8
0
 66
     1
 10
0.0
 20
0.0
 30
0.0
 70
     1
  0
VERTEX
  5
1C52
  8
0
 10
763.1699544845129
 20
442.919203905058
 30
0.0
  0
VERTEX
  5
1C53
  8
0
 10
763.1699544845129
 20
892.9192039050581
 30
0.0
  0
VERTEX
  5
1C54
  8
0
 10
643.1699544845129
 20
892.9192039050581
 30
0.0
  0
VERTEX
  5
1C55
  8
0
 10
643.1699544845129
 20
442.919203905058
 30
0.0
  0
SEQEND
  5
1C5C
  8
0
  0
CIRCLE
  5
1BCA
  8
0
 10
188.6699544845131
 20
482.919203905058
 30
0.0
 40
4.0
  0
CIRCLE
  5
1BCB
  8
0
 10
188.6699544845131
 20
852.919203905058
 30
0.0
 40
4.0
  0
CIRCLE
  5
1BCC
  8
0
 10
480.1699544845131
 20
852.919203905058
 30
0.0
 40
4.0
  0
CIRCLE
  5
1BCD
  8
0
 10
480.1699544845131
 20
482.919203905058
 30
0.0
 40
4.0
  0
CIRCLE
  5
1BCE
  8
0
 10
771.6699544845129
 20
852.919203905058
 30
0.0
 40
4.0
  0
CIRCLE
  5
1BCF
  8
0
 10
771.6699544845129
 20
482.919203905058
 30
0.0
 40
4.0
  0
INSERT
  5
1BD0
  8
0
  2
*X297
 10
739.912562547598
 20
-98.46565652473191
 30
0.0
  0
DIMENSION
  5
1BD1
  8
DIMENSIONS
  6
BYBLOCK
  2
*D298
 10
643.1699544845129
 20
933.1774870397037
 30
0.0
 11
480.169954484513
 21
937.3799870397037
 31
0.0
 70
    32
  3
DUAL-DIM
 13
317.1699544845131
 23
892.9192039050581
 33
0.0
 14
643.1699544845129
 24
892.9192039050581
 34
0.0
1001
ACAD
1000
DSTYLE
1002
{
1070
   287
1070
     5
1070
   279
1070
     2
1002
}
  0
DIMENSION
  5
1BE0
  8
DIMENSIONS
  6
BYBLOCK
  2
*D299
 10
763.1699544845129
 20
948.6918196951239
 30
0.0
 11
480.169954484513
 21
952.8943196951238
 31
0.0
 70
    32
  3
DUAL-DIM
 13
197.1699544845131
 23
892.9192039050581
 33
0.0
 14
763.1699544845129
 24
892.9192039050581
 34
0.0
1001
ACAD
1000
DSTYLE
1002
{
1070
   287
1070
     5
1070
   279
1070
     2
1002
}
  0
DIMENSION
  5
1BEF
  8
DIMENSIONS
  6
BYBLOCK
  2
*D300
 10
180.6824279244855
 20
979.281180778641
 30
0.0
 11
480.6824279244856
 21
983.483680778641
 31
0.0
 70
    32
  3
DUAL-DIM
 13
780.6824279244858
 23
918.9441507850031
 33
0.0
 14
180.6824279244855
 24
918.9441507850031
 34
0.0
1001
ACAD
1000
DSTYLE
1002
{
1070
   287
1070
     5
1070
   279
1070
     2
1002
}
  0
DIMENSION
  5
1BFE
  8
DIMENSIONS
  6
BYBLOCK
  2
*D301
 10
163.4097540111802
 20
482.919203905058
 30
0.0
 11
159.2072540111802
 21
667.919203905058
 31
0.0
 70
    32
  3
DUAL-DIM
 13
188.6699544845131
 23
852.919203905058
 33
0.0
 14
188.6699544845131
 24
482.919203905058
 34
0.0
 50
90.0
1001
ACAD
1000
DSTYLE
1002
{
1070
   287
1070
     5
1070
   279
1070
     2
1002
}
  0
DIMENSION
  5
1C0D
  8
DIMENSIONS
  6
BYBLOCK
  2
*D302
 10
147.7698801520194
 20
442.919203905058
 30
0.0
 11
143.5673801520194
 21
667.9192039050581
 31
0.0
 70
    32
  3
DUAL-DIM
 13
197.1699544845131
 23
892.9192039050581
 33
0.0
 14
197.1699544845131
 24
442.919203905058
 34
0.0
 50
90.0
1001
ACAD
1000
DSTYLE
1002
{
1070
   287
1070
     5
1070
   279
1070
     2
1002
}
  0
DIMENSION
  5
1C1C
  8
DIMENSIONS
  6
BYBLOCK
  2
*D303
 10
133.2344831198182
 20
917.919203905058
 30
0.0
 11
129.0319831198182
 21
667.9192039050579
 31
0.0
 70
    32
  3
DUAL-DIM
 13
180.1699544845129
 23
417.9192039050579
 33
0.0
 14
180.1699544845129
 24
917.919203905058
 34
0.0
 50
90.0
1001
ACAD
1000
DSTYLE
1002
{
1070
   287
1070
     5
1070
   279
1070
     2
1002
}
  0
DIMENSION
  5
1C2B
  8
DIMENSIONS
  6
BYBLOCK
  2
*D304
 10
771.6699544845129
 20
964.2052276630975
 30
0.0
 11
480.169954484513
 21
968.4077276630975
 31
0.0
 70
    32
  3
DUAL-DIM
 13
188.6699544845131
 23
852.919203905058
 33
0.0
 14
771.6699544845129
 24
852.919203905058
 34
0.0
1001
ACAD
1000
DSTYLE
1002
{
1070
   287
1070
     5
1070
   279
1070
     2
1002
}
  0
DIMENSION
  5
1C3A
  8
DIMENSIONS
  6
BYBLOCK
  2
*D305
 10
484.1699500739309
 20
482.9251439924681
 30
0.0
 11
448.467489441134
 21
482.8721249997779
 31
0.0
 70
   163
  1
<>
  3
DUAL-DIM
 15
476.1699588950954
 25
482.9132638176478
 35
0.0
 40
0.0
1001
ACAD
1000
DSTYLE
1002
{
1070
   287
1070
     3
1070
   279
1070
     0
1002
}
1001
ACAD_DSTYLE_DIMRADIAL_EXT0
1070
   387
1070
     1
1070
   388
1040
0.0
1070
   390
1040
6.283185307179586
  0
POLYLINE
  5
1C49
  8
0
  6
BYBLOCK
 66
     1
 10
0.0
 20
0.0
 30
0.0
 70
     1
  0
VERTEX
  5
1C56
  8
0
  6
BYBLOCK
 10
89.58522608804333
 20
372.3094184435401
 30
0.0
  0
VERTEX
  5
1C57
  8
0
  6
BYBLOCK
 10
89.58522608804333
 20
1020.349155864158
 30
0.0
  0
VERTEX
  5
1C58
  8
0
  6
BYBLOCK
 10
842.6204522151415
 20
1020.349155864158
 30
0.0
  0
VERTEX
  5
1C59
  8
0
  6
BYBLOCK
 10
842.6204522151415
 20
372.3094184435401
 30
0.0
  0
SEQEND
  5
1C5D
  8
0
  6
BYBLOCK
  0
VIEWPORT
  5
B1C
 67
     1
  8
0
 10
5.25
 20
3.5
 30
0.0
 40
12.6
 41
8.4
 68
     1
 69
     1
1001
ACAD
1000
MVIEW
1002
{
1070
    16
1010
0.0
1020
0.0
1030
0.0
1010
0.0
1020
0.0
1030
1.0
1040
0.0
1040
8.4
1040
5.25
1040
3.5
1040
50.0
1040
0.0
1040
0.0
1070
     0
1070
   100
1070
     0
1070
     3
1070
     0
1070
     0
1070
     0
1070
     0
1040
0.0
1040
0.0
1040
0.0
1040
0.5
1040
0.5
1040
0.0
1040
0.0
1070
     0
1002
{
1002
}
1002
}
  0
VIEWPORT
  5
B1D
 67
     1
  8
0
 10
5.25
 20
3.5
 30
0.0
 40
8.4
 41
5.600000000000001
 68
     2
 69
     2
1001
ACAD
1000
MVIEW
1002
{
1070
    16
1010
0.0
1020
0.0
1030
0.0
1010
0.0
1020
0.0
1030
1.0
1040
0.0
1040
278.6419840998563
1040
207.1268606538857
1040
36.27547653054833
1040
50.0
1040
0.0
1040
0.0
1070
     0
1070
   100
1070
     0
1070
     3
1070
     0
1070
     0
1070
     0
1070
     0
1040
0.0
1040
0.0
1040
0.0
1040
0.5
1040
0.5
1040
0.0
1040
0.0
1070
     0
1002
{
1002
}
1002
}
  0
ENDSEC
  0
EOF
