  0
SECTION
  2
HEADER
  9
$ACADVER
  1
AC1009
  9
$DWGCODEPAGE
  3
ansi_1252
  9
$INSBASE
 10
0.0
 20
0.0
 30
0.0
  9
$EXTMIN
 10
92.78357888199866
 20
368.9538648304128
 30
0.0
  9
$EXTMAX
 10
715.4823284970961
 20
1897.735226160892
 30
0.0
  9
$LIMMIN
 10
0.0
 20
0.0
  9
$LIMMAX
 10
594.0
 20
420.0
  9
$ORTHOMODE
 70
     0
  9
$REGENMODE
 70
     1
  9
$FILLMODE
 70
     1
  9
$QTEXTMODE
 70
     0
  9
$MIRRTEXT
 70
     1
  9
$DRAGMODE
 70
     2
  9
$LTSCALE
 40
32.67
  9
$OSMODE
 70
   511
  9
$ATTMODE
 70
     1
  9
$TEXTSIZE
 40
0.2
  9
$TRACEWID
 40
0.05
  9
$TEXTSTYLE
  7
STANDARD
  9
$CLAYER
  8
DIMENSIONS
  9
$CELTYPE
  6
BYBLOCK
  9
$CECOLOR
 62
   256
  9
$DIMSCALE
 40
1.0
  9
$DIMASZ
 40
5.0
  9
$DIMEXO
 40
1.5
  9
$DIMDLI
 40
1.0
  9
$DIMRND
 40
0.0
  9
$DIMDLE
 40
0.0
  9
$DIMEXE
 40
0.18
  9
$DIMTP
 40
0.0
  9
$DIMTM
 40
0.0
  9
$DIMTXT
 40
5.0
  9
$DIMCEN
 40
2.5
  9
$DIMTSZ
 40
0.0
  9
$DIMTOL
 70
     0
  9
$DIMLIM
 70
     0
  9
$DIMTIH
 70
     0
  9
$DIMTOH
 70
     0
  9
$DIMSE1
 70
     0
  9
$DIMSE2
 70
     0
  9
$DIMTAD
 70
     1
  9
$DIMZIN
 70
     8
  9
$DIMBLK
  1

  9
$DIMASO
 70
     1
  9
$DIMSHO
 70
     1
  9
$DIMPOST
  1

  9
$DIMAPOST
  1

  9
$DIMALT
 70
     1
  9
$DIMALTD
 70
     2
  9
$DIMALTF
 40
0.03937
  9
$DIMLFAC
 40
1.0
  9
$DIMTOFL
 70
     0
  9
$DIMTVP
 40
0.0
  9
$DIMTIX
 70
     0
  9
$DIMSOXD
 70
     0
  9
$DIMSAH
 70
     0
  9
$DIMBLK1
  1

  9
$DIMBLK2
  1

  9
$DIMSTYLE
  2
DUAL-DIM
  9
$DIMCLRD
 70
     0
  9
$DIMCLRE
 70
     0
  9
$DIMCLRT
 70
     5
  9
$DIMTFAC
 40
1.0
  9
$DIMGAP
 40
1.0
  9
$LUNITS
 70
     2
  9
$LUPREC
 70
     4
  9
$SKETCHINC
 40
0.1
  9
$FILLETRAD
 40
15.0
  9
$AUNITS
 70
     0
  9
$AUPREC
 70
     0
  9
$MENU
  1
.
  9
$ELEVATION
 40
0.0
  9
$PELEVATION
 40
0.0
  9
$THICKNESS
 40
0.0
  9
$LIMCHECK
 70
     0
  9
$CHAMFERA
 40
0.0
  9
$CHAMFERB
 40
0.0
  9
$SKPOLY
 70
     0
  9
$TDCREATE
 40
2457428.354677859
  9
$TDUPDATE
 40
2458130.502116794
  9
$TDINDWG
 40
0.1552058912
  9
$TDUSRTIMER
 40
2458130.457735891
  9
$USRTIMER
 70
     1
  9
$ANGBASE
 50
0.0
  9
$ANGDIR
 70
     0
  9
$PDMODE
 70
     3
  9
$PDSIZE
 40
0.3125
  9
$PLINEWID
 40
0.0
  9
$COORDS
 70
     1
  9
$SPLFRAME
 70
     0
  9
$SPLINETYPE
 70
     6
  9
$SPLINESEGS
 70
     8
  9
$ATTDIA
 70
     0
  9
$ATTREQ
 70
     1
  9
$HANDLING
 70
     1
  9
$HANDSEED
  5
34D6
  9
$SURFTAB1
 70
     6
  9
$SURFTAB2
 70
     6
  9
$SURFTYPE
 70
     6
  9
$SURFU
 70
     6
  9
$SURFV
 70
     6
  9
$UCSNAME
  2

  9
$UCSORG
 10
0.0
 20
0.0
 30
0.0
  9
$UCSXDIR
 10
1.0
 20
0.0
 30
0.0
  9
$UCSYDIR
 10
0.0
 20
1.0
 30
0.0
  9
$PUCSNAME
  2

  9
$PUCSORG
 10
0.0
 20
0.0
 30
0.0
  9
$PUCSXDIR
 10
1.0
 20
0.0
 30
0.0
  9
$PUCSYDIR
 10
0.0
 20
1.0
 30
0.0
  9
$USERI1
 70
     0
  9
$USERI2
 70
     0
  9
$USERI3
 70
     0
  9
$USERI4
 70
     0
  9
$USERI5
 70
     0
  9
$USERR1
 40
0.0
  9
$USERR2
 40
0.0
  9
$USERR3
 40
0.0
  9
$USERR4
 40
0.0
  9
$USERR5
 40
0.0
  9
$WORLDVIEW
 70
     1
  9
$SHADEDGE
 70
     3
  9
$SHADEDIF
 70
    70
  9
$TILEMODE
 70
     1
  9
$MAXACTVP
 70
    64
  9
$PLIMCHECK
 70
     0
  9
$PEXTMIN
 10
1.05
 20
0.6999999999999997
 30
0.0
  9
$PEXTMAX
 10
9.45
 20
6.300000000000001
 30
0.0
  9
$PLIMMIN
 10
0.0
 20
0.0
  9
$PLIMMAX
 10
0.0
 20
0.0
  9
$UNITMODE
 70
     0
  9
$VISRETAIN
 70
     1
  9
$PLINEGEN
 70
     0
  9
$PSLTSCALE
 70
     1
  0
ENDSEC
  0
SECTION
  2
TABLES
  0
TABLE
  2
VPORT
 70
     1
  0
VPORT
  2
*ACTIVE
 70
     0
 10
0.0
 20
0.0
 11
1.0
 21
1.0
 12
404.1329536895474
 22
1133.344545495652
 13
0.0
 23
0.0
 14
0.5
 24
0.5
 15
0.5
 25
0.5
 16
0.0
 26
0.0
 36
1.0
 17
0.0
 27
0.0
 37
0.0
 40
1559.356988557089
 41
2.255772646536412
 42
50.0
 43
0.0
 44
0.0
 50
0.0
 51
0.0
 71
    16
 72
   100
 73
     1
 74
     3
 75
     0
 76
     0
 77
     0
 78
     0
  0
ENDTAB
  0
TABLE
  2
LTYPE
 70
     7
  0
LTYPE
  2
CONTINUOUS
 70
     0
  3
Solid line
 72
    65
 73
     0
 40
0.0
  0
LTYPE
  2
CENTER
 70
     0
  3
____ _ ____ _ ____ _ ____ _ ____ _ ____ _ ____
 72
    65
 73
     4
 40
0.6
 49
0.375
 49
-0.075
 49
0.075
 49
-0.075
  0
LTYPE
  2
HIDDEN
 70
     0
  3
- - - - - - - - - - - - - - - - - - - -
 72
    65
 73
     2
 40
0.2
 49
0.1
 49
-0.1
  0
LTYPE
  2
PHANTOM
 70
     0
  3
_____ _ _ _____ _ _ _____ _ _ _____
 72
    65
 73
     6
 40
0.8
 49
0.45
 49
-0.05
 49
0.1
 49
-0.05
 49
0.1
 49
-0.05
  0
LTYPE
  2
DOT
 70
     0
  3
. . . . . . . . . . . . . . . . . . . .
 72
    65
 73
     2
 40
0.2
 49
0.1
 49
-0.1
  0
LTYPE
  2
DASHED
 70
     0
  3
- - - - - - - - - - - - - - - - - - - -
 72
    65
 73
     2
 40
0.2
 49
0.1
 49
-0.1
  0
LTYPE
  2
STRICHPUNKT
 70
     0
  3
__ . __ . __ . __ . __ . __ . __ . __ . __ . __
 72
    65
 73
     4
 40
1.0
 49
0.5
 49
-0.25
 49
0.0
 49
-0.25
  0
ENDTAB
  0
TABLE
  2
LAYER
 70
    19
  0
LAYER
  2
0
 70
     0
 62
     7
  6
CONTINUOUS
  0
LAYER
  2
DEFAULT_1
 70
     0
 62
     7
  6
CENTER
  0
LAYER
  2
DEFAULT_2
 70
     0
 62
     7
  6
HIDDEN
  0
LAYER
  2
DEFAULT_3
 70
     0
 62
     7
  6
PHANTOM
  0
LAYER
  2
01___PRT_ALL_DTM_PLN
 70
     0
 62
     7
  6
CONTINUOUS
  0
LAYER
  2
01___PRT_DEF_DTM_PLN
 70
     0
 62
     7
  6
CONTINUOUS
  0
LAYER
  2
02___PRT_ALL_AXES
 70
     0
 62
     7
  6
CONTINUOUS
  0
LAYER
  2
03___PRT_ALL_CURVES
 70
     0
 62
     7
  6
CONTINUOUS
  0
LAYER
  2
04___PRT_ALL_DTM_PNT
 70
     0
 62
     7
  6
CONTINUOUS
  0
LAYER
  2
05___PRT_ALL_DTM_CSYS
 70
     0
 62
     7
  6
CONTINUOUS
  0
LAYER
  2
05___PRT_DEF_DTM_CSYS
 70
     0
 62
     7
  6
CONTINUOUS
  0
LAYER
  2
06___PRT_ALL_SURFS
 70
     0
 62
     7
  6
CONTINUOUS
  0
LAYER
  2
DEFPOINTS
 70
     0
 62
     7
  6
CONTINUOUS
  0
LAYER
  2
DIMENSIONS
 70
     0
 62
     2
  6
CONTINUOUS
  0
LAYER
  2
AM_5
 70
     0
 62
     3
  6
CONTINUOUS
  0
LAYER
  2
CUTOUT
 70
     0
 62
     7
  6
CONTINUOUS
  0
LAYER
  2
EXTERNAL_OUTFIT
 70
     0
 62
     7
  6
CENTER
  0
LAYER
  2
OUTLINES
 70
     0
 62
     4
  6
CONTINUOUS
  0
LAYER
  2
3
 70
     0
 62
     4
  6
CONTINUOUS
  0
ENDTAB
  0
TABLE
  2
STYLE
 70
     2
  0
STYLE
  2
STANDARD
 70
     0
 40
0.0
 41
1.0
 50
0.0
 71
     0
 42
0.2
  3
arial.ttf
  4

  0
STYLE
  2
TEXTSTYLE_1
 70
     0
 40
0.0
 41
0.8
 50
0.0
 71
     0
 42
0.2
  3
gdt
  4

  0
ENDTAB
  0
TABLE
  2
VIEW
 70
     0
  0
ENDTAB
  0
TABLE
  2
UCS
 70
     0
  0
ENDTAB
  0
TABLE
  2
APPID
 70
    13
  0
APPID
  2
ACAD
 70
     0
  0
APPID
  2
ACAECLAYERSTANDARD
 70
     0
  0
APPID
  2
ACAD_DSTYLE_DIMRADIAL_EXTE
 70
     0
  0
APPID
  2
ACAD_DSTYLE_DIMJOGGED_JOGA
 70
     0
  0
APPID
  2
ACAD_DSTYLE_DIMJAG
 70
     0
  0
APPID
  2
ACAD_DSTYLE_DIMBREAK
 70
     0
  0
APPID
  2
ACAD_PSEXT
 70
     0
  0
APPID
  2
ACAD_DSTYLE_DIMINSPECT
 70
     0
  0
APPID
  2
ACAD_DSTYLE_DIMRADIAL_EXT0
 70
     0
  0
APPID
  2
ACAD_DSTYLE_DIMJOGGED_JOG0
 70
     0
  0
APPID
  2
ACAD_DSTYLE_DIMRADIAL_EXT1
 70
     0
  0
APPID
  2
ACADANNOTATIVE
 70
     0
  0
APPID
  2
ACAD_MLEADERVER
 70
     0
  0
ENDTAB
  0
TABLE
  2
DIMSTYLE
 70
     5
  0
DIMSTYLE
  2
STANDARD
 70
     0
  3

  4

  5

  6

  7

 40
1.0
 41
0.18
 42
0.0625
 43
0.38
 44
0.18
 45
0.0
 46
0.0
 47
0.0
 48
0.0
140
0.18
141
0.09
142
0.0
143
25.4
144
1.0
145
0.0
146
1.0
147
0.09
 71
     0
 72
     0
 73
     1
 74
     1
 75
     0
 76
     0
 77
     0
 78
     0
170
     0
171
     2
172
     0
173
     0
174
     0
175
     0
176
     0
177
     0
178
     0
  0
DIMSTYLE
  2
DUAL-DIM
 70
     0
  3

  4

  5

  6

  7

 40
1.0
 41
5.0
 42
1.5
 43
1.0
 44
0.18
 45
0.0
 46
0.0
 47
0.0
 48
0.0
140
5.0
141
2.5
142
0.0
143
0.03937
144
1.0
145
0.0
146
1.0
147
1.0
 71
     0
 72
     0
 73
     0
 74
     0
 75
     0
 76
     0
 77
     1
 78
     8
170
     1
171
     2
172
     0
173
     0
174
     0
175
     0
176
     0
177
     0
178
     5
  0
DIMSTYLE
  2
AM_ISO
 70
     0
  3

  4
"
  5

  6

  7

 40
1.0
 41
3.5
 42
1.0
 43
10.0
 44
1.0
 45
0.0
 46
0.0
 47
0.1
 48
0.1
140
3.5
141
0.0
142
0.0
143
0.0393701
144
1.0
145
0.0
146
0.71
147
1.5
 71
     0
 72
     0
 73
     0
 74
     0
 75
     0
 76
     0
 77
     1
 78
     8
170
     0
171
     2
172
     1
173
     0
174
     0
175
     0
176
   256
177
   256
178
     2
  0
DIMSTYLE
  2
AM_ISO$3
 70
     0
  3

  4
"
  5

  6

  7

 40
1.0
 41
3.5
 42
1.0
 43
10.0
 44
1.0
 45
0.0
 46
0.0
 47
0.1
 48
0.1
140
3.5
141
0.0
142
0.0
143
0.0393701
144
1.0
145
0.0
146
0.71
147
1.5
 71
     0
 72
     0
 73
     0
 74
     1
 75
     0
 76
     0
 77
     1
 78
     8
170
     0
171
     2
172
     0
173
     0
174
     0
175
     0
176
   256
177
   256
178
     2
  0
DIMSTYLE
  2
AM_ISO$0
 70
     0
  3

  4
"
  5

  6

  7

 40
1.0
 41
3.5
 42
1.0
 43
10.0
 44
1.0
 45
0.0
 46
0.0
 47
0.1
 48
0.1
140
3.5
141
0.0
142
0.0
143
0.0393701
144
1.0
145
0.0
146
0.71
147
1.5
 71
     0
 72
     0
 73
     0
 74
     0
 75
     0
 76
     0
 77
     1
 78
     8
170
     0
171
     2
172
     1
173
     0
174
     0
175
     0
176
   256
177
   256
178
     2
  0
ENDTAB
  0
ENDSEC
  0
SECTION
  2
BLOCKS
  0
BLOCK
  8
0
  2
$MODEL_SPACE
 70
     0
 10
0.0
 20
0.0
 30
0.0
  3
$MODEL_SPACE
  1

  0
ENDBLK
  5
110
  8
0
  0
BLOCK
 67
     1
  8
0
  2
$PAPER_SPACE
 70
     0
 10
0.0
 20
0.0
 30
0.0
  3
$PAPER_SPACE
  1

  0
ENDBLK
  5
112
 67
     1
  8
0
  0
BLOCK
  8
0
  2
_FILLED
 70
     0
 10
0.0
 20
0.0
 30
0.0
  3
_FILLED
  1

  0
SOLID
  5
3D
  8
0
  6
BYBLOCK
 62
     0
 10
0.0
 20
0.0
 30
0.0
 11
-1.0
 21
0.2
 31
0.0
 12
-1.0
 22
-0.2
 32
0.0
 13
-1.0
 23
-0.2
 33
0.0
  0
ENDBLK
  5
3E
  8
0
  6
BYBLOCK
 62
     0
  0
BLOCK
  8
0
  2
*D206
 70
     1
 10
0.0
 20
0.0
 30
0.0
  3
*D206
  1

  0
LINE
  5
2052
  8
DIMENSIONS
  6
BYBLOCK
 62
     0
 10
240.2920774916282
 20
1806.825259146677
 30
0.0
 11
240.2920774916282
 21
1836.249263998383
 31
0.0
  0
LINE
  5
2053
  8
DIMENSIONS
  6
BYBLOCK
 62
     0
 10
590.2920774916281
 20
1806.825259146677
 30
0.0
 11
590.2920774916281
 21
1836.249263998383
 31
0.0
  0
LINE
  5
2054
  8
DIMENSIONS
  6
BYBLOCK
 62
     0
 10
245.2920774916282
 20
1836.069263998383
 30
0.0
 11
585.2920774916281
 21
1836.069263998383
 31
0.0
  0
SOLID
  5
2055
  8
DIMENSIONS
 62
     0
 10
245.2920774916282
 20
1836.902597331716
 30
0.0
 11
245.2920774916282
 21
1835.23593066505
 31
0.0
 12
240.2920774916282
 22
1836.069263998383
 32
0.0
 13
240.2920774916282
 23
1836.069263998383
 33
0.0
  0
SOLID
  5
2056
  8
DIMENSIONS
 62
     0
 10
585.2920774916281
 20
1835.23593066505
 30
0.0
 11
585.2920774916281
 21
1836.902597331716
 31
0.0
 12
590.2920774916281
 22
1836.069263998383
 32
0.0
 13
590.2920774916281
 23
1836.069263998383
 33
0.0
  0
TEXT
  5
2057
  8
DIMENSIONS
  6
CONTINUOUS
 62
     5
 10
397.9120774916281
 20
1838.464263998383
 30
0.0
 40
5.0
  1
350 [13.78]
  0
POINT
  5
2058
  8
DEFPOINTS
 62
     0
 10
240.2920774916282
 20
1805.325259146677
 30
0.0
  0
POINT
  5
2059
  8
DEFPOINTS
 62
     0
 10
590.2920774916281
 20
1805.325259146677
 30
0.0
  0
POINT
  5
205A
  8
DEFPOINTS
 62
     0
 10
590.2920774916281
 20
1836.069263998383
 30
0.0
  0
ENDBLK
  5
2051
  8
0
  0
BLOCK
  8
0
  2
*D207
 70
     1
 10
0.0
 20
0.0
 30
0.0
  3
*D207
  1

  0
LINE
  5
2061
  8
DIMENSIONS
  6
BYBLOCK
 62
     0
 10
210.2920774916282
 20
1769.325259146677
 30
0.0
 11
210.2920774916282
 21
1853.708538192191
 31
0.0
  0
LINE
  5
2062
  8
DIMENSIONS
  6
BYBLOCK
 62
     0
 10
620.2920774916281
 20
1769.325259146677
 30
0.0
 11
620.2920774916281
 21
1853.708538192191
 31
0.0
  0
LINE
  5
2063
  8
DIMENSIONS
  6
BYBLOCK
 62
     0
 10
215.2920774916282
 20
1853.528538192191
 30
0.0
 11
615.2920774916281
 21
1853.528538192191
 31
0.0
  0
SOLID
  5
2064
  8
DIMENSIONS
 62
     0
 10
215.2920774916282
 20
1854.361871525524
 30
0.0
 11
215.2920774916282
 21
1852.695204858857
 31
0.0
 12
210.2920774916282
 22
1853.528538192191
 32
0.0
 13
210.2920774916282
 23
1853.528538192191
 33
0.0
  0
SOLID
  5
2065
  8
DIMENSIONS
 62
     0
 10
615.2920774916281
 20
1852.695204858857
 30
0.0
 11
615.2920774916281
 21
1854.361871525524
 31
0.0
 12
620.2920774916281
 22
1853.528538192191
 32
0.0
 13
620.2920774916281
 23
1853.528538192191
 33
0.0
  0
TEXT
  5
2066
  8
DIMENSIONS
  6
CONTINUOUS
 62
     5
 10
398.0145774916281
 20
1855.923538192191
 30
0.0
 40
5.0
  1
410 [16.14]
  0
POINT
  5
2067
  8
DEFPOINTS
 62
     0
 10
210.2920774916282
 20
1767.825259146677
 30
0.0
  0
POINT
  5
2068
  8
DEFPOINTS
 62
     0
 10
620.2920774916281
 20
1767.825259146677
 30
0.0
  0
POINT
  5
2069
  8
DEFPOINTS
 62
     0
 10
620.2920774916281
 20
1853.528538192191
 30
0.0
  0
ENDBLK
  5
2060
  8
0
  0
BLOCK
  8
0
  2
*D208
 70
     1
 10
0.0
 20
0.0
 30
0.0
  3
*D208
  1

  0
LINE
  5
2070
  8
DIMENSIONS
  6
BYBLOCK
 62
     0
 10
188.2920774916282
 20
1818.825259146677
 30
0.0
 11
188.2920774916282
 21
1869.808938592234
 31
0.0
  0
LINE
  5
2071
  8
DIMENSIONS
  6
BYBLOCK
 62
     0
 10
642.2920774916281
 20
1818.825259146677
 30
0.0
 11
642.2920774916281
 21
1869.808938592234
 31
0.0
  0
LINE
  5
2072
  8
DIMENSIONS
  6
BYBLOCK
 62
     0
 10
193.2920774916282
 20
1869.628938592234
 30
0.0
 11
637.2920774916281
 21
1869.628938592234
 31
0.0
  0
SOLID
  5
2073
  8
DIMENSIONS
 62
     0
 10
193.2920774916282
 20
1870.462271925567
 30
0.0
 11
193.2920774916282
 21
1868.795605258901
 31
0.0
 12
188.2920774916282
 22
1869.628938592234
 32
0.0
 13
188.2920774916282
 23
1869.628938592234
 33
0.0
  0
SOLID
  5
2074
  8
DIMENSIONS
 62
     0
 10
637.2920774916281
 20
1868.795605258901
 30
0.0
 11
637.2920774916281
 21
1870.462271925567
 31
0.0
 12
642.2920774916281
 22
1869.628938592234
 32
0.0
 13
642.2920774916281
 23
1869.628938592234
 33
0.0
  0
TEXT
  5
2075
  8
DIMENSIONS
  6
CONTINUOUS
 62
     5
 10
398.0145774916281
 20
1872.023938592234
 30
0.0
 40
5.0
  1
454 [17.87]
  0
POINT
  5
2076
  8
DEFPOINTS
 62
     0
 10
188.2920774916282
 20
1817.325259146677
 30
0.0
  0
POINT
  5
2077
  8
DEFPOINTS
 62
     0
 10
642.2920774916281
 20
1817.325259146677
 30
0.0
  0
POINT
  5
2078
  8
DEFPOINTS
 62
     0
 10
642.2920774916281
 20
1869.628938592234
 30
0.0
  0
ENDBLK
  5
206F
  8
0
  0
BLOCK
  8
0
  2
*D215
 70
     1
 10
0.0
 20
0.0
 30
0.0
  3
*D215
  1

  0
LINE
  5
20E3
  8
DIMENSIONS
  6
BYBLOCK
 62
     0
 10
623.0420830133685
 20
895.3326899860455
 30
0.0
 11
582.6371276345528
 21
895.3927385989804
 31
0.0
  0
TEXT
  5
20E4
  8
DIMENSIONS
  6
CONTINUOUS
 62
     5
 10
583.3608051049096
 20
897.86666582485
 30
0.0
 40
5.0
  1
Ø8 [Ø0.31]
 50
359.9148488218464
  0
SOLID
  5
20E5
  8
DIMENSIONS
 62
     0
 10
623.0408445401405
 20
894.4993575730022
 30
0.0
 11
623.0433214865965
 21
896.1660223990888
 31
0.0
 12
628.0420774916281
 22
895.3252591466772
 32
0.0
 13
628.0420774916281
 23
895.3252591466772
 33
0.0
  0
POINT
  5
20E6
  8
DEFPOINTS
 62
     0
 10
628.0420774916281
 20
895.3252591466772
 30
0.0
  0
POINT
  5
20E7
  8
DEFPOINTS
 62
     0
 10
636.0420686568434
 20
895.313369803688
 30
0.0
  0
ENDBLK
  5
20E2
  8
0
  0
BLOCK
  8
0
  2
*D216
 70
     1
 10
0.0
 20
0.0
 30
0.0
  3
*D216
  1

  0
LINE
  5
2142
  8
DIMENSIONS
  6
BYBLOCK
 62
     0
 10
198.5420774916282
 20
1348.825259146677
 30
0.0
 11
198.5420774916282
 21
1330.619908802236
 31
0.0
  0
LINE
  5
2143
  8
DIMENSIONS
  6
BYBLOCK
 62
     0
 10
632.0420774916281
 20
1348.825259146677
 30
0.0
 11
632.0420774916281
 21
1330.619908802236
 31
0.0
  0
LINE
  5
2144
  8
DIMENSIONS
  6
BYBLOCK
 62
     0
 10
203.5420774916282
 20
1330.799908802236
 30
0.0
 11
627.0420774916281
 21
1330.799908802236
 31
0.0
  0
SOLID
  5
2145
  8
DIMENSIONS
 62
     0
 10
203.5420774916282
 20
1331.633242135569
 30
0.0
 11
203.5420774916282
 21
1329.966575468903
 31
0.0
 12
198.5420774916282
 22
1330.799908802236
 32
0.0
 13
198.5420774916282
 23
1330.799908802236
 33
0.0
  0
SOLID
  5
2146
  8
DIMENSIONS
 62
     0
 10
627.0420774916281
 20
1329.966575468903
 30
0.0
 11
627.0420774916281
 21
1331.633242135569
 31
0.0
 12
632.0420774916281
 22
1330.799908802236
 32
0.0
 13
632.0420774916281
 23
1330.799908802236
 33
0.0
  0
TEXT
  5
2147
  8
DIMENSIONS
  6
CONTINUOUS
 62
     5
 10
395.1045774916282
 20
1333.194908802236
 30
0.0
 40
5.0
  1
433.5 [17.07]
  0
POINT
  5
2148
  8
DEFPOINTS
 62
     0
 10
198.5420774916282
 20
1350.325259146677
 30
0.0
  0
POINT
  5
2149
  8
DEFPOINTS
 62
     0
 10
632.0420774916281
 20
1350.325259146677
 30
0.0
  0
POINT
  5
214A
  8
DEFPOINTS
 62
     0
 10
632.0420774916281
 20
1330.799908802236
 30
0.0
  0
ENDBLK
  5
2141
  8
0
  0
BLOCK
  8
0
  2
*D219
 70
     1
 10
0.0
 20
0.0
 30
0.0
  3
*D219
  1

  0
LINE
  5
2172
  8
DIMENSIONS
  6
BYBLOCK
 62
     0
 10
198.5420774916282
 20
1348.825259146677
 30
0.0
 11
198.5420774916282
 21
1330.619908802236
 31
0.0
  0
LINE
  5
2173
  8
DIMENSIONS
  6
BYBLOCK
 62
     0
 10
188.2920774916282
 20
1348.825259146677
 30
0.0
 11
188.2920774916282
 21
1330.619908802236
 31
0.0
  0
LINE
  5
2174
  8
DIMENSIONS
  6
BYBLOCK
 62
     0
 10
198.5420774916282
 20
1330.799908802236
 30
0.0
 11
140.6470774916282
 21
1330.799908802236
 31
0.0
  0
LINE
  5
2175
  8
DIMENSIONS
  6
BYBLOCK
 62
     0
 10
203.5420774916282
 20
1330.799908802236
 30
0.0
 11
208.5420774916282
 21
1330.799908802236
 31
0.0
  0
LINE
  5
2176
  8
DIMENSIONS
  6
BYBLOCK
 62
     0
 10
183.2920774916282
 20
1330.799908802236
 30
0.0
 11
178.2920774916282
 21
1330.799908802236
 31
0.0
  0
SOLID
  5
2177
  8
DIMENSIONS
 62
     0
 10
203.5420774916282
 20
1331.633242135569
 30
0.0
 11
203.5420774916282
 21
1329.966575468903
 31
0.0
 12
198.5420774916282
 22
1330.799908802236
 32
0.0
 13
198.5420774916282
 23
1330.799908802236
 33
0.0
  0
SOLID
  5
2178
  8
DIMENSIONS
 62
     0
 10
183.2920774916282
 20
1329.966575468903
 30
0.0
 11
183.2920774916282
 21
1331.633242135569
 31
0.0
 12
188.2920774916282
 22
1330.799908802236
 32
0.0
 13
188.2920774916282
 23
1330.799908802236
 33
0.0
  0
TEXT
  5
2179
  8
DIMENSIONS
  6
CONTINUOUS
 62
     5
 10
140.8870774916282
 20
1333.194908802236
 30
0.0
 40
5.0
  1
10.25 [0.40]
  0
POINT
  5
217A
  8
DEFPOINTS
 62
     0
 10
198.5420774916282
 20
1350.325259146677
 30
0.0
  0
POINT
  5
217B
  8
DEFPOINTS
 62
     0
 10
188.2920774916282
 20
1350.325259146677
 30
0.0
  0
POINT
  5
217C
  8
DEFPOINTS
 62
     0
 10
188.2920774916282
 20
1330.799908802236
 30
0.0
  0
ENDBLK
  5
2171
  8
0
  0
BLOCK
  8
0
  2
*D223
 70
     1
 10
0.0
 20
0.0
 30
0.0
  3
*D223
  1

  0
LINE
  5
21B0
  8
DIMENSIONS
  6
BYBLOCK
 62
     0
 10
186.7920774916282
 20
1817.325259146677
 30
0.0
 11
127.3834602819047
 21
1817.325259146677
 31
0.0
  0
LINE
  5
21B1
  8
DIMENSIONS
  6
BYBLOCK
 62
     0
 10
186.7920774916282
 20
423.3252591466774
 30
0.0
 11
127.3834602819046
 21
423.3252591466774
 31
0.0
  0
LINE
  5
21B2
  8
DIMENSIONS
  6
BYBLOCK
 62
     0
 10
127.5634602819047
 20
1812.325259146677
 30
0.0
 11
127.5634602819046
 21
428.3252591466774
 31
0.0
  0
SOLID
  5
21B3
  8
DIMENSIONS
 62
     0
 10
128.396793615238
 20
1812.325259146677
 30
0.0
 11
126.7301269485714
 21
1812.325259146677
 31
0.0
 12
127.5634602819047
 22
1817.325259146677
 32
0.0
 13
127.5634602819047
 23
1817.325259146677
 33
0.0
  0
SOLID
  5
21B4
  8
DIMENSIONS
 62
     0
 10
126.7301269485713
 20
428.3252591466774
 30
0.0
 11
128.396793615238
 21
428.3252591466774
 31
0.0
 12
127.5634602819046
 22
423.3252591466774
 32
0.0
 13
127.5634602819046
 23
423.3252591466774
 33
0.0
  0
TEXT
  5
21B5
  8
DIMENSIONS
  6
CONTINUOUS
 62
     5
 10
125.1684602819043
 20
1100.772759146677
 30
0.0
 40
5.0
  1
1394 [54.88]
 50
90.0
  0
POINT
  5
21B6
  8
DEFPOINTS
 62
     0
 10
188.2920774916282
 20
1817.325259146677
 30
0.0
  0
POINT
  5
21B7
  8
DEFPOINTS
 62
     0
 10
188.2920774916282
 20
423.3252591466774
 30
0.0
  0
POINT
  5
21B8
  8
DEFPOINTS
 62
     0
 10
127.5634602819046
 20
423.3252591466774
 30
0.0
  0
ENDBLK
  5
21AF
  8
0
  0
BLOCK
  8
0
  2
*D227
 70
     1
 10
0.0
 20
0.0
 30
0.0
  3
*D227
  1

  0
LINE
  5
21EC
  8
DIMENSIONS
  6
BYBLOCK
 62
     0
 10
580.6329536895473
 20
440.3252591466773
 30
0.0
 11
643.2470281276936
 21
440.3252591466773
 31
0.0
  0
LINE
  5
21ED
  8
DIMENSIONS
  6
BYBLOCK
 62
     0
 10
580.6329536895473
 20
423.3252591466774
 30
0.0
 11
643.2470281276936
 21
423.3252591466774
 31
0.0
  0
LINE
  5
21EE
  8
DIMENSIONS
  6
BYBLOCK
 62
     0
 10
643.0670281276937
 20
440.3252591466773
 30
0.0
 11
643.0670281276937
 21
473.2702591466773
 31
0.0
  0
LINE
  5
21EF
  8
DIMENSIONS
  6
BYBLOCK
 62
     0
 10
643.0670281276937
 20
440.3252591466773
 30
0.0
 11
643.0670281276937
 21
423.3252591466774
 31
0.0
  0
LINE
  5
21F0
  8
DIMENSIONS
  6
BYBLOCK
 62
     0
 10
643.0670281276937
 20
445.3252591466773
 30
0.0
 11
643.0670281276937
 21
450.3252591466773
 31
0.0
  0
LINE
  5
21F1
  8
DIMENSIONS
  6
BYBLOCK
 62
     0
 10
643.0670281276937
 20
418.3252591466774
 30
0.0
 11
643.0670281276937
 21
413.3252591466774
 31
0.0
  0
SOLID
  5
21F2
  8
DIMENSIONS
 62
     0
 10
642.2336947943603
 20
445.3252591466773
 30
0.0
 11
643.900361461027
 21
445.3252591466773
 31
0.0
 12
643.0670281276937
 22
440.3252591466773
 32
0.0
 13
643.0670281276937
 23
440.3252591466773
 33
0.0
  0
SOLID
  5
21F3
  8
DIMENSIONS
 62
     0
 10
643.900361461027
 20
418.3252591466774
 30
0.0
 11
642.2336947943603
 21
418.3252591466774
 31
0.0
 12
643.0670281276937
 22
423.3252591466774
 32
0.0
 13
643.0670281276937
 23
423.3252591466774
 33
0.0
  0
TEXT
  5
21F4
  8
DIMENSIONS
  6
CONTINUOUS
 62
     5
 10
640.6720281276937
 20
445.5652591466774
 30
0.0
 40
5.0
  1
17 [0.67]
 50
90.0
  0
POINT
  5
21F5
  8
DEFPOINTS
 62
     0
 10
579.1329536895473
 20
440.3252591466773
 30
0.0
  0
POINT
  5
21F6
  8
DEFPOINTS
 62
     0
 10
579.1329536895473
 20
423.3252591466774
 30
0.0
  0
POINT
  5
21F7
  8
DEFPOINTS
 62
     0
 10
643.0670281276937
 20
423.3252591466774
 30
0.0
  0
ENDBLK
  5
21EB
  8
0
  0
BLOCK
  8
0
  2
*D229
 70
     1
 10
0.0
 20
0.0
 30
0.0
  3
*D229
  1

  0
LINE
  5
220D
  8
DIMENSIONS
  6
BYBLOCK
 62
     0
 10
202.7920774916282
 20
454.3252591466773
 30
0.0
 11
176.119157316109
 21
454.3252591466773
 31
0.0
  0
LINE
  5
220E
  8
DIMENSIONS
  6
BYBLOCK
 62
     0
 10
202.7920774916282
 20
636.3252591466772
 30
0.0
 11
176.119157316109
 21
636.3252591466772
 31
0.0
  0
LINE
  5
220F
  8
DIMENSIONS
  6
BYBLOCK
 62
     0
 10
176.299157316109
 20
459.3252591466773
 30
0.0
 11
176.299157316109
 21
631.3252591466772
 31
0.0
  0
SOLID
  5
2210
  8
DIMENSIONS
 62
     0
 10
175.4658239827756
 20
459.3252591466773
 30
0.0
 11
177.1324906494423
 21
459.3252591466773
 31
0.0
 12
176.299157316109
 22
454.3252591466773
 32
0.0
 13
176.299157316109
 23
454.3252591466773
 33
0.0
  0
SOLID
  5
2211
  8
DIMENSIONS
 62
     0
 10
177.1324906494423
 20
631.3252591466772
 30
0.0
 11
175.4658239827756
 21
631.3252591466772
 31
0.0
 12
176.299157316109
 22
636.3252591466772
 32
0.0
 13
176.299157316109
 23
636.3252591466772
 33
0.0
  0
TEXT
  5
2212
  8
DIMENSIONS
  6
CONTINUOUS
 62
     5
 10
173.1203985533286
 20
529.6527591466772
 30
0.0
 40
5.0
  1
182 [7.17]
 50
90.0
  0
POINT
  5
2213
  8
DEFPOINTS
 62
     0
 10
204.2920774916282
 20
454.3252591466773
 30
0.0
  0
POINT
  5
2214
  8
DEFPOINTS
 62
     0
 10
204.2920774916282
 20
636.3252591466772
 30
0.0
  0
POINT
  5
2215
  8
DEFPOINTS
 62
     0
 10
176.299157316109
 20
636.3252591466772
 30
0.0
  0
ENDBLK
  5
220C
  8
0
  0
BLOCK
  8
0
  2
*D231
 70
     1
 10
0.0
 20
0.0
 30
0.0
  3
*D231
  1

  0
LINE
  5
222B
  8
DIMENSIONS
  6
BYBLOCK
 62
     0
 10
204.2920774916282
 20
637.8252591466772
 30
0.0
 11
204.2920774916282
 21
655.5355342910541
 31
0.0
  0
LINE
  5
222C
  8
DIMENSIONS
  6
BYBLOCK
 62
     0
 10
188.2920774916282
 20
637.8252591466774
 30
0.0
 11
188.2920774916282
 21
655.5355342910541
 31
0.0
  0
LINE
  5
222D
  8
DIMENSIONS
  6
BYBLOCK
 62
     0
 10
204.2920774916282
 20
655.3555342910541
 30
0.0
 11
155.3470774916281
 21
655.3555342910541
 31
0.0
  0
LINE
  5
222E
  8
DIMENSIONS
  6
BYBLOCK
 62
     0
 10
199.2920774916282
 20
655.3555342910541
 30
0.0
 11
193.2920774916282
 21
655.3555342910541
 31
0.0
  0
SOLID
  5
222F
  8
DIMENSIONS
 62
     0
 10
199.2920774916282
 20
654.5222009577208
 30
0.0
 11
199.2920774916282
 21
656.1888676243875
 31
0.0
 12
204.2920774916282
 22
655.3555342910541
 32
0.0
 13
204.2920774916282
 23
655.3555342910541
 33
0.0
  0
SOLID
  5
2230
  8
DIMENSIONS
 62
     0
 10
193.2920774916282
 20
656.1888676243875
 30
0.0
 11
193.2920774916282
 21
654.5222009577208
 31
0.0
 12
188.2920774916282
 22
655.3555342910541
 32
0.0
 13
188.2920774916282
 23
655.3555342910541
 33
0.0
  0
TEXT
  5
2231
  8
DIMENSIONS
  6
CONTINUOUS
 62
     5
 10
155.5870774916281
 20
657.7505342910541
 30
0.0
 40
5.0
  1
16 [0.63]
  0
POINT
  5
2232
  8
DEFPOINTS
 62
     0
 10
204.2920774916282
 20
636.3252591466772
 30
0.0
  0
POINT
  5
2233
  8
DEFPOINTS
 62
     0
 10
188.2920774916282
 20
636.3252591466774
 30
0.0
  0
POINT
  5
2234
  8
DEFPOINTS
 62
     0
 10
188.2920774916282
 20
655.3555342910541
 30
0.0
  0
ENDBLK
  5
222A
  8
0
  0
BLOCK
  8
0
  2
*D232
 70
     1
 10
0.0
 20
0.0
 30
0.0
  3
*D232
  1

  0
LINE
  5
223B
  8
DIMENSIONS
  6
BYBLOCK
 62
     0
 10
204.2920774916282
 20
637.8252591466772
 30
0.0
 11
204.2920774916282
 21
655.5355342910541
 31
0.0
  0
LINE
  5
223C
  8
DIMENSIONS
  6
BYBLOCK
 62
     0
 10
626.2920774916281
 20
637.8252591466772
 30
0.0
 11
626.2920774916281
 21
655.5355342910541
 31
0.0
  0
LINE
  5
223D
  8
DIMENSIONS
  6
BYBLOCK
 62
     0
 10
209.2920774916282
 20
655.3555342910541
 30
0.0
 11
621.2920774916281
 21
655.3555342910541
 31
0.0
  0
SOLID
  5
223E
  8
DIMENSIONS
 62
     0
 10
209.2920774916282
 20
656.1888676243875
 30
0.0
 11
209.2920774916282
 21
654.5222009577208
 31
0.0
 12
204.2920774916282
 22
655.3555342910541
 32
0.0
 13
204.2920774916282
 23
655.3555342910541
 33
0.0
  0
SOLID
  5
223F
  8
DIMENSIONS
 62
     0
 10
621.2920774916281
 20
654.5222009577208
 30
0.0
 11
621.2920774916281
 21
656.1888676243875
 31
0.0
 12
626.2920774916281
 22
655.3555342910541
 32
0.0
 13
626.2920774916281
 23
655.3555342910541
 33
0.0
  0
TEXT
  5
2240
  8
DIMENSIONS
  6
CONTINUOUS
 62
     5
 10
398.0145774916281
 20
657.7505342910541
 30
0.0
 40
5.0
  1
422 [16.61]
  0
POINT
  5
2241
  8
DEFPOINTS
 62
     0
 10
204.2920774916282
 20
636.3252591466772
 30
0.0
  0
POINT
  5
2242
  8
DEFPOINTS
 62
     0
 10
626.2920774916281
 20
636.3252591466772
 30
0.0
  0
POINT
  5
2243
  8
DEFPOINTS
 62
     0
 10
626.2920774916281
 20
655.3555342910541
 30
0.0
  0
ENDBLK
  5
223A
  8
0
  0
BLOCK
  8
0
  2
*D233
 70
     1
 10
0.0
 20
0.0
 30
0.0
  3
*D233
  1

  0
LINE
  5
224A
  8
DIMENSIONS
  6
BYBLOCK
 62
     0
 10
202.7920774916282
 20
454.3252591466773
 30
0.0
 11
176.119157316109
 21
454.3252591466773
 31
0.0
  0
LINE
  5
224B
  8
DIMENSIONS
  6
BYBLOCK
 62
     0
 10
202.7920774916282
 20
423.3252591466774
 30
0.0
 11
176.119157316109
 21
423.3252591466774
 31
0.0
  0
LINE
  5
224C
  8
DIMENSIONS
  6
BYBLOCK
 62
     0
 10
176.299157316109
 20
449.3252591466773
 30
0.0
 11
176.299157316109
 21
428.3252591466774
 31
0.0
  0
SOLID
  5
224D
  8
DIMENSIONS
 62
     0
 10
177.1324906494423
 20
449.3252591466773
 30
0.0
 11
175.4658239827756
 21
449.3252591466773
 31
0.0
 12
176.299157316109
 22
454.3252591466773
 32
0.0
 13
176.299157316109
 23
454.3252591466773
 33
0.0
  0
SOLID
  5
224E
  8
DIMENSIONS
 62
     0
 10
175.4658239827756
 20
428.3252591466774
 30
0.0
 11
177.1324906494423
 21
428.3252591466774
 31
0.0
 12
176.299157316109
 22
423.3252591466774
 32
0.0
 13
176.299157316109
 23
423.3252591466774
 33
0.0
  0
TEXT
  5
224F
  8
DIMENSIONS
  6
CONTINUOUS
 62
     5
 10
173.904157316109
 20
425.3252591466774
 30
0.0
 40
5.0
  1
31 [1.22]
 50
90.0
  0
POINT
  5
2250
  8
DEFPOINTS
 62
     0
 10
204.2920774916282
 20
454.3252591466773
 30
0.0
  0
POINT
  5
2251
  8
DEFPOINTS
 62
     0
 10
204.2920774916282
 20
423.3252591466774
 30
0.0
  0
POINT
  5
2252
  8
DEFPOINTS
 62
     0
 10
176.299157316109
 20
423.3252591466774
 30
0.0
  0
ENDBLK
  5
2249
  8
0
  0
BLOCK
  8
0
  2
*D236
 70
     1
 10
0.0
 20
0.0
 30
0.0
  3
*D236
  1

  0
LINE
  5
2278
  8
DIMENSIONS
  6
BYBLOCK
 62
     0
 10
208.7920774916282
 20
1767.825259146677
 30
0.0
 11
176.3501159443648
 21
1767.825259146677
 31
0.0
  0
LINE
  5
2279
  8
DIMENSIONS
  6
BYBLOCK
 62
     0
 10
208.7920774916282
 20
1817.325259146677
 30
0.0
 11
176.3501159443648
 21
1817.325259146677
 31
0.0
  0
LINE
  5
227A
  8
DIMENSIONS
  6
BYBLOCK
 62
     0
 10
176.5301159443648
 20
1772.825259146677
 30
0.0
 11
176.5301159443648
 21
1812.325259146677
 31
0.0
  0
SOLID
  5
227B
  8
DIMENSIONS
 62
     0
 10
175.6967826110315
 20
1772.825259146677
 30
0.0
 11
177.3634492776982
 21
1772.825259146677
 31
0.0
 12
176.5301159443648
 22
1767.825259146677
 32
0.0
 13
176.5301159443648
 23
1767.825259146677
 33
0.0
  0
SOLID
  5
227C
  8
DIMENSIONS
 62
     0
 10
177.3634492776982
 20
1812.325259146677
 30
0.0
 11
175.6967826110315
 21
1812.325259146677
 31
0.0
 12
176.5301159443648
 22
1817.325259146677
 32
0.0
 13
176.5301159443648
 23
1817.325259146677
 33
0.0
  0
TEXT
  5
227D
  8
DIMENSIONS
  6
CONTINUOUS
 62
     5
 10
174.1351159443645
 20
1776.267759146677
 30
0.0
 40
5.0
  1
49.5 [1.95]
 50
90.0
  0
POINT
  5
227E
  8
DEFPOINTS
 62
     0
 10
210.2920774916282
 20
1767.825259146677
 30
0.0
  0
POINT
  5
227F
  8
DEFPOINTS
 62
     0
 10
210.2920774916282
 20
1817.325259146677
 30
0.0
  0
POINT
  5
2280
  8
DEFPOINTS
 62
     0
 10
176.5301159443648
 20
1817.325259146677
 30
0.0
  0
ENDBLK
  5
2277
  8
0
  0
BLOCK
  8
0
  2
*D237
 70
     1
 10
0.0
 20
0.0
 30
0.0
  3
*D237
  1

  0
LINE
  5
2287
  8
DIMENSIONS
  6
BYBLOCK
 62
     0
 10
208.7920774916282
 20
1767.825259146677
 30
0.0
 11
176.3501159443648
 21
1767.825259146677
 31
0.0
  0
LINE
  5
2288
  8
DIMENSIONS
  6
BYBLOCK
 62
     0
 10
208.7920774916282
 20
1422.825259146677
 30
0.0
 11
176.3501159443648
 21
1422.825259146677
 31
0.0
  0
LINE
  5
2289
  8
DIMENSIONS
  6
BYBLOCK
 62
     0
 10
176.5301159443648
 20
1762.825259146677
 30
0.0
 11
176.5301159443648
 21
1427.825259146677
 31
0.0
  0
SOLID
  5
228A
  8
DIMENSIONS
 62
     0
 10
177.3634492776982
 20
1762.825259146677
 30
0.0
 11
175.6967826110315
 21
1762.825259146677
 31
0.0
 12
176.5301159443648
 22
1767.825259146677
 32
0.0
 13
176.5301159443648
 23
1767.825259146677
 33
0.0
  0
SOLID
  5
228B
  8
DIMENSIONS
 62
     0
 10
175.6967826110315
 20
1427.825259146677
 30
0.0
 11
177.3634492776982
 21
1427.825259146677
 31
0.0
 12
176.5301159443648
 22
1422.825259146677
 32
0.0
 13
176.5301159443648
 23
1422.825259146677
 33
0.0
  0
TEXT
  5
228C
  8
DIMENSIONS
  6
CONTINUOUS
 62
     5
 10
174.1351159443645
 20
1577.945259146677
 30
0.0
 40
5.0
  1
345 [13.58]
 50
90.0
  0
POINT
  5
228D
  8
DEFPOINTS
 62
     0
 10
210.2920774916282
 20
1767.825259146677
 30
0.0
  0
POINT
  5
228E
  8
DEFPOINTS
 62
     0
 10
210.2920774916282
 20
1422.825259146677
 30
0.0
  0
POINT
  5
228F
  8
DEFPOINTS
 62
     0
 10
176.5301159443648
 20
1422.825259146677
 30
0.0
  0
ENDBLK
  5
2286
  8
0
  0
BLOCK
  8
0
  2
*D239
 70
     1
 10
0.0
 20
0.0
 30
0.0
  3
*D239
  1

  0
LINE
  5
22A5
  8
DIMENSIONS
  6
BYBLOCK
 62
     0
 10
591.7920774916281
 20
1805.325259146677
 30
0.0
 11
668.8691576649381
 21
1805.325259146677
 31
0.0
  0
LINE
  5
22A6
  8
DIMENSIONS
  6
BYBLOCK
 62
     0
 10
591.7920774916281
 20
1817.325259146677
 30
0.0
 11
668.8691576649381
 21
1817.325259146677
 31
0.0
  0
LINE
  5
22A7
  8
DIMENSIONS
  6
BYBLOCK
 62
     0
 10
668.6891576649382
 20
1805.325259146677
 30
0.0
 11
668.6891576649382
 21
1850.270259146677
 31
0.0
  0
LINE
  5
22A8
  8
DIMENSIONS
  6
BYBLOCK
 62
     0
 10
668.6891576649382
 20
1810.325259146677
 30
0.0
 11
668.6891576649382
 21
1812.325259146677
 31
0.0
  0
SOLID
  5
22A9
  8
DIMENSIONS
 62
     0
 10
667.8558243316048
 20
1810.325259146677
 30
0.0
 11
669.5224909982716
 21
1810.325259146677
 31
0.0
 12
668.6891576649382
 22
1805.325259146677
 32
0.0
 13
668.6891576649382
 23
1805.325259146677
 33
0.0
  0
SOLID
  5
22AA
  8
DIMENSIONS
 62
     0
 10
669.5224909982716
 20
1812.325259146677
 30
0.0
 11
667.8558243316048
 21
1812.325259146677
 31
0.0
 12
668.6891576649382
 22
1817.325259146677
 32
0.0
 13
668.6891576649382
 23
1817.325259146677
 33
0.0
  0
TEXT
  5
22AB
  8
DIMENSIONS
  6
CONTINUOUS
 62
     5
 10
666.2941576649378
 20
1822.565259146677
 30
0.0
 40
5.0
  1
12 [0.47]
 50
90.0
  0
POINT
  5
22AC
  8
DEFPOINTS
 62
     0
 10
590.2920774916281
 20
1805.325259146677
 30
0.0
  0
POINT
  5
22AD
  8
DEFPOINTS
 62
     0
 10
590.2920774916281
 20
1817.325259146677
 30
0.0
  0
POINT
  5
22AE
  8
DEFPOINTS
 62
     0
 10
668.6891576649382
 20
1817.325259146677
 30
0.0
  0
ENDBLK
  5
22A4
  8
0
  0
BLOCK
  8
0
  2
*D240
 70
     1
 10
0.0
 20
0.0
 30
0.0
  3
*D240
  1

  0
LINE
  5
22B5
  8
DIMENSIONS
  6
BYBLOCK
 62
     0
 10
591.7920774916281
 20
1805.325259146677
 30
0.0
 11
681.06244709719
 21
1805.325259146677
 31
0.0
  0
LINE
  5
22B6
  8
DIMENSIONS
  6
BYBLOCK
 62
     0
 10
591.7920774916281
 20
440.3252591466773
 30
0.0
 11
681.0624470971899
 21
440.3252591466773
 31
0.0
  0
LINE
  5
22B7
  8
DIMENSIONS
  6
BYBLOCK
 62
     0
 10
680.88244709719
 20
1800.325259146677
 30
0.0
 11
680.8824470971899
 21
445.3252591466773
 31
0.0
  0
SOLID
  5
22B8
  8
DIMENSIONS
 62
     0
 10
681.7157804305234
 20
1800.325259146677
 30
0.0
 11
680.0491137638567
 21
1800.325259146677
 31
0.0
 12
680.88244709719
 22
1805.325259146677
 32
0.0
 13
680.88244709719
 23
1805.325259146677
 33
0.0
  0
SOLID
  5
22B9
  8
DIMENSIONS
 62
     0
 10
680.0491137638566
 20
445.3252591466773
 30
0.0
 11
681.7157804305233
 21
445.3252591466773
 31
0.0
 12
680.8824470971899
 22
440.3252591466773
 32
0.0
 13
680.8824470971899
 23
440.3252591466773
 33
0.0
  0
TEXT
  5
22BA
  8
DIMENSIONS
  6
CONTINUOUS
 62
     5
 10
678.4874470971897
 20
1103.272759146677
 30
0.0
 40
5.0
  1
1365 [53.74]
 50
90.0
  0
POINT
  5
22BB
  8
DEFPOINTS
 62
     0
 10
590.2920774916281
 20
1805.325259146677
 30
0.0
  0
POINT
  5
22BC
  8
DEFPOINTS
 62
     0
 10
590.2920774916281
 20
440.3252591466773
 30
0.0
  0
POINT
  5
22BD
  8
DEFPOINTS
 62
     0
 10
680.8824470971899
 20
440.3252591466773
 30
0.0
  0
ENDBLK
  5
22B4
  8
0
  0
BLOCK
  8
0
  2
*D241
 70
     1
 10
0.0
 20
0.0
 30
0.0
  3
*D241
  1

  0
LINE
  5
22C4
  8
DIMENSIONS
  6
BYBLOCK
 62
     0
 10
591.7920774916281
 20
1805.325259146677
 30
0.0
 11
668.8691576649381
 21
1805.325259146677
 31
0.0
  0
LINE
  5
22C5
  8
DIMENSIONS
  6
BYBLOCK
 62
     0
 10
633.5420774916281
 20
1350.325259146677
 30
0.0
 11
668.8691576649381
 21
1350.325259146677
 31
0.0
  0
LINE
  5
22C6
  8
DIMENSIONS
  6
BYBLOCK
 62
     0
 10
668.6891576649382
 20
1800.325259146677
 30
0.0
 11
668.6891576649382
 21
1355.325259146677
 31
0.0
  0
SOLID
  5
22C7
  8
DIMENSIONS
 62
     0
 10
669.5224909982716
 20
1800.325259146677
 30
0.0
 11
667.8558243316048
 21
1800.325259146677
 31
0.0
 12
668.6891576649382
 22
1805.325259146677
 32
0.0
 13
668.6891576649382
 23
1805.325259146677
 33
0.0
  0
SOLID
  5
22C8
  8
DIMENSIONS
 62
     0
 10
667.8558243316048
 20
1355.325259146677
 30
0.0
 11
669.5224909982716
 21
1355.325259146677
 31
0.0
 12
668.6891576649382
 22
1350.325259146677
 32
0.0
 13
668.6891576649382
 23
1350.325259146677
 33
0.0
  0
TEXT
  5
22C9
  8
DIMENSIONS
  6
CONTINUOUS
 62
     5
 10
666.294157664938
 20
1560.547759146677
 30
0.0
 40
5.0
  1
455 [17.91]
 50
90.0
  0
POINT
  5
22CA
  8
DEFPOINTS
 62
     0
 10
590.2920774916281
 20
1805.325259146677
 30
0.0
  0
POINT
  5
22CB
  8
DEFPOINTS
 62
     0
 10
632.0420774916281
 20
1350.325259146677
 30
0.0
  0
POINT
  5
22CC
  8
DEFPOINTS
 62
     0
 10
668.6891576649382
 20
1350.325259146677
 30
0.0
  0
ENDBLK
  5
22C3
  8
0
  0
BLOCK
  8
0
  2
*D242
 70
     1
 10
0.0
 20
0.0
 30
0.0
  3
*D242
  1

  0
LINE
  5
22D3
  8
DIMENSIONS
  6
BYBLOCK
 62
     0
 10
591.7920774916281
 20
440.3252591466773
 30
0.0
 11
668.8691576649381
 21
440.3252591466773
 31
0.0
  0
LINE
  5
22D4
  8
DIMENSIONS
  6
BYBLOCK
 62
     0
 10
633.5420774916281
 20
895.3252591466772
 30
0.0
 11
668.8691576649381
 21
895.3252591466772
 31
0.0
  0
LINE
  5
22D5
  8
DIMENSIONS
  6
BYBLOCK
 62
     0
 10
668.6891576649382
 20
445.3252591466773
 30
0.0
 11
668.6891576649382
 21
890.3252591466772
 31
0.0
  0
SOLID
  5
22D6
  8
DIMENSIONS
 62
     0
 10
667.8558243316048
 20
445.3252591466773
 30
0.0
 11
669.5224909982716
 21
445.3252591466773
 31
0.0
 12
668.6891576649382
 22
440.3252591466773
 32
0.0
 13
668.6891576649382
 23
440.3252591466773
 33
0.0
  0
SOLID
  5
22D7
  8
DIMENSIONS
 62
     0
 10
669.5224909982716
 20
890.3252591466772
 30
0.0
 11
667.8558243316048
 21
890.3252591466772
 31
0.0
 12
668.6891576649382
 22
895.3252591466772
 32
0.0
 13
668.6891576649382
 23
895.3252591466772
 33
0.0
  0
TEXT
  5
22D8
  8
DIMENSIONS
  6
CONTINUOUS
 62
     5
 10
666.2941576649382
 20
650.5477591466772
 30
0.0
 40
5.0
  1
455 [17.91]
 50
90.0
  0
POINT
  5
22D9
  8
DEFPOINTS
 62
     0
 10
590.2920774916281
 20
440.3252591466773
 30
0.0
  0
POINT
  5
22DA
  8
DEFPOINTS
 62
     0
 10
632.0420774916281
 20
895.3252591466772
 30
0.0
  0
POINT
  5
22DB
  8
DEFPOINTS
 62
     0
 10
668.6891576649382
 20
895.3252591466772
 30
0.0
  0
ENDBLK
  5
22D2
  8
0
  0
BLOCK
  8
0
  2
*D243
 70
     1
 10
0.0
 20
0.0
 30
0.0
  3
*D243
  1

  0
LINE
  5
22E8
  8
DIMENSIONS
  6
BYBLOCK
 62
     0
 10
633.5420774916281
 20
1350.325259146677
 30
0.0
 11
668.8691576649381
 21
1350.325259146677
 31
0.0
  0
LINE
  5
22E9
  8
DIMENSIONS
  6
BYBLOCK
 62
     0
 10
633.5420774916281
 20
895.3252591466772
 30
0.0
 11
668.8691576649381
 21
895.3252591466772
 31
0.0
  0
LINE
  5
22EA
  8
DIMENSIONS
  6
BYBLOCK
 62
     0
 10
668.6891576649382
 20
1345.325259146677
 30
0.0
 11
668.6891576649382
 21
900.3252591466772
 31
0.0
  0
SOLID
  5
22EB
  8
DIMENSIONS
 62
     0
 10
669.5224909982716
 20
1345.325259146677
 30
0.0
 11
667.8558243316048
 21
1345.325259146677
 31
0.0
 12
668.6891576649382
 22
1350.325259146677
 32
0.0
 13
668.6891576649382
 23
1350.325259146677
 33
0.0
  0
SOLID
  5
22EC
  8
DIMENSIONS
 62
     0
 10
667.8558243316048
 20
900.3252591466772
 30
0.0
 11
669.5224909982716
 21
900.3252591466772
 31
0.0
 12
668.6891576649382
 22
895.3252591466772
 32
0.0
 13
668.6891576649382
 23
895.3252591466772
 33
0.0
  0
TEXT
  5
22ED
  8
DIMENSIONS
  6
CONTINUOUS
 62
     5
 10
666.294157664938
 20
1105.547759146677
 30
0.0
 40
5.0
  1
455 [17.91]
 50
90.0
  0
POINT
  5
22EE
  8
DEFPOINTS
 62
     0
 10
632.0420774916281
 20
1350.325259146677
 30
0.0
  0
POINT
  5
22EF
  8
DEFPOINTS
 62
     0
 10
632.0420774916281
 20
895.3252591466772
 30
0.0
  0
POINT
  5
22F0
  8
DEFPOINTS
 62
     0
 10
668.6891576649382
 20
895.3252591466772
 30
0.0
  0
ENDBLK
  5
22E7
  8
0
  0
BLOCK
  8
0
  2
*D244
 70
     1
 10
0.0
 20
0.0
 30
0.0
  3
*D244
  1

  0
LINE
  5
310C
  8
DIMENSIONS
  6
BYBLOCK
 62
     0
 10
183.7920774916282
 20
1820.325259146677
 30
0.0
 11
153.8186336920258
 21
1820.325259146677
 31
0.0
  0
LINE
  5
310D
  8
DIMENSIONS
  6
BYBLOCK
 62
     0
 10
183.7920774916282
 20
420.3252591466774
 30
0.0
 11
153.8186336920258
 21
420.3252591466774
 31
0.0
  0
LINE
  5
310E
  8
DIMENSIONS
  6
BYBLOCK
 62
     0
 10
153.9986336920258
 20
1815.325259146677
 30
0.0
 11
153.9986336920258
 21
425.3252591466774
 31
0.0
  0
SOLID
  5
310F
  8
DIMENSIONS
 62
     0
 10
154.8319670253591
 20
1815.325259146677
 30
0.0
 11
153.1653003586925
 21
1815.325259146677
 31
0.0
 12
153.9986336920258
 22
1820.325259146677
 32
0.0
 13
153.9986336920258
 23
1820.325259146677
 33
0.0
  0
SOLID
  5
3110
  8
DIMENSIONS
 62
     0
 10
153.1653003586925
 20
425.3252591466774
 30
0.0
 11
154.8319670253591
 21
425.3252591466774
 31
0.0
 12
153.9986336920258
 22
420.3252591466774
 32
0.0
 13
153.9986336920258
 23
420.3252591466774
 33
0.0
  0
TEXT
  5
3111
  8
DIMENSIONS
  6
CONTINUOUS
 62
     5
 10
151.6036336920256
 20
1100.772759146677
 30
0.0
 40
5.0
  1
1400 [55.12]
 50
90.0
  0
POINT
  5
3112
  8
DEFPOINTS
 62
     0
 10
185.2920774916282
 20
1820.325259146677
 30
0.0
  0
POINT
  5
3113
  8
DEFPOINTS
 62
     0
 10
185.2920774916282
 20
420.3252591466774
 30
0.0
  0
POINT
  5
3114
  8
DEFPOINTS
 62
     0
 10
153.9986336920258
 20
420.3252591466774
 30
0.0
  0
ENDBLK
  5
310B
  8
0
  0
BLOCK
  8
0
  2
*D245
 70
     1
 10
0.0
 20
0.0
 30
0.0
  3
*D245
  1

  0
LINE
  5
314D
  8
DIMENSIONS
  6
BYBLOCK
 62
     0
 10
174.1329536895474
 20
1821.825259146677
 30
0.0
 11
174.1329536895474
 21
1864.73160301382
 31
0.0
  0
LINE
  5
314E
  8
DIMENSIONS
  6
BYBLOCK
 62
     0
 10
634.1329536895473
 20
1821.825259146677
 30
0.0
 11
634.1329536895473
 21
1864.73160301382
 31
0.0
  0
LINE
  5
314F
  8
DIMENSIONS
  6
BYBLOCK
 62
     0
 10
179.1329536895474
 20
1864.55160301382
 30
0.0
 11
629.1329536895473
 21
1864.55160301382
 31
0.0
  0
SOLID
  5
3150
  8
DIMENSIONS
 62
     0
 10
179.1329536895474
 20
1865.384936347153
 30
0.0
 11
179.1329536895474
 21
1863.718269680487
 31
0.0
 12
174.1329536895474
 22
1864.55160301382
 32
0.0
 13
174.1329536895474
 23
1864.55160301382
 33
0.0
  0
SOLID
  5
3151
  8
DIMENSIONS
 62
     0
 10
629.1329536895473
 20
1863.718269680487
 30
0.0
 11
629.1329536895473
 21
1865.384936347153
 31
0.0
 12
634.1329536895473
 22
1864.55160301382
 32
0.0
 13
634.1329536895473
 23
1864.55160301382
 33
0.0
  0
TEXT
  5
3152
  8
DIMENSIONS
  6
CONTINUOUS
 62
     5
 10
386.8554536895474
 20
1866.94660301382
 30
0.0
 40
5.0
  1
460 [18.11]
  0
POINT
  5
3153
  8
DEFPOINTS
 62
     0
 10
174.1329536895474
 20
1820.325259146677
 30
0.0
  0
POINT
  5
3154
  8
DEFPOINTS
 62
     0
 10
634.1329536895473
 20
1820.325259146677
 30
0.0
  0
POINT
  5
3155
  8
DEFPOINTS
 62
     0
 10
634.1329536895473
 20
1864.55160301382
 30
0.0
  0
ENDBLK
  5
314C
  8
0
  0
BLOCK
  8
0
  2
*D246
 70
     1
 10
0.0
 20
0.0
 30
0.0
  3
*D246
  1

  0
LINE
  5
315C
  8
DIMENSIONS
  6
BYBLOCK
 62
     0
 10
199.1329536895474
 20
1769.325259146677
 30
0.0
 11
199.1329536895474
 21
1848.03204741277
 31
0.0
  0
LINE
  5
315D
  8
DIMENSIONS
  6
BYBLOCK
 62
     0
 10
609.1329536895473
 20
1769.325259146677
 30
0.0
 11
609.1329536895473
 21
1848.03204741277
 31
0.0
  0
LINE
  5
315E
  8
DIMENSIONS
  6
BYBLOCK
 62
     0
 10
204.1329536895474
 20
1847.85204741277
 30
0.0
 11
604.1329536895473
 21
1847.85204741277
 31
0.0
  0
SOLID
  5
315F
  8
DIMENSIONS
 62
     0
 10
204.1329536895474
 20
1848.685380746103
 30
0.0
 11
204.1329536895474
 21
1847.018714079437
 31
0.0
 12
199.1329536895474
 22
1847.85204741277
 32
0.0
 13
199.1329536895474
 23
1847.85204741277
 33
0.0
  0
SOLID
  5
3160
  8
DIMENSIONS
 62
     0
 10
604.1329536895473
 20
1847.018714079437
 30
0.0
 11
604.1329536895473
 21
1848.685380746103
 31
0.0
 12
609.1329536895473
 22
1847.85204741277
 32
0.0
 13
609.1329536895473
 23
1847.85204741277
 33
0.0
  0
TEXT
  5
3161
  8
DIMENSIONS
  6
CONTINUOUS
 62
     5
 10
386.8554536895473
 20
1850.24704741277
 30
0.0
 40
5.0
  1
410 [16.14]
  0
POINT
  5
3162
  8
DEFPOINTS
 62
     0
 10
199.1329536895474
 20
1767.825259146677
 30
0.0
  0
POINT
  5
3163
  8
DEFPOINTS
 62
     0
 10
609.1329536895473
 20
1767.825259146677
 30
0.0
  0
POINT
  5
3164
  8
DEFPOINTS
 62
     0
 10
609.1329536895473
 20
1847.85204741277
 30
0.0
  0
ENDBLK
  5
315B
  8
0
  0
BLOCK
  8
0
  2
*D247
 70
     1
 10
0.0
 20
0.0
 30
0.0
  3
*D247
  1

  0
LINE
  5
316B
  8
DIMENSIONS
  6
BYBLOCK
 62
     0
 10
229.1329536895474
 20
1806.825259146677
 30
0.0
 11
229.1329536895474
 21
1832.608883862501
 31
0.0
  0
LINE
  5
316C
  8
DIMENSIONS
  6
BYBLOCK
 62
     0
 10
579.1329536895473
 20
1806.825259146677
 30
0.0
 11
579.1329536895473
 21
1832.608883862501
 31
0.0
  0
LINE
  5
316D
  8
DIMENSIONS
  6
BYBLOCK
 62
     0
 10
234.1329536895474
 20
1832.428883862501
 30
0.0
 11
574.1329536895473
 21
1832.428883862501
 31
0.0
  0
SOLID
  5
316E
  8
DIMENSIONS
 62
     0
 10
234.1329536895474
 20
1833.262217195835
 30
0.0
 11
234.1329536895474
 21
1831.595550529168
 31
0.0
 12
229.1329536895474
 22
1832.428883862501
 32
0.0
 13
229.1329536895474
 23
1832.428883862501
 33
0.0
  0
SOLID
  5
316F
  8
DIMENSIONS
 62
     0
 10
574.1329536895473
 20
1831.595550529168
 30
0.0
 11
574.1329536895473
 21
1833.262217195835
 31
0.0
 12
579.1329536895473
 22
1832.428883862501
 32
0.0
 13
579.1329536895473
 23
1832.428883862501
 33
0.0
  0
TEXT
  5
3170
  8
DIMENSIONS
  6
CONTINUOUS
 62
     5
 10
386.7529536895473
 20
1834.823883862502
 30
0.0
 40
5.0
  1
350 [13.78]
  0
POINT
  5
3171
  8
DEFPOINTS
 62
     0
 10
229.1329536895474
 20
1805.325259146677
 30
0.0
  0
POINT
  5
3172
  8
DEFPOINTS
 62
     0
 10
579.1329536895473
 20
1805.325259146677
 30
0.0
  0
POINT
  5
3173
  8
DEFPOINTS
 62
     0
 10
579.1329536895473
 20
1832.428883862501
 30
0.0
  0
ENDBLK
  5
316A
  8
0
  0
BLOCK
  8
0
  2
*D248
 70
     1
 10
0.0
 20
0.0
 30
0.0
  3
*D248
  1

  0
LINE
  5
317A
  8
DIMENSIONS
  6
BYBLOCK
 62
     0
 10
580.6329536895473
 20
1805.325259146677
 30
0.0
 11
650.351981519942
 21
1805.325259146677
 31
0.0
  0
LINE
  5
317B
  8
DIMENSIONS
  6
BYBLOCK
 62
     0
 10
635.6329536895473
 20
1820.325259146677
 30
0.0
 11
650.351981519942
 21
1820.325259146677
 31
0.0
  0
LINE
  5
317C
  8
DIMENSIONS
  6
BYBLOCK
 62
     0
 10
650.171981519942
 20
1810.325259146677
 30
0.0
 11
650.171981519942
 21
1815.325259146677
 31
0.0
  0
SOLID
  5
317D
  8
DIMENSIONS
 62
     0
 10
649.3386481866087
 20
1810.325259146677
 30
0.0
 11
651.0053148532754
 21
1810.325259146677
 31
0.0
 12
650.171981519942
 22
1805.325259146677
 32
0.0
 13
650.171981519942
 23
1805.325259146677
 33
0.0
  0
SOLID
  5
317E
  8
DIMENSIONS
 62
     0
 10
651.0053148532754
 20
1815.325259146677
 30
0.0
 11
649.3386481866087
 21
1815.325259146677
 31
0.0
 12
650.171981519942
 22
1820.325259146677
 32
0.0
 13
650.171981519942
 23
1820.325259146677
 33
0.0
  0
TEXT
  5
317F
  8
DIMENSIONS
  6
CONTINUOUS
 62
     5
 10
663.2669815199422
 20
1799.092759146678
 30
0.0
 40
5.0
  1
15 [0.59]
 50
90.0
  0
POINT
  5
3180
  8
DEFPOINTS
 62
     0
 10
579.1329536895473
 20
1805.325259146677
 30
0.0
  0
POINT
  5
3181
  8
DEFPOINTS
 62
     0
 10
634.1329536895473
 20
1820.325259146677
 30
0.0
  0
POINT
  5
3182
  8
DEFPOINTS
 62
     0
 10
650.171981519942
 20
1820.325259146677
 30
0.0
  0
ENDBLK
  5
3179
  8
0
  0
BLOCK
  8
0
  2
*D249
 70
     1
 10
0.0
 20
0.0
 30
0.0
  3
*D249
  1

  0
LINE
  5
3189
  8
DIMENSIONS
  6
BYBLOCK
 62
     0
 10
580.6329536895473
 20
1805.325259146677
 30
0.0
 11
650.531981519942
 21
1805.325259146677
 31
0.0
  0
LINE
  5
318A
  8
DIMENSIONS
  6
BYBLOCK
 62
     0
 10
622.3829536895473
 20
1350.325259146677
 30
0.0
 11
650.531981519942
 21
1350.325259146677
 31
0.0
  0
LINE
  5
318B
  8
DIMENSIONS
  6
BYBLOCK
 62
     0
 10
650.351981519942
 20
1800.325259146677
 30
0.0
 11
650.351981519942
 21
1355.325259146677
 31
0.0
  0
SOLID
  5
318C
  8
DIMENSIONS
 62
     0
 10
651.1853148532754
 20
1800.325259146677
 30
0.0
 11
649.5186481866086
 21
1800.325259146677
 31
0.0
 12
650.351981519942
 22
1805.325259146677
 32
0.0
 13
650.351981519942
 23
1805.325259146677
 33
0.0
  0
SOLID
  5
318D
  8
DIMENSIONS
 62
     0
 10
649.5186481866086
 20
1355.325259146677
 30
0.0
 11
651.1853148532754
 21
1355.325259146677
 31
0.0
 12
650.351981519942
 22
1350.325259146677
 32
0.0
 13
650.351981519942
 23
1350.325259146677
 33
0.0
  0
TEXT
  5
318E
  8
DIMENSIONS
  6
CONTINUOUS
 62
     5
 10
647.9569815199418
 20
1560.547759146677
 30
0.0
 40
5.0
  1
455 [17.91]
 50
90.0
  0
POINT
  5
318F
  8
DEFPOINTS
 62
     0
 10
579.1329536895473
 20
1805.325259146677
 30
0.0
  0
POINT
  5
3190
  8
DEFPOINTS
 62
     0
 10
620.8829536895473
 20
1350.325259146677
 30
0.0
  0
POINT
  5
3191
  8
DEFPOINTS
 62
     0
 10
650.351981519942
 20
1350.325259146677
 30
0.0
  0
ENDBLK
  5
3188
  8
0
  0
BLOCK
  8
0
  2
*D250
 70
     1
 10
0.0
 20
0.0
 30
0.0
  3
*D250
  1

  0
LINE
  5
3198
  8
DIMENSIONS
  6
BYBLOCK
 62
     0
 10
622.3829536895473
 20
1350.325259146677
 30
0.0
 11
650.531981519942
 21
1350.325259146677
 31
0.0
  0
LINE
  5
3199
  8
DIMENSIONS
  6
BYBLOCK
 62
     0
 10
622.3829536895473
 20
895.3252591466772
 30
0.0
 11
650.531981519942
 21
895.3252591466772
 31
0.0
  0
LINE
  5
319A
  8
DIMENSIONS
  6
BYBLOCK
 62
     0
 10
650.351981519942
 20
1345.325259146677
 30
0.0
 11
650.351981519942
 21
900.3252591466772
 31
0.0
  0
SOLID
  5
319B
  8
DIMENSIONS
 62
     0
 10
651.1853148532754
 20
1345.325259146677
 30
0.0
 11
649.5186481866086
 21
1345.325259146677
 31
0.0
 12
650.351981519942
 22
1350.325259146677
 32
0.0
 13
650.351981519942
 23
1350.325259146677
 33
0.0
  0
SOLID
  5
319C
  8
DIMENSIONS
 62
     0
 10
649.5186481866086
 20
900.3252591466772
 30
0.0
 11
651.1853148532754
 21
900.3252591466772
 31
0.0
 12
650.351981519942
 22
895.3252591466772
 32
0.0
 13
650.351981519942
 23
895.3252591466772
 33
0.0
  0
TEXT
  5
319D
  8
DIMENSIONS
  6
CONTINUOUS
 62
     5
 10
647.9569815199418
 20
1105.547759146677
 30
0.0
 40
5.0
  1
455 [17.91]
 50
90.0
  0
POINT
  5
319E
  8
DEFPOINTS
 62
     0
 10
620.8829536895473
 20
1350.325259146677
 30
0.0
  0
POINT
  5
319F
  8
DEFPOINTS
 62
     0
 10
620.8829536895473
 20
895.3252591466772
 30
0.0
  0
POINT
  5
31A0
  8
DEFPOINTS
 62
     0
 10
650.351981519942
 20
895.3252591466772
 30
0.0
  0
ENDBLK
  5
3197
  8
0
  0
BLOCK
  8
0
  2
*D251
 70
     1
 10
0.0
 20
0.0
 30
0.0
  3
*D251
  1

  0
LINE
  5
31A7
  8
DIMENSIONS
  6
BYBLOCK
 62
     0
 10
622.3829536895473
 20
895.3252591466772
 30
0.0
 11
650.531981519942
 21
895.3252591466772
 31
0.0
  0
LINE
  5
31A8
  8
DIMENSIONS
  6
BYBLOCK
 62
     0
 10
580.6329536895473
 20
440.3252591466773
 30
0.0
 11
650.531981519942
 21
440.3252591466773
 31
0.0
  0
LINE
  5
31A9
  8
DIMENSIONS
  6
BYBLOCK
 62
     0
 10
650.351981519942
 20
890.3252591466772
 30
0.0
 11
650.351981519942
 21
445.3252591466773
 31
0.0
  0
SOLID
  5
31AA
  8
DIMENSIONS
 62
     0
 10
651.1853148532754
 20
890.3252591466772
 30
0.0
 11
649.5186481866086
 21
890.3252591466772
 31
0.0
 12
650.351981519942
 22
895.3252591466772
 32
0.0
 13
650.351981519942
 23
895.3252591466772
 33
0.0
  0
SOLID
  5
31AB
  8
DIMENSIONS
 62
     0
 10
649.5186481866086
 20
445.3252591466773
 30
0.0
 11
651.1853148532754
 21
445.3252591466773
 31
0.0
 12
650.351981519942
 22
440.3252591466773
 32
0.0
 13
650.351981519942
 23
440.3252591466773
 33
0.0
  0
TEXT
  5
31AC
  8
DIMENSIONS
  6
CONTINUOUS
 62
     5
 10
647.956981519942
 20
650.5477591466772
 30
0.0
 40
5.0
  1
455 [17.91]
 50
90.0
  0
POINT
  5
31AD
  8
DEFPOINTS
 62
     0
 10
620.8829536895473
 20
895.3252591466772
 30
0.0
  0
POINT
  5
31AE
  8
DEFPOINTS
 62
     0
 10
579.1329536895473
 20
440.3252591466773
 30
0.0
  0
POINT
  5
31AF
  8
DEFPOINTS
 62
     0
 10
650.351981519942
 20
440.3252591466773
 30
0.0
  0
ENDBLK
  5
31A6
  8
0
  0
BLOCK
  8
0
  2
*D252
 70
     1
 10
0.0
 20
0.0
 30
0.0
  3
*D252
  1

  0
LINE
  5
31B6
  8
DIMENSIONS
  6
BYBLOCK
 62
     0
 10
580.6329536895473
 20
440.3252591466773
 30
0.0
 11
650.531981519942
 21
440.3252591466773
 31
0.0
  0
LINE
  5
31B7
  8
DIMENSIONS
  6
BYBLOCK
 62
     0
 10
635.6329536895473
 20
420.3252591466774
 30
0.0
 11
650.531981519942
 21
420.3252591466774
 31
0.0
  0
LINE
  5
31B8
  8
DIMENSIONS
  6
BYBLOCK
 62
     0
 10
650.351981519942
 20
435.3252591466773
 30
0.0
 11
650.351981519942
 21
425.3252591466774
 31
0.0
  0
SOLID
  5
31B9
  8
DIMENSIONS
 62
     0
 10
651.1853148532754
 20
435.3252591466773
 30
0.0
 11
649.5186481866086
 21
435.3252591466773
 31
0.0
 12
650.351981519942
 22
440.3252591466773
 32
0.0
 13
650.351981519942
 23
440.3252591466773
 33
0.0
  0
SOLID
  5
31BA
  8
DIMENSIONS
 62
     0
 10
649.5186481866086
 20
425.3252591466774
 30
0.0
 11
651.1853148532754
 21
425.3252591466774
 31
0.0
 12
650.351981519942
 22
420.3252591466774
 32
0.0
 13
650.351981519942
 23
420.3252591466774
 33
0.0
  0
TEXT
  5
31BB
  8
DIMENSIONS
  6
CONTINUOUS
 62
     5
 10
663.4469815199419
 20
416.8702591466773
 30
0.0
 40
5.0
  1
20 [0.79]
 50
90.0
  0
POINT
  5
31BC
  8
DEFPOINTS
 62
     0
 10
579.1329536895473
 20
440.3252591466773
 30
0.0
  0
POINT
  5
31BD
  8
DEFPOINTS
 62
     0
 10
634.1329536895473
 20
420.3252591466774
 30
0.0
  0
POINT
  5
31BE
  8
DEFPOINTS
 62
     0
 10
650.351981519942
 20
420.3252591466774
 30
0.0
  0
ENDBLK
  5
31B5
  8
0
  0
BLOCK
  8
0
  2
*D253
 70
     1
 10
0.0
 20
0.0
 30
0.0
  3
*D253
  1

  0
LINE
  5
31C5
  8
DIMENSIONS
  6
BYBLOCK
 62
     0
 10
580.6329536895473
 20
1805.325259146677
 30
0.0
 11
668.3684321886676
 21
1805.325259146677
 31
0.0
  0
LINE
  5
31C6
  8
DIMENSIONS
  6
BYBLOCK
 62
     0
 10
580.6329536895473
 20
440.3252591466773
 30
0.0
 11
668.3684321886675
 21
440.3252591466773
 31
0.0
  0
LINE
  5
31C7
  8
DIMENSIONS
  6
BYBLOCK
 62
     0
 10
668.1884321886677
 20
1800.325259146677
 30
0.0
 11
668.1884321886675
 21
445.3252591466773
 31
0.0
  0
SOLID
  5
31C8
  8
DIMENSIONS
 62
     0
 10
669.021765522001
 20
1800.325259146677
 30
0.0
 11
667.3550988553343
 21
1800.325259146677
 31
0.0
 12
668.1884321886677
 22
1805.325259146677
 32
0.0
 13
668.1884321886677
 23
1805.325259146677
 33
0.0
  0
SOLID
  5
31C9
  8
DIMENSIONS
 62
     0
 10
667.3550988553342
 20
445.3252591466773
 30
0.0
 11
669.0217655220009
 21
445.3252591466773
 31
0.0
 12
668.1884321886675
 22
440.3252591466773
 32
0.0
 13
668.1884321886675
 23
440.3252591466773
 33
0.0
  0
TEXT
  5
31CA
  8
DIMENSIONS
  6
CONTINUOUS
 62
     5
 10
665.7934321886673
 20
1103.272759146677
 30
0.0
 40
5.0
  1
1365 [53.74]
 50
90.0
  0
POINT
  5
31CB
  8
DEFPOINTS
 62
     0
 10
579.1329536895473
 20
1805.325259146677
 30
0.0
  0
POINT
  5
31CC
  8
DEFPOINTS
 62
     0
 10
579.1329536895473
 20
440.3252591466773
 30
0.0
  0
POINT
  5
31CD
  8
DEFPOINTS
 62
     0
 10
668.1884321886675
 20
440.3252591466773
 30
0.0
  0
ENDBLK
  5
31C4
  8
0
  0
BLOCK
  8
0
  2
*D254
 70
     1
 10
0.0
 20
0.0
 30
0.0
  3
*D254
  1

  0
LINE
  5
31D4
  8
DIMENSIONS
  6
BYBLOCK
 62
     0
 10
580.6329536895473
 20
440.3252591466773
 30
0.0
 11
650.531981519942
 21
440.3252591466773
 31
0.0
  0
LINE
  5
31D5
  8
DIMENSIONS
  6
BYBLOCK
 62
     0
 10
635.6329536895473
 20
420.3252591466774
 30
0.0
 11
650.531981519942
 21
420.3252591466774
 31
0.0
  0
LINE
  5
31D6
  8
DIMENSIONS
  6
BYBLOCK
 62
     0
 10
650.351981519942
 20
440.3252591466773
 30
0.0
 11
650.351981519942
 21
386.8252591466774
 31
0.0
  0
LINE
  5
31D7
  8
DIMENSIONS
  6
BYBLOCK
 62
     0
 10
650.351981519942
 20
435.3252591466773
 30
0.0
 11
650.351981519942
 21
425.3252591466774
 31
0.0
  0
SOLID
  5
31D8
  8
DIMENSIONS
 62
     0
 10
651.1853148532754
 20
435.3252591466773
 30
0.0
 11
649.5186481866086
 21
435.3252591466773
 31
0.0
 12
650.351981519942
 22
440.3252591466773
 32
0.0
 13
650.351981519942
 23
440.3252591466773
 33
0.0
  0
SOLID
  5
31D9
  8
DIMENSIONS
 62
     0
 10
649.5186481866086
 20
425.3252591466774
 30
0.0
 11
651.1853148532754
 21
425.3252591466774
 31
0.0
 12
650.351981519942
 22
420.3252591466774
 32
0.0
 13
650.351981519942
 23
420.3252591466774
 33
0.0
  0
TEXT
  5
31DA
  8
DIMENSIONS
  6
CONTINUOUS
 62
     5
 10
647.9569815199419
 20
387.6202591466773
 30
0.0
 40
5.0
  1
20 [0.79]
 50
90.0
  0
POINT
  5
31DB
  8
DEFPOINTS
 62
     0
 10
579.1329536895473
 20
440.3252591466773
 30
0.0
  0
POINT
  5
31DC
  8
DEFPOINTS
 62
     0
 10
634.1329536895473
 20
420.3252591466774
 30
0.0
  0
POINT
  5
31DD
  8
DEFPOINTS
 62
     0
 10
650.351981519942
 20
420.3252591466774
 30
0.0
  0
ENDBLK
  5
31D3
  8
0
  0
BLOCK
  8
0
  2
*D255
 70
     1
 10
0.0
 20
0.0
 30
0.0
  3
*D255
  1

  0
LINE
  5
31E4
  8
DIMENSIONS
  6
BYBLOCK
 62
     0
 10
580.6329536895473
 20
1805.325259146677
 30
0.0
 11
650.351981519942
 21
1805.325259146677
 31
0.0
  0
LINE
  5
31E5
  8
DIMENSIONS
  6
BYBLOCK
 62
     0
 10
635.6329536895473
 20
1820.325259146677
 30
0.0
 11
650.351981519942
 21
1820.325259146677
 31
0.0
  0
LINE
  5
31E6
  8
DIMENSIONS
  6
BYBLOCK
 62
     0
 10
650.171981519942
 20
1805.325259146677
 30
0.0
 11
650.171981519942
 21
1853.270259146677
 31
0.0
  0
LINE
  5
31E7
  8
DIMENSIONS
  6
BYBLOCK
 62
     0
 10
650.171981519942
 20
1810.325259146677
 30
0.0
 11
650.171981519942
 21
1815.325259146677
 31
0.0
  0
SOLID
  5
31E8
  8
DIMENSIONS
 62
     0
 10
649.3386481866087
 20
1810.325259146677
 30
0.0
 11
651.0053148532754
 21
1810.325259146677
 31
0.0
 12
650.171981519942
 22
1805.325259146677
 32
0.0
 13
650.171981519942
 23
1805.325259146677
 33
0.0
  0
SOLID
  5
31E9
  8
DIMENSIONS
 62
     0
 10
651.0053148532754
 20
1815.325259146677
 30
0.0
 11
649.3386481866087
 21
1815.325259146677
 31
0.0
 12
650.171981519942
 22
1820.325259146677
 32
0.0
 13
650.171981519942
 23
1820.325259146677
 33
0.0
  0
TEXT
  5
31EA
  8
DIMENSIONS
  6
CONTINUOUS
 62
     5
 10
647.7769815199417
 20
1825.565259146678
 30
0.0
 40
5.0
  1
15 [0.59]
 50
90.0
  0
POINT
  5
31EB
  8
DEFPOINTS
 62
     0
 10
579.1329536895473
 20
1805.325259146677
 30
0.0
  0
POINT
  5
31EC
  8
DEFPOINTS
 62
     0
 10
634.1329536895473
 20
1820.325259146677
 30
0.0
  0
POINT
  5
31ED
  8
DEFPOINTS
 62
     0
 10
650.171981519942
 20
1820.325259146677
 30
0.0
  0
ENDBLK
  5
31E3
  8
0
  0
BLOCK
  8
0
  2
*D256
 70
     1
 10
0.0
 20
0.0
 30
0.0
  3
*D256
  1

  0
LINE
  5
31F4
  8
DIMENSIONS
  6
BYBLOCK
 62
     0
 10
172.6329536895474
 20
1820.325259146677
 30
0.0
 11
155.9980483987707
 21
1820.325259146677
 31
0.0
  0
LINE
  5
31F5
  8
DIMENSIONS
  6
BYBLOCK
 62
     0
 10
197.6329536895474
 20
1767.825259146677
 30
0.0
 11
155.9980483987707
 21
1767.825259146677
 31
0.0
  0
LINE
  5
31F6
  8
DIMENSIONS
  6
BYBLOCK
 62
     0
 10
156.1780483987707
 20
1815.325259146677
 30
0.0
 11
156.1780483987707
 21
1772.825259146677
 31
0.0
  0
SOLID
  5
31F7
  8
DIMENSIONS
 62
     0
 10
157.0113817321041
 20
1815.325259146677
 30
0.0
 11
155.3447150654374
 21
1815.325259146677
 31
0.0
 12
156.1780483987707
 22
1820.325259146677
 32
0.0
 13
156.1780483987707
 23
1820.325259146677
 33
0.0
  0
SOLID
  5
31F8
  8
DIMENSIONS
 62
     0
 10
155.3447150654374
 20
1772.825259146677
 30
0.0
 11
157.0113817321041
 21
1772.825259146677
 31
0.0
 12
156.1780483987707
 22
1767.825259146677
 32
0.0
 13
156.1780483987707
 23
1767.825259146677
 33
0.0
  0
TEXT
  5
31F9
  8
DIMENSIONS
  6
CONTINUOUS
 62
     5
 10
153.7830483987705
 20
1777.667759146677
 30
0.0
 40
5.0
  1
52.5 [2.07]
 50
90.0
  0
POINT
  5
31FA
  8
DEFPOINTS
 62
     0
 10
174.1329536895474
 20
1820.325259146677
 30
0.0
  0
POINT
  5
31FB
  8
DEFPOINTS
 62
     0
 10
199.1329536895474
 20
1767.825259146677
 30
0.0
  0
POINT
  5
31FC
  8
DEFPOINTS
 62
     0
 10
156.1780483987707
 20
1767.825259146677
 30
0.0
  0
ENDBLK
  5
31F3
  8
0
  0
BLOCK
  8
0
  2
*D257
 70
     1
 10
0.0
 20
0.0
 30
0.0
  3
*D257
  1

  0
LINE
  5
3203
  8
DIMENSIONS
  6
BYBLOCK
 62
     0
 10
197.6329536895474
 20
1767.825259146677
 30
0.0
 11
155.9980483987707
 21
1767.825259146677
 31
0.0
  0
LINE
  5
3204
  8
DIMENSIONS
  6
BYBLOCK
 62
     0
 10
197.6329536895474
 20
1422.825259146677
 30
0.0
 11
155.9980483987707
 21
1422.825259146677
 31
0.0
  0
LINE
  5
3205
  8
DIMENSIONS
  6
BYBLOCK
 62
     0
 10
156.1780483987707
 20
1762.825259146677
 30
0.0
 11
156.1780483987707
 21
1427.825259146677
 31
0.0
  0
SOLID
  5
3206
  8
DIMENSIONS
 62
     0
 10
157.0113817321041
 20
1762.825259146677
 30
0.0
 11
155.3447150654374
 21
1762.825259146677
 31
0.0
 12
156.1780483987707
 22
1767.825259146677
 32
0.0
 13
156.1780483987707
 23
1767.825259146677
 33
0.0
  0
SOLID
  5
3207
  8
DIMENSIONS
 62
     0
 10
155.3447150654374
 20
1427.825259146677
 30
0.0
 11
157.011381732104
 21
1427.825259146677
 31
0.0
 12
156.1780483987707
 22
1422.825259146677
 32
0.0
 13
156.1780483987707
 23
1422.825259146677
 33
0.0
  0
TEXT
  5
3208
  8
DIMENSIONS
  6
CONTINUOUS
 62
     5
 10
153.7830483987705
 20
1577.945259146677
 30
0.0
 40
5.0
  1
345 [13.58]
 50
90.0
  0
POINT
  5
3209
  8
DEFPOINTS
 62
     0
 10
199.1329536895474
 20
1767.825259146677
 30
0.0
  0
POINT
  5
320A
  8
DEFPOINTS
 62
     0
 10
199.1329536895474
 20
1422.825259146677
 30
0.0
  0
POINT
  5
320B
  8
DEFPOINTS
 62
     0
 10
156.1780483987707
 20
1422.825259146677
 30
0.0
  0
ENDBLK
  5
3202
  8
0
  0
BLOCK
  8
0
  2
*D258
 70
     1
 10
0.0
 20
0.0
 30
0.0
  3
*D258
  1

  0
LINE
  5
3212
  8
DIMENSIONS
  6
BYBLOCK
 62
     0
 10
172.6329536895474
 20
420.3252591466774
 30
0.0
 11
160.3672546390411
 21
420.3252591466774
 31
0.0
  0
LINE
  5
3213
  8
DIMENSIONS
  6
BYBLOCK
 62
     0
 10
191.6329536895474
 20
454.3252591466773
 30
0.0
 11
160.3672546390411
 21
454.3252591466773
 31
0.0
  0
LINE
  5
3214
  8
DIMENSIONS
  6
BYBLOCK
 62
     0
 10
160.5472546390411
 20
425.3252591466774
 30
0.0
 11
160.5472546390411
 21
449.3252591466773
 31
0.0
  0
SOLID
  5
3215
  8
DIMENSIONS
 62
     0
 10
159.7139213057078
 20
425.3252591466774
 30
0.0
 11
161.3805879723745
 21
425.3252591466774
 31
0.0
 12
160.5472546390411
 22
420.3252591466774
 32
0.0
 13
160.5472546390411
 23
420.3252591466774
 33
0.0
  0
SOLID
  5
3216
  8
DIMENSIONS
 62
     0
 10
161.3805879723745
 20
449.3252591466773
 30
0.0
 11
159.7139213057078
 21
449.3252591466773
 31
0.0
 12
160.5472546390411
 22
454.3252591466773
 32
0.0
 13
160.5472546390411
 23
454.3252591466773
 33
0.0
  0
TEXT
  5
3217
  8
DIMENSIONS
  6
CONTINUOUS
 62
     5
 10
158.1522546390412
 20
423.8252591466774
 30
0.0
 40
5.0
  1
34 [1.34]
 50
90.0
  0
POINT
  5
3218
  8
DEFPOINTS
 62
     0
 10
174.1329536895474
 20
420.3252591466774
 30
0.0
  0
POINT
  5
3219
  8
DEFPOINTS
 62
     0
 10
193.1329536895474
 20
454.3252591466773
 30
0.0
  0
POINT
  5
321A
  8
DEFPOINTS
 62
     0
 10
160.5472546390411
 20
454.3252591466773
 30
0.0
  0
ENDBLK
  5
3211
  8
0
  0
BLOCK
  8
0
  2
*D259
 70
     1
 10
0.0
 20
0.0
 30
0.0
  3
*D259
  1

  0
LINE
  5
3221
  8
DIMENSIONS
  6
BYBLOCK
 62
     0
 10
191.6329536895474
 20
454.3252591466773
 30
0.0
 11
160.3672546390411
 21
454.3252591466773
 31
0.0
  0
LINE
  5
3222
  8
DIMENSIONS
  6
BYBLOCK
 62
     0
 10
191.6329536895474
 20
636.3252591466772
 30
0.0
 11
160.3672546390411
 21
636.3252591466772
 31
0.0
  0
LINE
  5
3223
  8
DIMENSIONS
  6
BYBLOCK
 62
     0
 10
160.5472546390411
 20
459.3252591466773
 30
0.0
 11
160.5472546390411
 21
631.3252591466772
 31
0.0
  0
SOLID
  5
3224
  8
DIMENSIONS
 62
     0
 10
159.7139213057078
 20
459.3252591466773
 30
0.0
 11
161.3805879723745
 21
459.3252591466773
 31
0.0
 12
160.5472546390411
 22
454.3252591466773
 32
0.0
 13
160.5472546390411
 23
454.3252591466773
 33
0.0
  0
SOLID
  5
3225
  8
DIMENSIONS
 62
     0
 10
161.3805879723745
 20
631.3252591466772
 30
0.0
 11
159.7139213057078
 21
631.3252591466772
 31
0.0
 12
160.5472546390411
 22
636.3252591466772
 32
0.0
 13
160.5472546390411
 23
636.3252591466772
 33
0.0
  0
TEXT
  5
3226
  8
DIMENSIONS
  6
CONTINUOUS
 62
     5
 10
158.1522546390411
 20
529.6527591466772
 30
0.0
 40
5.0
  1
182 [7.17]
 50
90.0
  0
POINT
  5
3227
  8
DEFPOINTS
 62
     0
 10
193.1329536895474
 20
454.3252591466773
 30
0.0
  0
POINT
  5
3228
  8
DEFPOINTS
 62
     0
 10
193.1329536895474
 20
636.3252591466772
 30
0.0
  0
POINT
  5
3229
  8
DEFPOINTS
 62
     0
 10
160.5472546390411
 20
636.3252591466772
 30
0.0
  0
ENDBLK
  5
3220
  8
0
  0
BLOCK
  8
0
  2
*D260
 70
     1
 10
0.0
 20
0.0
 30
0.0
  3
*D260
  1

  0
LINE
  5
3230
  8
DIMENSIONS
  6
BYBLOCK
 62
     0
 10
193.1329536895474
 20
637.8252591466772
 30
0.0
 11
193.1329536895474
 21
653.7503827999611
 31
0.0
  0
LINE
  5
3231
  8
DIMENSIONS
  6
BYBLOCK
 62
     0
 10
174.1329536895474
 20
637.8252591466772
 30
0.0
 11
174.1329536895474
 21
653.7503827999611
 31
0.0
  0
LINE
  5
3232
  8
DIMENSIONS
  6
BYBLOCK
 62
     0
 10
188.1329536895474
 20
653.5703827999612
 30
0.0
 11
179.1329536895474
 21
653.5703827999612
 31
0.0
  0
SOLID
  5
3233
  8
DIMENSIONS
 62
     0
 10
188.1329536895474
 20
652.7370494666278
 30
0.0
 11
188.1329536895474
 21
654.4037161332946
 31
0.0
 12
193.1329536895474
 22
653.5703827999612
 32
0.0
 13
193.1329536895474
 23
653.5703827999612
 33
0.0
  0
SOLID
  5
3234
  8
DIMENSIONS
 62
     0
 10
179.1329536895474
 20
654.4037161332946
 30
0.0
 11
179.1329536895474
 21
652.7370494666278
 31
0.0
 12
174.1329536895474
 22
653.5703827999612
 32
0.0
 13
174.1329536895474
 23
653.5703827999612
 33
0.0
  0
TEXT
  5
3235
  8
DIMENSIONS
  6
CONTINUOUS
 62
     5
 10
169.9004536895474
 20
656.6453827999611
 30
0.0
 40
5.0
  1
19 [0.75]
  0
POINT
  5
3236
  8
DEFPOINTS
 62
     0
 10
193.1329536895474
 20
636.3252591466772
 30
0.0
  0
POINT
  5
3237
  8
DEFPOINTS
 62
     0
 10
174.1329536895474
 20
636.3252591466772
 30
0.0
  0
POINT
  5
3238
  8
DEFPOINTS
 62
     0
 10
174.1329536895474
 20
653.5703827999612
 30
0.0
  0
ENDBLK
  5
322F
  8
0
  0
BLOCK
  8
0
  2
*D261
 70
     1
 10
0.0
 20
0.0
 30
0.0
  3
*D261
  1

  0
LINE
  5
323F
  8
DIMENSIONS
  6
BYBLOCK
 62
     0
 10
193.1329536895474
 20
637.8252591466772
 30
0.0
 11
193.1329536895474
 21
653.7503827999611
 31
0.0
  0
LINE
  5
3240
  8
DIMENSIONS
  6
BYBLOCK
 62
     0
 10
615.1329536895473
 20
637.8252591466772
 30
0.0
 11
615.1329536895473
 21
653.7503827999611
 31
0.0
  0
LINE
  5
3241
  8
DIMENSIONS
  6
BYBLOCK
 62
     0
 10
198.1329536895474
 20
653.5703827999612
 30
0.0
 11
610.1329536895473
 21
653.5703827999612
 31
0.0
  0
SOLID
  5
3242
  8
DIMENSIONS
 62
     0
 10
198.1329536895474
 20
654.4037161332946
 30
0.0
 11
198.1329536895474
 21
652.7370494666278
 31
0.0
 12
193.1329536895474
 22
653.5703827999612
 32
0.0
 13
193.1329536895474
 23
653.5703827999612
 33
0.0
  0
SOLID
  5
3243
  8
DIMENSIONS
 62
     0
 10
610.1329536895473
 20
652.7370494666278
 30
0.0
 11
610.1329536895473
 21
654.4037161332946
 31
0.0
 12
615.1329536895473
 22
653.5703827999612
 32
0.0
 13
615.1329536895473
 23
653.5703827999612
 33
0.0
  0
TEXT
  5
3244
  8
DIMENSIONS
  6
CONTINUOUS
 62
     5
 10
386.8554536895473
 20
655.9653827999612
 30
0.0
 40
5.0
  1
422 [16.61]
  0
POINT
  5
3245
  8
DEFPOINTS
 62
     0
 10
193.1329536895474
 20
636.3252591466772
 30
0.0
  0
POINT
  5
3246
  8
DEFPOINTS
 62
     0
 10
615.1329536895473
 20
636.3252591466772
 30
0.0
  0
POINT
  5
3247
  8
DEFPOINTS
 62
     0
 10
615.1329536895473
 20
653.5703827999612
 30
0.0
  0
ENDBLK
  5
323E
  8
0
  0
BLOCK
  8
0
  2
*D262
 70
     1
 10
0.0
 20
0.0
 30
0.0
  3
*D262
  1

  0
LINE
  5
324E
  8
DIMENSIONS
  6
BYBLOCK
 62
     0
 10
193.1329536895474
 20
637.8252591466772
 30
0.0
 11
193.1329536895474
 21
653.7503827999611
 31
0.0
  0
LINE
  5
324F
  8
DIMENSIONS
  6
BYBLOCK
 62
     0
 10
174.1329536895474
 20
637.8252591466772
 30
0.0
 11
174.1329536895474
 21
653.7503827999611
 31
0.0
  0
LINE
  5
3250
  8
DIMENSIONS
  6
BYBLOCK
 62
     0
 10
193.1329536895474
 20
653.5703827999612
 30
0.0
 11
141.1879536895474
 21
653.5703827999612
 31
0.0
  0
LINE
  5
3251
  8
DIMENSIONS
  6
BYBLOCK
 62
     0
 10
188.1329536895474
 20
653.5703827999612
 30
0.0
 11
179.1329536895474
 21
653.5703827999612
 31
0.0
  0
SOLID
  5
3252
  8
DIMENSIONS
 62
     0
 10
188.1329536895474
 20
652.7370494666278
 30
0.0
 11
188.1329536895474
 21
654.4037161332946
 31
0.0
 12
193.1329536895474
 22
653.5703827999612
 32
0.0
 13
193.1329536895474
 23
653.5703827999612
 33
0.0
  0
SOLID
  5
3253
  8
DIMENSIONS
 62
     0
 10
179.1329536895474
 20
654.4037161332946
 30
0.0
 11
179.1329536895474
 21
652.7370494666278
 31
0.0
 12
174.1329536895474
 22
653.5703827999612
 32
0.0
 13
174.1329536895474
 23
653.5703827999612
 33
0.0
  0
TEXT
  5
3254
  8
DIMENSIONS
  6
CONTINUOUS
 62
     5
 10
141.4279536895475
 20
655.9653827999612
 30
0.0
 40
5.0
  1
19 [0.75]
  0
POINT
  5
3255
  8
DEFPOINTS
 62
     0
 10
193.1329536895474
 20
636.3252591466772
 30
0.0
  0
POINT
  5
3256
  8
DEFPOINTS
 62
     0
 10
174.1329536895474
 20
636.3252591466772
 30
0.0
  0
POINT
  5
3257
  8
DEFPOINTS
 62
     0
 10
174.1329536895474
 20
653.5703827999612
 30
0.0
  0
ENDBLK
  5
324D
  8
0
  0
BLOCK
  8
0
  2
*D263
 70
     1
 10
0.0
 20
0.0
 30
0.0
  3
*D263
  1

  0
LINE
  5
325E
  8
DIMENSIONS
  6
BYBLOCK
 62
     0
 10
611.8829556759129
 20
895.3192796336998
 30
0.0
 11
606.8829567794493
 21
895.3159576820457
 31
0.0
  0
LINE
  5
325F
  8
DIMENSIONS
  6
BYBLOCK
 62
     0
 10
629.8829517031818
 20
895.3312386596547
 30
0.0
 11
634.8829505996454
 21
895.3345606113088
 31
0.0
  0
TEXT
  5
3260
  8
DIMENSIONS
  6
CONTINUOUS
 62
     5
 10
577.3016313252489
 20
898.81946359091
 30
0.0
 40
5.0
  1
Ø8 [Ø0.31]
 50
0.0380667647061609
  0
SOLID
  5
3261
  8
DIMENSIONS
 62
     0
 10
629.8823980445728
 20
896.1645718090653
 30
0.0
 11
629.8835053617908
 21
894.4979055102441
 31
0.0
 12
624.8829528067182
 22
895.3279167080005
 32
0.0
 13
624.8829528067182
 23
895.3279167080005
 33
0.0
  0
SOLID
  5
3262
  8
DIMENSIONS
 62
     0
 10
611.8835093345218
 20
894.4859464842892
 30
0.0
 11
611.8824020173039
 21
896.1526127831104
 31
0.0
 12
616.8829545723764
 22
895.3226015853539
 32
0.0
 13
616.8829545723764
 23
895.3226015853539
 33
0.0
  0
POINT
  5
3263
  8
DEFPOINTS
 62
     0
 10
616.8829545723764
 20
895.3226015853539
 30
0.0
  0
POINT
  5
3264
  8
DEFPOINTS
 62
     0
 10
624.8829528067182
 20
895.3279167080005
 30
0.0
  0
ENDBLK
  5
325D
  8
0
  0
BLOCK
  8
0
  2
*D264
 70
     1
 10
0.0
 20
0.0
 30
0.0
  3
*D264
  1

  0
LINE
  5
326B
  8
DIMENSIONS
  6
BYBLOCK
 62
     0
 10
611.8829556759129
 20
895.3192796336998
 30
0.0
 11
571.4779645935905
 21
895.2924349423828
 31
0.0
  0
TEXT
  5
326C
  8
DIMENSIONS
  6
CONTINUOUS
 62
     5
 10
572.1963200686124
 20
897.7679127571705
 30
0.0
 40
5.0
  1
Ø8 [Ø0.31]
 50
0.0380667647061609
  0
SOLID
  5
326D
  8
DIMENSIONS
 62
     0
 10
611.8835093345218
 20
894.4859464842892
 30
0.0
 11
611.8824020173039
 21
896.1526127831104
 31
0.0
 12
616.8829545723764
 22
895.3226015853539
 32
0.0
 13
616.8829545723764
 23
895.3226015853539
 33
0.0
  0
POINT
  5
326E
  8
DEFPOINTS
 62
     0
 10
616.8829545723764
 20
895.3226015853539
 30
0.0
  0
POINT
  5
326F
  8
DEFPOINTS
 62
     0
 10
624.8829528067182
 20
895.3279167080005
 30
0.0
  0
ENDBLK
  5
326A
  8
0
  0
BLOCK
  8
0
  2
*D265
 70
     1
 10
0.0
 20
0.0
 30
0.0
  3
*D265
  1

  0
LINE
  5
3278
  8
DIMENSIONS
  6
BYBLOCK
 62
     0
 10
172.6329536895474
 20
1820.325259146677
 30
0.0
 11
127.4415580172135
 21
1820.325259146677
 31
0.0
  0
LINE
  5
3279
  8
DIMENSIONS
  6
BYBLOCK
 62
     0
 10
172.6329536895474
 20
420.3252591466774
 30
0.0
 11
127.4415580172134
 21
420.3252591466774
 31
0.0
  0
LINE
  5
327A
  8
DIMENSIONS
  6
BYBLOCK
 62
     0
 10
127.6215580172135
 20
1815.325259146677
 30
0.0
 11
127.6215580172134
 21
425.3252591466774
 31
0.0
  0
SOLID
  5
327B
  8
DIMENSIONS
 62
     0
 10
128.4548913505468
 20
1815.325259146677
 30
0.0
 11
126.7882246838801
 21
1815.325259146677
 31
0.0
 12
127.6215580172135
 22
1820.325259146677
 32
0.0
 13
127.6215580172135
 23
1820.325259146677
 33
0.0
  0
SOLID
  5
327C
  8
DIMENSIONS
 62
     0
 10
126.78822468388
 20
425.3252591466774
 30
0.0
 11
128.4548913505467
 21
425.3252591466774
 31
0.0
 12
127.6215580172134
 22
420.3252591466774
 32
0.0
 13
127.6215580172134
 23
420.3252591466774
 33
0.0
  0
TEXT
  5
327D
  8
DIMENSIONS
  6
CONTINUOUS
 62
     5
 10
125.2265580172132
 20
1100.772759146677
 30
0.0
 40
5.0
  1
1400 [55.12]
 50
90.0
  0
POINT
  5
327E
  8
DEFPOINTS
 62
     0
 10
174.1329536895474
 20
1820.325259146677
 30
0.0
  0
POINT
  5
327F
  8
DEFPOINTS
 62
     0
 10
174.1329536895474
 20
420.3252591466774
 30
0.0
  0
POINT
  5
3280
  8
DEFPOINTS
 62
     0
 10
127.6215580172134
 20
420.3252591466774
 30
0.0
  0
ENDBLK
  5
3277
  8
0
  0
BLOCK
  8
0
  2
*D266
 70
     1
 10
0.0
 20
0.0
 30
0.0
  3
*D266
  1

  0
LINE
  5
3287
  8
DIMENSIONS
  6
BYBLOCK
 62
     0
 10
187.3829536895474
 20
1348.825259146677
 30
0.0
 11
187.3829536895474
 21
1334.079612368157
 31
0.0
  0
LINE
  5
3288
  8
DIMENSIONS
  6
BYBLOCK
 62
     0
 10
174.1329536895474
 20
1348.825259146677
 30
0.0
 11
174.1329536895474
 21
1334.079612368157
 31
0.0
  0
LINE
  5
3289
  8
DIMENSIONS
  6
BYBLOCK
 62
     0
 10
182.3829536895474
 20
1334.259612368157
 30
0.0
 11
179.1329536895474
 21
1334.259612368157
 31
0.0
  0
SOLID
  5
328A
  8
DIMENSIONS
 62
     0
 10
182.3829536895474
 20
1333.426279034824
 30
0.0
 11
182.3829536895474
 21
1335.09294570149
 31
0.0
 12
187.3829536895474
 22
1334.259612368157
 32
0.0
 13
187.3829536895474
 23
1334.259612368157
 33
0.0
  0
SOLID
  5
328B
  8
DIMENSIONS
 62
     0
 10
179.1329536895474
 20
1335.09294570149
 30
0.0
 11
179.1329536895474
 21
1333.426279034824
 31
0.0
 12
174.1329536895474
 22
1334.259612368157
 32
0.0
 13
174.1329536895474
 23
1334.259612368157
 33
0.0
  0
TEXT
  5
328C
  8
DIMENSIONS
  6
CONTINUOUS
 62
     5
 10
162.1754536895474
 20
1321.164612368157
 30
0.0
 40
5.0
  1
13.25 [0.52]
  0
POINT
  5
328D
  8
DEFPOINTS
 62
     0
 10
187.3829536895474
 20
1350.325259146677
 30
0.0
  0
POINT
  5
328E
  8
DEFPOINTS
 62
     0
 10
174.1329536895474
 20
1350.325259146677
 30
0.0
  0
POINT
  5
328F
  8
DEFPOINTS
 62
     0
 10
174.1329536895474
 20
1334.259612368157
 30
0.0
  0
ENDBLK
  5
3286
  8
0
  0
BLOCK
  8
0
  2
*D267
 70
     1
 10
0.0
 20
0.0
 30
0.0
  3
*D267
  1

  0
LINE
  5
3296
  8
DIMENSIONS
  6
BYBLOCK
 62
     0
 10
187.3829536895474
 20
1348.825259146677
 30
0.0
 11
187.3829536895474
 21
1334.079612368157
 31
0.0
  0
LINE
  5
3297
  8
DIMENSIONS
  6
BYBLOCK
 62
     0
 10
620.8829536895473
 20
1348.825259146677
 30
0.0
 11
620.8829536895473
 21
1334.079612368157
 31
0.0
  0
LINE
  5
3298
  8
DIMENSIONS
  6
BYBLOCK
 62
     0
 10
192.3829536895474
 20
1334.259612368157
 30
0.0
 11
615.8829536895473
 21
1334.259612368157
 31
0.0
  0
SOLID
  5
3299
  8
DIMENSIONS
 62
     0
 10
192.3829536895474
 20
1335.09294570149
 30
0.0
 11
192.3829536895474
 21
1333.426279034824
 31
0.0
 12
187.3829536895474
 22
1334.259612368157
 32
0.0
 13
187.3829536895474
 23
1334.259612368157
 33
0.0
  0
SOLID
  5
329A
  8
DIMENSIONS
 62
     0
 10
615.8829536895473
 20
1333.426279034824
 30
0.0
 11
615.8829536895473
 21
1335.09294570149
 31
0.0
 12
620.8829536895473
 22
1334.259612368157
 32
0.0
 13
620.8829536895473
 23
1334.259612368157
 33
0.0
  0
TEXT
  5
329B
  8
DIMENSIONS
  6
CONTINUOUS
 62
     5
 10
383.9454536895474
 20
1336.654612368157
 30
0.0
 40
5.0
  1
433.5 [17.07]
  0
POINT
  5
329C
  8
DEFPOINTS
 62
     0
 10
187.3829536895474
 20
1350.325259146677
 30
0.0
  0
POINT
  5
329D
  8
DEFPOINTS
 62
     0
 10
620.8829536895473
 20
1350.325259146677
 30
0.0
  0
POINT
  5
329E
  8
DEFPOINTS
 62
     0
 10
620.8829536895473
 20
1334.259612368157
 30
0.0
  0
ENDBLK
  5
3295
  8
0
  0
BLOCK
  8
0
  2
*D268
 70
     1
 10
0.0
 20
0.0
 30
0.0
  3
*D268
  1

  0
LINE
  5
32A5
  8
DIMENSIONS
  6
BYBLOCK
 62
     0
 10
187.3829536895474
 20
1348.825259146677
 30
0.0
 11
187.3829536895474
 21
1334.079612368157
 31
0.0
  0
LINE
  5
32A6
  8
DIMENSIONS
  6
BYBLOCK
 62
     0
 10
174.1329536895474
 20
1348.825259146677
 30
0.0
 11
174.1329536895474
 21
1334.079612368157
 31
0.0
  0
LINE
  5
32A7
  8
DIMENSIONS
  6
BYBLOCK
 62
     0
 10
187.3829536895474
 20
1334.259612368157
 30
0.0
 11
131.4879536895475
 21
1334.259612368157
 31
0.0
  0
LINE
  5
32A8
  8
DIMENSIONS
  6
BYBLOCK
 62
     0
 10
182.3829536895474
 20
1334.259612368157
 30
0.0
 11
179.1329536895474
 21
1334.259612368157
 31
0.0
  0
SOLID
  5
32A9
  8
DIMENSIONS
 62
     0
 10
182.3829536895474
 20
1333.426279034824
 30
0.0
 11
182.3829536895474
 21
1335.09294570149
 31
0.0
 12
187.3829536895474
 22
1334.259612368157
 32
0.0
 13
187.3829536895474
 23
1334.259612368157
 33
0.0
  0
SOLID
  5
32AA
  8
DIMENSIONS
 62
     0
 10
179.1329536895474
 20
1335.09294570149
 30
0.0
 11
179.1329536895474
 21
1333.426279034824
 31
0.0
 12
174.1329536895474
 22
1334.259612368157
 32
0.0
 13
174.1329536895474
 23
1334.259612368157
 33
0.0
  0
TEXT
  5
32AB
  8
DIMENSIONS
  6
CONTINUOUS
 62
     5
 10
131.7279536895475
 20
1336.654612368157
 30
0.0
 40
5.0
  1
13.25 [0.52]
  0
POINT
  5
32AC
  8
DEFPOINTS
 62
     0
 10
187.3829536895474
 20
1350.325259146677
 30
0.0
  0
POINT
  5
32AD
  8
DEFPOINTS
 62
     0
 10
174.1329536895474
 20
1350.325259146677
 30
0.0
  0
POINT
  5
32AE
  8
DEFPOINTS
 62
     0
 10
174.1329536895474
 20
1334.259612368157
 30
0.0
  0
ENDBLK
  5
32A4
  8
0
  0
BLOCK
  8
0
  2
*X270
 70
     1
 10
0.0
 20
0.0
 30
0.0
  3
*X270
  1

  0
LINE
  5
32E5
  8
CUTOUT
 10
-200.2341869772977
 20
1227.237627543045
 30
0.0
 11
-133.6307123583034
 21
1293.84110216204
 31
0.0
  0
LINE
  5
32E6
  8
CUTOUT
 10
-200.2341869772976
 20
1152.107532041975
 30
0.0
 11
-58.50061685723273
 21
1293.84110216204
 31
0.0
  0
LINE
  5
32E7
  8
CUTOUT
 10
-200.2341869772977
 20
1076.977436540904
 30
0.0
 11
16.62947864383801
 21
1293.84110216204
 31
0.0
  0
LINE
  5
32E8
  8
CUTOUT
 10
-200.2341869772977
 20
1001.847341039833
 30
0.0
 11
91.75957414490864
 21
1293.84110216204
 31
0.0
  0
LINE
  5
32E9
  8
CUTOUT
 10
-200.2341869772977
 20
926.7172455387624
 30
0.0
 11
166.8896696459793
 21
1293.84110216204
 31
0.0
  0
LINE
  5
32EA
  8
CUTOUT
 10
-197.9802348529501
 20
853.8411021620394
 30
0.0
 11
209.7658130227023
 21
1261.587150037692
 31
0.0
  0
LINE
  5
32EB
  8
CUTOUT
 10
-122.8501393518794
 20
853.8411021620394
 30
0.0
 11
209.7658130227023
 21
1186.457054536621
 31
0.0
  0
LINE
  5
32EC
  8
CUTOUT
 10
-47.72004385080875
 20
853.8411021620394
 30
0.0
 11
209.7658130227023
 21
1111.326959035551
 31
0.0
  0
LINE
  5
32ED
  8
CUTOUT
 10
27.41005165026192
 20
853.8411021620394
 30
0.0
 11
209.7658130227023
 21
1036.19686353448
 31
0.0
  0
LINE
  5
32EE
  8
CUTOUT
 10
102.5401471513326
 20
853.8411021620394
 30
0.0
 11
209.7658130227023
 21
961.0667680334092
 31
0.0
  0
LINE
  5
32EF
  8
CUTOUT
 10
177.6702426524033
 20
853.8411021620394
 30
0.0
 11
209.7658130227023
 21
885.9366725323384
 31
0.0
  0
LINE
  5
32F0
  8
CUTOUT
 10
-205.2341869772976
 20
95.28619502698507
 30
0.0
 11
-158.1792798422433
 21
142.3411021620394
 31
0.0
  0
LINE
  5
32F1
  8
CUTOUT
 10
-205.2341869772976
 20
20.15609952591444
 30
0.0
 11
-83.04918434117266
 21
142.3411021620394
 31
0.0
  0
LINE
  5
32F2
  8
CUTOUT
 10
-187.9190888401018
 20
-37.65889783796047
 30
0.0
 11
-7.919088840102006
 21
142.3411021620393
 31
0.0
  0
LINE
  5
32F3
  8
CUTOUT
 10
-112.7889933390312
 20
-37.65889783796047
 30
0.0
 11
67.21100666096862
 21
142.3411021620393
 31
0.0
  0
LINE
  5
32F4
  8
CUTOUT
 10
-37.65889783796047
 20
-37.65889783796047
 30
0.0
 11
142.3411021620393
 21
142.3411021620394
 31
0.0
  0
LINE
  5
32F5
  8
CUTOUT
 10
37.47119766311016
 20
-37.65889783796047
 30
0.0
 11
214.7658130227024
 21
139.6357175216318
 31
0.0
  0
LINE
  5
32F6
  8
CUTOUT
 10
112.6012931641808
 20
-37.65889783796047
 30
0.0
 11
214.7658130227024
 21
64.50562202056108
 31
0.0
  0
LINE
  5
32F7
  8
CUTOUT
 10
187.7313886652515
 20
-37.65889783796047
 30
0.0
 11
214.7658130227024
 21
-10.62447348050955
 31
0.0
  0
ENDBLK
  5
32F8
  8
0
  0
BLOCK
  8
0
  2
*D271
 70
     1
 10
0.0
 20
0.0
 30
0.0
  3
*D271
  1

  0
LINE
  5
330C
  8
DIMENSIONS
  6
BYBLOCK
 62
     0
 10
490.5299480919409
 20
1431.468334828334
 30
0.0
 11
490.5299480919409
 21
1459.633960238541
 31
0.0
  0
LINE
  5
330D
  8
DIMENSIONS
  6
BYBLOCK
 62
     0
 10
140.5299480919409
 20
1431.468334828334
 30
0.0
 11
140.5299480919409
 21
1459.633960238541
 31
0.0
  0
LINE
  5
330E
  8
DIMENSIONS
  6
BYBLOCK
 62
     0
 10
485.5299480919409
 20
1459.453960238541
 30
0.0
 11
145.5299480919409
 21
1459.453960238541
 31
0.0
  0
SOLID
  5
330F
  8
DIMENSIONS
 62
     0
 10
485.5299480919409
 20
1458.620626905208
 30
0.0
 11
485.5299480919409
 21
1460.287293571874
 31
0.0
 12
490.5299480919409
 22
1459.453960238541
 32
0.0
 13
490.5299480919409
 23
1459.453960238541
 33
0.0
  0
SOLID
  5
3310
  8
DIMENSIONS
 62
     0
 10
145.5299480919409
 20
1460.287293571874
 30
0.0
 11
145.5299480919409
 21
1458.620626905208
 31
0.0
 12
140.5299480919409
 22
1459.453960238541
 32
0.0
 13
140.5299480919409
 23
1459.453960238541
 33
0.0
  0
TEXT
  5
3311
  8
DIMENSIONS
  6
CONTINUOUS
 62
     5
 10
298.1499480919409
 20
1461.848960238541
 30
0.0
 40
5.0
  1
350 [13.78]
  0
POINT
  5
3312
  8
DEFPOINTS
 62
     0
 10
490.5299480919409
 20
1429.968334828334
 30
0.0
  0
POINT
  5
3313
  8
DEFPOINTS
 62
     0
 10
140.5299480919409
 20
1429.968334828334
 30
0.0
  0
POINT
  5
3314
  8
DEFPOINTS
 62
     0
 10
140.5299480919409
 20
1459.453960238541
 30
0.0
  0
ENDBLK
  5
3315
  8
0
  0
BLOCK
  8
0
  2
*D272
 70
     1
 10
0.0
 20
0.0
 30
0.0
  3
*D272
  1

  0
LINE
  5
3319
  8
DIMENSIONS
  6
BYBLOCK
 62
     0
 10
110.5299480919409
 20
1412.923334828334
 30
0.0
 11
110.5299480919409
 21
1475.135483898009
 31
0.0
  0
LINE
  5
331A
  8
DIMENSIONS
  6
BYBLOCK
 62
     0
 10
520.5299480919409
 20
1412.923334828334
 30
0.0
 11
520.5299480919409
 21
1475.135483898009
 31
0.0
  0
LINE
  5
331B
  8
DIMENSIONS
  6
BYBLOCK
 62
     0
 10
115.5299480919409
 20
1474.955483898009
 30
0.0
 11
515.5299480919409
 21
1474.955483898009
 31
0.0
  0
SOLID
  5
331C
  8
DIMENSIONS
 62
     0
 10
115.5299480919409
 20
1475.788817231342
 30
0.0
 11
115.5299480919409
 21
1474.122150564676
 31
0.0
 12
110.5299480919409
 22
1474.955483898009
 32
0.0
 13
110.5299480919409
 23
1474.955483898009
 33
0.0
  0
SOLID
  5
331D
  8
DIMENSIONS
 62
     0
 10
515.5299480919409
 20
1474.122150564676
 30
0.0
 11
515.5299480919409
 21
1475.788817231342
 31
0.0
 12
520.5299480919409
 22
1474.955483898009
 32
0.0
 13
520.5299480919409
 23
1474.955483898009
 33
0.0
  0
TEXT
  5
331E
  8
DIMENSIONS
  6
CONTINUOUS
 62
     5
 10
298.2524480919409
 20
1477.350483898009
 30
0.0
 40
5.0
  1
410 [16.14]
  0
POINT
  5
331F
  8
DEFPOINTS
 62
     0
 10
110.5299480919409
 20
1411.423334828334
 30
0.0
  0
POINT
  5
3320
  8
DEFPOINTS
 62
     0
 10
520.5299480919409
 20
1411.423334828334
 30
0.0
  0
POINT
  5
3321
  8
DEFPOINTS
 62
     0
 10
520.5299480919409
 20
1474.955483898009
 30
0.0
  0
ENDBLK
  5
3322
  8
0
  0
BLOCK
  8
0
  2
*D273
 70
     1
 10
0.0
 20
0.0
 30
0.0
  3
*D273
  1

  0
LINE
  5
3326
  8
DIMENSIONS
  6
BYBLOCK
 62
     0
 10
545.5299480919409
 20
1446.423334828334
 30
0.0
 11
545.5299480919409
 21
1490.349299278357
 31
0.0
  0
LINE
  5
3327
  8
DIMENSIONS
  6
BYBLOCK
 62
     0
 10
85.52994809194092
 20
1446.423334828334
 30
0.0
 11
85.52994809194092
 21
1490.349299278357
 31
0.0
  0
LINE
  5
3328
  8
DIMENSIONS
  6
BYBLOCK
 62
     0
 10
540.5299480919409
 20
1490.169299278357
 30
0.0
 11
90.52994809194092
 21
1490.169299278357
 31
0.0
  0
SOLID
  5
3329
  8
DIMENSIONS
 62
     0
 10
540.5299480919409
 20
1489.335965945024
 30
0.0
 11
540.5299480919409
 21
1491.00263261169
 31
0.0
 12
545.5299480919409
 22
1490.169299278357
 32
0.0
 13
545.5299480919409
 23
1490.169299278357
 33
0.0
  0
SOLID
  5
332A
  8
DIMENSIONS
 62
     0
 10
90.52994809194092
 20
1491.00263261169
 30
0.0
 11
90.52994809194092
 21
1489.335965945024
 31
0.0
 12
85.52994809194092
 22
1490.169299278357
 32
0.0
 13
85.52994809194092
 23
1490.169299278357
 33
0.0
  0
TEXT
  5
332B
  8
DIMENSIONS
  6
CONTINUOUS
 62
     5
 10
298.2524480919409
 20
1492.564299278357
 30
0.0
 40
5.0
  1
460 [18.11]
  0
POINT
  5
332C
  8
DEFPOINTS
 62
     0
 10
545.5299480919409
 20
1444.923334828334
 30
0.0
  0
POINT
  5
332D
  8
DEFPOINTS
 62
     0
 10
85.52994809194092
 20
1444.923334828334
 30
0.0
  0
POINT
  5
332E
  8
DEFPOINTS
 62
     0
 10
85.52994809194092
 20
1490.169299278357
 30
0.0
  0
ENDBLK
  5
332F
  8
0
  0
BLOCK
  8
0
  2
*D274
 70
     1
 10
0.0
 20
0.0
 30
0.0
  3
*D274
  1

  0
LINE
  5
3333
  8
DIMENSIONS
  6
BYBLOCK
 62
     0
 10
97.23494809194094
 20
519.923334828334
 30
0.0
 11
68.9969733209712
 21
519.923334828334
 31
0.0
  0
LINE
  5
3334
  8
DIMENSIONS
  6
BYBLOCK
 62
     0
 10
97.23494809194094
 20
974.9233348283342
 30
0.0
 11
68.99697332097122
 21
974.9233348283342
 31
0.0
  0
LINE
  5
3335
  8
DIMENSIONS
  6
BYBLOCK
 62
     0
 10
69.1769733209712
 20
524.923334828334
 30
0.0
 11
69.17697332097123
 21
969.9233348283342
 31
0.0
  0
SOLID
  5
3336
  8
DIMENSIONS
 62
     0
 10
68.34363998763787
 20
524.923334828334
 30
0.0
 11
70.01030665430453
 21
524.923334828334
 31
0.0
 12
69.1769733209712
 22
519.923334828334
 32
0.0
 13
69.1769733209712
 23
519.923334828334
 33
0.0
  0
SOLID
  5
3337
  8
DIMENSIONS
 62
     0
 10
70.01030665430456
 20
969.9233348283342
 30
0.0
 11
68.3436399876379
 21
969.9233348283342
 31
0.0
 12
69.17697332097123
 22
974.9233348283342
 32
0.0
 13
69.17697332097123
 23
974.9233348283342
 33
0.0
  0
TEXT
  5
3338
  8
DIMENSIONS
  6
CONTINUOUS
 62
     5
 10
66.78197332097125
 20
730.1458348283342
 30
0.0
 40
5.0
  1
455 [17.91]
 50
90.0
  0
POINT
  5
3339
  8
DEFPOINTS
 62
     0
 10
98.73494809194094
 20
519.923334828334
 30
0.0
  0
POINT
  5
333A
  8
DEFPOINTS
 62
     0
 10
98.73494809194094
 20
974.9233348283342
 30
0.0
  0
POINT
  5
333B
  8
DEFPOINTS
 62
     0
 10
69.17697332097123
 20
974.9233348283342
 30
0.0
  0
ENDBLK
  5
333C
  8
0
  0
BLOCK
  8
0
  2
*D275
 70
     1
 10
0.0
 20
0.0
 30
0.0
  3
*D275
  1

  0
LINE
  5
3340
  8
DIMENSIONS
  6
BYBLOCK
 62
     0
 10
84.02994809194092
 20
1444.923334828334
 30
0.0
 11
39.59013751478853
 21
1444.923334828334
 31
0.0
  0
LINE
  5
3341
  8
DIMENSIONS
  6
BYBLOCK
 62
     0
 10
84.02994809194092
 20
44.92333482833374
 30
0.0
 11
39.59013751478845
 21
44.92333482833374
 31
0.0
  0
LINE
  5
3342
  8
DIMENSIONS
  6
BYBLOCK
 62
     0
 10
39.77013751478853
 20
1439.923334828334
 30
0.0
 11
39.77013751478844
 21
49.92333482833374
 31
0.0
  0
SOLID
  5
3343
  8
DIMENSIONS
 62
     0
 10
40.60347084812187
 20
1439.923334828334
 30
0.0
 11
38.93680418145519
 21
1439.923334828334
 31
0.0
 12
39.77013751478853
 22
1444.923334828334
 32
0.0
 13
39.77013751478853
 23
1444.923334828334
 33
0.0
  0
SOLID
  5
3344
  8
DIMENSIONS
 62
     0
 10
38.93680418145511
 20
49.92333482833374
 30
0.0
 11
40.60347084812178
 21
49.92333482833374
 31
0.0
 12
39.77013751478844
 22
44.92333482833374
 32
0.0
 13
39.77013751478844
 23
44.92333482833374
 33
0.0
  0
TEXT
  5
3345
  8
DIMENSIONS
  6
CONTINUOUS
 62
     5
 10
37.37513751478855
 20
725.370834828334
 30
0.0
 40
5.0
  1
1400 [55.12]
 50
90.0
  0
POINT
  5
3346
  8
DEFPOINTS
 62
     0
 10
85.52994809194092
 20
1444.923334828334
 30
0.0
  0
POINT
  5
3347
  8
DEFPOINTS
 62
     0
 10
85.52994809194092
 20
44.92333482833374
 30
0.0
  0
POINT
  5
3348
  8
DEFPOINTS
 62
     0
 10
39.77013751478844
 20
44.92333482833374
 30
0.0
  0
ENDBLK
  5
3349
  8
0
  0
BLOCK
  8
0
  2
*D276
 70
     1
 10
0.0
 20
0.0
 30
0.0
  3
*D276
  1

  0
LINE
  5
334D
  8
DIMENSIONS
  6
BYBLOCK
 62
     0
 10
139.0299480919409
 20
1429.878334828334
 30
0.0
 11
53.37356171121483
 21
1429.878334828334
 31
0.0
  0
LINE
  5
334E
  8
DIMENSIONS
  6
BYBLOCK
 62
     0
 10
139.0299480919409
 20
59.87833482833378
 30
0.0
 11
53.37356171121474
 21
59.87833482833378
 31
0.0
  0
LINE
  5
334F
  8
DIMENSIONS
  6
BYBLOCK
 62
     0
 10
53.55356171121483
 20
1424.878334828334
 30
0.0
 11
53.55356171121474
 21
64.87833482833378
 31
0.0
  0
SOLID
  5
3350
  8
DIMENSIONS
 62
     0
 10
54.38689504454816
 20
1424.878334828334
 30
0.0
 11
52.72022837788149
 21
1424.878334828334
 31
0.0
 12
53.55356171121483
 22
1429.878334828334
 32
0.0
 13
53.55356171121483
 23
1429.878334828334
 33
0.0
  0
SOLID
  5
3351
  8
DIMENSIONS
 62
     0
 10
52.7202283778814
 20
64.87833482833378
 30
0.0
 11
54.38689504454808
 21
64.87833482833378
 31
0.0
 12
53.55356171121474
 22
59.87833482833378
 32
0.0
 13
53.55356171121474
 23
59.87833482833378
 33
0.0
  0
TEXT
  5
3352
  8
DIMENSIONS
  6
CONTINUOUS
 62
     5
 10
51.15856171121482
 20
725.325834828334
 30
0.0
 40
5.0
  1
1370 [53.94]
 50
90.0
  0
POINT
  5
3353
  8
DEFPOINTS
 62
     0
 10
140.5299480919409
 20
1429.878334828334
 30
0.0
  0
POINT
  5
3354
  8
DEFPOINTS
 62
     0
 10
140.5299480919409
 20
59.87833482833378
 30
0.0
  0
POINT
  5
3355
  8
DEFPOINTS
 62
     0
 10
53.55356171121474
 20
59.87833482833378
 30
0.0
  0
ENDBLK
  5
3356
  8
0
  0
BLOCK
  8
0
  2
*D277
 70
     1
 10
0.0
 20
0.0
 30
0.0
  3
*D277
  1

  0
LINE
  5
335A
  8
DIMENSIONS
  6
BYBLOCK
 62
     0
 10
105.5299480919409
 20
261.4233348283339
 30
0.0
 11
105.5299480919409
 21
274.8500105475864
 31
0.0
  0
LINE
  5
335B
  8
DIMENSIONS
  6
BYBLOCK
 62
     0
 10
525.5299480919409
 20
261.4233348283339
 30
0.0
 11
525.5299480919409
 21
274.8500105475864
 31
0.0
  0
LINE
  5
335C
  8
DIMENSIONS
  6
BYBLOCK
 62
     0
 10
110.5299480919409
 20
274.6700105475863
 30
0.0
 11
520.5299480919409
 21
274.6700105475863
 31
0.0
  0
SOLID
  5
335D
  8
DIMENSIONS
 62
     0
 10
110.5299480919409
 20
275.5033438809197
 30
0.0
 11
110.5299480919409
 21
273.836677214253
 31
0.0
 12
105.5299480919409
 22
274.6700105475863
 32
0.0
 13
105.5299480919409
 23
274.6700105475863
 33
0.0
  0
SOLID
  5
335E
  8
DIMENSIONS
 62
     0
 10
520.5299480919409
 20
273.836677214253
 30
0.0
 11
520.5299480919409
 21
275.5033438809197
 31
0.0
 12
525.5299480919409
 22
274.6700105475863
 32
0.0
 13
525.5299480919409
 23
274.6700105475863
 33
0.0
  0
TEXT
  5
335F
  8
DIMENSIONS
  6
CONTINUOUS
 62
     5
 10
298.2524480919409
 20
277.0650105475863
 30
0.0
 40
5.0
  1
420 [16.54]
  0
POINT
  5
3360
  8
DEFPOINTS
 62
     0
 10
105.5299480919409
 20
259.9233348283339
 30
0.0
  0
POINT
  5
3361
  8
DEFPOINTS
 62
     0
 10
525.5299480919409
 20
259.9233348283339
 30
0.0
  0
POINT
  5
3362
  8
DEFPOINTS
 62
     0
 10
525.5299480919409
 20
274.6700105475863
 30
0.0
  0
ENDBLK
  5
3363
  8
0
  0
BLOCK
  8
0
  2
*D278
 70
     1
 10
0.0
 20
0.0
 30
0.0
  3
*D278
  1

  0
LINE
  5
3367
  8
DIMENSIONS
  6
BYBLOCK
 62
     0
 10
547.0299480919409
 20
1444.923334828334
 30
0.0
 11
585.2992755922638
 21
1444.923334828334
 31
0.0
  0
LINE
  5
3368
  8
DIMENSIONS
  6
BYBLOCK
 62
     0
 10
522.0299480919409
 20
1411.423334828334
 30
0.0
 11
585.2992755922638
 21
1411.423334828334
 31
0.0
  0
LINE
  5
3369
  8
DIMENSIONS
  6
BYBLOCK
 62
     0
 10
585.1192755922639
 20
1444.923334828334
 30
0.0
 11
585.1192755922639
 21
1372.193334828334
 31
0.0
  0
LINE
  5
336A
  8
DIMENSIONS
  6
BYBLOCK
 62
     0
 10
585.1192755922639
 20
1439.923334828334
 30
0.0
 11
585.1192755922639
 21
1416.423334828334
 31
0.0
  0
SOLID
  5
336B
  8
DIMENSIONS
 62
     0
 10
585.9526089255972
 20
1439.923334828334
 30
0.0
 11
584.2859422589305
 21
1439.923334828334
 31
0.0
 12
585.1192755922639
 22
1444.923334828334
 32
0.0
 13
585.1192755922639
 23
1444.923334828334
 33
0.0
  0
SOLID
  5
336C
  8
DIMENSIONS
 62
     0
 10
584.2859422589305
 20
1416.423334828334
 30
0.0
 11
585.9526089255972
 21
1416.423334828334
 31
0.0
 12
585.1192755922639
 22
1411.423334828334
 32
0.0
 13
585.1192755922639
 23
1411.423334828334
 33
0.0
  0
TEXT
  5
336D
  8
DIMENSIONS
  6
CONTINUOUS
 62
     5
 10
582.7242755922637
 20
1372.898334828334
 30
0.0
 40
5.0
  1
33.5 [1.32]
 50
90.0
  0
POINT
  5
336E
  8
DEFPOINTS
 62
     0
 10
545.5299480919409
 20
1444.923334828334
 30
0.0
  0
POINT
  5
336F
  8
DEFPOINTS
 62
     0
 10
520.5299480919409
 20
1411.423334828334
 30
0.0
  0
POINT
  5
3370
  8
DEFPOINTS
 62
     0
 10
585.1192755922639
 20
1411.423334828334
 30
0.0
  0
ENDBLK
  5
3371
  8
0
  0
BLOCK
  8
0
  2
*D279
 70
     1
 10
0.0
 20
0.0
 30
0.0
  3
*D279
  1

  0
LINE
  5
3375
  8
DIMENSIONS
  6
BYBLOCK
 62
     0
 10
522.0299480919409
 20
1411.423334828334
 30
0.0
 11
564.4808074761753
 21
1411.423334828334
 31
0.0
  0
LINE
  5
3376
  8
DIMENSIONS
  6
BYBLOCK
 62
     0
 10
522.0299480919409
 20
971.4233348283342
 30
0.0
 11
564.4808074761753
 21
971.4233348283342
 31
0.0
  0
LINE
  5
3377
  8
DIMENSIONS
  6
BYBLOCK
 62
     0
 10
564.3008074761754
 20
1406.423334828334
 30
0.0
 11
564.3008074761754
 21
976.4233348283342
 31
0.0
  0
SOLID
  5
3378
  8
DIMENSIONS
 62
     0
 10
565.1341408095087
 20
1406.423334828334
 30
0.0
 11
563.467474142842
 21
1406.423334828334
 31
0.0
 12
564.3008074761754
 22
1411.423334828334
 32
0.0
 13
564.3008074761754
 23
1411.423334828334
 33
0.0
  0
SOLID
  5
3379
  8
DIMENSIONS
 62
     0
 10
563.467474142842
 20
976.4233348283342
 30
0.0
 11
565.1341408095087
 21
976.4233348283342
 31
0.0
 12
564.3008074761754
 22
971.4233348283342
 32
0.0
 13
564.3008074761754
 23
971.4233348283342
 33
0.0
  0
TEXT
  5
337A
  8
DIMENSIONS
  6
CONTINUOUS
 62
     5
 10
561.9058074761751
 20
1174.145834828334
 30
0.0
 40
5.0
  1
440 [17.32]
 50
90.0
  0
POINT
  5
337B
  8
DEFPOINTS
 62
     0
 10
520.5299480919409
 20
1411.423334828334
 30
0.0
  0
POINT
  5
337C
  8
DEFPOINTS
 62
     0
 10
520.5299480919409
 20
971.4233348283342
 30
0.0
  0
POINT
  5
337D
  8
DEFPOINTS
 62
     0
 10
564.3008074761754
 20
971.4233348283342
 30
0.0
  0
ENDBLK
  5
337E
  8
0
  0
BLOCK
  8
0
  2
*D280
 70
     1
 10
0.0
 20
0.0
 30
0.0
  3
*D280
  1

  0
LINE
  5
3382
  8
DIMENSIONS
  6
BYBLOCK
 62
     0
 10
522.0299480919409
 20
971.4233348283342
 30
0.0
 11
564.4808074761753
 21
971.4233348283342
 31
0.0
  0
LINE
  5
3383
  8
DIMENSIONS
  6
BYBLOCK
 62
     0
 10
527.0299480919409
 20
259.9233348283339
 30
0.0
 11
564.4808074761753
 21
259.9233348283339
 31
0.0
  0
LINE
  5
3384
  8
DIMENSIONS
  6
BYBLOCK
 62
     0
 10
564.3008074761754
 20
966.4233348283342
 30
0.0
 11
564.3008074761754
 21
264.9233348283339
 31
0.0
  0
SOLID
  5
3385
  8
DIMENSIONS
 62
     0
 10
565.1341408095087
 20
966.4233348283342
 30
0.0
 11
563.467474142842
 21
966.4233348283342
 31
0.0
 12
564.3008074761754
 22
971.4233348283342
 32
0.0
 13
564.3008074761754
 23
971.4233348283342
 33
0.0
  0
SOLID
  5
3386
  8
DIMENSIONS
 62
     0
 10
563.467474142842
 20
264.9233348283339
 30
0.0
 11
565.1341408095087
 21
264.9233348283339
 31
0.0
 12
564.3008074761754
 22
259.9233348283339
 32
0.0
 13
564.3008074761754
 23
259.9233348283339
 33
0.0
  0
TEXT
  5
3387
  8
DIMENSIONS
  6
CONTINUOUS
 62
     5
 10
561.9058074761755
 20
595.365834828334
 30
0.0
 40
5.0
  1
711.5 [28.01]
 50
90.0
  0
POINT
  5
3388
  8
DEFPOINTS
 62
     0
 10
520.5299480919409
 20
971.4233348283342
 30
0.0
  0
POINT
  5
3389
  8
DEFPOINTS
 62
     0
 10
525.5299480919409
 20
259.9233348283339
 30
0.0
  0
POINT
  5
338A
  8
DEFPOINTS
 62
     0
 10
564.3008074761754
 20
259.9233348283339
 30
0.0
  0
ENDBLK
  5
338B
  8
0
  0
BLOCK
  8
0
  2
*D281
 70
     1
 10
0.0
 20
0.0
 30
0.0
  3
*D281
  1

  0
LINE
  5
338F
  8
DIMENSIONS
  6
BYBLOCK
 62
     0
 10
527.0299480919409
 20
259.9233348283339
 30
0.0
 11
564.4808074761753
 21
259.9233348283339
 31
0.0
  0
LINE
  5
3390
  8
DIMENSIONS
  6
BYBLOCK
 62
     0
 10
527.0299480919409
 20
79.92333482833396
 30
0.0
 11
564.4808074761753
 21
79.92333482833396
 31
0.0
  0
LINE
  5
3391
  8
DIMENSIONS
  6
BYBLOCK
 62
     0
 10
564.3008074761754
 20
254.9233348283339
 30
0.0
 11
564.3008074761754
 21
84.92333482833396
 31
0.0
  0
SOLID
  5
3392
  8
DIMENSIONS
 62
     0
 10
565.1341408095087
 20
254.9233348283339
 30
0.0
 11
563.467474142842
 21
254.9233348283339
 31
0.0
 12
564.3008074761754
 22
259.9233348283339
 32
0.0
 13
564.3008074761754
 23
259.9233348283339
 33
0.0
  0
SOLID
  5
3393
  8
DIMENSIONS
 62
     0
 10
563.467474142842
 20
84.92333482833396
 30
0.0
 11
565.1341408095087
 21
84.92333482833396
 31
0.0
 12
564.3008074761754
 22
79.92333482833396
 32
0.0
 13
564.3008074761754
 23
79.92333482833396
 33
0.0
  0
TEXT
  5
3394
  8
DIMENSIONS
  6
CONTINUOUS
 62
     5
 10
561.9058074761754
 20
154.2508348283339
 30
0.0
 40
5.0
  1
180 [7.09]
 50
90.0
  0
POINT
  5
3395
  8
DEFPOINTS
 62
     0
 10
525.5299480919409
 20
259.9233348283339
 30
0.0
  0
POINT
  5
3396
  8
DEFPOINTS
 62
     0
 10
525.5299480919409
 20
79.92333482833396
 30
0.0
  0
POINT
  5
3397
  8
DEFPOINTS
 62
     0
 10
564.3008074761754
 20
79.92333482833396
 30
0.0
  0
ENDBLK
  5
3398
  8
0
  0
BLOCK
  8
0
  2
*D282
 70
     1
 10
0.0
 20
0.0
 30
0.0
  3
*D282
  1

  0
LINE
  5
339C
  8
DIMENSIONS
  6
BYBLOCK
 62
     0
 10
527.0299480919409
 20
79.92333482833396
 30
0.0
 11
564.4808074761753
 21
79.92333482833396
 31
0.0
  0
LINE
  5
339D
  8
DIMENSIONS
  6
BYBLOCK
 62
     0
 10
547.0299480919409
 20
44.92333482833374
 30
0.0
 11
564.4808074761753
 21
44.92333482833374
 31
0.0
  0
LINE
  5
339E
  8
DIMENSIONS
  6
BYBLOCK
 62
     0
 10
564.3008074761754
 20
74.92333482833396
 30
0.0
 11
564.3008074761754
 21
49.92333482833374
 31
0.0
  0
SOLID
  5
339F
  8
DIMENSIONS
 62
     0
 10
565.1341408095087
 20
74.92333482833396
 30
0.0
 11
563.467474142842
 21
74.92333482833396
 31
0.0
 12
564.3008074761754
 22
79.92333482833396
 32
0.0
 13
564.3008074761754
 23
79.92333482833396
 33
0.0
  0
SOLID
  5
33A0
  8
DIMENSIONS
 62
     0
 10
563.467474142842
 20
49.92333482833374
 30
0.0
 11
565.1341408095087
 21
49.92333482833374
 31
0.0
 12
564.3008074761754
 22
44.92333482833374
 32
0.0
 13
564.3008074761754
 23
44.92333482833374
 33
0.0
  0
TEXT
  5
33A1
  8
DIMENSIONS
  6
CONTINUOUS
 62
     5
 10
561.9058074761754
 20
48.92333482833385
 30
0.0
 40
5.0
  1
35 [1.38]
 50
90.0
  0
POINT
  5
33A2
  8
DEFPOINTS
 62
     0
 10
525.5299480919409
 20
79.92333482833396
 30
0.0
  0
POINT
  5
33A3
  8
DEFPOINTS
 62
     0
 10
545.5299480919409
 20
44.92333482833374
 30
0.0
  0
POINT
  5
33A4
  8
DEFPOINTS
 62
     0
 10
564.3008074761754
 20
44.92333482833374
 30
0.0
  0
ENDBLK
  5
33A5
  8
0
  0
BLOCK
  8
0
  2
*D283
 70
     1
 10
0.0
 20
0.0
 30
0.0
  3
*D283
  1

  0
LINE
  5
33A9
  8
DIMENSIONS
  6
BYBLOCK
 62
     0
 10
523.2799580310736
 20
519.9367103391968
 30
0.0
 11
482.875002652258
 21
519.9967589521317
 31
0.0
  0
TEXT
  5
33AA
  8
DIMENSIONS
  6
CONTINUOUS
 62
     5
 10
483.5986801226148
 20
522.4706861780013
 30
0.0
 40
5.0
  1
Ø8 [Ø0.31]
 50
359.9148488218464
  0
SOLID
  5
33AB
  8
DIMENSIONS
 62
     0
 10
523.2787195578456
 20
519.1033779261535
 30
0.0
 11
523.2811965043016
 21
520.7700427522401
 31
0.0
 12
528.2799525093333
 22
519.9292794998286
 32
0.0
 13
528.2799525093333
 23
519.9292794998286
 33
0.0
  0
POINT
  5
33AC
  8
DEFPOINTS
 62
     0
 10
528.2799525093333
 20
519.9292794998286
 30
0.0
  0
POINT
  5
33AD
  8
DEFPOINTS
 62
     0
 10
536.2799436745485
 20
519.9173901568394
 30
0.0
  0
ENDBLK
  5
33B0
  8
0
  0
BLOCK
  8
0
  2
*D284
 70
     1
 10
0.0
 20
0.0
 30
0.0
  3
*D284
  1

  0
LINE
  5
33E5
  8
DIMENSIONS
  6
BYBLOCK
 62
     0
 10
1320.43936904452
 20
1833.004287675133
 30
0.0
 11
1320.43936904452
 21
1861.16991308534
 31
0.0
  0
LINE
  5
33E6
  8
DIMENSIONS
  6
BYBLOCK
 62
     0
 10
970.43936904452
 20
1833.004287675133
 30
0.0
 11
970.43936904452
 21
1861.16991308534
 31
0.0
  0
LINE
  5
33E7
  8
DIMENSIONS
  6
BYBLOCK
 62
     0
 10
1315.43936904452
 20
1860.98991308534
 30
0.0
 11
975.43936904452
 21
1860.98991308534
 31
0.0
  0
SOLID
  5
33E8
  8
DIMENSIONS
 62
     0
 10
1315.43936904452
 20
1860.156579752006
 30
0.0
 11
1315.43936904452
 21
1861.823246418673
 31
0.0
 12
1320.43936904452
 22
1860.98991308534
 32
0.0
 13
1320.43936904452
 23
1860.98991308534
 33
0.0
  0
SOLID
  5
33E9
  8
DIMENSIONS
 62
     0
 10
975.43936904452
 20
1861.823246418673
 30
0.0
 11
975.43936904452
 21
1860.156579752006
 31
0.0
 12
970.43936904452
 22
1860.98991308534
 32
0.0
 13
970.43936904452
 23
1860.98991308534
 33
0.0
  0
TEXT
  5
33EA
  8
DIMENSIONS
  6
CONTINUOUS
 62
     5
 10
1128.05936904452
 20
1863.38491308534
 30
0.0
 40
5.0
  1
350 [13.78]
  0
POINT
  5
33EB
  8
DEFPOINTS
 62
     0
 10
1320.43936904452
 20
1831.504287675133
 30
0.0
  0
POINT
  5
33EC
  8
DEFPOINTS
 62
     0
 10
970.43936904452
 20
1831.504287675133
 30
0.0
  0
POINT
  5
33ED
  8
DEFPOINTS
 62
     0
 10
970.43936904452
 20
1860.98991308534
 30
0.0
  0
ENDBLK
  5
33E4
  8
0
  0
BLOCK
  8
0
  2
*D285
 70
     1
 10
0.0
 20
0.0
 30
0.0
  3
*D285
  1

  0
LINE
  5
33F1
  8
DIMENSIONS
  6
BYBLOCK
 62
     0
 10
940.43936904452
 20
1814.459287675133
 30
0.0
 11
940.43936904452
 21
1876.671436744808
 31
0.0
  0
LINE
  5
33F2
  8
DIMENSIONS
  6
BYBLOCK
 62
     0
 10
1350.43936904452
 20
1814.459287675133
 30
0.0
 11
1350.43936904452
 21
1876.671436744808
 31
0.0
  0
LINE
  5
33F3
  8
DIMENSIONS
  6
BYBLOCK
 62
     0
 10
945.43936904452
 20
1876.491436744808
 30
0.0
 11
1345.43936904452
 21
1876.491436744808
 31
0.0
  0
SOLID
  5
33F4
  8
DIMENSIONS
 62
     0
 10
945.43936904452
 20
1877.324770078141
 30
0.0
 11
945.43936904452
 21
1875.658103411474
 31
0.0
 12
940.43936904452
 22
1876.491436744808
 32
0.0
 13
940.43936904452
 23
1876.491436744808
 33
0.0
  0
SOLID
  5
33F5
  8
DIMENSIONS
 62
     0
 10
1345.43936904452
 20
1875.658103411474
 30
0.0
 11
1345.43936904452
 21
1877.324770078141
 31
0.0
 12
1350.43936904452
 22
1876.491436744808
 32
0.0
 13
1350.43936904452
 23
1876.491436744808
 33
0.0
  0
TEXT
  5
33F6
  8
DIMENSIONS
  6
CONTINUOUS
 62
     5
 10
1128.16186904452
 20
1878.886436744808
 30
0.0
 40
5.0
  1
410 [16.14]
  0
POINT
  5
33F7
  8
DEFPOINTS
 62
     0
 10
940.43936904452
 20
1812.959287675133
 30
0.0
  0
POINT
  5
33F8
  8
DEFPOINTS
 62
     0
 10
1350.43936904452
 20
1812.959287675133
 30
0.0
  0
POINT
  5
33F9
  8
DEFPOINTS
 62
     0
 10
1350.43936904452
 20
1876.491436744808
 30
0.0
  0
ENDBLK
  5
33F0
  8
0
  0
BLOCK
  8
0
  2
*D286
 70
     1
 10
0.0
 20
0.0
 30
0.0
  3
*D286
  1

  0
LINE
  5
33FD
  8
DIMENSIONS
  6
BYBLOCK
 62
     0
 10
1375.43936904452
 20
1847.959287675133
 30
0.0
 11
1375.43936904452
 21
1891.885252125156
 31
0.0
  0
LINE
  5
33FE
  8
DIMENSIONS
  6
BYBLOCK
 62
     0
 10
915.43936904452
 20
1847.959287675133
 30
0.0
 11
915.43936904452
 21
1891.885252125156
 31
0.0
  0
LINE
  5
33FF
  8
DIMENSIONS
  6
BYBLOCK
 62
     0
 10
1370.43936904452
 20
1891.705252125156
 30
0.0
 11
920.43936904452
 21
1891.705252125156
 31
0.0
  0
SOLID
  5
3400
  8
DIMENSIONS
 62
     0
 10
1370.43936904452
 20
1890.871918791823
 30
0.0
 11
1370.43936904452
 21
1892.538585458489
 31
0.0
 12
1375.43936904452
 22
1891.705252125156
 32
0.0
 13
1375.43936904452
 23
1891.705252125156
 33
0.0
  0
SOLID
  5
3401
  8
DIMENSIONS
 62
     0
 10
920.43936904452
 20
1892.538585458489
 30
0.0
 11
920.43936904452
 21
1890.871918791823
 31
0.0
 12
915.43936904452
 22
1891.705252125156
 32
0.0
 13
915.43936904452
 23
1891.705252125156
 33
0.0
  0
TEXT
  5
3402
  8
DIMENSIONS
  6
CONTINUOUS
 62
     5
 10
1128.16186904452
 20
1894.100252125156
 30
0.0
 40
5.0
  1
460 [18.11]
  0
POINT
  5
3403
  8
DEFPOINTS
 62
     0
 10
1375.43936904452
 20
1846.459287675133
 30
0.0
  0
POINT
  5
3404
  8
DEFPOINTS
 62
     0
 10
915.43936904452
 20
1846.459287675133
 30
0.0
  0
POINT
  5
3405
  8
DEFPOINTS
 62
     0
 10
915.43936904452
 20
1891.705252125156
 30
0.0
  0
ENDBLK
  5
33FC
  8
0
  0
BLOCK
  8
0
  2
*D287
 70
     1
 10
0.0
 20
0.0
 30
0.0
  3
*D287
  1

  0
LINE
  5
3409
  8
DIMENSIONS
  6
BYBLOCK
 62
     0
 10
927.1443690445201
 20
921.4592876751325
 30
0.0
 11
898.9063942735504
 21
921.4592876751325
 31
0.0
  0
LINE
  5
340A
  8
DIMENSIONS
  6
BYBLOCK
 62
     0
 10
927.1443690445201
 20
1376.459287675133
 30
0.0
 11
898.9063942735504
 21
1376.459287675133
 31
0.0
  0
LINE
  5
340B
  8
DIMENSIONS
  6
BYBLOCK
 62
     0
 10
899.0863942735504
 20
926.4592876751325
 30
0.0
 11
899.0863942735504
 21
1371.459287675133
 31
0.0
  0
SOLID
  5
340C
  8
DIMENSIONS
 62
     0
 10
898.253060940217
 20
926.4592876751325
 30
0.0
 11
899.9197276068837
 21
926.4592876751325
 31
0.0
 12
899.0863942735504
 22
921.4592876751325
 32
0.0
 13
899.0863942735504
 23
921.4592876751325
 33
0.0
  0
SOLID
  5
340D
  8
DIMENSIONS
 62
     0
 10
899.9197276068837
 20
1371.459287675133
 30
0.0
 11
898.253060940217
 21
1371.459287675133
 31
0.0
 12
899.0863942735504
 22
1376.459287675133
 32
0.0
 13
899.0863942735504
 23
1376.459287675133
 33
0.0
  0
TEXT
  5
340E
  8
DIMENSIONS
  6
CONTINUOUS
 62
     5
 10
896.69139427355
 20
1131.681787675132
 30
0.0
 40
5.0
  1
455 [17.91]
 50
90.0
  0
POINT
  5
340F
  8
DEFPOINTS
 62
     0
 10
928.6443690445201
 20
921.4592876751325
 30
0.0
  0
POINT
  5
3410
  8
DEFPOINTS
 62
     0
 10
928.6443690445201
 20
1376.459287675133
 30
0.0
  0
POINT
  5
3411
  8
DEFPOINTS
 62
     0
 10
899.0863942735504
 20
1376.459287675133
 30
0.0
  0
ENDBLK
  5
3408
  8
0
  0
BLOCK
  8
0
  2
*D288
 70
     1
 10
0.0
 20
0.0
 30
0.0
  3
*D288
  1

  0
LINE
  5
3415
  8
DIMENSIONS
  6
BYBLOCK
 62
     0
 10
913.93936904452
 20
1846.459287675133
 30
0.0
 11
869.4995584673677
 21
1846.459287675133
 31
0.0
  0
LINE
  5
3416
  8
DIMENSIONS
  6
BYBLOCK
 62
     0
 10
913.93936904452
 20
446.4592876751323
 30
0.0
 11
869.4995584673676
 21
446.4592876751323
 31
0.0
  0
LINE
  5
3417
  8
DIMENSIONS
  6
BYBLOCK
 62
     0
 10
869.6795584673677
 20
1841.459287675133
 30
0.0
 11
869.6795584673675
 21
451.4592876751323
 31
0.0
  0
SOLID
  5
3418
  8
DIMENSIONS
 62
     0
 10
870.512891800701
 20
1841.459287675133
 30
0.0
 11
868.8462251340343
 21
1841.459287675133
 31
0.0
 12
869.6795584673677
 22
1846.459287675133
 32
0.0
 13
869.6795584673677
 23
1846.459287675133
 33
0.0
  0
SOLID
  5
3419
  8
DIMENSIONS
 62
     0
 10
868.8462251340342
 20
451.4592876751323
 30
0.0
 11
870.5128918007009
 21
451.4592876751323
 31
0.0
 12
869.6795584673675
 22
446.4592876751323
 32
0.0
 13
869.6795584673675
 23
446.4592876751323
 33
0.0
  0
TEXT
  5
341A
  8
DIMENSIONS
  6
CONTINUOUS
 62
     5
 10
867.2845584673673
 20
1126.906787675132
 30
0.0
 40
5.0
  1
1400 [55.12]
 50
90.0
  0
POINT
  5
341B
  8
DEFPOINTS
 62
     0
 10
915.43936904452
 20
1846.459287675133
 30
0.0
  0
POINT
  5
341C
  8
DEFPOINTS
 62
     0
 10
915.43936904452
 20
446.4592876751323
 30
0.0
  0
POINT
  5
341D
  8
DEFPOINTS
 62
     0
 10
869.6795584673675
 20
446.4592876751323
 30
0.0
  0
ENDBLK
  5
3414
  8
0
  0
BLOCK
  8
0
  2
*D289
 70
     1
 10
0.0
 20
0.0
 30
0.0
  3
*D289
  1

  0
LINE
  5
3421
  8
DIMENSIONS
  6
BYBLOCK
 62
     0
 10
968.93936904452
 20
1831.414287675133
 30
0.0
 11
883.282982663794
 21
1831.414287675133
 31
0.0
  0
LINE
  5
3422
  8
DIMENSIONS
  6
BYBLOCK
 62
     0
 10
968.93936904452
 20
461.4142876751323
 30
0.0
 11
883.2829826637939
 21
461.4142876751323
 31
0.0
  0
LINE
  5
3423
  8
DIMENSIONS
  6
BYBLOCK
 62
     0
 10
883.4629826637939
 20
1826.414287675133
 30
0.0
 11
883.4629826637938
 21
466.4142876751323
 31
0.0
  0
SOLID
  5
3424
  8
DIMENSIONS
 62
     0
 10
884.2963159971273
 20
1826.414287675133
 30
0.0
 11
882.6296493304606
 21
1826.414287675133
 31
0.0
 12
883.4629826637939
 22
1831.414287675133
 32
0.0
 13
883.4629826637939
 23
1831.414287675133
 33
0.0
  0
SOLID
  5
3425
  8
DIMENSIONS
 62
     0
 10
882.6296493304604
 20
466.4142876751323
 30
0.0
 11
884.2963159971272
 21
466.4142876751323
 31
0.0
 12
883.4629826637938
 22
461.4142876751323
 32
0.0
 13
883.4629826637938
 23
461.4142876751323
 33
0.0
  0
TEXT
  5
3426
  8
DIMENSIONS
  6
CONTINUOUS
 62
     5
 10
881.0679826637936
 20
1126.861787675133
 30
0.0
 40
5.0
  1
1370 [53.94]
 50
90.0
  0
POINT
  5
3427
  8
DEFPOINTS
 62
     0
 10
970.43936904452
 20
1831.414287675133
 30
0.0
  0
POINT
  5
3428
  8
DEFPOINTS
 62
     0
 10
970.43936904452
 20
461.4142876751323
 30
0.0
  0
POINT
  5
3429
  8
DEFPOINTS
 62
     0
 10
883.4629826637938
 20
461.4142876751323
 30
0.0
  0
ENDBLK
  5
3420
  8
0
  0
BLOCK
  8
0
  2
*D290
 70
     1
 10
0.0
 20
0.0
 30
0.0
  3
*D290
  1

  0
LINE
  5
342D
  8
DIMENSIONS
  6
BYBLOCK
 62
     0
 10
935.43936904452
 20
662.9592876751324
 30
0.0
 11
935.43936904452
 21
676.3859633943848
 31
0.0
  0
LINE
  5
342E
  8
DIMENSIONS
  6
BYBLOCK
 62
     0
 10
1355.43936904452
 20
662.9592876751324
 30
0.0
 11
1355.43936904452
 21
676.3859633943848
 31
0.0
  0
LINE
  5
342F
  8
DIMENSIONS
  6
BYBLOCK
 62
     0
 10
940.43936904452
 20
676.2059633943849
 30
0.0
 11
1350.43936904452
 21
676.2059633943849
 31
0.0
  0
SOLID
  5
3430
  8
DIMENSIONS
 62
     0
 10
940.43936904452
 20
677.0392967277182
 30
0.0
 11
940.43936904452
 21
675.3726300610515
 31
0.0
 12
935.43936904452
 22
676.2059633943849
 32
0.0
 13
935.43936904452
 23
676.2059633943849
 33
0.0
  0
SOLID
  5
3431
  8
DIMENSIONS
 62
     0
 10
1350.43936904452
 20
675.3726300610515
 30
0.0
 11
1350.43936904452
 21
677.0392967277182
 31
0.0
 12
1355.43936904452
 22
676.2059633943849
 32
0.0
 13
1355.43936904452
 23
676.2059633943849
 33
0.0
  0
TEXT
  5
3432
  8
DIMENSIONS
  6
CONTINUOUS
 62
     5
 10
1128.16186904452
 20
678.6009633943848
 30
0.0
 40
5.0
  1
420 [16.54]
  0
POINT
  5
3433
  8
DEFPOINTS
 62
     0
 10
935.43936904452
 20
661.4592876751324
 30
0.0
  0
POINT
  5
3434
  8
DEFPOINTS
 62
     0
 10
1355.43936904452
 20
661.4592876751324
 30
0.0
  0
POINT
  5
3435
  8
DEFPOINTS
 62
     0
 10
1355.43936904452
 20
676.2059633943849
 30
0.0
  0
ENDBLK
  5
342C
  8
0
  0
BLOCK
  8
0
  2
*D291
 70
     1
 10
0.0
 20
0.0
 30
0.0
  3
*D291
  1

  0
LINE
  5
3439
  8
DIMENSIONS
  6
BYBLOCK
 62
     0
 10
1376.93936904452
 20
1846.459287675133
 30
0.0
 11
1415.208696544843
 21
1846.459287675133
 31
0.0
  0
LINE
  5
343A
  8
DIMENSIONS
  6
BYBLOCK
 62
     0
 10
1351.93936904452
 20
1812.959287675133
 30
0.0
 11
1415.208696544843
 21
1812.959287675133
 31
0.0
  0
LINE
  5
343B
  8
DIMENSIONS
  6
BYBLOCK
 62
     0
 10
1415.028696544843
 20
1846.459287675133
 30
0.0
 11
1415.028696544843
 21
1773.729287675133
 31
0.0
  0
LINE
  5
343C
  8
DIMENSIONS
  6
BYBLOCK
 62
     0
 10
1415.028696544843
 20
1841.459287675133
 30
0.0
 11
1415.028696544843
 21
1817.959287675133
 31
0.0
  0
SOLID
  5
343D
  8
DIMENSIONS
 62
     0
 10
1415.862029878176
 20
1841.459287675133
 30
0.0
 11
1414.19536321151
 21
1841.459287675133
 31
0.0
 12
1415.028696544843
 22
1846.459287675133
 32
0.0
 13
1415.028696544843
 23
1846.459287675133
 33
0.0
  0
SOLID
  5
343E
  8
DIMENSIONS
 62
     0
 10
1414.19536321151
 20
1817.959287675133
 30
0.0
 11
1415.862029878176
 21
1817.959287675133
 31
0.0
 12
1415.028696544843
 22
1812.959287675133
 32
0.0
 13
1415.028696544843
 23
1812.959287675133
 33
0.0
  0
TEXT
  5
343F
  8
DIMENSIONS
  6
CONTINUOUS
 62
     5
 10
1412.633696544843
 20
1774.434287675133
 30
0.0
 40
5.0
  1
33.5 [1.32]
 50
90.0
  0
POINT
  5
3440
  8
DEFPOINTS
 62
     0
 10
1375.43936904452
 20
1846.459287675133
 30
0.0
  0
POINT
  5
3441
  8
DEFPOINTS
 62
     0
 10
1350.43936904452
 20
1812.959287675133
 30
0.0
  0
POINT
  5
3442
  8
DEFPOINTS
 62
     0
 10
1415.028696544843
 20
1812.959287675133
 30
0.0
  0
ENDBLK
  5
3438
  8
0
  0
BLOCK
  8
0
  2
*D292
 70
     1
 10
0.0
 20
0.0
 30
0.0
  3
*D292
  1

  0
LINE
  5
3446
  8
DIMENSIONS
  6
BYBLOCK
 62
     0
 10
1351.93936904452
 20
1812.959287675133
 30
0.0
 11
1394.390228428754
 21
1812.959287675133
 31
0.0
  0
LINE
  5
3447
  8
DIMENSIONS
  6
BYBLOCK
 62
     0
 10
1351.93936904452
 20
1372.959287675133
 30
0.0
 11
1394.390228428754
 21
1372.959287675133
 31
0.0
  0
LINE
  5
3448
  8
DIMENSIONS
  6
BYBLOCK
 62
     0
 10
1394.210228428754
 20
1807.959287675133
 30
0.0
 11
1394.210228428754
 21
1377.959287675133
 31
0.0
  0
SOLID
  5
3449
  8
DIMENSIONS
 62
     0
 10
1395.043561762088
 20
1807.959287675133
 30
0.0
 11
1393.376895095421
 21
1807.959287675133
 31
0.0
 12
1394.210228428754
 22
1812.959287675133
 32
0.0
 13
1394.210228428754
 23
1812.959287675133
 33
0.0
  0
SOLID
  5
344A
  8
DIMENSIONS
 62
     0
 10
1393.376895095421
 20
1377.959287675133
 30
0.0
 11
1395.043561762088
 21
1377.959287675133
 31
0.0
 12
1394.210228428754
 22
1372.959287675133
 32
0.0
 13
1394.210228428754
 23
1372.959287675133
 33
0.0
  0
TEXT
  5
344B
  8
DIMENSIONS
  6
CONTINUOUS
 62
     5
 10
1391.815228428754
 20
1575.681787675133
 30
0.0
 40
5.0
  1
440 [17.32]
 50
90.0
  0
POINT
  5
344C
  8
DEFPOINTS
 62
     0
 10
1350.43936904452
 20
1812.959287675133
 30
0.0
  0
POINT
  5
344D
  8
DEFPOINTS
 62
     0
 10
1350.43936904452
 20
1372.959287675133
 30
0.0
  0
POINT
  5
344E
  8
DEFPOINTS
 62
     0
 10
1394.210228428754
 20
1372.959287675133
 30
0.0
  0
ENDBLK
  5
3445
  8
0
  0
BLOCK
  8
0
  2
*D293
 70
     1
 10
0.0
 20
0.0
 30
0.0
  3
*D293
  1

  0
LINE
  5
3452
  8
DIMENSIONS
  6
BYBLOCK
 62
     0
 10
1351.93936904452
 20
1372.959287675133
 30
0.0
 11
1394.390228428754
 21
1372.959287675133
 31
0.0
  0
LINE
  5
3453
  8
DIMENSIONS
  6
BYBLOCK
 62
     0
 10
1356.93936904452
 20
661.4592876751324
 30
0.0
 11
1394.390228428754
 21
661.4592876751324
 31
0.0
  0
LINE
  5
3454
  8
DIMENSIONS
  6
BYBLOCK
 62
     0
 10
1394.210228428754
 20
1367.959287675133
 30
0.0
 11
1394.210228428754
 21
666.4592876751324
 31
0.0
  0
SOLID
  5
3455
  8
DIMENSIONS
 62
     0
 10
1395.043561762088
 20
1367.959287675133
 30
0.0
 11
1393.376895095421
 21
1367.959287675133
 31
0.0
 12
1394.210228428754
 22
1372.959287675133
 32
0.0
 13
1394.210228428754
 23
1372.959287675133
 33
0.0
  0
SOLID
  5
3456
  8
DIMENSIONS
 62
     0
 10
1393.376895095421
 20
666.4592876751324
 30
0.0
 11
1395.043561762088
 21
666.4592876751324
 31
0.0
 12
1394.210228428754
 22
661.4592876751324
 32
0.0
 13
1394.210228428754
 23
661.4592876751324
 33
0.0
  0
TEXT
  5
3457
  8
DIMENSIONS
  6
CONTINUOUS
 62
     5
 10
1391.815228428755
 20
996.9017876751326
 30
0.0
 40
5.0
  1
711.5 [28.01]
 50
90.0
  0
POINT
  5
3458
  8
DEFPOINTS
 62
     0
 10
1350.43936904452
 20
1372.959287675133
 30
0.0
  0
POINT
  5
3459
  8
DEFPOINTS
 62
     0
 10
1355.43936904452
 20
661.4592876751324
 30
0.0
  0
POINT
  5
345A
  8
DEFPOINTS
 62
     0
 10
1394.210228428754
 20
661.4592876751324
 30
0.0
  0
ENDBLK
  5
3451
  8
0
  0
BLOCK
  8
0
  2
*D294
 70
     1
 10
0.0
 20
0.0
 30
0.0
  3
*D294
  1

  0
LINE
  5
345E
  8
DIMENSIONS
  6
BYBLOCK
 62
     0
 10
1356.93936904452
 20
661.4592876751324
 30
0.0
 11
1394.390228428754
 21
661.4592876751324
 31
0.0
  0
LINE
  5
345F
  8
DIMENSIONS
  6
BYBLOCK
 62
     0
 10
1356.93936904452
 20
481.4592876751325
 30
0.0
 11
1394.390228428754
 21
481.4592876751325
 31
0.0
  0
LINE
  5
3460
  8
DIMENSIONS
  6
BYBLOCK
 62
     0
 10
1394.210228428754
 20
656.4592876751324
 30
0.0
 11
1394.210228428754
 21
486.4592876751325
 31
0.0
  0
SOLID
  5
3461
  8
DIMENSIONS
 62
     0
 10
1395.043561762088
 20
656.4592876751324
 30
0.0
 11
1393.376895095421
 21
656.4592876751324
 31
0.0
 12
1394.210228428754
 22
661.4592876751324
 32
0.0
 13
1394.210228428754
 23
661.4592876751324
 33
0.0
  0
SOLID
  5
3462
  8
DIMENSIONS
 62
     0
 10
1393.376895095421
 20
486.4592876751325
 30
0.0
 11
1395.043561762088
 21
486.4592876751325
 31
0.0
 12
1394.210228428754
 22
481.4592876751325
 32
0.0
 13
1394.210228428754
 23
481.4592876751325
 33
0.0
  0
TEXT
  5
3463
  8
DIMENSIONS
  6
CONTINUOUS
 62
     5
 10
1391.815228428754
 20
555.7867876751325
 30
0.0
 40
5.0
  1
180 [7.09]
 50
90.0
  0
POINT
  5
3464
  8
DEFPOINTS
 62
     0
 10
1355.43936904452
 20
661.4592876751324
 30
0.0
  0
POINT
  5
3465
  8
DEFPOINTS
 62
     0
 10
1355.43936904452
 20
481.4592876751325
 30
0.0
  0
POINT
  5
3466
  8
DEFPOINTS
 62
     0
 10
1394.210228428754
 20
481.4592876751325
 30
0.0
  0
ENDBLK
  5
345D
  8
0
  0
BLOCK
  8
0
  2
*D295
 70
     1
 10
0.0
 20
0.0
 30
0.0
  3
*D295
  1

  0
LINE
  5
346A
  8
DIMENSIONS
  6
BYBLOCK
 62
     0
 10
1356.93936904452
 20
481.4592876751325
 30
0.0
 11
1394.390228428754
 21
481.4592876751325
 31
0.0
  0
LINE
  5
346B
  8
DIMENSIONS
  6
BYBLOCK
 62
     0
 10
1376.93936904452
 20
446.4592876751323
 30
0.0
 11
1394.390228428754
 21
446.4592876751323
 31
0.0
  0
LINE
  5
346C
  8
DIMENSIONS
  6
BYBLOCK
 62
     0
 10
1394.210228428754
 20
476.4592876751325
 30
0.0
 11
1394.210228428754
 21
451.4592876751323
 31
0.0
  0
SOLID
  5
346D
  8
DIMENSIONS
 62
     0
 10
1395.043561762088
 20
476.4592876751325
 30
0.0
 11
1393.376895095421
 21
476.4592876751325
 31
0.0
 12
1394.210228428754
 22
481.4592876751325
 32
0.0
 13
1394.210228428754
 23
481.4592876751325
 33
0.0
  0
SOLID
  5
346E
  8
DIMENSIONS
 62
     0
 10
1393.376895095421
 20
451.4592876751323
 30
0.0
 11
1395.043561762088
 21
451.4592876751323
 31
0.0
 12
1394.210228428754
 22
446.4592876751323
 32
0.0
 13
1394.210228428754
 23
446.4592876751323
 33
0.0
  0
TEXT
  5
346F
  8
DIMENSIONS
  6
CONTINUOUS
 62
     5
 10
1391.815228428754
 20
450.4592876751324
 30
0.0
 40
5.0
  1
35 [1.38]
 50
90.0
  0
POINT
  5
3470
  8
DEFPOINTS
 62
     0
 10
1355.43936904452
 20
481.4592876751325
 30
0.0
  0
POINT
  5
3471
  8
DEFPOINTS
 62
     0
 10
1375.43936904452
 20
446.4592876751323
 30
0.0
  0
POINT
  5
3472
  8
DEFPOINTS
 62
     0
 10
1394.210228428754
 20
446.4592876751323
 30
0.0
  0
ENDBLK
  5
3469
  8
0
  0
BLOCK
  8
0
  2
*D296
 70
     1
 10
0.0
 20
0.0
 30
0.0
  3
*D296
  1

  0
LINE
  5
3476
  8
DIMENSIONS
  6
BYBLOCK
 62
     0
 10
1353.189378983653
 20
921.4726631859953
 30
0.0
 11
1312.784423604837
 21
921.5327117989302
 31
0.0
  0
TEXT
  5
3477
  8
DIMENSIONS
  6
CONTINUOUS
 62
     5
 10
1313.508101075194
 20
924.0066390247998
 30
0.0
 40
5.0
  1
Ø8 [Ø0.31]
 50
359.9148488218464
  0
SOLID
  5
3478
  8
DIMENSIONS
 62
     0
 10
1353.188140510425
 20
920.639330772952
 30
0.0
 11
1353.190617456881
 21
922.3059955990386
 31
0.0
 12
1358.189373461913
 22
921.4652323466271
 32
0.0
 13
1358.189373461913
 23
921.4652323466271
 33
0.0
  0
POINT
  5
3479
  8
DEFPOINTS
 62
     0
 10
1358.189373461913
 20
921.4652323466271
 30
0.0
  0
POINT
  5
347A
  8
DEFPOINTS
 62
     0
 10
1366.189364627128
 20
921.4533430036379
 30
0.0
  0
ENDBLK
  5
3475
  8
0
  0
BLOCK
  8
0
  2
*D297
 70
     1
 10
0.0
 20
0.0
 30
0.0
  3
*D297
  1

  0
LINE
  5
3481
  8
DIMENSIONS
  6
BYBLOCK
 62
     0
 10
1321.89436904452
 20
461.4592876751325
 30
0.0
 11
1375.61936904452
 21
461.4592876751325
 31
0.0
  0
LINE
  5
3482
  8
DIMENSIONS
  6
BYBLOCK
 62
     0
 10
1321.89436904452
 20
446.4592876751323
 30
0.0
 11
1375.61936904452
 21
446.4592876751323
 31
0.0
  0
LINE
  5
3483
  8
DIMENSIONS
  6
BYBLOCK
 62
     0
 10
1375.43936904452
 20
456.4592876751325
 30
0.0
 11
1375.43936904452
 21
451.4592876751323
 31
0.0
  0
SOLID
  5
3484
  8
DIMENSIONS
 62
     0
 10
1376.272702377853
 20
456.4592876751325
 30
0.0
 11
1374.606035711187
 21
456.4592876751325
 31
0.0
 12
1375.43936904452
 22
461.4592876751325
 32
0.0
 13
1375.43936904452
 23
461.4592876751325
 33
0.0
  0
SOLID
  5
3485
  8
DIMENSIONS
 62
     0
 10
1374.606035711187
 20
451.4592876751323
 30
0.0
 11
1376.272702377853
 21
451.4592876751323
 31
0.0
 12
1375.43936904452
 22
446.4592876751323
 32
0.0
 13
1375.43936904452
 23
446.4592876751323
 33
0.0
  0
TEXT
  5
3486
  8
DIMENSIONS
  6
CONTINUOUS
 62
     5
 10
1388.53436904452
 20
440.2267876751323
 30
0.0
 40
5.0
  1
15 [0.59]
 50
90.0
  0
POINT
  5
3487
  8
DEFPOINTS
 62
     0
 10
1320.39436904452
 20
461.4592876751325
 30
0.0
  0
POINT
  5
3488
  8
DEFPOINTS
 62
     0
 10
1320.39436904452
 20
446.4592876751323
 30
0.0
  0
POINT
  5
3489
  8
DEFPOINTS
 62
     0
 10
1375.43936904452
 20
446.4592876751323
 30
0.0
  0
ENDBLK
  5
3480
  8
0
  0
BLOCK
  8
0
  2
*D298
 70
     1
 10
0.0
 20
0.0
 30
0.0
  3
*D298
  1

  0
LINE
  5
348E
  8
DIMENSIONS
  6
BYBLOCK
 62
     0
 10
227.5135480829091
 20
440.3252591466773
 30
0.0
 11
210.1347207169014
 21
440.3252591466773
 31
0.0
  0
LINE
  5
348F
  8
DIMENSIONS
  6
BYBLOCK
 62
     0
 10
227.513548082909
 20
454.3252591466773
 30
0.0
 11
210.1347207169014
 21
454.3252591466773
 31
0.0
  0
LINE
  5
3490
  8
DIMENSIONS
  6
BYBLOCK
 62
     0
 10
210.3147207169014
 20
445.3252591466773
 30
0.0
 11
210.3147207169014
 21
449.3252591466773
 31
0.0
  0
SOLID
  5
3491
  8
DIMENSIONS
 62
     0
 10
209.4813873835681
 20
445.3252591466773
 30
0.0
 11
211.1480540502348
 21
445.3252591466773
 31
0.0
 12
210.3147207169014
 22
440.3252591466773
 32
0.0
 13
210.3147207169014
 23
440.3252591466773
 33
0.0
  0
SOLID
  5
3492
  8
DIMENSIONS
 62
     0
 10
211.1480540502348
 20
449.3252591466773
 30
0.0
 11
209.4813873835681
 21
449.3252591466773
 31
0.0
 12
210.3147207169014
 22
454.3252591466773
 32
0.0
 13
210.3147207169014
 23
454.3252591466773
 33
0.0
  0
TEXT
  5
3493
  8
DIMENSIONS
  6
CONTINUOUS
 62
     5
 10
204.0372207169015
 20
420.6202591466773
 30
0.0
 40
5.0
  1
14 [0.55]
 50
90.0
  0
POINT
  5
3494
  8
DEFPOINTS
 62
     0
 10
229.0135480829091
 20
440.3252591466773
 30
0.0
  0
POINT
  5
3495
  8
DEFPOINTS
 62
     0
 10
229.013548082909
 20
454.3252591466773
 30
0.0
  0
POINT
  5
3496
  8
DEFPOINTS
 62
     0
 10
210.3147207169014
 20
454.3252591466773
 30
0.0
  0
ENDBLK
  5
348D
  8
0
  0
BLOCK
  8
0
  2
*D299
 70
     1
 10
0.0
 20
0.0
 30
0.0
  3
*D299
  1

  0
LINE
  5
349E
  8
DIMENSIONS
  6
BYBLOCK
 62
     0
 10
227.5135480829091
 20
440.3252591466773
 30
0.0
 11
216.3800640846402
 21
440.3252591466773
 31
0.0
  0
LINE
  5
349F
  8
DIMENSIONS
  6
BYBLOCK
 62
     0
 10
227.513548082909
 20
454.3252591466773
 30
0.0
 11
216.3800640846402
 21
454.3252591466773
 31
0.0
  0
LINE
  5
34A0
  8
DIMENSIONS
  6
BYBLOCK
 62
     0
 10
216.5600640846402
 20
440.3252591466773
 30
0.0
 11
216.5600640846402
 21
454.3252591466773
 31
0.0
  0
LINE
  5
34A1
  8
DIMENSIONS
  6
BYBLOCK
 62
     0
 10
216.5600640846402
 20
435.3252591466773
 30
0.0
 11
216.5600640846402
 21
430.3252591466773
 31
0.0
  0
LINE
  5
34A2
  8
DIMENSIONS
  6
BYBLOCK
 62
     0
 10
216.5600640846402
 20
459.3252591466773
 30
0.0
 11
216.5600640846402
 21
464.3252591466773
 31
0.0
  0
SOLID
  5
34A3
  8
DIMENSIONS
 62
     0
 10
217.3933974179735
 20
435.3252591466773
 30
0.0
 11
215.7267307513068
 21
435.3252591466773
 31
0.0
 12
216.5600640846402
 22
440.3252591466773
 32
0.0
 13
216.5600640846402
 23
440.3252591466773
 33
0.0
  0
SOLID
  5
34A4
  8
DIMENSIONS
 62
     0
 10
215.7267307513068
 20
459.3252591466773
 30
0.0
 11
217.3933974179735
 21
459.3252591466773
 31
0.0
 12
216.5600640846402
 22
454.3252591466773
 32
0.0
 13
216.5600640846402
 23
454.3252591466773
 33
0.0
  0
TEXT
  5
34A5
  8
DIMENSIONS
  6
CONTINUOUS
 62
     5
 10
214.1650640846402
 20
427.3956832516316
 30
0.0
 40
5.0
  1
14 [0.55]
 50
90.0
  0
POINT
  5
34A6
  8
DEFPOINTS
 62
     0
 10
229.0135480829091
 20
440.3252591466773
 30
0.0
  0
POINT
  5
34A8
  8
DEFPOINTS
 62
     0
 10
229.013548082909
 20
454.3252591466773
 30
0.0
  0
POINT
  5
34A9
  8
DEFPOINTS
 62
     0
 10
216.5600640846402
 20
454.3252591466773
 30
0.0
  0
ENDBLK
  5
349D
  8
0
  0
BLOCK
  8
0
  2
*X300
 70
     1
 10
0.0
 20
0.0
 30
0.0
  3
*X300
  1

  0
LINE
  5
34BA
  8
0
  6
CONTINUOUS
 10
199.1329536895474
 20
1703.112663375469
 30
0.0
 11
263.845549460756
 21
1767.825259146677
 31
0.0
1001
ACAD
1010
0.0
1020
0.0
1030
0.0
  0
LINE
  5
34BB
  8
0
  6
CONTINUOUS
 10
199.1329536895474
 20
1632.401985256814
 30
0.0
 11
334.5562275794108
 21
1767.825259146677
 31
0.0
1001
ACAD
1010
0.0
1020
0.0
1030
0.0
  0
LINE
  5
34BC
  8
0
  6
CONTINUOUS
 10
199.1329536895474
 20
1561.691307138159
 30
0.0
 11
405.2669056980655
 21
1767.825259146677
 31
0.0
1001
ACAD
1010
0.0
1020
0.0
1030
0.0
  0
LINE
  5
34BD
  8
0
  6
CONTINUOUS
 10
199.1329536895473
 20
1490.980629019504
 30
0.0
 11
475.9775838167203
 21
1767.825259146677
 31
0.0
1001
ACAD
1010
0.0
1020
0.0
1030
0.0
  0
LINE
  5
34BE
  8
0
  6
CONTINUOUS
 10
201.6882619353751
 20
1422.825259146677
 30
0.0
 11
546.6882619353751
 21
1767.825259146677
 31
0.0
1001
ACAD
1010
0.0
1020
0.0
1030
0.0
  0
LINE
  5
34BF
  8
0
  6
CONTINUOUS
 10
272.3989400540299
 20
1422.825259146677
 30
0.0
 11
609.1329536895473
 21
1759.559272782195
 31
0.0
1001
ACAD
1010
0.0
1020
0.0
1030
0.0
  0
LINE
  5
34C0
  8
0
  6
CONTINUOUS
 10
343.1096181726846
 20
1422.825259146677
 30
0.0
 11
609.1329536895473
 21
1688.84859466354
 31
0.0
1001
ACAD
1010
0.0
1020
0.0
1030
0.0
  0
LINE
  5
34C1
  8
0
  6
CONTINUOUS
 10
413.8202962913393
 20
1422.825259146677
 30
0.0
 11
609.1329536895473
 21
1618.137916544885
 31
0.0
1001
ACAD
1010
0.0
1020
0.0
1030
0.0
  0
LINE
  5
34C2
  8
0
  6
CONTINUOUS
 10
484.5309744099941
 20
1422.825259146677
 30
0.0
 11
609.1329536895473
 21
1547.427238426231
 31
0.0
1001
ACAD
1010
0.0
1020
0.0
1030
0.0
  0
LINE
  5
34C3
  8
0
  6
CONTINUOUS
 10
555.2416525286488
 20
1422.825259146677
 30
0.0
 11
609.1329536895473
 21
1476.716560307576
 31
0.0
1001
ACAD
1010
0.0
1020
0.0
1030
0.0
  0
LINE
  5
34C4
  8
0
  6
CONTINUOUS
 10
193.1329536895474
 20
565.7418134769925
 30
0.0
 11
263.7163993592321
 21
636.3252591466772
 31
0.0
1001
ACAD
1010
0.0
1020
0.0
1030
0.0
  0
LINE
  5
34C5
  8
0
  6
CONTINUOUS
 10
193.1329536895474
 20
495.0311353583378
 30
0.0
 11
334.4270774778869
 21
636.3252591466772
 31
0.0
1001
ACAD
1010
0.0
1020
0.0
1030
0.0
  0
LINE
  5
34C6
  8
0
  6
CONTINUOUS
 10
223.1377555965418
 20
454.3252591466774
 30
0.0
 11
405.1377555965416
 21
636.3252591466772
 31
0.0
1001
ACAD
1010
0.0
1020
0.0
1030
0.0
  0
LINE
  5
34C7
  8
0
  6
CONTINUOUS
 10
293.8484337151966
 20
454.3252591466774
 30
0.0
 11
475.8484337151964
 21
636.3252591466772
 31
0.0
1001
ACAD
1010
0.0
1020
0.0
1030
0.0
  0
LINE
  5
34C8
  8
0
  6
CONTINUOUS
 10
364.5591118338513
 20
454.3252591466774
 30
0.0
 11
546.5591118338511
 21
636.3252591466772
 31
0.0
1001
ACAD
1010
0.0
1020
0.0
1030
0.0
  0
LINE
  5
34C9
  8
0
  6
CONTINUOUS
 10
435.2697899525061
 20
454.3252591466774
 30
0.0
 11
615.1329536895473
 21
634.1884228837187
 31
0.0
1001
ACAD
1010
0.0
1020
0.0
1030
0.0
  0
LINE
  5
34CA
  8
0
  6
CONTINUOUS
 10
505.9804680711608
 20
454.3252591466774
 30
0.0
 11
615.1329536895473
 21
563.4777447650639
 31
0.0
1001
ACAD
1010
0.0
1020
0.0
1030
0.0
  0
LINE
  5
34CB
  8
0
  6
CONTINUOUS
 10
576.6911461898155
 20
454.3252591466774
 30
0.0
 11
615.1329536895473
 21
492.7670666464091
 31
0.0
1001
ACAD
1010
0.0
1020
0.0
1030
0.0
  0
ENDBLK
  5
34D1
  8
0
  0
ENDSEC
  0
SECTION
  2
ENTITIES
  0
TEXT
  5
698
  8
DIMENSIONS
  6
BYBLOCK
 10
178.4698660298072
 20
400.1020324403623
 30
0.0
 40
5.0
  1
Note:
  0
TEXT
  5
699
  8
DIMENSIONS
  6
BYBLOCK
 10
178.6037920700927
 20
389.5730645923692
 30
0.0
 40
5.0
  1
Primary dimensions in millimeters.
  0
TEXT
  5
69A
  8
DIMENSIONS
  6
BYBLOCK
 10
178.8252060064828
 20
379.0010389835852
 30
0.0
 40
5.0
  1
Secondary dimensions in inches.
  0
POLYLINE
  5
1AEF
  8
0
  6
BYBLOCK
 66
     1
 10
0.0
 20
0.0
 30
0.0
 70
     1
  0
VERTEX
  5
34AD
  8
0
  6
BYBLOCK
 10
92.78357888199866
 20
368.9538648304128
 30
0.0
  0
VERTEX
  5
34AE
  8
0
  6
BYBLOCK
 10
92.78357888199866
 20
1897.735226160892
 30
0.0
  0
VERTEX
  5
34AF
  8
0
  6
BYBLOCK
 10
715.4823284970961
 20
1897.735226160892
 30
0.0
  0
VERTEX
  5
34B0
  8
0
  6
BYBLOCK
 10
715.4823284970961
 20
368.9538648304128
 30
0.0
  0
SEQEND
  5
34D2
  8
0
  6
BYBLOCK
  0
CIRCLE
  5
1DE5
  8
0
 10
229.1329536895474
 20
1805.325259146677
 30
0.0
 40
4.0
  0
CIRCLE
  5
1DE6
  8
0
 10
579.1329536895473
 20
1805.325259146677
 30
0.0
 40
4.0
  0
CIRCLE
  5
1DE7
  8
0
 10
620.8829536895473
 20
1350.325259146677
 30
0.0
 40
4.0
  0
CIRCLE
  5
1DE8
  8
0
 10
187.3829536895474
 20
1350.325259146677
 30
0.0
 40
4.0
  0
CIRCLE
  5
1FA0
  8
0
 10
620.8829536895473
 20
895.3252591466772
 30
0.0
 40
4.0
  0
CIRCLE
  5
1FA1
  8
0
 10
187.3829536895474
 20
895.3252591466772
 30
0.0
 40
4.0
  0
CIRCLE
  5
1FA2
  8
0
 10
229.1329536895474
 20
440.3252591466773
 30
0.0
 40
4.0
  0
CIRCLE
  5
1FA3
  8
0
 10
579.1329536895473
 20
440.3252591466773
 30
0.0
 40
4.0
  0
POLYLINE
  5
2102
  8
0
 66
     1
 10
0.0
 20
0.0
 30
0.0
 70
     1
  0
VERTEX
  5
34B1
  8
0
 10
199.1329536895474
 20
1767.825259146677
 30
0.0
  0
VERTEX
  5
34B2
  8
0
 10
609.1329536895473
 20
1767.825259146677
 30
0.0
  0
VERTEX
  5
34B3
  8
0
 10
609.1329536895473
 20
1422.825259146677
 30
0.0
  0
VERTEX
  5
34B4
  8
0
 10
199.1329536895474
 20
1422.825259146677
 30
0.0
  0
SEQEND
  5
34D3
  8
0
  0
POLYLINE
  5
2115
  8
0
 66
     1
 10
0.0
 20
0.0
 30
0.0
 70
     1
  0
VERTEX
  5
34B5
  8
0
 10
193.1329536895474
 20
636.3252591466772
 30
0.0
  0
VERTEX
  5
34B6
  8
0
 10
615.1329536895473
 20
636.3252591466772
 30
0.0
  0
VERTEX
  5
34B7
  8
0
 10
615.1329536895473
 20
454.3252591466773
 30
0.0
  0
VERTEX
  5
34B8
  8
0
 10
193.1329536895474
 20
454.3252591466773
 30
0.0
  0
SEQEND
  5
34D4
  8
0
  0
INSERT
  5
22FF
  8
0
  6
BYBLOCK
  2
*X300
 10
0.0
 20
0.0
 30
0.0
  0
POLYLINE
  5
30E7
  8
0
  6
CONTINUOUS
 66
     1
 10
0.0
 20
0.0
 30
0.0
 70
     1
  0
VERTEX
  5
34CC
  8
0
  6
CONTINUOUS
 10
174.1329536895474
 20
1820.325259146677
 30
0.0
  0
VERTEX
  5
34CD
  8
0
  6
CONTINUOUS
 10
634.1329536895473
 20
1820.325259146677
 30
0.0
  0
VERTEX
  5
34CE
  8
0
  6
CONTINUOUS
 10
634.1329536895473
 20
420.3252591466774
 30
0.0
  0
VERTEX
  5
34CF
  8
0
  6
CONTINUOUS
 10
174.1329536895474
 20
420.3252591466774
 30
0.0
  0
SEQEND
  5
34D5
  8
0
  6
CONTINUOUS
  0
DIMENSION
  5
3147
  8
DIMENSIONS
  6
BYBLOCK
  2
*D245
 10
634.1329536895473
 20
1864.55160301382
 30
0.0
 11
404.1329536895474
 21
1868.75410301382
 31
0.0
 70
    32
  3
DUAL-DIM
 13
174.1329536895474
 23
1820.325259146677
 33
0.0
 14
634.1329536895473
 24
1820.325259146677
 34
0.0
1001
ACAD
1000
DSTYLE
1002
{
1070
   287
1070
     5
1070
   144
1040
1.0
1070
   279
1070
     2
1002
}
  0
DIMENSION
  5
3156
  8
DIMENSIONS
  6
BYBLOCK
  2
*D246
 10
609.1329536895473
 20
1847.85204741277
 30
0.0
 11
404.1329536895473
 21
1852.05454741277
 31
0.0
 70
    32
  3
DUAL-DIM
 13
199.1329536895474
 23
1767.825259146677
 33
0.0
 14
609.1329536895473
 24
1767.825259146677
 34
0.0
1001
ACAD
1000
DSTYLE
1002
{
1070
   287
1070
     5
1070
   144
1040
1.0
1070
   279
1070
     2
1002
}
  0
DIMENSION
  5
3165
  8
DIMENSIONS
  6
BYBLOCK
  2
*D247
 10
579.1329536895473
 20
1832.428883862501
 30
0.0
 11
404.1329536895473
 21
1836.631383862501
 31
0.0
 70
    32
  3
DUAL-DIM
 13
229.1329536895474
 23
1805.325259146677
 33
0.0
 14
579.1329536895473
 24
1805.325259146677
 34
0.0
1001
ACAD
1000
DSTYLE
1002
{
1070
   287
1070
     5
1070
   144
1040
1.0
1070
   279
1070
     2
1002
}
  0
DIMENSION
  5
3174
  8
DIMENSIONS
  6
BYBLOCK
  2
*D255
 10
650.171981519942
 20
1820.325259146677
 30
0.0
 11
645.969481519942
 21
1839.297759146677
 31
0.0
 70
    32
  3
DUAL-DIM
 13
579.1329536895473
 23
1805.325259146677
 33
0.0
 14
634.1329536895473
 24
1820.325259146677
 34
0.0
 50
90.0
1001
ACAD
1000
DSTYLE
1002
{
1070
   287
1070
     3
1070
   172
1070
     0
1070
   174
1070
     0
1070
   175
1070
     0
1070
   289
1070
     3
1070
    40
1040
1.0
1070
   140
1040
5.0
1070
   147
1040
1.0
1070
    42
1040
1.5
1070
    44
1040
0.18
1070
   141
1040
2.5
1070
    41
1040
5.0
1070
   144
1040
1.0
1070
   279
1070
     0
1002
}
  0
DIMENSION
  5
3183
  8
DIMENSIONS
  6
BYBLOCK
  2
*D249
 10
650.351981519942
 20
1350.325259146677
 30
0.0
 11
646.1494815199419
 21
1577.825259146677
 31
0.0
 70
    32
  3
DUAL-DIM
 13
579.1329536895473
 23
1805.325259146677
 33
0.0
 14
620.8829536895473
 24
1350.325259146677
 34
0.0
 50
90.0
1001
ACAD
1000
DSTYLE
1002
{
1070
   287
1070
     5
1070
   144
1040
1.0
1070
   279
1070
     2
1002
}
  0
DIMENSION
  5
3192
  8
DIMENSIONS
  6
BYBLOCK
  2
*D250
 10
650.351981519942
 20
895.3252591466772
 30
0.0
 11
646.1494815199419
 21
1122.825259146677
 31
0.0
 70
    32
  3
DUAL-DIM
 13
620.8829536895473
 23
1350.325259146677
 33
0.0
 14
620.8829536895473
 24
895.3252591466772
 34
0.0
 50
90.0
1001
ACAD
1000
DSTYLE
1002
{
1070
   287
1070
     5
1070
   144
1040
1.0
1070
   279
1070
     2
1002
}
  0
DIMENSION
  5
31A1
  8
DIMENSIONS
  6
BYBLOCK
  2
*D251
 10
650.351981519942
 20
440.3252591466773
 30
0.0
 11
646.149481519942
 21
667.8252591466772
 31
0.0
 70
    32
  3
DUAL-DIM
 13
620.8829536895473
 23
895.3252591466772
 33
0.0
 14
579.1329536895473
 24
440.3252591466773
 34
0.0
 50
90.0
1001
ACAD
1000
DSTYLE
1002
{
1070
   287
1070
     5
1070
   144
1040
1.0
1070
   279
1070
     2
1002
}
  0
DIMENSION
  5
31B0
  8
DIMENSIONS
  6
BYBLOCK
  2
*D254
 10
650.351981519942
 20
420.3252591466774
 30
0.0
 11
646.149481519942
 21
401.0752591466774
 31
0.0
 70
    32
  3
DUAL-DIM
 13
579.1329536895473
 23
440.3252591466773
 33
0.0
 14
634.1329536895473
 24
420.3252591466774
 34
0.0
 50
90.0
1001
ACAD
1000
DSTYLE
1002
{
1070
   287
1070
     3
1070
   172
1070
     0
1070
   174
1070
     0
1070
   175
1070
     0
1070
   289
1070
     3
1070
    40
1040
1.0
1070
   140
1040
5.0
1070
   147
1040
1.0
1070
    42
1040
1.5
1070
    44
1040
0.18
1070
   141
1040
2.5
1070
    41
1040
5.0
1070
   144
1040
1.0
1070
   279
1070
     0
1002
}
  0
DIMENSION
  5
31BF
  8
DIMENSIONS
  6
BYBLOCK
  2
*D253
 10
668.1884321886675
 20
440.3252591466773
 30
0.0
 11
663.9859321886674
 21
1122.825259146677
 31
0.0
 70
    32
  3
DUAL-DIM
 13
579.1329536895473
 23
1805.325259146677
 33
0.0
 14
579.1329536895473
 24
440.3252591466773
 34
0.0
 50
90.0
1001
ACAD
1000
DSTYLE
1002
{
1070
   287
1070
     5
1070
   144
1040
1.0
1070
   279
1070
     2
1002
}
  0
DIMENSION
  5
31EE
  8
DIMENSIONS
  6
BYBLOCK
  2
*D256
 10
156.1780483987707
 20
1767.825259146677
 30
0.0
 11
151.9755483987706
 21
1794.075259146677
 31
0.0
 70
    32
  3
DUAL-DIM
 13
174.1329536895474
 23
1820.325259146677
 33
0.0
 14
199.1329536895474
 24
1767.825259146677
 34
0.0
 50
90.0
1001
ACAD
1000
DSTYLE
1002
{
1070
   287
1070
     5
1070
   144
1040
1.0
1070
   279
1070
     2
1002
}
  0
DIMENSION
  5
31FD
  8
DIMENSIONS
  6
BYBLOCK
  2
*D257
 10
156.1780483987707
 20
1422.825259146677
 30
0.0
 11
151.9755483987706
 21
1595.325259146677
 31
0.0
 70
    32
  3
DUAL-DIM
 13
199.1329536895474
 23
1767.825259146677
 33
0.0
 14
199.1329536895474
 24
1422.825259146677
 34
0.0
 50
90.0
1001
ACAD
1000
DSTYLE
1002
{
1070
   287
1070
     5
1070
   144
1040
1.0
1070
   279
1070
     2
1002
}
  0
DIMENSION
  5
320C
  8
DIMENSIONS
  6
BYBLOCK
  2
*D258
 10
160.5472546390411
 20
454.3252591466773
 30
0.0
 11
156.3447546390411
 21
437.3252591466774
 31
0.0
 70
    32
  3
DUAL-DIM
 13
174.1329536895474
 23
420.3252591466774
 33
0.0
 14
193.1329536895474
 24
454.3252591466773
 34
0.0
 50
90.0
1001
ACAD
1000
DSTYLE
1002
{
1070
   287
1070
     5
1070
   144
1040
1.0
1070
   279
1070
     2
1002
}
  0
DIMENSION
  5
321B
  8
DIMENSIONS
  6
BYBLOCK
  2
*D259
 10
160.5472546390411
 20
636.3252591466772
 30
0.0
 11
156.3447546390411
 21
545.3252591466772
 31
0.0
 70
    32
  3
DUAL-DIM
 13
193.1329536895474
 23
454.3252591466773
 33
0.0
 14
193.1329536895474
 24
636.3252591466772
 34
0.0
 50
90.0
1001
ACAD
1000
DSTYLE
1002
{
1070
   287
1070
     5
1070
   144
1040
1.0
1070
   279
1070
     2
1002
}
  0
DIMENSION
  5
322A
  8
DIMENSIONS
  6
BYBLOCK
  2
*D262
 10
174.1329536895474
 20
653.5703827999612
 30
0.0
 11
155.1604536895474
 21
657.7728827999612
 31
0.0
 70
    32
  3
DUAL-DIM
 13
193.1329536895474
 23
636.3252591466772
 33
0.0
 14
174.1329536895474
 24
636.3252591466772
 34
0.0
1001
ACAD
1000
DSTYLE
1002
{
1070
   287
1070
     3
1070
   172
1070
     0
1070
   174
1070
     0
1070
   175
1070
     0
1070
   289
1070
     3
1070
    40
1040
1.0
1070
   140
1040
5.0
1070
   147
1040
1.0
1070
    42
1040
1.5
1070
    44
1040
0.18
1070
   141
1040
2.5
1070
    41
1040
5.0
1070
   144
1040
1.0
1070
   279
1070
     0
1002
}
  0
DIMENSION
  5
3239
  8
DIMENSIONS
  6
BYBLOCK
  2
*D261
 10
615.1329536895473
 20
653.5703827999612
 30
0.0
 11
404.1329536895473
 21
657.7728827999612
 31
0.0
 70
    32
  3
DUAL-DIM
 13
193.1329536895474
 23
636.3252591466772
 33
0.0
 14
615.1329536895473
 24
636.3252591466772
 34
0.0
1001
ACAD
1000
DSTYLE
1002
{
1070
   287
1070
     5
1070
   144
1040
1.0
1070
   279
1070
     2
1002
}
  0
DIMENSION
  5
3258
  8
DIMENSIONS
  6
BYBLOCK
  2
*D264
 10
624.8829528067182
 20
895.3279167080005
 30
0.0
 11
589.1804606865198
 21
895.3041963122142
 31
0.0
 70
   163
  3
DUAL-DIM
 15
616.8829545723764
 25
895.3226015853539
 35
0.0
 40
0.0
1001
ACAD
1000
DSTYLE
1002
{
1070
   287
1070
     3
1070
   172
1070
     0
1070
   174
1070
     0
1070
   175
1070
     0
1070
   289
1070
     3
1070
    40
1040
1.0
1070
   140
1040
5.0
1070
   147
1040
1.0
1070
    42
1040
1.5
1070
    44
1040
0.18
1070
   141
1040
2.5
1070
    41
1040
5.0
1070
   279
1070
     0
1002
}
1001
ACAD_DSTYLE_DIMRADIAL_EXT1
1070
   387
1070
     1
1070
   388
1040
0.0
1070
   390
1040
6.283185307179586
  0
DIMENSION
  5
3272
  8
DIMENSIONS
  6
BYBLOCK
  2
*D265
 10
127.6215580172134
 20
420.3252591466774
 30
0.0
 11
123.4190580172133
 21
1120.325259146677
 31
0.0
 70
    32
  3
DUAL-DIM
 13
174.1329536895474
 23
1820.325259146677
 33
0.0
 14
174.1329536895474
 24
420.3252591466774
 34
0.0
 50
90.0
1001
ACAD
1000
DSTYLE
1002
{
1070
   287
1070
     5
1070
   144
1040
1.0
1070
   279
1070
     2
1002
}
  0
DIMENSION
  5
3281
  8
DIMENSIONS
  6
BYBLOCK
  2
*D268
 10
174.1329536895474
 20
1334.259612368157
 30
0.0
 11
150.3104536895474
 21
1338.462112368157
 31
0.0
 70
    32
  3
DUAL-DIM
 13
187.3829536895474
 23
1350.325259146677
 33
0.0
 14
174.1329536895474
 24
1350.325259146677
 34
0.0
1001
ACAD
1000
DSTYLE
1002
{
1070
   287
1070
     3
1070
   172
1070
     0
1070
   174
1070
     0
1070
   175
1070
     0
1070
   289
1070
     3
1070
    40
1040
1.0
1070
   140
1040
5.0
1070
   147
1040
1.0
1070
    42
1040
1.5
1070
    44
1040
0.18
1070
   141
1040
2.5
1070
    41
1040
5.0
1070
   144
1040
1.0
1070
   279
1070
     0
1002
}
  0
DIMENSION
  5
3290
  8
DIMENSIONS
  6
BYBLOCK
  2
*D267
 10
620.8829536895473
 20
1334.259612368157
 30
0.0
 11
404.1329536895473
 21
1338.462112368157
 31
0.0
 70
    32
  3
DUAL-DIM
 13
187.3829536895474
 23
1350.325259146677
 33
0.0
 14
620.8829536895473
 24
1350.325259146677
 34
0.0
1001
ACAD
1000
DSTYLE
1002
{
1070
   287
1070
     5
1070
   144
1040
1.0
1070
   279
1070
     2
1002
}
  0
VIEWPORT
  5
B1C
 67
     1
  8
0
 10
5.25
 20
3.5
 30
0.0
 40
12.6
 41
8.4
 68
     1
 69
     1
1001
ACAD
1000
MVIEW
1002
{
1070
    16
1010
0.0
1020
0.0
1030
0.0
1010
0.0
1020
0.0
1030
1.0
1040
0.0
1040
8.4
1040
5.25
1040
3.5
1040
50.0
1040
0.0
1040
0.0
1070
     0
1070
   100
1070
     0
1070
     3
1070
     0
1070
     0
1070
     0
1070
     0
1040
0.0
1040
0.0
1040
0.0
1040
0.5
1040
0.5
1040
0.0
1040
0.0
1070
     0
1002
{
1002
}
1002
}
  0
VIEWPORT
  5
B1D
 67
     1
  8
0
 10
5.25
 20
3.5
 30
0.0
 40
8.4
 41
5.600000000000001
 68
     2
 69
     2
1001
ACAD
1000
MVIEW
1002
{
1070
    16
1010
0.0
1020
0.0
1030
0.0
1010
0.0
1020
0.0
1030
1.0
1040
0.0
1040
278.6419840998563
1040
207.1268606538857
1040
36.27547653054833
1040
50.0
1040
0.0
1040
0.0
1070
     0
1070
   100
1070
     0
1070
     3
1070
     0
1070
     0
1070
     0
1070
     0
1040
0.0
1040
0.0
1040
0.0
1040
0.5
1040
0.5
1040
0.0
1040
0.0
1070
     0
1002
{
1002
}
1002
}
  0
ENDSEC
  0
EOF
