  0
SECTION
  2
HEADER
  9
$ACADVER
  1
AC1009
  9
$DWGCODEPAGE
  3
ansi_1252
  9
$INSBASE
 10
0.0
 20
0.0
 30
0.0
  9
$EXTMIN
 10
-43.96508290606744
 20
45.93804230968999
 30
0.0
  9
$EXTMAX
 10
691.644806619151
 20
1756.495010296562
 30
0.0
  9
$LIMMIN
 10
0.0
 20
0.0
  9
$LIMMAX
 10
594.0
 20
420.0
  9
$ORTHOMODE
 70
     0
  9
$REGENMODE
 70
     1
  9
$FILLMODE
 70
     1
  9
$QTEXTMODE
 70
     0
  9
$MIRRTEXT
 70
     1
  9
$DRAGMODE
 70
     2
  9
$LTSCALE
 40
32.67
  9
$OSMODE
 70
   511
  9
$ATTMODE
 70
     1
  9
$TEXTSIZE
 40
0.2
  9
$TRACEWID
 40
0.05
  9
$TEXTSTYLE
  7
STANDARD
  9
$CLAYER
  8
DIMENSIONS
  9
$CELTYPE
  6
BYBLOCK
  9
$CECOLOR
 62
   256
  9
$DIMSCALE
 40
1.0
  9
$DIMASZ
 40
5.0
  9
$DIMEXO
 40
1.5
  9
$DIMDLI
 40
1.0
  9
$DIMRND
 40
0.0
  9
$DIMDLE
 40
0.0
  9
$DIMEXE
 40
0.18
  9
$DIMTP
 40
0.0
  9
$DIMTM
 40
0.0
  9
$DIMTXT
 40
5.0
  9
$DIMCEN
 40
2.5
  9
$DIMTSZ
 40
0.0
  9
$DIMTOL
 70
     0
  9
$DIMLIM
 70
     0
  9
$DIMTIH
 70
     0
  9
$DIMTOH
 70
     0
  9
$DIMSE1
 70
     0
  9
$DIMSE2
 70
     0
  9
$DIMTAD
 70
     1
  9
$DIMZIN
 70
     8
  9
$DIMBLK
  1

  9
$DIMASO
 70
     1
  9
$DIMSHO
 70
     1
  9
$DIMPOST
  1

  9
$DIMAPOST
  1

  9
$DIMALT
 70
     1
  9
$DIMALTD
 70
     2
  9
$DIMALTF
 40
0.03937
  9
$DIMLFAC
 40
1.0
  9
$DIMTOFL
 70
     0
  9
$DIMTVP
 40
0.0
  9
$DIMTIX
 70
     0
  9
$DIMSOXD
 70
     0
  9
$DIMSAH
 70
     0
  9
$DIMBLK1
  1

  9
$DIMBLK2
  1

  9
$DIMSTYLE
  2
DUAL-DIM
  9
$DIMCLRD
 70
     0
  9
$DIMCLRE
 70
     0
  9
$DIMCLRT
 70
     5
  9
$DIMTFAC
 40
1.0
  9
$DIMGAP
 40
1.0
  9
$LUNITS
 70
     2
  9
$LUPREC
 70
     4
  9
$SKETCHINC
 40
0.1
  9
$FILLETRAD
 40
15.0
  9
$AUNITS
 70
     0
  9
$AUPREC
 70
     0
  9
$MENU
  1
.
  9
$ELEVATION
 40
0.0
  9
$PELEVATION
 40
0.0
  9
$THICKNESS
 40
0.0
  9
$LIMCHECK
 70
     0
  9
$CHAMFERA
 40
0.0
  9
$CHAMFERB
 40
0.0
  9
$SKPOLY
 70
     0
  9
$TDCREATE
 40
2457428.354677859
  9
$TDUPDATE
 40
2457438.489349514
  9
$TDINDWG
 40
0.0704654977
  9
$TDUSRTIMER
 40
2457438.445750996
  9
$USRTIMER
 70
     1
  9
$ANGBASE
 50
0.0
  9
$ANGDIR
 70
     0
  9
$PDMODE
 70
     3
  9
$PDSIZE
 40
0.3125
  9
$PLINEWID
 40
0.0
  9
$COORDS
 70
     2
  9
$SPLFRAME
 70
     0
  9
$SPLINETYPE
 70
     6
  9
$SPLINESEGS
 70
     8
  9
$ATTDIA
 70
     0
  9
$ATTREQ
 70
     1
  9
$HANDLING
 70
     1
  9
$HANDSEED
  5
193D
  9
$SURFTAB1
 70
     6
  9
$SURFTAB2
 70
     6
  9
$SURFTYPE
 70
     6
  9
$SURFU
 70
     6
  9
$SURFV
 70
     6
  9
$UCSNAME
  2

  9
$UCSORG
 10
0.0
 20
0.0
 30
0.0
  9
$UCSXDIR
 10
1.0
 20
0.0
 30
0.0
  9
$UCSYDIR
 10
0.0
 20
1.0
 30
0.0
  9
$PUCSNAME
  2

  9
$PUCSORG
 10
0.0
 20
0.0
 30
0.0
  9
$PUCSXDIR
 10
1.0
 20
0.0
 30
0.0
  9
$PUCSYDIR
 10
0.0
 20
1.0
 30
0.0
  9
$USERI1
 70
     0
  9
$USERI2
 70
     0
  9
$USERI3
 70
     0
  9
$USERI4
 70
     0
  9
$USERI5
 70
     0
  9
$USERR1
 40
0.0
  9
$USERR2
 40
0.0
  9
$USERR3
 40
0.0
  9
$USERR4
 40
0.0
  9
$USERR5
 40
0.0
  9
$WORLDVIEW
 70
     1
  9
$SHADEDGE
 70
     3
  9
$SHADEDIF
 70
    70
  9
$TILEMODE
 70
     1
  9
$MAXACTVP
 70
    64
  9
$PLIMCHECK
 70
     0
  9
$PEXTMIN
 10
1.000000000000000E+20
 20
1.000000000000000E+20
 30
1.000000000000000E+20
  9
$PEXTMAX
 10
-1.000000000000000E+20
 20
-1.000000000000000E+20
 30
-1.000000000000000E+20
  9
$PLIMMIN
 10
0.0
 20
0.0
  9
$PLIMMAX
 10
0.0
 20
0.0
  9
$UNITMODE
 70
     0
  9
$VISRETAIN
 70
     1
  9
$PLINEGEN
 70
     0
  9
$PSLTSCALE
 70
     1
  0
ENDSEC
  0
SECTION
  2
TABLES
  0
TABLE
  2
VPORT
 70
     1
  0
VPORT
  2
*ACTIVE
 70
     0
 10
0.0
 20
0.0
 11
1.0
 21
1.0
 12
967.6744984182669
 22
143.1951727991906
 13
0.0
 23
0.0
 14
0.5
 24
0.5
 15
0.5
 25
0.5
 16
0.0
 26
0.0
 36
1.0
 17
0.0
 27
0.0
 37
0.0
 40
1024.92631497485
 41
2.450549450549451
 42
50.0
 43
0.0
 44
0.0
 50
0.0
 51
0.0
 71
    16
 72
   100
 73
     1
 74
     3
 75
     0
 76
     0
 77
     0
 78
     2
  0
ENDTAB
  0
TABLE
  2
LTYPE
 70
     6
  0
LTYPE
  2
CONTINUOUS
 70
     0
  3
Solid line
 72
    65
 73
     0
 40
0.0
  0
LTYPE
  2
CENTER
 70
     0
  3
____ _ ____ _ ____ _ ____ _ ____ _ ____ _ ____
 72
    65
 73
     4
 40
0.6
 49
0.375
 49
-0.075
 49
0.075
 49
-0.075
  0
LTYPE
  2
HIDDEN
 70
     0
  3
- - - - - - - - - - - - - - - - - - - -
 72
    65
 73
     2
 40
0.2
 49
0.1
 49
-0.1
  0
LTYPE
  2
PHANTOM
 70
     0
  3
_____ _ _ _____ _ _ _____ _ _ _____
 72
    65
 73
     6
 40
0.8
 49
0.45
 49
-0.05
 49
0.1
 49
-0.05
 49
0.1
 49
-0.05
  0
LTYPE
  2
DOT
 70
     0
  3
. . . . . . . . . . . . . . . . . . . .
 72
    65
 73
     2
 40
0.2
 49
0.1
 49
-0.1
  0
LTYPE
  2
DASHED
 70
     0
  3
- - - - - - - - - - - - - - - - - - - -
 72
    65
 73
     2
 40
0.2
 49
0.1
 49
-0.1
  0
ENDTAB
  0
TABLE
  2
LAYER
 70
    15
  0
LAYER
  2
0
 70
     0
 62
     7
  6
CONTINUOUS
  0
LAYER
  2
DEFAULT_1
 70
     0
 62
     7
  6
CENTER
  0
LAYER
  2
DEFAULT_2
 70
     0
 62
     8
  6
HIDDEN
  0
LAYER
  2
DEFAULT_3
 70
     0
 62
     7
  6
PHANTOM
  0
LAYER
  2
01___PRT_ALL_DTM_PLN
 70
     0
 62
     7
  6
CONTINUOUS
  0
LAYER
  2
01___PRT_DEF_DTM_PLN
 70
     0
 62
     7
  6
CONTINUOUS
  0
LAYER
  2
02___PRT_ALL_AXES
 70
     0
 62
     7
  6
CONTINUOUS
  0
LAYER
  2
03___PRT_ALL_CURVES
 70
     0
 62
     7
  6
CONTINUOUS
  0
LAYER
  2
04___PRT_ALL_DTM_PNT
 70
     0
 62
     7
  6
CONTINUOUS
  0
LAYER
  2
05___PRT_ALL_DTM_CSYS
 70
     0
 62
     7
  6
CONTINUOUS
  0
LAYER
  2
05___PRT_DEF_DTM_CSYS
 70
     0
 62
     7
  6
CONTINUOUS
  0
LAYER
  2
06___PRT_ALL_SURFS
 70
     0
 62
     7
  6
CONTINUOUS
  0
LAYER
  2
DEFPOINTS
 70
     0
 62
     7
  6
CONTINUOUS
  0
LAYER
  2
DIMENSIONS
 70
     0
 62
     2
  6
CONTINUOUS
  0
LAYER
  2
AM_5
 70
     0
 62
     3
  6
CONTINUOUS
  0
ENDTAB
  0
TABLE
  2
STYLE
 70
     2
  0
STYLE
  2
STANDARD
 70
     0
 40
0.0
 41
1.0
 50
0.0
 71
     0
 42
0.2
  3
arial.ttf
  4

  0
STYLE
  2
TEXTSTYLE_1
 70
     0
 40
0.0
 41
0.8
 50
0.0
 71
     0
 42
0.2
  3
gdt
  4

  0
ENDTAB
  0
TABLE
  2
VIEW
 70
     0
  0
ENDTAB
  0
TABLE
  2
UCS
 70
     0
  0
ENDTAB
  0
TABLE
  2
APPID
 70
    11
  0
APPID
  2
ACAD
 70
     0
  0
APPID
  2
ACAECLAYERSTANDARD
 70
     0
  0
APPID
  2
ACAD_DSTYLE_DIMRADIAL_EXTE
 70
     0
  0
APPID
  2
ACAD_DSTYLE_DIMJOGGED_JOGA
 70
     0
  0
APPID
  2
ACAD_DSTYLE_DIMJAG
 70
     0
  0
APPID
  2
ACAD_DSTYLE_DIMBREAK
 70
     0
  0
APPID
  2
ACAD_PSEXT
 70
     0
  0
APPID
  2
ACAD_DSTYLE_DIMINSPECT
 70
     0
  0
APPID
  2
ACAD_DSTYLE_DIMRADIAL_EXT0
 70
     0
  0
APPID
  2
ACAD_DSTYLE_DIMJOGGED_JOG0
 70
     0
  0
APPID
  2
ACAD_DSTYLE_DIMTALN
 70
     0
  0
ENDTAB
  0
TABLE
  2
DIMSTYLE
 70
     6
  0
DIMSTYLE
  2
STANDARD
 70
     0
  3

  4

  5

  6

  7

 40
1.0
 41
0.18
 42
0.0625
 43
0.38
 44
0.18
 45
0.0
 46
0.0
 47
0.0
 48
0.0
140
0.18
141
0.09
142
0.0
143
25.4
144
1.0
145
0.0
146
1.0
147
0.09
 71
     0
 72
     0
 73
     1
 74
     1
 75
     0
 76
     0
 77
     0
 78
     0
170
     0
171
     2
172
     0
173
     0
174
     0
175
     0
176
     0
177
     0
178
     0
  0
DIMSTYLE
  2
DUAL-DIM
 70
     0
  3

  4

  5

  6

  7

 40
1.0
 41
5.0
 42
1.5
 43
1.0
 44
0.18
 45
0.0
 46
0.0
 47
0.0
 48
0.0
140
5.0
141
2.5
142
0.0
143
0.03937
144
1.0
145
0.0
146
1.0
147
1.0
 71
     0
 72
     0
 73
     0
 74
     0
 75
     0
 76
     0
 77
     1
 78
     8
170
     1
171
     2
172
     0
173
     0
174
     0
175
     0
176
     0
177
     0
178
     5
  0
DIMSTYLE
  2
AM_ISO
 70
     0
  3

  4
"
  5

  6

  7

 40
1.0
 41
3.5
 42
1.0
 43
10.0
 44
1.0
 45
0.0
 46
0.0
 47
0.1
 48
0.1
140
3.5
141
0.0
142
0.0
143
0.0393701
144
1.0
145
0.0
146
0.71
147
1.5
 71
     0
 72
     0
 73
     0
 74
     0
 75
     0
 76
     0
 77
     1
 78
     8
170
     0
171
     2
172
     1
173
     0
174
     0
175
     0
176
   256
177
   256
178
     2
  0
DIMSTYLE
  2
AM_ISO$3
 70
     0
  3

  4
"
  5

  6

  7

 40
1.0
 41
3.5
 42
1.0
 43
10.0
 44
1.0
 45
0.0
 46
0.0
 47
0.1
 48
0.1
140
3.5
141
0.0
142
0.0
143
0.0393701
144
1.0
145
0.0
146
0.71
147
1.5
 71
     0
 72
     0
 73
     0
 74
     1
 75
     0
 76
     0
 77
     1
 78
     8
170
     0
171
     2
172
     0
173
     0
174
     0
175
     0
176
   256
177
   256
178
     2
  0
DIMSTYLE
  2
AM_ISO$0
 70
     0
  3

  4
"
  5

  6

  7

 40
1.0
 41
3.5
 42
1.0
 43
10.0
 44
1.0
 45
0.0
 46
0.0
 47
0.1
 48
0.1
140
3.5
141
0.0
142
0.0
143
0.0393701
144
1.0
145
0.0
146
0.71
147
1.5
 71
     0
 72
     0
 73
     0
 74
     0
 75
     0
 76
     0
 77
     1
 78
     8
170
     0
171
     2
172
     1
173
     0
174
     0
175
     0
176
   256
177
   256
178
     2
  0
DIMSTYLE
  2
STANDARD$0
 70
     0
  3

  4

  5

  6

  7

 40
16.5
 41
0.18
 42
0.0625
 43
0.38
 44
0.18
 45
0.0
 46
0.0
 47
0.0
 48
0.0
140
0.18
141
0.09
142
0.0
143
25.4
144
1.0
145
0.0
146
1.0
147
0.09
 71
     0
 72
     0
 73
     1
 74
     1
 75
     0
 76
     0
 77
     0
 78
     0
170
     0
171
     2
172
     0
173
     0
174
     0
175
     0
176
     0
177
     0
178
     0
  0
ENDTAB
  0
ENDSEC
  0
SECTION
  2
BLOCKS
  0
BLOCK
  8
0
  2
$MODEL_SPACE
 70
     0
 10
0.0
 20
0.0
 30
0.0
  3
$MODEL_SPACE
  1

  0
ENDBLK
  5
110
  8
0
  0
BLOCK
 67
     1
  8
0
  2
$PAPER_SPACE
 70
     0
 10
0.0
 20
0.0
 30
0.0
  3
$PAPER_SPACE
  1

  0
ENDBLK
  5
112
 67
     1
  8
0
  0
BLOCK
  8
0
  2
_FILLED
 70
     0
 10
0.0
 20
0.0
 30
0.0
  3
_FILLED
  1

  0
SOLID
  5
3D
  8
0
  6
BYBLOCK
 62
     0
 10
0.0
 20
0.0
 30
0.0
 11
-1.0
 21
0.2
 31
0.0
 12
-1.0
 22
-0.2
 32
0.0
 13
-1.0
 23
-0.2
 33
0.0
  0
ENDBLK
  5
3E
  8
0
  6
BYBLOCK
 62
     0
  0
BLOCK
  8
0
  2
*D265
 70
     1
 10
0.0
 20
0.0
 30
0.0
  3
*D265
  1

  0
LINE
  5
17D7
  8
DIMENSIONS
  6
BYBLOCK
 62
     0
 10
150.8729768382327
 20
1650.186014567584
 30
0.0
 11
150.8729768382327
 21
1679.566159740563
 31
0.0
  0
LINE
  5
17D8
  8
DIMENSIONS
  6
BYBLOCK
 62
     0
 10
455.8729768382329
 20
1650.186014567584
 30
0.0
 11
455.8729768382329
 21
1679.566159740563
 31
0.0
  0
LINE
  5
17D9
  8
DIMENSIONS
  6
BYBLOCK
 62
     0
 10
155.8729768382327
 20
1679.386159740563
 30
0.0
 11
450.8729768382329
 21
1679.386159740563
 31
0.0
  0
SOLID
  5
17DA
  8
DIMENSIONS
 62
     0
 10
155.8729768382327
 20
1680.219493073897
 30
0.0
 11
155.8729768382327
 21
1678.55282640723
 31
0.0
 12
150.8729768382327
 22
1679.386159740563
 32
0.0
 13
150.8729768382327
 23
1679.386159740563
 33
0.0
  0
SOLID
  5
17DB
  8
DIMENSIONS
 62
     0
 10
450.8729768382329
 20
1678.55282640723
 30
0.0
 11
450.8729768382329
 21
1680.219493073897
 31
0.0
 12
455.8729768382329
 22
1679.386159740563
 32
0.0
 13
455.8729768382329
 23
1679.386159740563
 33
0.0
  0
TEXT
  5
17DC
  8
DIMENSIONS
  6
CONTINUOUS
 62
     5
 10
285.9929768382328
 20
1681.781159740563
 30
0.0
 40
5.0
  1
305 [12.01]
  0
POINT
  5
17DD
  8
DEFPOINTS
 62
     0
 10
150.8729768382327
 20
1648.686014567584
 30
0.0
  0
POINT
  5
17DE
  8
DEFPOINTS
 62
     0
 10
455.8729768382329
 20
1648.686014567584
 30
0.0
  0
POINT
  5
17DF
  8
DEFPOINTS
 62
     0
 10
455.8729768382329
 20
1679.386159740563
 30
0.0
  0
ENDBLK
  5
17D6
  8
0
  0
BLOCK
  8
0
  2
*D266
 70
     1
 10
0.0
 20
0.0
 30
0.0
  3
*D266
  1

  0
LINE
  5
17E6
  8
DIMENSIONS
  6
BYBLOCK
 62
     0
 10
130.8729768382326
 20
1640.186014567586
 30
0.0
 11
130.8729768382326
 21
1697.364624427964
 31
0.0
  0
LINE
  5
17E7
  8
DIMENSIONS
  6
BYBLOCK
 62
     0
 10
475.8729768382329
 20
1640.186014567586
 30
0.0
 11
475.8729768382329
 21
1697.364624427964
 31
0.0
  0
LINE
  5
17E8
  8
DIMENSIONS
  6
BYBLOCK
 62
     0
 10
135.8729768382326
 20
1697.184624427964
 30
0.0
 11
470.8729768382329
 21
1697.184624427964
 31
0.0
  0
SOLID
  5
17E9
  8
DIMENSIONS
 62
     0
 10
135.8729768382326
 20
1698.017957761297
 30
0.0
 11
135.8729768382326
 21
1696.35129109463
 31
0.0
 12
130.8729768382326
 22
1697.184624427964
 32
0.0
 13
130.8729768382326
 23
1697.184624427964
 33
0.0
  0
SOLID
  5
17EA
  8
DIMENSIONS
 62
     0
 10
470.8729768382329
 20
1696.35129109463
 30
0.0
 11
470.8729768382329
 21
1698.017957761297
 31
0.0
 12
475.8729768382329
 22
1697.184624427964
 32
0.0
 13
475.8729768382329
 23
1697.184624427964
 33
0.0
  0
TEXT
  5
17EB
  8
DIMENSIONS
  6
CONTINUOUS
 62
     5
 10
285.9929768382328
 20
1699.579624427964
 30
0.0
 40
5.0
  1
345 [13.58]
  0
POINT
  5
17EC
  8
DEFPOINTS
 62
     0
 10
130.8729768382326
 20
1638.686014567586
 30
0.0
  0
POINT
  5
17ED
  8
DEFPOINTS
 62
     0
 10
475.8729768382329
 20
1638.686014567586
 30
0.0
  0
POINT
  5
17EE
  8
DEFPOINTS
 62
     0
 10
475.8729768382329
 20
1697.184624427964
 30
0.0
  0
ENDBLK
  5
17E5
  8
0
  0
BLOCK
  8
0
  2
*D267
 70
     1
 10
0.0
 20
0.0
 30
0.0
  3
*D267
  1

  0
LINE
  5
17F5
  8
DIMENSIONS
  6
BYBLOCK
 62
     0
 10
121.3729768382327
 20
1636.186014567584
 30
0.0
 11
121.3729768382327
 21
1715.506384387931
 31
0.0
  0
LINE
  5
17F6
  8
DIMENSIONS
  6
BYBLOCK
 62
     0
 10
485.3729768382329
 20
1636.186014567584
 30
0.0
 11
485.3729768382329
 21
1715.506384387931
 31
0.0
  0
LINE
  5
17F7
  8
DIMENSIONS
  6
BYBLOCK
 62
     0
 10
126.3729768382327
 20
1715.326384387931
 30
0.0
 11
480.3729768382329
 21
1715.326384387931
 31
0.0
  0
SOLID
  5
17F8
  8
DIMENSIONS
 62
     0
 10
126.3729768382327
 20
1716.159717721264
 30
0.0
 11
126.3729768382327
 21
1714.493051054597
 31
0.0
 12
121.3729768382327
 22
1715.326384387931
 32
0.0
 13
121.3729768382327
 23
1715.326384387931
 33
0.0
  0
SOLID
  5
17F9
  8
DIMENSIONS
 62
     0
 10
480.3729768382329
 20
1714.493051054597
 30
0.0
 11
480.3729768382329
 21
1716.159717721264
 31
0.0
 12
485.3729768382329
 22
1715.326384387931
 32
0.0
 13
485.3729768382329
 23
1715.326384387931
 33
0.0
  0
TEXT
  5
17FA
  8
DIMENSIONS
  6
CONTINUOUS
 62
     5
 10
285.9929768382328
 20
1717.721384387931
 30
0.0
 40
5.0
  1
364 [14.33]
  0
POINT
  5
17FB
  8
DEFPOINTS
 62
     0
 10
121.3729768382327
 20
1634.686014567584
 30
0.0
  0
POINT
  5
17FC
  8
DEFPOINTS
 62
     0
 10
485.3729768382329
 20
1634.686014567584
 30
0.0
  0
POINT
  5
17FD
  8
DEFPOINTS
 62
     0
 10
485.3729768382329
 20
1715.326384387931
 30
0.0
  0
ENDBLK
  5
17F4
  8
0
  0
BLOCK
  8
0
  2
*D268
 70
     1
 10
0.0
 20
0.0
 30
0.0
  3
*D268
  1

  0
LINE
  5
1804
  8
DIMENSIONS
  6
BYBLOCK
 62
     0
 10
500.8729768382329
 20
1665.186014567586
 30
0.0
 11
500.8729768382329
 21
1734.273722277552
 31
0.0
  0
LINE
  5
1805
  8
DIMENSIONS
  6
BYBLOCK
 62
     0
 10
105.8729768382326
 20
1665.186014567586
 30
0.0
 11
105.8729768382326
 21
1734.273722277552
 31
0.0
  0
LINE
  5
1806
  8
DIMENSIONS
  6
BYBLOCK
 62
     0
 10
495.8729768382329
 20
1734.093722277551
 30
0.0
 11
110.8729768382326
 21
1734.093722277551
 31
0.0
  0
SOLID
  5
1807
  8
DIMENSIONS
 62
     0
 10
495.8729768382329
 20
1733.260388944218
 30
0.0
 11
495.8729768382329
 21
1734.927055610885
 31
0.0
 12
500.8729768382329
 22
1734.093722277551
 32
0.0
 13
500.8729768382329
 23
1734.093722277551
 33
0.0
  0
SOLID
  5
1808
  8
DIMENSIONS
 62
     0
 10
110.8729768382326
 20
1734.927055610885
 30
0.0
 11
110.8729768382326
 21
1733.260388944218
 31
0.0
 12
105.8729768382326
 22
1734.093722277551
 32
0.0
 13
105.8729768382326
 23
1734.093722277551
 33
0.0
  0
TEXT
  5
1809
  8
DIMENSIONS
  6
CONTINUOUS
 62
     5
 10
285.9929768382328
 20
1736.488722277552
 30
0.0
 40
5.0
  1
395 [15.55]
  0
POINT
  5
180A
  8
DEFPOINTS
 62
     0
 10
500.8729768382329
 20
1663.686014567586
 30
0.0
  0
POINT
  5
180B
  8
DEFPOINTS
 62
     0
 10
105.8729768382326
 20
1663.686014567586
 30
0.0
  0
POINT
  5
180C
  8
DEFPOINTS
 62
     0
 10
105.8729768382326
 20
1734.093722277551
 30
0.0
  0
ENDBLK
  5
1803
  8
0
  0
BLOCK
  8
0
  2
*D269
 70
     1
 10
0.0
 20
0.0
 30
0.0
  3
*D269
  1

  0
LINE
  5
1813
  8
DIMENSIONS
  6
BYBLOCK
 62
     0
 10
104.3729768382326
 20
1663.686014567586
 30
0.0
 11
49.99583341355507
 21
1663.686014567586
 31
0.0
  0
LINE
  5
1814
  8
DIMENSIONS
  6
BYBLOCK
 62
     0
 10
149.3729768382327
 20
1648.686014567584
 30
0.0
 11
49.99583341355507
 21
1648.686014567584
 31
0.0
  0
LINE
  5
1815
  8
DIMENSIONS
  6
BYBLOCK
 62
     0
 10
50.17583341355507
 20
1648.686014567584
 30
0.0
 11
50.17583341355507
 21
1615.741014567584
 31
0.0
  0
LINE
  5
1816
  8
DIMENSIONS
  6
BYBLOCK
 62
     0
 10
50.17583341355507
 20
1658.686014567586
 30
0.0
 11
50.17583341355507
 21
1653.686014567584
 31
0.0
  0
SOLID
  5
1817
  8
DIMENSIONS
 62
     0
 10
51.0091667468884
 20
1658.686014567586
 30
0.0
 11
49.34250008022173
 21
1658.686014567586
 31
0.0
 12
50.17583341355507
 22
1663.686014567586
 32
0.0
 13
50.17583341355507
 23
1663.686014567586
 33
0.0
  0
SOLID
  5
1818
  8
DIMENSIONS
 62
     0
 10
49.34250008022173
 20
1653.686014567584
 30
0.0
 11
51.0091667468884
 21
1653.686014567584
 31
0.0
 12
50.17583341355507
 22
1648.686014567584
 32
0.0
 13
50.17583341355507
 23
1648.686014567584
 33
0.0
  0
TEXT
  5
1819
  8
DIMENSIONS
  6
CONTINUOUS
 62
     5
 10
47.78083341355477
 20
1615.981014567584
 30
0.0
 40
5.0
  1
15 [0.59]
 50
90.0
  0
POINT
  5
181A
  8
DEFPOINTS
 62
     0
 10
105.8729768382326
 20
1663.686014567586
 30
0.0
  0
POINT
  5
181B
  8
DEFPOINTS
 62
     0
 10
150.8729768382327
 20
1648.686014567584
 30
0.0
  0
POINT
  5
191D
  8
DEFPOINTS
 62
     0
 10
50.17583341355507
 20
1648.686014567584
 30
0.0
  0
ENDBLK
  5
1812
  8
0
  0
BLOCK
  8
0
  2
*D270
 70
     1
 10
0.0
 20
0.0
 30
0.0
  3
*D270
  1

  0
LINE
  5
1822
  8
DIMENSIONS
  6
BYBLOCK
 62
     0
 10
149.3729768382327
 20
1648.686014567584
 30
0.0
 11
67.3492146048784
 21
1648.686014567584
 31
0.0
  0
LINE
  5
1823
  8
DIMENSIONS
  6
BYBLOCK
 62
     0
 10
119.8729768382327
 20
1634.686014567584
 30
0.0
 11
67.3492146048784
 21
1634.686014567584
 31
0.0
  0
LINE
  5
1824
  8
DIMENSIONS
  6
BYBLOCK
 62
     0
 10
67.5292146048784
 20
1634.686014567584
 30
0.0
 11
67.5292146048784
 21
1601.741014567584
 31
0.0
  0
LINE
  5
1825
  8
DIMENSIONS
  6
BYBLOCK
 62
     0
 10
67.5292146048784
 20
1643.686014567584
 30
0.0
 11
67.5292146048784
 21
1639.686014567584
 31
0.0
  0
SOLID
  5
1826
  8
DIMENSIONS
 62
     0
 10
68.36254793821173
 20
1643.686014567584
 30
0.0
 11
66.69588127154508
 21
1643.686014567584
 31
0.0
 12
67.5292146048784
 22
1648.686014567584
 32
0.0
 13
67.5292146048784
 23
1648.686014567584
 33
0.0
  0
SOLID
  5
1827
  8
DIMENSIONS
 62
     0
 10
66.69588127154508
 20
1639.686014567584
 30
0.0
 11
68.36254793821173
 21
1639.686014567584
 31
0.0
 12
67.5292146048784
 22
1634.686014567584
 32
0.0
 13
67.5292146048784
 23
1634.686014567584
 33
0.0
  0
TEXT
  5
1828
  8
DIMENSIONS
  6
CONTINUOUS
 62
     5
 10
65.13421460487825
 20
1601.981014567584
 30
0.0
 40
5.0
  1
14 [0.55]
 50
90.0
  0
POINT
  5
1829
  8
DEFPOINTS
 62
     0
 10
150.8729768382327
 20
1648.686014567584
 30
0.0
  0
POINT
  5
182A
  8
DEFPOINTS
 62
     0
 10
121.3729768382327
 20
1634.686014567584
 30
0.0
  0
POINT
  5
191C
  8
DEFPOINTS
 62
     0
 10
67.5292146048784
 20
1634.686014567584
 30
0.0
  0
ENDBLK
  5
1821
  8
0
  0
BLOCK
  8
0
  2
*D271
 70
     1
 10
0.0
 20
0.0
 30
0.0
  3
*D271
  1

  0
LINE
  5
1831
  8
DIMENSIONS
  6
BYBLOCK
 62
     0
 10
119.8729768382327
 20
1634.686014567584
 30
0.0
 11
86.55636368121128
 21
1634.686014567584
 31
0.0
  0
LINE
  5
1832
  8
DIMENSIONS
  6
BYBLOCK
 62
     0
 10
301.8729768382329
 20
1393.686014567584
 30
0.0
 11
86.55636368121127
 21
1393.686014567584
 31
0.0
  0
LINE
  5
1833
  8
DIMENSIONS
  6
BYBLOCK
 62
     0
 10
86.73636368121129
 20
1629.686014567584
 30
0.0
 11
86.73636368121127
 21
1398.686014567584
 31
0.0
  0
SOLID
  5
1834
  8
DIMENSIONS
 62
     0
 10
87.56969701454462
 20
1629.686014567584
 30
0.0
 11
85.90303034787796
 21
1629.686014567584
 31
0.0
 12
86.73636368121129
 22
1634.686014567584
 32
0.0
 13
86.73636368121129
 23
1634.686014567584
 33
0.0
  0
SOLID
  5
1835
  8
DIMENSIONS
 62
     0
 10
85.90303034787794
 20
1398.686014567584
 30
0.0
 11
87.5696970145446
 21
1398.686014567584
 31
0.0
 12
86.73636368121127
 22
1393.686014567584
 32
0.0
 13
86.73636368121127
 23
1393.686014567584
 33
0.0
  0
TEXT
  5
1836
  8
DIMENSIONS
  6
CONTINUOUS
 62
     5
 10
84.34136368121108
 20
1498.791014567584
 30
0.0
 40
5.0
  1
241 [9.49]
 50
90.0
  0
POINT
  5
1837
  8
DEFPOINTS
 62
     0
 10
121.3729768382327
 20
1634.686014567584
 30
0.0
  0
POINT
  5
1838
  8
DEFPOINTS
 62
     0
 10
303.3729768382329
 20
1393.686014567584
 30
0.0
  0
POINT
  5
1839
  8
DEFPOINTS
 62
     0
 10
86.73636368121127
 20
1393.686014567584
 30
0.0
  0
ENDBLK
  5
1830
  8
0
  0
BLOCK
  8
0
  2
*D272
 70
     1
 10
0.0
 20
0.0
 30
0.0
  3
*D272
  1

  0
LINE
  5
1840
  8
DIMENSIONS
  6
BYBLOCK
 62
     0
 10
301.8729768382329
 20
1393.686014567584
 30
0.0
 11
86.55636368121127
 21
1393.686014567584
 31
0.0
  0
LINE
  5
1841
  8
DIMENSIONS
  6
BYBLOCK
 62
     0
 10
119.8729768382327
 20
1196.686014567584
 30
0.0
 11
86.55636368121125
 21
1196.686014567584
 31
0.0
  0
LINE
  5
1842
  8
DIMENSIONS
  6
BYBLOCK
 62
     0
 10
86.73636368121127
 20
1388.686014567584
 30
0.0
 11
86.73636368121126
 21
1201.686014567584
 31
0.0
  0
SOLID
  5
1843
  8
DIMENSIONS
 62
     0
 10
87.5696970145446
 20
1388.686014567584
 30
0.0
 11
85.90303034787794
 21
1388.686014567584
 31
0.0
 12
86.73636368121127
 22
1393.686014567584
 32
0.0
 13
86.73636368121127
 23
1393.686014567584
 33
0.0
  0
SOLID
  5
1844
  8
DIMENSIONS
 62
     0
 10
85.90303034787793
 20
1201.686014567584
 30
0.0
 11
87.56969701454459
 21
1201.686014567584
 31
0.0
 12
86.73636368121126
 22
1196.686014567584
 32
0.0
 13
86.73636368121126
 23
1196.686014567584
 33
0.0
  0
TEXT
  5
1845
  8
DIMENSIONS
  6
CONTINUOUS
 62
     5
 10
84.34136368121108
 20
1279.513514567584
 30
0.0
 40
5.0
  1
197 [7.76]
 50
90.0
  0
POINT
  5
1846
  8
DEFPOINTS
 62
     0
 10
303.3729768382329
 20
1393.686014567584
 30
0.0
  0
POINT
  5
1847
  8
DEFPOINTS
 62
     0
 10
121.3729768382327
 20
1196.686014567584
 30
0.0
  0
POINT
  5
1848
  8
DEFPOINTS
 62
     0
 10
86.73636368121126
 20
1196.686014567584
 30
0.0
  0
ENDBLK
  5
183F
  8
0
  0
BLOCK
  8
0
  2
*D273
 70
     1
 10
0.0
 20
0.0
 30
0.0
  3
*D273
  1

  0
LINE
  5
184F
  8
DIMENSIONS
  6
BYBLOCK
 62
     0
 10
119.8729768382327
 20
1196.686014567584
 30
0.0
 11
86.55636368121125
 21
1196.686014567584
 31
0.0
  0
LINE
  5
1850
  8
DIMENSIONS
  6
BYBLOCK
 62
     0
 10
119.8729768382327
 20
951.6860145675848
 30
0.0
 11
86.55636368121124
 21
951.6860145675848
 31
0.0
  0
LINE
  5
1851
  8
DIMENSIONS
  6
BYBLOCK
 62
     0
 10
86.73636368121126
 20
1191.686014567584
 30
0.0
 11
86.73636368121124
 21
956.6860145675848
 31
0.0
  0
SOLID
  5
1852
  8
DIMENSIONS
 62
     0
 10
87.56969701454459
 20
1191.686014567584
 30
0.0
 11
85.90303034787793
 21
1191.686014567584
 31
0.0
 12
86.73636368121126
 22
1196.686014567584
 32
0.0
 13
86.73636368121126
 23
1196.686014567584
 33
0.0
  0
SOLID
  5
1853
  8
DIMENSIONS
 62
     0
 10
85.90303034787792
 20
956.6860145675848
 30
0.0
 11
87.56969701454457
 21
956.6860145675848
 31
0.0
 12
86.73636368121124
 22
951.6860145675848
 32
0.0
 13
86.73636368121124
 23
951.6860145675848
 33
0.0
  0
TEXT
  5
1854
  8
DIMENSIONS
  6
CONTINUOUS
 62
     5
 10
84.34136368121108
 20
1058.791014567585
 30
0.0
 40
5.0
  1
245 [9.65]
 50
90.0
  0
POINT
  5
1855
  8
DEFPOINTS
 62
     0
 10
121.3729768382327
 20
1196.686014567584
 30
0.0
  0
POINT
  5
1856
  8
DEFPOINTS
 62
     0
 10
121.3729768382327
 20
951.6860145675848
 30
0.0
  0
POINT
  5
1857
  8
DEFPOINTS
 62
     0
 10
86.73636368121124
 20
951.6860145675848
 30
0.0
  0
ENDBLK
  5
184E
  8
0
  0
BLOCK
  8
0
  2
*D274
 70
     1
 10
0.0
 20
0.0
 30
0.0
  3
*D274
  1

  0
LINE
  5
185E
  8
DIMENSIONS
  6
BYBLOCK
 62
     0
 10
119.8729768382327
 20
951.6860145675848
 30
0.0
 11
86.55636368121124
 21
951.6860145675848
 31
0.0
  0
LINE
  5
185F
  8
DIMENSIONS
  6
BYBLOCK
 62
     0
 10
301.8729768382329
 20
873.6860145675837
 30
0.0
 11
86.55636368121124
 21
873.6860145675837
 31
0.0
  0
LINE
  5
1860
  8
DIMENSIONS
  6
BYBLOCK
 62
     0
 10
86.73636368121124
 20
946.6860145675848
 30
0.0
 11
86.73636368121124
 21
878.6860145675837
 31
0.0
  0
SOLID
  5
1861
  8
DIMENSIONS
 62
     0
 10
87.56969701454457
 20
946.6860145675848
 30
0.0
 11
85.90303034787792
 21
946.6860145675848
 31
0.0
 12
86.73636368121124
 22
951.6860145675848
 32
0.0
 13
86.73636368121124
 23
951.6860145675848
 33
0.0
  0
SOLID
  5
1862
  8
DIMENSIONS
 62
     0
 10
85.90303034787792
 20
878.6860145675837
 30
0.0
 11
87.56969701454457
 21
878.6860145675837
 31
0.0
 12
86.73636368121124
 22
873.6860145675837
 32
0.0
 13
86.73636368121124
 23
873.6860145675837
 33
0.0
  0
TEXT
  5
1863
  8
DIMENSIONS
  6
CONTINUOUS
 62
     5
 10
84.3413636812113
 20
899.1685145675842
 30
0.0
 40
5.0
  1
78 [3.07]
 50
90.0
  0
POINT
  5
1864
  8
DEFPOINTS
 62
     0
 10
121.3729768382327
 20
951.6860145675848
 30
0.0
  0
POINT
  5
1865
  8
DEFPOINTS
 62
     0
 10
303.3729768382329
 20
873.6860145675837
 30
0.0
  0
POINT
  5
1866
  8
DEFPOINTS
 62
     0
 10
86.73636368121124
 20
873.6860145675837
 30
0.0
  0
ENDBLK
  5
185D
  8
0
  0
BLOCK
  8
0
  2
*D275
 70
     1
 10
0.0
 20
0.0
 30
0.0
  3
*D275
  1

  0
LINE
  5
186D
  8
DIMENSIONS
  6
BYBLOCK
 62
     0
 10
301.8729768382329
 20
873.6860145675837
 30
0.0
 11
86.55636368121124
 21
873.6860145675837
 31
0.0
  0
LINE
  5
186E
  8
DIMENSIONS
  6
BYBLOCK
 62
     0
 10
119.8729768382327
 20
724.6860145675837
 30
0.0
 11
86.55636368121122
 21
724.6860145675837
 31
0.0
  0
LINE
  5
186F
  8
DIMENSIONS
  6
BYBLOCK
 62
     0
 10
86.73636368121124
 20
868.6860145675837
 30
0.0
 11
86.73636368121123
 21
729.6860145675837
 31
0.0
  0
SOLID
  5
1870
  8
DIMENSIONS
 62
     0
 10
87.56969701454457
 20
868.6860145675837
 30
0.0
 11
85.90303034787792
 21
868.6860145675837
 31
0.0
 12
86.73636368121124
 22
873.6860145675837
 32
0.0
 13
86.73636368121124
 23
873.6860145675837
 33
0.0
  0
SOLID
  5
1871
  8
DIMENSIONS
 62
     0
 10
85.9030303478779
 20
729.6860145675837
 30
0.0
 11
87.56969701454456
 21
729.6860145675837
 31
0.0
 12
86.73636368121123
 22
724.6860145675837
 32
0.0
 13
86.73636368121123
 23
724.6860145675837
 33
0.0
  0
TEXT
  5
1872
  8
DIMENSIONS
  6
CONTINUOUS
 62
     5
 10
84.34136368121119
 20
783.5135145675837
 30
0.0
 40
5.0
  1
149 [5.87]
 50
90.0
  0
POINT
  5
1873
  8
DEFPOINTS
 62
     0
 10
303.3729768382329
 20
873.6860145675837
 30
0.0
  0
POINT
  5
1874
  8
DEFPOINTS
 62
     0
 10
121.3729768382327
 20
724.6860145675837
 30
0.0
  0
POINT
  5
1875
  8
DEFPOINTS
 62
     0
 10
86.73636368121123
 20
724.6860145675837
 30
0.0
  0
ENDBLK
  5
186C
  8
0
  0
BLOCK
  8
0
  2
*D276
 70
     1
 10
0.0
 20
0.0
 30
0.0
  3
*D276
  1

  0
LINE
  5
187C
  8
DIMENSIONS
  6
BYBLOCK
 62
     0
 10
119.8729768382327
 20
724.6860145675837
 30
0.0
 11
86.55636368121122
 21
724.6860145675837
 31
0.0
  0
LINE
  5
187D
  8
DIMENSIONS
  6
BYBLOCK
 62
     0
 10
301.8729768382329
 20
483.6860145675847
 30
0.0
 11
86.55636368121121
 21
483.6860145675847
 31
0.0
  0
LINE
  5
187E
  8
DIMENSIONS
  6
BYBLOCK
 62
     0
 10
86.73636368121123
 20
719.6860145675837
 30
0.0
 11
86.73636368121122
 21
488.6860145675847
 31
0.0
  0
SOLID
  5
187F
  8
DIMENSIONS
 62
     0
 10
87.56969701454456
 20
719.6860145675837
 30
0.0
 11
85.9030303478779
 21
719.6860145675837
 31
0.0
 12
86.73636368121123
 22
724.6860145675837
 32
0.0
 13
86.73636368121123
 23
724.6860145675837
 33
0.0
  0
SOLID
  5
1880
  8
DIMENSIONS
 62
     0
 10
85.90303034787789
 20
488.6860145675847
 30
0.0
 11
87.56969701454454
 21
488.6860145675847
 31
0.0
 12
86.73636368121122
 22
483.6860145675847
 32
0.0
 13
86.73636368121122
 23
483.6860145675847
 33
0.0
  0
TEXT
  5
1881
  8
DIMENSIONS
  6
CONTINUOUS
 62
     5
 10
84.34136368121119
 20
588.7910145675842
 30
0.0
 40
5.0
  1
241 [9.49]
 50
90.0
  0
POINT
  5
1882
  8
DEFPOINTS
 62
     0
 10
121.3729768382327
 20
724.6860145675837
 30
0.0
  0
POINT
  5
1883
  8
DEFPOINTS
 62
     0
 10
303.3729768382329
 20
483.6860145675847
 30
0.0
  0
POINT
  5
1884
  8
DEFPOINTS
 62
     0
 10
86.73636368121122
 20
483.6860145675847
 30
0.0
  0
ENDBLK
  5
187B
  8
0
  0
BLOCK
  8
0
  2
*D277
 70
     1
 10
0.0
 20
0.0
 30
0.0
  3
*D277
  1

  0
LINE
  5
188B
  8
DIMENSIONS
  6
BYBLOCK
 62
     0
 10
301.8729768382329
 20
483.6860145675847
 30
0.0
 11
86.55636368121121
 21
483.6860145675847
 31
0.0
  0
LINE
  5
188C
  8
DIMENSIONS
  6
BYBLOCK
 62
     0
 10
119.8729768382327
 20
222.1860145675861
 30
0.0
 11
86.5563636812112
 21
222.1860145675861
 31
0.0
  0
LINE
  5
188D
  8
DIMENSIONS
  6
BYBLOCK
 62
     0
 10
86.73636368121122
 20
478.6860145675847
 30
0.0
 11
86.7363636812112
 21
227.1860145675861
 31
0.0
  0
SOLID
  5
188E
  8
DIMENSIONS
 62
     0
 10
87.56969701454454
 20
478.6860145675847
 30
0.0
 11
85.90303034787789
 21
478.6860145675847
 31
0.0
 12
86.73636368121122
 22
483.6860145675847
 32
0.0
 13
86.73636368121122
 23
483.6860145675847
 33
0.0
  0
SOLID
  5
188F
  8
DIMENSIONS
 62
     0
 10
85.90303034787787
 20
227.1860145675861
 30
0.0
 11
87.56969701454453
 21
227.1860145675861
 31
0.0
 12
86.7363636812112
 22
222.1860145675861
 32
0.0
 13
86.7363636812112
 23
222.1860145675861
 33
0.0
  0
TEXT
  5
1890
  8
DIMENSIONS
  6
CONTINUOUS
 62
     5
 10
84.34136368121119
 20
332.6910145675854
 30
0.0
 40
5.0
  1
261.5 [10.30]
 50
90.0
  0
POINT
  5
1891
  8
DEFPOINTS
 62
     0
 10
303.3729768382329
 20
483.6860145675847
 30
0.0
  0
POINT
  5
1892
  8
DEFPOINTS
 62
     0
 10
121.3729768382327
 20
222.1860145675861
 30
0.0
  0
POINT
  5
1893
  8
DEFPOINTS
 62
     0
 10
86.7363636812112
 20
222.1860145675861
 30
0.0
  0
ENDBLK
  5
188A
  8
0
  0
BLOCK
  8
0
  2
*D278
 70
     1
 10
0.0
 20
0.0
 30
0.0
  3
*D278
  1

  0
LINE
  5
189A
  8
DIMENSIONS
  6
BYBLOCK
 62
     0
 10
119.8729768382327
 20
222.1860145675861
 30
0.0
 11
86.5563636812112
 21
222.1860145675861
 31
0.0
  0
LINE
  5
189B
  8
DIMENSIONS
  6
BYBLOCK
 62
     0
 10
119.8729768382327
 20
142.6860145675847
 30
0.0
 11
86.5563636812112
 21
142.6860145675847
 31
0.0
  0
LINE
  5
189C
  8
DIMENSIONS
  6
BYBLOCK
 62
     0
 10
86.7363636812112
 20
217.1860145675861
 30
0.0
 11
86.7363636812112
 21
147.6860145675847
 31
0.0
  0
SOLID
  5
189D
  8
DIMENSIONS
 62
     0
 10
87.56969701454453
 20
217.1860145675861
 30
0.0
 11
85.90303034787787
 21
217.1860145675861
 31
0.0
 12
86.7363636812112
 22
222.1860145675861
 32
0.0
 13
86.7363636812112
 23
222.1860145675861
 33
0.0
  0
SOLID
  5
189E
  8
DIMENSIONS
 62
     0
 10
85.90303034787787
 20
147.6860145675847
 30
0.0
 11
87.56969701454453
 21
147.6860145675847
 31
0.0
 12
86.7363636812112
 22
142.6860145675847
 32
0.0
 13
86.7363636812112
 23
142.6860145675847
 33
0.0
  0
TEXT
  5
189F
  8
DIMENSIONS
  6
CONTINUOUS
 62
     5
 10
84.34136368121125
 20
166.0085145675854
 30
0.0
 40
5.0
  1
79.5 [3.13]
 50
90.0
  0
POINT
  5
18A0
  8
DEFPOINTS
 62
     0
 10
121.3729768382327
 20
222.1860145675861
 30
0.0
  0
POINT
  5
18A1
  8
DEFPOINTS
 62
     0
 10
121.3729768382327
 20
142.6860145675847
 30
0.0
  0
POINT
  5
18A2
  8
DEFPOINTS
 62
     0
 10
86.7363636812112
 20
142.6860145675847
 30
0.0
  0
ENDBLK
  5
1899
  8
0
  0
BLOCK
  8
0
  2
*D279
 70
     1
 10
0.0
 20
0.0
 30
0.0
  3
*D279
  1

  0
LINE
  5
18A9
  8
DIMENSIONS
  6
BYBLOCK
 62
     0
 10
119.8729768382327
 20
142.6860145675847
 30
0.0
 11
69.50839319666593
 21
142.6860145675847
 31
0.0
  0
LINE
  5
18AA
  8
DIMENSIONS
  6
BYBLOCK
 62
     0
 10
149.3729768382327
 20
128.686014567586
 30
0.0
 11
69.50839319666593
 21
128.686014567586
 31
0.0
  0
LINE
  5
18AB
  8
DIMENSIONS
  6
BYBLOCK
 62
     0
 10
69.68839319666594
 20
142.6860145675847
 30
0.0
 11
69.68839319666594
 21
175.6310145675847
 31
0.0
  0
LINE
  5
18AC
  8
DIMENSIONS
  6
BYBLOCK
 62
     0
 10
69.68839319666594
 20
137.6860145675847
 30
0.0
 11
69.68839319666594
 21
133.686014567586
 31
0.0
  0
SOLID
  5
18AD
  8
DIMENSIONS
 62
     0
 10
70.52172652999927
 20
137.6860145675847
 30
0.0
 11
68.85505986333261
 21
137.6860145675847
 31
0.0
 12
69.68839319666594
 22
142.6860145675847
 32
0.0
 13
69.68839319666594
 23
142.6860145675847
 33
0.0
  0
SOLID
  5
18AE
  8
DIMENSIONS
 62
     0
 10
68.85505986333261
 20
133.686014567586
 30
0.0
 11
70.52172652999927
 21
133.686014567586
 31
0.0
 12
69.68839319666594
 22
128.686014567586
 32
0.0
 13
69.68839319666594
 23
128.686014567586
 33
0.0
  0
TEXT
  5
18AF
  8
DIMENSIONS
  6
CONTINUOUS
 62
     5
 10
67.29339319666599
 20
147.9260145675847
 30
0.0
 40
5.0
  1
14 [0.55]
 50
90.0
  0
POINT
  5
18B0
  8
DEFPOINTS
 62
     0
 10
121.3729768382327
 20
142.6860145675847
 30
0.0
  0
POINT
  5
18B1
  8
DEFPOINTS
 62
     0
 10
150.8729768382327
 20
128.686014567586
 30
0.0
  0
POINT
  5
191E
  8
DEFPOINTS
 62
     0
 10
69.68839319666594
 20
128.686014567586
 30
0.0
  0
ENDBLK
  5
18A8
  8
0
  0
BLOCK
  8
0
  2
*D280
 70
     1
 10
0.0
 20
0.0
 30
0.0
  3
*D280
  1

  0
LINE
  5
18B8
  8
DIMENSIONS
  6
BYBLOCK
 62
     0
 10
149.3729768382327
 20
128.686014567586
 30
0.0
 11
52.57752779810142
 21
128.686014567586
 31
0.0
  0
LINE
  5
18B9
  8
DIMENSIONS
  6
BYBLOCK
 62
     0
 10
104.3729768382326
 20
113.686014567586
 30
0.0
 11
52.57752779810142
 21
113.686014567586
 31
0.0
  0
LINE
  5
18BA
  8
DIMENSIONS
  6
BYBLOCK
 62
     0
 10
52.75752779810142
 20
128.686014567586
 30
0.0
 11
52.75752779810142
 21
161.631014567586
 31
0.0
  0
LINE
  5
18BB
  8
DIMENSIONS
  6
BYBLOCK
 62
     0
 10
52.75752779810142
 20
123.686014567586
 30
0.0
 11
52.75752779810142
 21
118.686014567586
 31
0.0
  0
SOLID
  5
18BC
  8
DIMENSIONS
 62
     0
 10
53.59086113143476
 20
123.686014567586
 30
0.0
 11
51.92419446476809
 21
123.686014567586
 31
0.0
 12
52.75752779810142
 22
128.686014567586
 32
0.0
 13
52.75752779810142
 23
128.686014567586
 33
0.0
  0
SOLID
  5
18BD
  8
DIMENSIONS
 62
     0
 10
51.92419446476809
 20
118.686014567586
 30
0.0
 11
53.59086113143476
 21
118.686014567586
 31
0.0
 12
52.75752779810142
 22
113.686014567586
 32
0.0
 13
52.75752779810142
 23
113.686014567586
 33
0.0
  0
TEXT
  5
18BE
  8
DIMENSIONS
  6
CONTINUOUS
 62
     5
 10
50.36252779810147
 20
133.926014567586
 30
0.0
 40
5.0
  1
15 [0.59]
 50
90.0
  0
POINT
  5
18BF
  8
DEFPOINTS
 62
     0
 10
150.8729768382327
 20
128.686014567586
 30
0.0
  0
POINT
  5
18C0
  8
DEFPOINTS
 62
     0
 10
105.8729768382326
 20
113.686014567586
 30
0.0
  0
POINT
  5
191F
  8
DEFPOINTS
 62
     0
 10
52.75752779810142
 20
113.686014567586
 30
0.0
  0
ENDBLK
  5
18B7
  8
0
  0
BLOCK
  8
0
  2
*D281
 70
     1
 10
0.0
 20
0.0
 30
0.0
  3
*D281
  1

  0
LINE
  5
18C7
  8
DIMENSIONS
  6
BYBLOCK
 62
     0
 10
502.3729768382329
 20
1663.686014567586
 30
0.0
 11
550.196551300471
 21
1663.686014567586
 31
0.0
  0
LINE
  5
18C8
  8
DIMENSIONS
  6
BYBLOCK
 62
     0
 10
477.3729768382329
 20
1638.686014567586
 30
0.0
 11
550.196551300471
 21
1638.686014567586
 31
0.0
  0
LINE
  5
18C9
  8
DIMENSIONS
  6
BYBLOCK
 62
     0
 10
550.0165513004711
 20
1638.686014567586
 30
0.0
 11
550.0165513004711
 21
1605.186014567586
 31
0.0
  0
LINE
  5
18CA
  8
DIMENSIONS
  6
BYBLOCK
 62
     0
 10
550.0165513004711
 20
1658.686014567586
 30
0.0
 11
550.0165513004711
 21
1643.686014567586
 31
0.0
  0
SOLID
  5
18CB
  8
DIMENSIONS
 62
     0
 10
550.8498846338044
 20
1658.686014567586
 30
0.0
 11
549.1832179671377
 21
1658.686014567586
 31
0.0
 12
550.0165513004711
 22
1663.686014567586
 32
0.0
 13
550.0165513004711
 23
1663.686014567586
 33
0.0
  0
SOLID
  5
18CC
  8
DIMENSIONS
 62
     0
 10
549.1832179671377
 20
1643.686014567586
 30
0.0
 11
550.8498846338044
 21
1643.686014567586
 31
0.0
 12
550.0165513004711
 22
1638.686014567586
 32
0.0
 13
550.0165513004711
 23
1638.686014567586
 33
0.0
  0
TEXT
  5
18CD
  8
DIMENSIONS
  6
CONTINUOUS
 62
     5
 10
547.6215513004709
 20
1605.981014567586
 30
0.0
 40
5.0
  1
25 [0.98]
 50
90.0
  0
POINT
  5
18CE
  8
DEFPOINTS
 62
     0
 10
500.8729768382329
 20
1663.686014567586
 30
0.0
  0
POINT
  5
18CF
  8
DEFPOINTS
 62
     0
 10
475.8729768382329
 20
1638.686014567586
 30
0.0
  0
POINT
  5
1920
  8
DEFPOINTS
 62
     0
 10
550.0165513004711
 20
1638.686014567586
 30
0.0
  0
ENDBLK
  5
18C6
  8
0
  0
BLOCK
  8
0
  2
*D282
 70
     1
 10
0.0
 20
0.0
 30
0.0
  3
*D282
  1

  0
LINE
  5
18D6
  8
DIMENSIONS
  6
BYBLOCK
 62
     0
 10
477.3729768382329
 20
1638.686014567586
 30
0.0
 11
524.5183082541993
 21
1638.686014567586
 31
0.0
  0
LINE
  5
18D7
  8
DIMENSIONS
  6
BYBLOCK
 62
     0
 10
477.3729768382329
 20
1403.686014567586
 30
0.0
 11
524.5183082541993
 21
1403.686014567586
 31
0.0
  0
LINE
  5
18D8
  8
DIMENSIONS
  6
BYBLOCK
 62
     0
 10
524.3383082541993
 20
1633.686014567586
 30
0.0
 11
524.3383082541993
 21
1408.686014567586
 31
0.0
  0
SOLID
  5
18D9
  8
DIMENSIONS
 62
     0
 10
525.1716415875327
 20
1633.686014567586
 30
0.0
 11
523.504974920866
 21
1633.686014567586
 31
0.0
 12
524.3383082541993
 22
1638.686014567586
 32
0.0
 13
524.3383082541993
 23
1638.686014567586
 33
0.0
  0
SOLID
  5
18DA
  8
DIMENSIONS
 62
     0
 10
523.504974920866
 20
1408.686014567586
 30
0.0
 11
525.1716415875327
 21
1408.686014567586
 31
0.0
 12
524.3383082541993
 22
1403.686014567586
 32
0.0
 13
524.3383082541993
 23
1403.686014567586
 33
0.0
  0
TEXT
  5
18DB
  8
DIMENSIONS
  6
CONTINUOUS
 62
     5
 10
521.9433082541991
 20
1505.791014567586
 30
0.0
 40
5.0
  1
235 [9.25]
 50
90.0
  0
POINT
  5
18DC
  8
DEFPOINTS
 62
     0
 10
475.8729768382329
 20
1638.686014567586
 30
0.0
  0
POINT
  5
18DD
  8
DEFPOINTS
 62
     0
 10
475.8729768382329
 20
1403.686014567586
 30
0.0
  0
POINT
  5
18DE
  8
DEFPOINTS
 62
     0
 10
524.3383082541993
 20
1403.686014567586
 30
0.0
  0
ENDBLK
  5
18D5
  8
0
  0
BLOCK
  8
0
  2
*D283
 70
     1
 10
0.0
 20
0.0
 30
0.0
  3
*D283
  1

  0
LINE
  5
18E5
  8
DIMENSIONS
  6
BYBLOCK
 62
     0
 10
477.3729768382329
 20
1403.686014567586
 30
0.0
 11
524.5183082541993
 21
1403.686014567586
 31
0.0
  0
LINE
  5
18E6
  8
DIMENSIONS
  6
BYBLOCK
 62
     0
 10
477.3729768382329
 20
758.6860145675857
 30
0.0
 11
524.5183082541993
 21
758.6860145675857
 31
0.0
  0
LINE
  5
18E7
  8
DIMENSIONS
  6
BYBLOCK
 62
     0
 10
524.3383082541993
 20
1398.686014567586
 30
0.0
 11
524.3383082541993
 21
763.6860145675857
 31
0.0
  0
SOLID
  5
18E8
  8
DIMENSIONS
 62
     0
 10
525.1716415875327
 20
1398.686014567586
 30
0.0
 11
523.504974920866
 21
1398.686014567586
 31
0.0
 12
524.3383082541993
 22
1403.686014567586
 32
0.0
 13
524.3383082541993
 23
1403.686014567586
 33
0.0
  0
SOLID
  5
18E9
  8
DIMENSIONS
 62
     0
 10
523.504974920866
 20
763.6860145675857
 30
0.0
 11
525.1716415875327
 21
763.6860145675857
 31
0.0
 12
524.3383082541993
 22
758.6860145675857
 32
0.0
 13
524.3383082541993
 23
758.6860145675857
 33
0.0
  0
TEXT
  5
18EA
  8
DIMENSIONS
  6
CONTINUOUS
 62
     5
 10
521.9433082541991
 20
1063.823514567586
 30
0.0
 40
5.0
  1
645 [25.39]
 50
90.0
  0
POINT
  5
18EB
  8
DEFPOINTS
 62
     0
 10
475.8729768382329
 20
1403.686014567586
 30
0.0
  0
POINT
  5
18EC
  8
DEFPOINTS
 62
     0
 10
475.8729768382329
 20
758.6860145675857
 30
0.0
  0
POINT
  5
18ED
  8
DEFPOINTS
 62
     0
 10
524.3383082541993
 20
758.6860145675857
 30
0.0
  0
ENDBLK
  5
18E4
  8
0
  0
BLOCK
  8
0
  2
*D284
 70
     1
 10
0.0
 20
0.0
 30
0.0
  3
*D284
  1

  0
LINE
  5
18F4
  8
DIMENSIONS
  6
BYBLOCK
 62
     0
 10
477.3729768382329
 20
758.6860145675857
 30
0.0
 11
524.5183082541993
 21
758.6860145675857
 31
0.0
  0
LINE
  5
18F5
  8
DIMENSIONS
  6
BYBLOCK
 62
     0
 10
477.3729768382329
 20
498.6860145675861
 30
0.0
 11
524.5183082541993
 21
498.6860145675861
 31
0.0
  0
LINE
  5
18F6
  8
DIMENSIONS
  6
BYBLOCK
 62
     0
 10
524.3383082541993
 20
753.6860145675857
 30
0.0
 11
524.3383082541993
 21
503.6860145675861
 31
0.0
  0
SOLID
  5
18F7
  8
DIMENSIONS
 62
     0
 10
525.1716415875327
 20
753.6860145675857
 30
0.0
 11
523.504974920866
 21
753.6860145675857
 31
0.0
 12
524.3383082541993
 22
758.6860145675857
 32
0.0
 13
524.3383082541993
 23
758.6860145675857
 33
0.0
  0
SOLID
  5
18F8
  8
DIMENSIONS
 62
     0
 10
523.504974920866
 20
503.6860145675861
 30
0.0
 11
525.1716415875327
 21
503.6860145675861
 31
0.0
 12
524.3383082541993
 22
498.6860145675861
 32
0.0
 13
524.3383082541993
 23
498.6860145675861
 33
0.0
  0
TEXT
  5
18F9
  8
DIMENSIONS
  6
CONTINUOUS
 62
     5
 10
521.9433082541992
 20
611.3510145675859
 30
0.0
 40
5.0
  1
260 [10.24]
 50
90.0
  0
POINT
  5
18FA
  8
DEFPOINTS
 62
     0
 10
475.8729768382329
 20
758.6860145675857
 30
0.0
  0
POINT
  5
18FB
  8
DEFPOINTS
 62
     0
 10
475.8729768382329
 20
498.6860145675861
 30
0.0
  0
POINT
  5
18FC
  8
DEFPOINTS
 62
     0
 10
524.3383082541993
 20
498.6860145675861
 30
0.0
  0
ENDBLK
  5
18F3
  8
0
  0
BLOCK
  8
0
  2
*D285
 70
     1
 10
0.0
 20
0.0
 30
0.0
  3
*D285
  1

  0
LINE
  5
1903
  8
DIMENSIONS
  6
BYBLOCK
 62
     0
 10
477.3729768382329
 20
498.6860145675861
 30
0.0
 11
524.5183082541993
 21
498.6860145675861
 31
0.0
  0
LINE
  5
1904
  8
DIMENSIONS
  6
BYBLOCK
 62
     0
 10
502.3729768382329
 20
113.686014567586
 30
0.0
 11
524.5183082541993
 21
113.686014567586
 31
0.0
  0
LINE
  5
1905
  8
DIMENSIONS
  6
BYBLOCK
 62
     0
 10
524.3383082541993
 20
493.6860145675861
 30
0.0
 11
524.3383082541993
 21
118.686014567586
 31
0.0
  0
SOLID
  5
1906
  8
DIMENSIONS
 62
     0
 10
525.1716415875327
 20
493.6860145675861
 30
0.0
 11
523.504974920866
 21
493.6860145675861
 31
0.0
 12
524.3383082541993
 22
498.6860145675861
 32
0.0
 13
524.3383082541993
 23
498.6860145675861
 33
0.0
  0
SOLID
  5
1907
  8
DIMENSIONS
 62
     0
 10
523.504974920866
 20
118.686014567586
 30
0.0
 11
525.1716415875327
 21
118.686014567586
 31
0.0
 12
524.3383082541993
 22
113.686014567586
 32
0.0
 13
524.3383082541993
 23
113.686014567586
 33
0.0
  0
TEXT
  5
1908
  8
DIMENSIONS
  6
CONTINUOUS
 62
     5
 10
521.9433082541993
 20
288.8060145675861
 30
0.0
 40
5.0
  1
385 [15.16]
 50
90.0
  0
POINT
  5
1909
  8
DEFPOINTS
 62
     0
 10
475.8729768382329
 20
498.6860145675861
 30
0.0
  0
POINT
  5
190A
  8
DEFPOINTS
 62
     0
 10
500.8729768382329
 20
113.686014567586
 30
0.0
  0
POINT
  5
190B
  8
DEFPOINTS
 62
     0
 10
524.3383082541993
 20
113.686014567586
 30
0.0
  0
ENDBLK
  5
1902
  8
0
  0
BLOCK
  8
0
  2
*D286
 70
     1
 10
0.0
 20
0.0
 30
0.0
  3
*D286
  1

  0
LINE
  5
1912
  8
DIMENSIONS
  6
BYBLOCK
 62
     0
 10
476.8729871229086
 20
142.6727918832838
 30
0.0
 11
436.4680360114168
 21
142.609937464557
 31
0.0
  0
TEXT
  5
1913
  8
DIMENSIONS
  6
CONTINUOUS
 62
     5
 10
437.1841850056978
 20
145.0860545090422
 30
0.0
 40
5.0
  1
Ø7 [Ø0.28]
 50
0.0891299188038545
  0
SOLID
  5
1914
  8
DIMENSIONS
 62
     0
 10
476.8742834645067
 20
141.839459558252
 30
0.0
 11
476.8716907813105
 21
143.5061242083156
 31
0.0
 12
481.8729810730994
 22
142.6805699328725
 32
0.0
 13
481.8729810730994
 23
142.6805699328725
 33
0.0
  0
LINE
  5
1915
  8
DIMENSIONS
  6
BYBLOCK
 62
     0
 10
482.8729768382329
 20
142.6860145675847
 30
0.0
 11
487.8729768382329
 21
142.6860145675847
 31
0.0
  0
LINE
  5
1916
  8
DIMENSIONS
  6
BYBLOCK
 62
     0
 10
485.3729768382329
 20
140.1860145675847
 30
0.0
 11
485.3729768382329
 21
145.1860145675847
 31
0.0
  0
POINT
  5
1917
  8
DEFPOINTS
 62
     0
 10
481.8729810730994
 20
142.6805699328725
 30
0.0
  0
POINT
  5
1918
  8
DEFPOINTS
 62
     0
 10
488.8729726033665
 20
142.6914592022968
 30
0.0
  0
ENDBLK
  5
1911
  8
0
  0
BLOCK
  8
0
  2
*D287
 70
     1
 10
0.0
 20
0.0
 30
0.0
  3
*D287
  1

  0
LINE
  5
1928
  8
DIMENSIONS
  6
BYBLOCK
 62
     0
 10
502.3729768382329
 20
113.686014567586
 30
0.0
 11
578.7711511090324
 21
113.686014567586
 31
0.0
  0
LINE
  5
1929
  8
DIMENSIONS
  6
BYBLOCK
 62
     0
 10
502.3729768382329
 20
1663.686014567586
 30
0.0
 11
578.7711511090325
 21
1663.686014567586
 31
0.0
  0
LINE
  5
192A
  8
DIMENSIONS
  6
BYBLOCK
 62
     0
 10
578.5911511090325
 20
118.686014567586
 30
0.0
 11
578.5911511090326
 21
1658.686014567586
 31
0.0
  0
SOLID
  5
192B
  8
DIMENSIONS
 62
     0
 10
577.7578177756991
 20
118.686014567586
 30
0.0
 11
579.4244844423658
 21
118.686014567586
 31
0.0
 12
578.5911511090325
 22
113.686014567586
 32
0.0
 13
578.5911511090325
 23
113.686014567586
 33
0.0
  0
SOLID
  5
192C
  8
DIMENSIONS
 62
     0
 10
579.424484442366
 20
1658.686014567586
 30
0.0
 11
577.7578177756992
 21
1658.686014567586
 31
0.0
 12
578.5911511090326
 22
1663.686014567586
 32
0.0
 13
578.5911511090326
 23
1663.686014567586
 33
0.0
  0
TEXT
  5
192D
  8
DIMENSIONS
  6
CONTINUOUS
 62
     5
 10
576.1961511090327
 20
869.133514567586
 30
0.0
 40
5.0
  1
1550 [61.02]
 50
90.0
  0
POINT
  5
192E
  8
DEFPOINTS
 62
     0
 10
500.8729768382329
 20
113.686014567586
 30
0.0
  0
POINT
  5
192F
  8
DEFPOINTS
 62
     0
 10
500.8729768382329
 20
1663.686014567586
 30
0.0
  0
POINT
  5
1930
  8
DEFPOINTS
 62
     0
 10
578.5911511090326
 20
1663.686014567586
 30
0.0
  0
ENDBLK
  5
1927
  8
0
  0
ENDSEC
  0
SECTION
  2
ENTITIES
  0
TEXT
  5
698
  8
DIMENSIONS
  6
BYBLOCK
 10
112.6719338127009
 20
76.91320727778813
 30
0.0
 40
5.0
  1
Note:
  0
TEXT
  5
699
  8
DIMENSIONS
  6
BYBLOCK
 10
112.8058598529864
 20
66.38423942979507
 30
0.0
 40
5.0
  1
Primary dimensions in millimeters.
  0
TEXT
  5
69A
  8
DIMENSIONS
  6
BYBLOCK
 10
113.0272737893764
 20
55.812213821011
 30
0.0
 40
5.0
  1
Secondary dimensions in inches.
  0
LINE
  5
17B0
  8
0
 10
475.8729768382329
 20
498.6860145675861
 30
0.0
 11
475.8729768382329
 21
758.6860145675857
 31
0.0
  0
LINE
  5
17B1
  8
0
 10
130.8729768382326
 20
758.6860145675857
 30
0.0
 11
130.8729768382326
 21
498.6860145675861
 31
0.0
  0
LINE
  5
17B2
  8
0
 10
130.8729768382326
 20
1638.686014567586
 30
0.0
 11
130.8729768382326
 21
1403.686014567586
 31
0.0
  0
LINE
  5
17B3
  8
0
 10
475.8729768382329
 20
1403.686014567586
 30
0.0
 11
475.8729768382329
 21
1638.686014567586
 31
0.0
  0
LINE
  5
17B4
  8
0
 10
475.8729768382329
 20
1638.686014567586
 30
0.0
 11
130.8729768382326
 21
1638.686014567586
 31
0.0
  0
CIRCLE
  5
17B5
  8
0
 10
121.3729768382327
 20
1634.686014567584
 30
0.0
 40
3.5
  0
CIRCLE
  5
17B6
  8
0
 10
485.3729768382329
 20
1634.686014567584
 30
0.0
 40
3.5
  0
CIRCLE
  5
17B7
  8
0
 10
303.3729768382329
 20
1648.686014567584
 30
0.0
 40
3.5
  0
LINE
  5
17B8
  8
0
 10
130.8729768382326
 20
1403.686014567586
 30
0.0
 11
475.8729768382329
 21
1403.686014567586
 31
0.0
  0
LINE
  5
17B9
  8
0
 10
475.8729768382329
 20
758.6860145675857
 30
0.0
 11
130.8729768382326
 21
758.6860145675857
 31
0.0
  0
CIRCLE
  5
17BA
  8
0
 10
121.3729768382327
 20
1196.686014567584
 30
0.0
 40
3.5
  0
CIRCLE
  5
17BB
  8
0
 10
121.3729768382327
 20
951.6860145675848
 30
0.0
 40
3.5
  0
CIRCLE
  5
17BC
  8
0
 10
121.3729768382327
 20
724.6860145675837
 30
0.0
 40
3.5
  0
CIRCLE
  5
17BD
  8
0
 10
485.3729768382329
 20
1196.686014567584
 30
0.0
 40
3.5
  0
CIRCLE
  5
17BE
  8
0
 10
303.3729768382329
 20
1393.686014567584
 30
0.0
 40
3.5
  0
CIRCLE
  5
17BF
  8
0
 10
485.3729768382329
 20
724.6860145675837
 30
0.0
 40
3.5
  0
CIRCLE
  5
17C0
  8
0
 10
485.3729768382329
 20
951.6860145675848
 30
0.0
 40
3.5
  0
CIRCLE
  5
17C1
  8
0
 10
303.3729768382329
 20
873.6860145675837
 30
0.0
 40
3.5
  0
LINE
  5
17C2
  8
0
 10
130.8729768382326
 20
498.6860145675861
 30
0.0
 11
475.8729768382329
 21
498.6860145675861
 31
0.0
  0
CIRCLE
  5
17C3
  8
0
 10
121.3729768382327
 20
142.6860145675847
 30
0.0
 40
3.5
  0
CIRCLE
  5
17C4
  8
0
 10
303.3729768382329
 20
483.6860145675847
 30
0.0
 40
3.5
  0
CIRCLE
  5
17C5
  8
0
 10
485.3729768382329
 20
142.6860145675847
 30
0.0
 40
3.5
  0
CIRCLE
  5
17C6
  8
0
 10
303.3729768382329
 20
128.6860145675838
 30
0.0
 40
3.5
  0
CIRCLE
  5
17C7
  8
0
 10
150.8729768382327
 20
1648.686014567584
 30
0.0
 40
3.5
  0
CIRCLE
  5
17C8
  8
0
 10
455.8729768382329
 20
1648.686014567584
 30
0.0
 40
3.5
  0
CIRCLE
  5
17C9
  8
0
 10
121.3729768382327
 20
222.1860145675861
 30
0.0
 40
3.5
  0
CIRCLE
  5
17CA
  8
0
 10
150.8729768382327
 20
128.686014567586
 30
0.0
 40
3.5
  0
CIRCLE
  5
17CB
  8
0
 10
455.8729768382329
 20
128.686014567586
 30
0.0
 40
3.5
  0
CIRCLE
  5
17CC
  8
0
 10
485.3729768382329
 20
222.1860145675861
 30
0.0
 40
3.5
  0
LINE
  5
17CD
  8
0
 10
105.8729768382326
 20
1663.686014567586
 30
0.0
 11
500.8729768382329
 21
1663.686014567586
 31
0.0
  0
LINE
  5
17CE
  8
0
 10
500.8729768382329
 20
1663.686014567586
 30
0.0
 11
500.8729768382329
 21
113.686014567586
 31
0.0
  0
LINE
  5
17CF
  8
0
 10
105.8729768382326
 20
113.686014567586
 30
0.0
 11
105.8729768382326
 21
1663.686014567586
 31
0.0
  0
LINE
  5
17D0
  8
0
 10
105.8729768382326
 20
113.686014567586
 30
0.0
 11
500.8729768382329
 21
113.686014567586
 31
0.0
  0
DIMENSION
  5
17D1
  8
DIMENSIONS
  6
BYBLOCK
  2
*D265
 10
455.8729768382329
 20
1679.386159740563
 30
0.0
 11
303.3729768382328
 21
1683.588659740563
 31
0.0
 70
    32
  3
DUAL-DIM
 13
150.8729768382327
 23
1648.686014567584
 33
0.0
 14
455.8729768382329
 24
1648.686014567584
 34
0.0
1001
ACAD
1000
DSTYLE
1002
{
1070
   287
1070
     5
1070
   279
1070
     2
1002
}
  0
DIMENSION
  5
17E0
  8
DIMENSIONS
  6
BYBLOCK
  2
*D266
 10
475.8729768382329
 20
1697.184624427964
 30
0.0
 11
303.3729768382328
 21
1701.387124427964
 31
0.0
 70
    32
  3
DUAL-DIM
 13
130.8729768382326
 23
1638.686014567586
 33
0.0
 14
475.8729768382329
 24
1638.686014567586
 34
0.0
1001
ACAD
1000
DSTYLE
1002
{
1070
   287
1070
     5
1070
   279
1070
     2
1002
}
  0
DIMENSION
  5
17EF
  8
DIMENSIONS
  6
BYBLOCK
  2
*D267
 10
485.3729768382329
 20
1715.326384387931
 30
0.0
 11
303.3729768382328
 21
1719.528884387931
 31
0.0
 70
    32
  3
DUAL-DIM
 13
121.3729768382327
 23
1634.686014567584
 33
0.0
 14
485.3729768382329
 24
1634.686014567584
 34
0.0
1001
ACAD
1000
DSTYLE
1002
{
1070
   287
1070
     5
1070
   279
1070
     2
1002
}
  0
DIMENSION
  5
17FE
  8
DIMENSIONS
  6
BYBLOCK
  2
*D268
 10
105.8729768382326
 20
1734.093722277551
 30
0.0
 11
303.3729768382328
 21
1738.296222277552
 31
0.0
 70
    32
  3
DUAL-DIM
 13
500.8729768382329
 23
1663.686014567586
 33
0.0
 14
105.8729768382326
 24
1663.686014567586
 34
0.0
1001
ACAD
1000
DSTYLE
1002
{
1070
   287
1070
     5
1070
   279
1070
     2
1002
}
  0
DIMENSION
  5
180D
  8
DIMENSIONS
  6
BYBLOCK
  2
*D269
 10
50.17583341355507
 20
1648.686014567584
 30
0.0
 11
50.17583341355507
 21
1629.713514567584
 31
0.0
 70
   160
  3
DUAL-DIM
 13
105.8729768382326
 23
1663.686014567586
 33
0.0
 14
150.8729768382327
 24
1648.686014567584
 34
0.0
 50
90.0
1001
ACAD
1000
DSTYLE
1002
{
1070
   287
1070
     3
1070
   279
1070
     0
1002
}
  0
DIMENSION
  5
181C
  8
DIMENSIONS
  6
BYBLOCK
  2
*D270
 10
67.5292146048784
 20
1634.686014567584
 30
0.0
 11
67.5292146048784
 21
1615.713514567584
 31
0.0
 70
   160
  3
DUAL-DIM
 13
150.8729768382327
 23
1648.686014567584
 33
0.0
 14
121.3729768382327
 24
1634.686014567584
 34
0.0
 50
90.0
1001
ACAD
1000
DSTYLE
1002
{
1070
   287
1070
     3
1070
   279
1070
     0
1002
}
  0
DIMENSION
  5
182B
  8
DIMENSIONS
  6
BYBLOCK
  2
*D271
 10
86.73636368121127
 20
1393.686014567584
 30
0.0
 11
82.53386368121119
 21
1514.186014567584
 31
0.0
 70
    32
  3
DUAL-DIM
 13
121.3729768382327
 23
1634.686014567584
 33
0.0
 14
303.3729768382329
 24
1393.686014567584
 34
0.0
 50
90.0
1001
ACAD
1000
DSTYLE
1002
{
1070
   287
1070
     5
1070
   279
1070
     2
1002
}
  0
DIMENSION
  5
183A
  8
DIMENSIONS
  6
BYBLOCK
  2
*D272
 10
86.73636368121126
 20
1196.686014567584
 30
0.0
 11
82.53386368121116
 21
1295.186014567584
 31
0.0
 70
    32
  3
DUAL-DIM
 13
303.3729768382329
 23
1393.686014567584
 33
0.0
 14
121.3729768382327
 24
1196.686014567584
 34
0.0
 50
90.0
1001
ACAD
1000
DSTYLE
1002
{
1070
   287
1070
     5
1070
   279
1070
     2
1002
}
  0
DIMENSION
  5
1849
  8
DIMENSIONS
  6
BYBLOCK
  2
*D273
 10
86.73636368121124
 20
951.6860145675848
 30
0.0
 11
82.53386368121116
 21
1074.186014567585
 31
0.0
 70
    32
  3
DUAL-DIM
 13
121.3729768382327
 23
1196.686014567584
 33
0.0
 14
121.3729768382327
 24
951.6860145675848
 34
0.0
 50
90.0
1001
ACAD
1000
DSTYLE
1002
{
1070
   287
1070
     5
1070
   279
1070
     2
1002
}
  0
DIMENSION
  5
1858
  8
DIMENSIONS
  6
BYBLOCK
  2
*D274
 10
86.73636368121124
 20
873.6860145675837
 30
0.0
 11
82.53386368121126
 21
912.6860145675843
 31
0.0
 70
    32
  3
DUAL-DIM
 13
121.3729768382327
 23
951.6860145675848
 33
0.0
 14
303.3729768382329
 24
873.6860145675837
 34
0.0
 50
90.0
1001
ACAD
1000
DSTYLE
1002
{
1070
   287
1070
     5
1070
   279
1070
     2
1002
}
  0
DIMENSION
  5
1867
  8
DIMENSIONS
  6
BYBLOCK
  2
*D275
 10
86.73636368121123
 20
724.6860145675837
 30
0.0
 11
82.53386368121124
 21
799.1860145675837
 31
0.0
 70
    32
  3
DUAL-DIM
 13
303.3729768382329
 23
873.6860145675837
 33
0.0
 14
121.3729768382327
 24
724.6860145675837
 34
0.0
 50
90.0
1001
ACAD
1000
DSTYLE
1002
{
1070
   287
1070
     5
1070
   279
1070
     2
1002
}
  0
DIMENSION
  5
1876
  8
DIMENSIONS
  6
BYBLOCK
  2
*D276
 10
86.73636368121122
 20
483.6860145675847
 30
0.0
 11
82.53386368121124
 21
604.1860145675842
 31
0.0
 70
    32
  3
DUAL-DIM
 13
121.3729768382327
 23
724.6860145675837
 33
0.0
 14
303.3729768382329
 24
483.6860145675847
 34
0.0
 50
90.0
1001
ACAD
1000
DSTYLE
1002
{
1070
   287
1070
     5
1070
   279
1070
     2
1002
}
  0
DIMENSION
  5
1885
  8
DIMENSIONS
  6
BYBLOCK
  2
*D277
 10
86.7363636812112
 20
222.1860145675861
 30
0.0
 11
82.53386368121122
 21
352.9360145675854
 31
0.0
 70
    32
  3
DUAL-DIM
 13
303.3729768382329
 23
483.6860145675847
 33
0.0
 14
121.3729768382327
 24
222.1860145675861
 34
0.0
 50
90.0
1001
ACAD
1000
DSTYLE
1002
{
1070
   287
1070
     5
1070
   279
1070
     2
1002
}
  0
DIMENSION
  5
1894
  8
DIMENSIONS
  6
BYBLOCK
  2
*D278
 10
86.7363636812112
 20
142.6860145675847
 30
0.0
 11
82.53386368121122
 21
182.4360145675854
 31
0.0
 70
    32
  3
DUAL-DIM
 13
121.3729768382327
 23
222.1860145675861
 33
0.0
 14
121.3729768382327
 24
142.6860145675847
 34
0.0
 50
90.0
1001
ACAD
1000
DSTYLE
1002
{
1070
   287
1070
     5
1070
   279
1070
     2
1002
}
  0
DIMENSION
  5
18A3
  8
DIMENSIONS
  6
BYBLOCK
  2
*D279
 10
69.68839319666594
 20
128.686014567586
 30
0.0
 11
69.68839319666594
 21
161.6585145675847
 31
0.0
 70
   160
  3
DUAL-DIM
 13
121.3729768382327
 23
142.6860145675847
 33
0.0
 14
150.8729768382327
 24
128.686014567586
 34
0.0
 50
90.0
1001
ACAD
1000
DSTYLE
1002
{
1070
   287
1070
     3
1070
   279
1070
     0
1002
}
  0
DIMENSION
  5
18B2
  8
DIMENSIONS
  6
BYBLOCK
  2
*D280
 10
52.75752779810142
 20
113.686014567586
 30
0.0
 11
52.75752779810142
 21
147.658514567586
 31
0.0
 70
   160
  3
DUAL-DIM
 13
150.8729768382327
 23
128.686014567586
 33
0.0
 14
105.8729768382326
 24
113.686014567586
 34
0.0
 50
90.0
1001
ACAD
1000
DSTYLE
1002
{
1070
   287
1070
     3
1070
   279
1070
     0
1002
}
  0
DIMENSION
  5
18C1
  8
DIMENSIONS
  6
BYBLOCK
  2
*D281
 10
550.0165513004711
 20
1638.686014567586
 30
0.0
 11
550.0165513004711
 21
1619.436014567586
 31
0.0
 70
   160
  3
DUAL-DIM
 13
500.8729768382329
 23
1663.686014567586
 33
0.0
 14
475.8729768382329
 24
1638.686014567586
 34
0.0
 50
90.0
1001
ACAD
1000
DSTYLE
1002
{
1070
   287
1070
     3
1070
   279
1070
     0
1002
}
  0
DIMENSION
  5
18D0
  8
DIMENSIONS
  6
BYBLOCK
  2
*D282
 10
524.3383082541993
 20
1403.686014567586
 30
0.0
 11
520.1358082541992
 21
1521.186014567586
 31
0.0
 70
    32
  3
DUAL-DIM
 13
475.8729768382329
 23
1638.686014567586
 33
0.0
 14
475.8729768382329
 24
1403.686014567586
 34
0.0
 50
90.0
1001
ACAD
1000
DSTYLE
1002
{
1070
   287
1070
     5
1070
   279
1070
     2
1002
}
  0
DIMENSION
  5
18DF
  8
DIMENSIONS
  6
BYBLOCK
  2
*D283
 10
524.3383082541993
 20
758.6860145675857
 30
0.0
 11
520.1358082541992
 21
1081.186014567586
 31
0.0
 70
    32
  3
DUAL-DIM
 13
475.8729768382329
 23
1403.686014567586
 33
0.0
 14
475.8729768382329
 24
758.6860145675857
 34
0.0
 50
90.0
1001
ACAD
1000
DSTYLE
1002
{
1070
   287
1070
     5
1070
   279
1070
     2
1002
}
  0
DIMENSION
  5
18EE
  8
DIMENSIONS
  6
BYBLOCK
  2
*D284
 10
524.3383082541993
 20
498.6860145675861
 30
0.0
 11
520.1358082541993
 21
628.686014567586
 31
0.0
 70
    32
  3
DUAL-DIM
 13
475.8729768382329
 23
758.6860145675857
 33
0.0
 14
475.8729768382329
 24
498.6860145675861
 34
0.0
 50
90.0
1001
ACAD
1000
DSTYLE
1002
{
1070
   287
1070
     5
1070
   279
1070
     2
1002
}
  0
DIMENSION
  5
18FD
  8
DIMENSIONS
  6
BYBLOCK
  2
*D285
 10
524.3383082541993
 20
113.686014567586
 30
0.0
 11
520.1358082541993
 21
306.1860145675861
 31
0.0
 70
    32
  3
DUAL-DIM
 13
475.8729768382329
 23
498.6860145675861
 33
0.0
 14
500.8729768382329
 24
113.686014567586
 34
0.0
 50
90.0
1001
ACAD
1000
DSTYLE
1002
{
1070
   287
1070
     5
1070
   279
1070
     2
1002
}
  0
DIMENSION
  5
190C
  8
DIMENSIONS
  6
BYBLOCK
  2
*D286
 10
488.8729726033665
 20
142.6914592022968
 30
0.0
 11
454.1705145920673
 21
142.637475649126
 31
0.0
 70
   163
  1
<>
  3
DUAL-DIM
 15
481.8729810730994
 25
142.6805699328725
 35
0.0
 40
0.0
1001
ACAD
1000
DSTYLE
1002
{
1070
   287
1070
     3
1070
   279
1070
     0
1002
}
1001
ACAD_DSTYLE_DIMRADIAL_EXT0
1070
   387
1070
     1
1070
   388
1040
0.0
1070
   390
1040
6.283185307179586
  0
DIMENSION
  5
1922
  8
DIMENSIONS
  6
BYBLOCK
  2
*D287
 10
578.5911511090326
 20
1663.686014567586
 30
0.0
 11
574.3886511090326
 21
888.686014567586
 31
0.0
 70
    32
  3
DUAL-DIM
 13
500.8729768382329
 23
113.686014567586
 33
0.0
 14
500.8729768382329
 24
1663.686014567586
 34
0.0
 50
90.0
1001
ACAD
1000
DSTYLE
1002
{
1070
   287
1070
     5
1070
   279
1070
     2
1002
}
  0
POLYLINE
  5
1931
  8
0
  6
BYBLOCK
 66
     1
 10
0.0
 20
0.0
 30
0.0
 70
     1
  0
VERTEX
  5
1938
  8
0
  6
BYBLOCK
 10
-43.96508290606744
 20
45.9380423096901
 30
0.0
  0
VERTEX
  5
1939
  8
0
  6
BYBLOCK
 10
-43.96508290606744
 20
1756.495010296562
 30
0.0
  0
VERTEX
  5
193A
  8
0
  6
BYBLOCK
 10
691.644806619151
 20
1756.495010296562
 30
0.0
  0
VERTEX
  5
193B
  8
0
  6
BYBLOCK
 10
691.644806619151
 20
45.9380423096901
 30
0.0
  0
SEQEND
  5
193C
  8
0
  6
BYBLOCK
  0
ENDSEC
  0
EOF
