  0
SECTION
  2
HEADER
  9
$ACADVER
  1
AC1009
  9
$DWGCODEPAGE
  3
ansi_1252
  9
$INSBASE
 10
0.0
 20
0.0
 30
0.0
  9
$EXTMIN
 10
1.000000000000000E+20
 20
1.000000000000000E+20
 30
1.000000000000000E+20
  9
$EXTMAX
 10
-1.000000000000000E+20
 20
-1.000000000000000E+20
 30
-1.000000000000000E+20
  9
$LIMMIN
 10
0.0
 20
0.0
  9
$LIMMAX
 10
594.0
 20
420.0
  9
$ORTHOMODE
 70
     0
  9
$REGENMODE
 70
     1
  9
$FILLMODE
 70
     1
  9
$QTEXTMODE
 70
     0
  9
$MIRRTEXT
 70
     1
  9
$DRAGMODE
 70
     2
  9
$LTSCALE
 40
32.67
  9
$OSMODE
 70
   511
  9
$ATTMODE
 70
     1
  9
$TEXTSIZE
 40
0.2
  9
$TRACEWID
 40
0.05
  9
$TEXTSTYLE
  7
STANDARD
  9
$CLAYER
  8
DIMENSIONS
  9
$CELTYPE
  6
BYBLOCK
  9
$CECOLOR
 62
   256
  9
$DIMSCALE
 40
1.0
  9
$DIMASZ
 40
5.0
  9
$DIMEXO
 40
1.5
  9
$DIMDLI
 40
1.0
  9
$DIMRND
 40
0.0
  9
$DIMDLE
 40
0.0
  9
$DIMEXE
 40
0.18
  9
$DIMTP
 40
0.0
  9
$DIMTM
 40
0.0
  9
$DIMTXT
 40
5.0
  9
$DIMCEN
 40
2.5
  9
$DIMTSZ
 40
0.0
  9
$DIMTOL
 70
     0
  9
$DIMLIM
 70
     0
  9
$DIMTIH
 70
     0
  9
$DIMTOH
 70
     0
  9
$DIMSE1
 70
     0
  9
$DIMSE2
 70
     0
  9
$DIMTAD
 70
     1
  9
$DIMZIN
 70
     8
  9
$DIMBLK
  1

  9
$DIMASO
 70
     1
  9
$DIMSHO
 70
     1
  9
$DIMPOST
  1

  9
$DIMAPOST
  1

  9
$DIMALT
 70
     1
  9
$DIMALTD
 70
     2
  9
$DIMALTF
 40
0.03937
  9
$DIMLFAC
 40
1.0
  9
$DIMTOFL
 70
     0
  9
$DIMTVP
 40
0.0
  9
$DIMTIX
 70
     0
  9
$DIMSOXD
 70
     0
  9
$DIMSAH
 70
     0
  9
$DIMBLK1
  1

  9
$DIMBLK2
  1

  9
$DIMSTYLE
  2
DUAL-DIM
  9
$DIMCLRD
 70
     0
  9
$DIMCLRE
 70
     0
  9
$DIMCLRT
 70
     5
  9
$DIMTFAC
 40
1.0
  9
$DIMGAP
 40
1.0
  9
$LUNITS
 70
     2
  9
$LUPREC
 70
     4
  9
$SKETCHINC
 40
0.1
  9
$FILLETRAD
 40
15.0
  9
$AUNITS
 70
     0
  9
$AUPREC
 70
     0
  9
$MENU
  1
.
  9
$ELEVATION
 40
0.0
  9
$PELEVATION
 40
0.0
  9
$THICKNESS
 40
0.0
  9
$LIMCHECK
 70
     0
  9
$CHAMFERA
 40
0.0
  9
$CHAMFERB
 40
0.0
  9
$SKPOLY
 70
     0
  9
$TDCREATE
 40
2457428.354677859
  9
$TDUPDATE
 40
2457430.631148854
  9
$TDINDWG
 40
0.0641076389
  9
$TDUSRTIMER
 40
2457430.588180926
  9
$USRTIMER
 70
     1
  9
$ANGBASE
 50
0.0
  9
$ANGDIR
 70
     0
  9
$PDMODE
 70
     3
  9
$PDSIZE
 40
0.3125
  9
$PLINEWID
 40
0.0
  9
$COORDS
 70
     1
  9
$SPLFRAME
 70
     0
  9
$SPLINETYPE
 70
     6
  9
$SPLINESEGS
 70
     8
  9
$ATTDIA
 70
     0
  9
$ATTREQ
 70
     1
  9
$HANDLING
 70
     1
  9
$HANDSEED
  5
16E3
  9
$SURFTAB1
 70
     6
  9
$SURFTAB2
 70
     6
  9
$SURFTYPE
 70
     6
  9
$SURFU
 70
     6
  9
$SURFV
 70
     6
  9
$UCSNAME
  2

  9
$UCSORG
 10
0.0
 20
0.0
 30
0.0
  9
$UCSXDIR
 10
1.0
 20
0.0
 30
0.0
  9
$UCSYDIR
 10
0.0
 20
1.0
 30
0.0
  9
$PUCSNAME
  2

  9
$PUCSORG
 10
0.0
 20
0.0
 30
0.0
  9
$PUCSXDIR
 10
1.0
 20
0.0
 30
0.0
  9
$PUCSYDIR
 10
0.0
 20
1.0
 30
0.0
  9
$USERI1
 70
     0
  9
$USERI2
 70
     0
  9
$USERI3
 70
     0
  9
$USERI4
 70
     0
  9
$USERI5
 70
     0
  9
$USERR1
 40
0.0
  9
$USERR2
 40
0.0
  9
$USERR3
 40
0.0
  9
$USERR4
 40
0.0
  9
$USERR5
 40
0.0
  9
$WORLDVIEW
 70
     1
  9
$SHADEDGE
 70
     3
  9
$SHADEDIF
 70
    70
  9
$TILEMODE
 70
     1
  9
$MAXACTVP
 70
    64
  9
$PLIMCHECK
 70
     0
  9
$PEXTMIN
 10
1.000000000000000E+20
 20
1.000000000000000E+20
 30
1.000000000000000E+20
  9
$PEXTMAX
 10
-1.000000000000000E+20
 20
-1.000000000000000E+20
 30
-1.000000000000000E+20
  9
$PLIMMIN
 10
0.0
 20
0.0
  9
$PLIMMAX
 10
0.0
 20
0.0
  9
$UNITMODE
 70
     0
  9
$VISRETAIN
 70
     1
  9
$PLINEGEN
 70
     0
  9
$PSLTSCALE
 70
     1
  0
ENDSEC
  0
SECTION
  2
TABLES
  0
TABLE
  2
VPORT
 70
     1
  0
VPORT
  2
*ACTIVE
 70
     0
 10
0.0
 20
0.0
 11
1.0
 21
1.0
 12
498.7907252238069
 22
778.5764249922725
 13
0.0
 23
0.0
 14
0.5
 24
0.5
 15
0.5
 25
0.5
 16
0.0
 26
0.0
 36
1.0
 17
0.0
 27
0.0
 37
0.0
 40
2176.649072382104
 41
2.792291220556745
 42
50.0
 43
0.0
 44
0.0
 50
0.0
 51
0.0
 71
    16
 72
   100
 73
     1
 74
     3
 75
     0
 76
     0
 77
     0
 78
     2
  0
ENDTAB
  0
TABLE
  2
LTYPE
 70
     6
  0
LTYPE
  2
CONTINUOUS
 70
     0
  3
Solid line
 72
    65
 73
     0
 40
0.0
  0
LTYPE
  2
CENTER
 70
     0
  3
____ _ ____ _ ____ _ ____ _ ____ _ ____ _ ____
 72
    65
 73
     4
 40
0.6
 49
0.375
 49
-0.075
 49
0.075
 49
-0.075
  0
LTYPE
  2
HIDDEN
 70
     0
  3
- - - - - - - - - - - - - - - - - - - -
 72
    65
 73
     2
 40
0.2
 49
0.1
 49
-0.1
  0
LTYPE
  2
PHANTOM
 70
     0
  3
_____ _ _ _____ _ _ _____ _ _ _____
 72
    65
 73
     6
 40
0.8
 49
0.45
 49
-0.05
 49
0.1
 49
-0.05
 49
0.1
 49
-0.05
  0
LTYPE
  2
DOT
 70
     0
  3
. . . . . . . . . . . . . . . . . . . .
 72
    65
 73
     2
 40
0.2
 49
0.1
 49
-0.1
  0
LTYPE
  2
DASHED
 70
     0
  3
- - - - - - - - - - - - - - - - - - - -
 72
    65
 73
     2
 40
0.2
 49
0.1
 49
-0.1
  0
ENDTAB
  0
TABLE
  2
LAYER
 70
    15
  0
LAYER
  2
0
 70
     0
 62
     7
  6
CONTINUOUS
  0
LAYER
  2
DEFAULT_1
 70
     0
 62
     7
  6
CENTER
  0
LAYER
  2
DEFAULT_2
 70
     0
 62
     8
  6
HIDDEN
  0
LAYER
  2
DEFAULT_3
 70
     0
 62
     7
  6
PHANTOM
  0
LAYER
  2
01___PRT_ALL_DTM_PLN
 70
     0
 62
     7
  6
CONTINUOUS
  0
LAYER
  2
01___PRT_DEF_DTM_PLN
 70
     0
 62
     7
  6
CONTINUOUS
  0
LAYER
  2
02___PRT_ALL_AXES
 70
     0
 62
     7
  6
CONTINUOUS
  0
LAYER
  2
03___PRT_ALL_CURVES
 70
     0
 62
     7
  6
CONTINUOUS
  0
LAYER
  2
04___PRT_ALL_DTM_PNT
 70
     0
 62
     7
  6
CONTINUOUS
  0
LAYER
  2
05___PRT_ALL_DTM_CSYS
 70
     0
 62
     7
  6
CONTINUOUS
  0
LAYER
  2
05___PRT_DEF_DTM_CSYS
 70
     0
 62
     7
  6
CONTINUOUS
  0
LAYER
  2
06___PRT_ALL_SURFS
 70
     0
 62
     7
  6
CONTINUOUS
  0
LAYER
  2
DEFPOINTS
 70
     0
 62
     7
  6
CONTINUOUS
  0
LAYER
  2
DIMENSIONS
 70
     0
 62
     2
  6
CONTINUOUS
  0
LAYER
  2
AM_5
 70
     0
 62
     3
  6
CONTINUOUS
  0
ENDTAB
  0
TABLE
  2
STYLE
 70
     2
  0
STYLE
  2
STANDARD
 70
     0
 40
0.0
 41
1.0
 50
0.0
 71
     0
 42
0.2
  3
arial.ttf
  4

  0
STYLE
  2
TEXTSTYLE_1
 70
     0
 40
0.0
 41
0.8
 50
0.0
 71
     0
 42
0.2
  3
gdt
  4

  0
ENDTAB
  0
TABLE
  2
VIEW
 70
     0
  0
ENDTAB
  0
TABLE
  2
UCS
 70
     0
  0
ENDTAB
  0
TABLE
  2
APPID
 70
    11
  0
APPID
  2
ACAD
 70
     0
  0
APPID
  2
ACAECLAYERSTANDARD
 70
     0
  0
APPID
  2
ACAD_DSTYLE_DIMRADIAL_EXTE
 70
     0
  0
APPID
  2
ACAD_DSTYLE_DIMJOGGED_JOGA
 70
     0
  0
APPID
  2
ACAD_DSTYLE_DIMJAG
 70
     0
  0
APPID
  2
ACAD_DSTYLE_DIMBREAK
 70
     0
  0
APPID
  2
ACAD_PSEXT
 70
     0
  0
APPID
  2
ACAD_DSTYLE_DIMINSPECT
 70
     0
  0
APPID
  2
ACAD_DSTYLE_DIMRADIAL_EXT0
 70
     0
  0
APPID
  2
ACAD_DSTYLE_DIMJOGGED_JOG0
 70
     0
  0
APPID
  2
ACAD_DSTYLE_DIMTALN
 70
     0
  0
ENDTAB
  0
TABLE
  2
DIMSTYLE
 70
     6
  0
DIMSTYLE
  2
STANDARD
 70
     0
  3

  4

  5

  6

  7

 40
1.0
 41
0.18
 42
0.0625
 43
0.38
 44
0.18
 45
0.0
 46
0.0
 47
0.0
 48
0.0
140
0.18
141
0.09
142
0.0
143
25.4
144
1.0
145
0.0
146
1.0
147
0.09
 71
     0
 72
     0
 73
     1
 74
     1
 75
     0
 76
     0
 77
     0
 78
     0
170
     0
171
     2
172
     0
173
     0
174
     0
175
     0
176
     0
177
     0
178
     0
  0
DIMSTYLE
  2
DUAL-DIM
 70
     0
  3

  4

  5

  6

  7

 40
1.0
 41
5.0
 42
1.5
 43
1.0
 44
0.18
 45
0.0
 46
0.0
 47
0.0
 48
0.0
140
5.0
141
2.5
142
0.0
143
0.03937
144
1.0
145
0.0
146
1.0
147
1.0
 71
     0
 72
     0
 73
     0
 74
     0
 75
     0
 76
     0
 77
     1
 78
     8
170
     1
171
     2
172
     0
173
     0
174
     0
175
     0
176
     0
177
     0
178
     5
  0
DIMSTYLE
  2
AM_ISO
 70
     0
  3

  4
"
  5

  6

  7

 40
1.0
 41
3.5
 42
1.0
 43
10.0
 44
1.0
 45
0.0
 46
0.0
 47
0.1
 48
0.1
140
3.5
141
0.0
142
0.0
143
0.0393701
144
1.0
145
0.0
146
0.71
147
1.5
 71
     0
 72
     0
 73
     0
 74
     0
 75
     0
 76
     0
 77
     1
 78
     8
170
     0
171
     2
172
     1
173
     0
174
     0
175
     0
176
   256
177
   256
178
     2
  0
DIMSTYLE
  2
AM_ISO$3
 70
     0
  3

  4
"
  5

  6

  7

 40
1.0
 41
3.5
 42
1.0
 43
10.0
 44
1.0
 45
0.0
 46
0.0
 47
0.1
 48
0.1
140
3.5
141
0.0
142
0.0
143
0.0393701
144
1.0
145
0.0
146
0.71
147
1.5
 71
     0
 72
     0
 73
     0
 74
     1
 75
     0
 76
     0
 77
     1
 78
     8
170
     0
171
     2
172
     0
173
     0
174
     0
175
     0
176
   256
177
   256
178
     2
  0
DIMSTYLE
  2
AM_ISO$0
 70
     0
  3

  4
"
  5

  6

  7

 40
1.0
 41
3.5
 42
1.0
 43
10.0
 44
1.0
 45
0.0
 46
0.0
 47
0.1
 48
0.1
140
3.5
141
0.0
142
0.0
143
0.0393701
144
1.0
145
0.0
146
0.71
147
1.5
 71
     0
 72
     0
 73
     0
 74
     0
 75
     0
 76
     0
 77
     1
 78
     8
170
     0
171
     2
172
     1
173
     0
174
     0
175
     0
176
   256
177
   256
178
     2
  0
DIMSTYLE
  2
STANDARD$0
 70
     0
  3

  4

  5

  6

  7

 40
16.5
 41
0.18
 42
0.0625
 43
0.38
 44
0.18
 45
0.0
 46
0.0
 47
0.0
 48
0.0
140
0.18
141
0.09
142
0.0
143
25.4
144
1.0
145
0.0
146
1.0
147
0.09
 71
     0
 72
     0
 73
     1
 74
     1
 75
     0
 76
     0
 77
     0
 78
     0
170
     0
171
     2
172
     0
173
     0
174
     0
175
     0
176
     0
177
     0
178
     0
  0
ENDTAB
  0
ENDSEC
  0
SECTION
  2
BLOCKS
  0
BLOCK
  8
0
  2
$MODEL_SPACE
 70
     0
 10
0.0
 20
0.0
 30
0.0
  3
$MODEL_SPACE
  1

  0
ENDBLK
  5
110
  8
0
  0
BLOCK
 67
     1
  8
0
  2
$PAPER_SPACE
 70
     0
 10
0.0
 20
0.0
 30
0.0
  3
$PAPER_SPACE
  1

  0
ENDBLK
  5
112
 67
     1
  8
0
  0
BLOCK
  8
0
  2
_FILLED
 70
     0
 10
0.0
 20
0.0
 30
0.0
  3
_FILLED
  1

  0
SOLID
  5
3D
  8
0
  6
BYBLOCK
 62
     0
 10
0.0
 20
0.0
 30
0.0
 11
-1.0
 21
0.2
 31
0.0
 12
-1.0
 22
-0.2
 32
0.0
 13
-1.0
 23
-0.2
 33
0.0
  0
ENDBLK
  5
3E
  8
0
  6
BYBLOCK
 62
     0
  0
BLOCK
  8
0
  2
*D94
 70
     1
 10
0.0
 20
0.0
 30
0.0
  3
*D94
  1

  0
LINE
  5
8DC
  8
DIMENSIONS
  6
BYBLOCK
 62
     0
 10
135.6799154923127
 20
474.2960833044353
 30
0.0
 11
135.6799154923127
 21
500.4900572660845
 31
0.0
  0
LINE
  5
8DD
  8
DIMENSIONS
  6
BYBLOCK
 62
     0
 10
379.6799154923128
 20
474.2960833044353
 30
0.0
 11
379.6799154923128
 21
500.4900572660845
 31
0.0
  0
LINE
  5
8DE
  8
DIMENSIONS
  6
BYBLOCK
 62
     0
 10
140.6799154923127
 20
500.3100572660845
 30
0.0
 11
374.6799154923128
 21
500.3100572660845
 31
0.0
  0
SOLID
  5
8DF
  8
DIMENSIONS
 62
     0
 10
140.6799154923127
 20
501.1433905994178
 30
0.0
 11
140.6799154923127
 21
499.4767239327512
 31
0.0
 12
135.6799154923127
 22
500.3100572660845
 32
0.0
 13
135.6799154923127
 23
500.3100572660845
 33
0.0
  0
SOLID
  5
8E0
  8
DIMENSIONS
 62
     0
 10
374.6799154923128
 20
499.4767239327512
 30
0.0
 11
374.6799154923128
 21
501.1433905994178
 31
0.0
 12
379.6799154923128
 22
500.3100572660845
 32
0.0
 13
379.6799154923128
 23
500.3100572660845
 33
0.0
  0
TEXT
  5
8E1
  8
DIMENSIONS
  6
CONTINUOUS
 62
     5
 10
242.2849154923128
 20
502.7050572660845
 30
0.0
 40
5.0
  1
244 [9.61]
  0
POINT
  5
8E2
  8
DEFPOINTS
 62
     0
 10
135.6799154923127
 20
472.7960833044353
 30
0.0
  0
POINT
  5
8E3
  8
DEFPOINTS
 62
     0
 10
379.6799154923128
 20
472.7960833044353
 30
0.0
  0
POINT
  5
8E4
  8
DEFPOINTS
 62
     0
 10
379.6799154923128
 20
500.3100572660845
 30
0.0
  0
ENDBLK
  5
8DB
  8
0
  0
BLOCK
  8
0
  2
*D95
 70
     1
 10
0.0
 20
0.0
 30
0.0
  3
*D95
  1

  0
LINE
  5
8EB
  8
DIMENSIONS
  6
BYBLOCK
 62
     0
 10
392.6799154923128
 20
487.2960833044353
 30
0.0
 11
392.6799154923128
 21
514.2311814289316
 31
0.0
  0
LINE
  5
8EC
  8
DIMENSIONS
  6
BYBLOCK
 62
     0
 10
122.6799154923127
 20
487.2960833044353
 30
0.0
 11
122.6799154923127
 21
514.2311814289316
 31
0.0
  0
LINE
  5
8ED
  8
DIMENSIONS
  6
BYBLOCK
 62
     0
 10
387.6799154923128
 20
514.0511814289316
 30
0.0
 11
127.6799154923127
 21
514.0511814289316
 31
0.0
  0
SOLID
  5
8EE
  8
DIMENSIONS
 62
     0
 10
387.6799154923128
 20
513.2178480955982
 30
0.0
 11
387.6799154923128
 21
514.884514762265
 31
0.0
 12
392.6799154923128
 22
514.0511814289316
 32
0.0
 13
392.6799154923128
 23
514.0511814289316
 33
0.0
  0
SOLID
  5
8EF
  8
DIMENSIONS
 62
     0
 10
127.6799154923127
 20
514.884514762265
 30
0.0
 11
127.6799154923127
 21
513.2178480955982
 31
0.0
 12
122.6799154923127
 22
514.0511814289316
 32
0.0
 13
122.6799154923127
 23
514.0511814289316
 33
0.0
  0
TEXT
  5
8F0
  8
DIMENSIONS
  6
CONTINUOUS
 62
     5
 10
240.3449154923128
 20
516.4461814289316
 30
0.0
 40
5.0
  1
270 [10.63]
  0
POINT
  5
8F1
  8
DEFPOINTS
 62
     0
 10
392.6799154923128
 20
485.7960833044353
 30
0.0
  0
POINT
  5
8F2
  8
DEFPOINTS
 62
     0
 10
122.6799154923127
 20
485.7960833044353
 30
0.0
  0
POINT
  5
8F3
  8
DEFPOINTS
 62
     0
 10
122.6799154923127
 20
514.0511814289316
 30
0.0
  0
ENDBLK
  5
8EA
  8
0
  0
BLOCK
  8
0
  2
*D96
 70
     1
 10
0.0
 20
0.0
 30
0.0
  3
*D96
  1

  0
LINE
  5
8FA
  8
DIMENSIONS
  6
BYBLOCK
 62
     0
 10
394.1799154923128
 20
485.7960833044353
 30
0.0
 11
434.3389207465762
 21
485.7960833044353
 31
0.0
  0
LINE
  5
8FB
  8
DIMENSIONS
  6
BYBLOCK
 62
     0
 10
376.1799154923128
 20
465.7960833044353
 30
0.0
 11
434.3389207465762
 21
465.7960833044353
 31
0.0
  0
LINE
  5
8FC
  8
DIMENSIONS
  6
BYBLOCK
 62
     0
 10
434.1589207465761
 20
485.7960833044353
 30
0.0
 11
434.1589207465761
 21
519.5556023237428
 31
0.0
  0
LINE
  5
8FD
  8
DIMENSIONS
  6
BYBLOCK
 62
     0
 10
434.1589207465761
 20
480.7960833044353
 30
0.0
 11
434.1589207465761
 21
470.7960833044353
 31
0.0
  0
SOLID
  5
8FE
  8
DIMENSIONS
 62
     0
 10
434.9922540799095
 20
480.7960833044353
 30
0.0
 11
433.3255874132428
 21
480.7960833044353
 31
0.0
 12
434.1589207465761
 22
485.7960833044353
 32
0.0
 13
434.1589207465761
 23
485.7960833044353
 33
0.0
  0
SOLID
  5
8FF
  8
DIMENSIONS
 62
     0
 10
433.3255874132428
 20
470.7960833044353
 30
0.0
 11
434.9922540799095
 21
470.7960833044353
 31
0.0
 12
434.1589207465761
 22
465.7960833044353
 32
0.0
 13
434.1589207465761
 23
465.7960833044353
 33
0.0
  0
TEXT
  5
900
  8
DIMENSIONS
  6
CONTINUOUS
 62
     5
 10
431.7639207465761
 20
491.8506023237429
 30
0.0
 40
5.0
  1
20 [0.79]
 50
90.0
  0
POINT
  5
901
  8
DEFPOINTS
 62
     0
 10
392.6799154923128
 20
485.7960833044353
 30
0.0
  0
POINT
  5
902
  8
DEFPOINTS
 62
     0
 10
374.6799154923128
 20
465.7960833044353
 30
0.0
  0
POINT
  5
9EC
  8
DEFPOINTS
 62
     0
 10
434.1589207465761
 20
465.7960833044353
 30
0.0
  0
ENDBLK
  5
8F9
  8
0
  0
BLOCK
  8
0
  2
*D97
 70
     1
 10
0.0
 20
0.0
 30
0.0
  3
*D97
  1

  0
LINE
  5
909
  8
DIMENSIONS
  6
BYBLOCK
 62
     0
 10
376.1799154923128
 20
465.7960833044353
 30
0.0
 11
434.3299112105187
 21
465.7960833044353
 31
0.0
  0
LINE
  5
90A
  8
DIMENSIONS
  6
BYBLOCK
 62
     0
 10
376.1799154923128
 20
312.7960833044353
 30
0.0
 11
434.3299112105187
 21
312.7960833044353
 31
0.0
  0
LINE
  5
90B
  8
DIMENSIONS
  6
BYBLOCK
 62
     0
 10
434.1499112105187
 20
460.7960833044353
 30
0.0
 11
434.1499112105187
 21
317.7960833044353
 31
0.0
  0
SOLID
  5
90C
  8
DIMENSIONS
 62
     0
 10
434.983244543852
 20
460.7960833044353
 30
0.0
 11
433.3165778771854
 21
460.7960833044353
 31
0.0
 12
434.1499112105187
 22
465.7960833044353
 32
0.0
 13
434.1499112105187
 23
465.7960833044353
 33
0.0
  0
SOLID
  5
90D
  8
DIMENSIONS
 62
     0
 10
433.3165778771854
 20
317.7960833044353
 30
0.0
 11
434.983244543852
 21
317.7960833044353
 31
0.0
 12
434.1499112105187
 22
312.7960833044353
 32
0.0
 13
434.1499112105187
 23
312.7960833044353
 33
0.0
  0
TEXT
  5
90E
  8
DIMENSIONS
  6
CONTINUOUS
 62
     5
 10
431.7549112105188
 20
373.6235833044353
 30
0.0
 40
5.0
  1
153 [6.02]
 50
90.0
  0
POINT
  5
90F
  8
DEFPOINTS
 62
     0
 10
374.6799154923128
 20
465.7960833044353
 30
0.0
  0
POINT
  5
910
  8
DEFPOINTS
 62
     0
 10
374.6799154923128
 20
312.7960833044353
 30
0.0
  0
POINT
  5
911
  8
DEFPOINTS
 62
     0
 10
434.1499112105187
 20
312.7960833044353
 30
0.0
  0
ENDBLK
  5
908
  8
0
  0
BLOCK
  8
0
  2
*D98
 70
     1
 10
0.0
 20
0.0
 30
0.0
  3
*D98
  1

  0
LINE
  5
918
  8
DIMENSIONS
  6
BYBLOCK
 62
     0
 10
376.1799154923128
 20
312.7960833044353
 30
0.0
 11
434.3299112105187
 21
312.7960833044353
 31
0.0
  0
LINE
  5
919
  8
DIMENSIONS
  6
BYBLOCK
 62
     0
 10
384.1799154923128
 20
182.7960833044349
 30
0.0
 11
434.3299112105187
 21
182.7960833044349
 31
0.0
  0
LINE
  5
91A
  8
DIMENSIONS
  6
BYBLOCK
 62
     0
 10
434.1499112105187
 20
307.7960833044353
 30
0.0
 11
434.1499112105187
 21
187.7960833044349
 31
0.0
  0
SOLID
  5
91B
  8
DIMENSIONS
 62
     0
 10
434.983244543852
 20
307.7960833044353
 30
0.0
 11
433.3165778771854
 21
307.7960833044353
 31
0.0
 12
434.1499112105187
 22
312.7960833044353
 32
0.0
 13
434.1499112105187
 23
312.7960833044353
 33
0.0
  0
SOLID
  5
91C
  8
DIMENSIONS
 62
     0
 10
433.3165778771854
 20
187.7960833044349
 30
0.0
 11
434.983244543852
 21
187.7960833044349
 31
0.0
 12
434.1499112105187
 22
182.7960833044349
 32
0.0
 13
434.1499112105187
 23
182.7960833044349
 33
0.0
  0
TEXT
  5
91D
  8
DIMENSIONS
  6
CONTINUOUS
 62
     5
 10
431.7549112105188
 20
232.1235833044351
 30
0.0
 40
5.0
  1
130 [5.12]
 50
90.0
  0
POINT
  5
91E
  8
DEFPOINTS
 62
     0
 10
374.6799154923128
 20
312.7960833044353
 30
0.0
  0
POINT
  5
91F
  8
DEFPOINTS
 62
     0
 10
382.6799154923128
 20
182.7960833044349
 30
0.0
  0
POINT
  5
920
  8
DEFPOINTS
 62
     0
 10
434.1499112105187
 20
182.7960833044349
 30
0.0
  0
ENDBLK
  5
917
  8
0
  0
BLOCK
  8
0
  2
*D99
 70
     1
 10
0.0
 20
0.0
 30
0.0
  3
*D99
  1

  0
LINE
  5
927
  8
DIMENSIONS
  6
BYBLOCK
 62
     0
 10
384.1799154923128
 20
182.7960833044349
 30
0.0
 11
434.3299112105187
 21
182.7960833044349
 31
0.0
  0
LINE
  5
928
  8
DIMENSIONS
  6
BYBLOCK
 62
     0
 10
384.1799154923128
 20
122.7960833044352
 30
0.0
 11
434.3299112105187
 21
122.7960833044352
 31
0.0
  0
LINE
  5
929
  8
DIMENSIONS
  6
BYBLOCK
 62
     0
 10
434.1499112105187
 20
177.7960833044349
 30
0.0
 11
434.1499112105187
 21
127.7960833044352
 31
0.0
  0
SOLID
  5
92A
  8
DIMENSIONS
 62
     0
 10
434.983244543852
 20
177.7960833044349
 30
0.0
 11
433.3165778771854
 21
177.7960833044349
 31
0.0
 12
434.1499112105187
 22
182.7960833044349
 32
0.0
 13
434.1499112105187
 23
182.7960833044349
 33
0.0
  0
SOLID
  5
92B
  8
DIMENSIONS
 62
     0
 10
433.3165778771854
 20
127.7960833044352
 30
0.0
 11
434.983244543852
 21
127.7960833044352
 31
0.0
 12
434.1499112105187
 22
122.7960833044352
 32
0.0
 13
434.1499112105187
 23
122.7960833044352
 33
0.0
  0
TEXT
  5
92C
  8
DIMENSIONS
  6
CONTINUOUS
 62
     5
 10
431.7549112105188
 20
139.313583304435
 30
0.0
 40
5.0
  1
60 [2.36]
 50
90.0
  0
POINT
  5
92D
  8
DEFPOINTS
 62
     0
 10
382.6799154923128
 20
182.7960833044349
 30
0.0
  0
POINT
  5
92E
  8
DEFPOINTS
 62
     0
 10
382.6799154923128
 20
122.7960833044352
 30
0.0
  0
POINT
  5
92F
  8
DEFPOINTS
 62
     0
 10
434.1499112105187
 20
122.7960833044352
 30
0.0
  0
ENDBLK
  5
926
  8
0
  0
BLOCK
  8
0
  2
*D100
 70
     1
 10
0.0
 20
0.0
 30
0.0
  3
*D100
  1

  0
LINE
  5
936
  8
DIMENSIONS
  6
BYBLOCK
 62
     0
 10
384.1799154923128
 20
122.7960833044352
 30
0.0
 11
434.3299112105187
 21
122.7960833044352
 31
0.0
  0
LINE
  5
937
  8
DIMENSIONS
  6
BYBLOCK
 62
     0
 10
394.1799154923128
 20
-34.203916695565
 30
0.0
 11
434.3299112105187
 21
-34.203916695565
 31
0.0
  0
LINE
  5
938
  8
DIMENSIONS
  6
BYBLOCK
 62
     0
 10
434.1499112105187
 20
117.7960833044352
 30
0.0
 11
434.1499112105187
 21
-29.203916695565
 31
0.0
  0
SOLID
  5
939
  8
DIMENSIONS
 62
     0
 10
434.983244543852
 20
117.7960833044352
 30
0.0
 11
433.3165778771854
 21
117.7960833044352
 31
0.0
 12
434.1499112105187
 22
122.7960833044352
 32
0.0
 13
434.1499112105187
 23
122.7960833044352
 33
0.0
  0
SOLID
  5
93A
  8
DIMENSIONS
 62
     0
 10
433.3165778771854
 20
-29.203916695565
 30
0.0
 11
434.983244543852
 21
-29.203916695565
 31
0.0
 12
434.1499112105187
 22
-34.203916695565
 32
0.0
 13
434.1499112105187
 23
-34.203916695565
 33
0.0
  0
TEXT
  5
93B
  8
DIMENSIONS
  6
CONTINUOUS
 62
     5
 10
431.7549112105187
 20
28.6235833044351
 30
0.0
 40
5.0
  1
157 [6.18]
 50
90.0
  0
POINT
  5
93C
  8
DEFPOINTS
 62
     0
 10
382.6799154923128
 20
122.7960833044352
 30
0.0
  0
POINT
  5
93D
  8
DEFPOINTS
 62
     0
 10
392.6799154923128
 20
-34.203916695565
 30
0.0
  0
POINT
  5
93E
  8
DEFPOINTS
 62
     0
 10
434.1499112105187
 20
-34.203916695565
 30
0.0
  0
ENDBLK
  5
935
  8
0
  0
BLOCK
  8
0
  2
*D101
 70
     1
 10
0.0
 20
0.0
 30
0.0
  3
*D101
  1

  0
LINE
  5
945
  8
DIMENSIONS
  6
BYBLOCK
 62
     0
 10
121.1799154923127
 20
485.7960833044353
 30
0.0
 11
106.4366296411317
 21
485.7960833044353
 31
0.0
  0
LINE
  5
946
  8
DIMENSIONS
  6
BYBLOCK
 62
     0
 10
134.1799154923127
 20
472.7960833044353
 30
0.0
 11
106.4366296411317
 21
472.7960833044353
 31
0.0
  0
LINE
  5
947
  8
DIMENSIONS
  6
BYBLOCK
 62
     0
 10
106.6166296411317
 20
485.7960833044353
 30
0.0
 11
106.6166296411317
 21
518.7410833044353
 31
0.0
  0
LINE
  5
948
  8
DIMENSIONS
  6
BYBLOCK
 62
     0
 10
106.6166296411317
 20
480.7960833044353
 30
0.0
 11
106.6166296411317
 21
477.7960833044353
 31
0.0
  0
SOLID
  5
949
  8
DIMENSIONS
 62
     0
 10
107.449962974465
 20
480.7960833044353
 30
0.0
 11
105.7832963077984
 21
480.7960833044353
 31
0.0
 12
106.6166296411317
 22
485.7960833044353
 32
0.0
 13
106.6166296411317
 23
485.7960833044353
 33
0.0
  0
SOLID
  5
94A
  8
DIMENSIONS
 62
     0
 10
105.7832963077984
 20
477.7960833044353
 30
0.0
 11
107.449962974465
 21
477.7960833044353
 31
0.0
 12
106.6166296411317
 22
472.7960833044353
 32
0.0
 13
106.6166296411317
 23
472.7960833044353
 33
0.0
  0
TEXT
  5
94B
  8
DIMENSIONS
  6
CONTINUOUS
 62
     5
 10
104.2216296411317
 20
491.0360833044353
 30
0.0
 40
5.0
  1
13 [0.51]
 50
90.0
  0
POINT
  5
94C
  8
DEFPOINTS
 62
     0
 10
122.6799154923127
 20
485.7960833044353
 30
0.0
  0
POINT
  5
94D
  8
DEFPOINTS
 62
     0
 10
135.6799154923127
 20
472.7960833044353
 30
0.0
  0
POINT
  5
9ED
  8
DEFPOINTS
 62
     0
 10
106.6166296411317
 20
472.7960833044353
 30
0.0
  0
ENDBLK
  5
944
  8
0
  0
BLOCK
  8
0
  2
*D102
 70
     1
 10
0.0
 20
0.0
 30
0.0
  3
*D102
  1

  0
LINE
  5
954
  8
DIMENSIONS
  6
BYBLOCK
 62
     0
 10
134.1799154923127
 20
472.7960833044353
 30
0.0
 11
106.4671143199791
 21
472.7960833044353
 31
0.0
  0
LINE
  5
955
  8
DIMENSIONS
  6
BYBLOCK
 62
     0
 10
134.1799154923127
 20
225.7960833044353
 30
0.0
 11
106.467114319979
 21
225.7960833044353
 31
0.0
  0
LINE
  5
956
  8
DIMENSIONS
  6
BYBLOCK
 62
     0
 10
106.6471143199791
 20
467.7960833044353
 30
0.0
 11
106.6471143199791
 21
230.7960833044353
 31
0.0
  0
SOLID
  5
957
  8
DIMENSIONS
 62
     0
 10
107.4804476533124
 20
467.7960833044353
 30
0.0
 11
105.8137809866457
 21
467.7960833044353
 31
0.0
 12
106.6471143199791
 22
472.7960833044353
 32
0.0
 13
106.6471143199791
 23
472.7960833044353
 33
0.0
  0
SOLID
  5
958
  8
DIMENSIONS
 62
     0
 10
105.8137809866457
 20
230.7960833044353
 30
0.0
 11
107.4804476533124
 21
230.7960833044353
 31
0.0
 12
106.6471143199791
 22
225.7960833044353
 32
0.0
 13
106.6471143199791
 23
225.7960833044353
 33
0.0
  0
TEXT
  5
959
  8
DIMENSIONS
  6
CONTINUOUS
 62
     5
 10
104.2521143199791
 20
333.9010833044354
 30
0.0
 40
5.0
  1
247 [9.72]
 50
90.0
  0
POINT
  5
95A
  8
DEFPOINTS
 62
     0
 10
135.6799154923127
 20
472.7960833044353
 30
0.0
  0
POINT
  5
95B
  8
DEFPOINTS
 62
     0
 10
135.6799154923127
 20
225.7960833044353
 30
0.0
  0
POINT
  5
95C
  8
DEFPOINTS
 62
     0
 10
106.6471143199791
 20
225.7960833044353
 30
0.0
  0
ENDBLK
  5
953
  8
0
  0
BLOCK
  8
0
  2
*D103
 70
     1
 10
0.0
 20
0.0
 30
0.0
  3
*D103
  1

  0
LINE
  5
963
  8
DIMENSIONS
  6
BYBLOCK
 62
     0
 10
134.1799154923127
 20
225.7960833044353
 30
0.0
 11
106.467114319979
 21
225.7960833044353
 31
0.0
  0
LINE
  5
964
  8
DIMENSIONS
  6
BYBLOCK
 62
     0
 10
134.1799154923127
 20
-21.20391669556511
 30
0.0
 11
106.467114319979
 21
-21.20391669556511
 31
0.0
  0
LINE
  5
965
  8
DIMENSIONS
  6
BYBLOCK
 62
     0
 10
106.6471143199791
 20
220.7960833044353
 30
0.0
 11
106.647114319979
 21
-16.20391669556511
 31
0.0
  0
SOLID
  5
966
  8
DIMENSIONS
 62
     0
 10
107.4804476533124
 20
220.7960833044353
 30
0.0
 11
105.8137809866457
 21
220.7960833044353
 31
0.0
 12
106.6471143199791
 22
225.7960833044353
 32
0.0
 13
106.6471143199791
 23
225.7960833044353
 33
0.0
  0
SOLID
  5
967
  8
DIMENSIONS
 62
     0
 10
105.8137809866457
 20
-16.20391669556511
 30
0.0
 11
107.4804476533124
 21
-16.20391669556511
 31
0.0
 12
106.647114319979
 22
-21.20391669556511
 32
0.0
 13
106.647114319979
 23
-21.20391669556511
 33
0.0
  0
TEXT
  5
968
  8
DIMENSIONS
  6
CONTINUOUS
 62
     5
 10
104.252114319979
 20
86.90108330443512
 30
0.0
 40
5.0
  1
247 [9.72]
 50
90.0
  0
POINT
  5
969
  8
DEFPOINTS
 62
     0
 10
135.6799154923127
 20
225.7960833044353
 30
0.0
  0
POINT
  5
96A
  8
DEFPOINTS
 62
     0
 10
135.6799154923127
 20
-21.20391669556511
 30
0.0
  0
POINT
  5
96B
  8
DEFPOINTS
 62
     0
 10
106.647114319979
 20
-21.20391669556511
 30
0.0
  0
ENDBLK
  5
962
  8
0
  0
BLOCK
  8
0
  2
*D104
 70
     1
 10
0.0
 20
0.0
 30
0.0
  3
*D104
  1

  0
LINE
  5
972
  8
DIMENSIONS
  6
BYBLOCK
 62
     0
 10
134.1799154923127
 20
-21.20391669556511
 30
0.0
 11
106.467114319979
 21
-21.20391669556511
 31
0.0
  0
LINE
  5
973
  8
DIMENSIONS
  6
BYBLOCK
 62
     0
 10
121.1799154923127
 20
-34.203916695565
 30
0.0
 11
106.467114319979
 21
-34.203916695565
 31
0.0
  0
LINE
  5
974
  8
DIMENSIONS
  6
BYBLOCK
 62
     0
 10
106.647114319979
 20
-34.203916695565
 30
0.0
 11
106.647114319979
 21
-67.14891669556499
 31
0.0
  0
LINE
  5
975
  8
DIMENSIONS
  6
BYBLOCK
 62
     0
 10
106.647114319979
 20
-26.20391669556511
 30
0.0
 11
106.647114319979
 21
-29.203916695565
 31
0.0
  0
SOLID
  5
976
  8
DIMENSIONS
 62
     0
 10
107.4804476533124
 20
-26.20391669556511
 30
0.0
 11
105.8137809866457
 21
-26.20391669556511
 31
0.0
 12
106.647114319979
 22
-21.20391669556511
 32
0.0
 13
106.647114319979
 23
-21.20391669556511
 33
0.0
  0
SOLID
  5
977
  8
DIMENSIONS
 62
     0
 10
105.8137809866457
 20
-29.203916695565
 30
0.0
 11
107.4804476533124
 21
-29.203916695565
 31
0.0
 12
106.647114319979
 22
-34.203916695565
 32
0.0
 13
106.647114319979
 23
-34.203916695565
 33
0.0
  0
TEXT
  5
978
  8
DIMENSIONS
  6
CONTINUOUS
 62
     5
 10
104.252114319979
 20
-66.90891669556498
 30
0.0
 40
5.0
  1
13 [0.51]
 50
90.0
  0
POINT
  5
979
  8
DEFPOINTS
 62
     0
 10
135.6799154923127
 20
-21.20391669556511
 30
0.0
  0
POINT
  5
97A
  8
DEFPOINTS
 62
     0
 10
122.6799154923127
 20
-34.203916695565
 30
0.0
  0
POINT
  5
9EE
  8
DEFPOINTS
 62
     0
 10
106.647114319979
 20
-34.203916695565
 30
0.0
  0
ENDBLK
  5
971
  8
0
  0
BLOCK
  8
0
  2
*D105
 70
     1
 10
0.0
 20
0.0
 30
0.0
  3
*D105
  1

  0
LINE
  5
982
  8
DIMENSIONS
  6
BYBLOCK
 62
     0
 10
371.1799233796664
 20
-21.21549620110578
 30
0.0
 11
328.471814796364
 21
-21.27367728803121
 31
0.0
  0
TEXT
  5
983
  8
DIMENSIONS
  6
CONTINUOUS
 62
     5
 10
329.1884424487043
 20
-18.79769873240895
 30
0.0
 40
5.0
  1
Ø7 [Ø0.28]
 50
0.0780537648871281
  0
SOLID
  5
984
  8
DIMENSIONS
 62
     0
 10
371.1810586253077
 20
-22.04882876116915
 30
0.0
 11
371.1787881340252
 21
-20.3821636410424
 31
0.0
 12
376.1799187400467
 22
-21.20868472725833
 32
0.0
 13
376.1799187400467
 23
-21.20868472725833
 33
0.0
  0
LINE
  5
985
  8
DIMENSIONS
  6
BYBLOCK
 62
     0
 10
377.1799154923128
 20
-21.20391669556512
 30
0.0
 11
382.1799154923128
 21
-21.20391669556512
 31
0.0
  0
LINE
  5
986
  8
DIMENSIONS
  6
BYBLOCK
 62
     0
 10
379.6799154923128
 20
-23.70391669556512
 30
0.0
 11
379.6799154923128
 21
-18.70391669556512
 31
0.0
  0
POINT
  5
987
  8
DEFPOINTS
 62
     0
 10
376.1799187400467
 20
-21.20868472725833
 30
0.0
  0
POINT
  5
988
  8
DEFPOINTS
 62
     0
 10
383.179912244579
 20
-21.19914866387191
 30
0.0
  0
ENDBLK
  5
981
  8
0
  0
BLOCK
  8
0
  2
*D106
 70
     1
 10
0.0
 20
0.0
 30
0.0
  3
*D106
  1

  0
LINE
  5
991
  8
DIMENSIONS
  6
BYBLOCK
 62
     0
 10
382.6799154923128
 20
121.2960833044352
 30
0.0
 11
382.6799154923128
 21
107.7665839959851
 31
0.0
  0
LINE
  5
992
  8
DIMENSIONS
  6
BYBLOCK
 62
     0
 10
392.6799154923128
 20
121.2960833044352
 30
0.0
 11
392.6799154923128
 21
107.7665839959851
 31
0.0
  0
LINE
  5
993
  8
DIMENSIONS
  6
BYBLOCK
 62
     0
 10
392.6799154923128
 20
107.9465839959851
 30
0.0
 11
430.6249154923129
 21
107.9465839959851
 31
0.0
  0
LINE
  5
994
  8
DIMENSIONS
  6
BYBLOCK
 62
     0
 10
377.6799154923128
 20
107.9465839959851
 30
0.0
 11
372.6799154923128
 21
107.9465839959851
 31
0.0
  0
LINE
  5
995
  8
DIMENSIONS
  6
BYBLOCK
 62
     0
 10
397.6799154923128
 20
107.9465839959851
 30
0.0
 11
402.6799154923128
 21
107.9465839959851
 31
0.0
  0
SOLID
  5
996
  8
DIMENSIONS
 62
     0
 10
377.6799154923128
 20
107.1132506626518
 30
0.0
 11
377.6799154923128
 21
108.7799173293185
 31
0.0
 12
382.6799154923128
 22
107.9465839959851
 32
0.0
 13
382.6799154923128
 23
107.9465839959851
 33
0.0
  0
SOLID
  5
997
  8
DIMENSIONS
 62
     0
 10
397.6799154923128
 20
108.7799173293185
 30
0.0
 11
397.6799154923128
 21
107.1132506626518
 31
0.0
 12
392.6799154923128
 22
107.9465839959851
 32
0.0
 13
392.6799154923128
 23
107.9465839959851
 33
0.0
  0
TEXT
  5
998
  8
DIMENSIONS
  6
CONTINUOUS
 62
     5
 10
402.9199154923128
 20
110.3415839959851
 30
0.0
 40
5.0
  1
10 [0.39]
  0
POINT
  5
999
  8
DEFPOINTS
 62
     0
 10
382.6799154923128
 20
122.7960833044352
 30
0.0
  0
POINT
  5
99A
  8
DEFPOINTS
 62
     0
 10
392.6799154923128
 20
122.7960833044352
 30
0.0
  0
POINT
  5
9F0
  8
DEFPOINTS
 62
     0
 10
392.6799154923128
 20
107.9465839959851
 30
0.0
  0
ENDBLK
  5
990
  8
0
  0
BLOCK
  8
0
  2
*D107
 70
     1
 10
0.0
 20
0.0
 30
0.0
  3
*D107
  1

  0
LINE
  5
9A7
  8
DIMENSIONS
  6
BYBLOCK
 62
     0
 10
382.6799154923128
 20
121.2960833044352
 30
0.0
 11
382.6799154923128
 21
107.7665839959851
 31
0.0
  0
LINE
  5
9A8
  8
DIMENSIONS
  6
BYBLOCK
 62
     0
 10
239.6799154923128
 20
121.2960833044352
 30
0.0
 11
239.6799154923128
 21
107.7665839959851
 31
0.0
  0
LINE
  5
9A9
  8
DIMENSIONS
  6
BYBLOCK
 62
     0
 10
377.6799154923128
 20
107.9465839959851
 30
0.0
 11
244.6799154923128
 21
107.9465839959851
 31
0.0
  0
SOLID
  5
9AA
  8
DIMENSIONS
 62
     0
 10
377.6799154923128
 20
107.1132506626518
 30
0.0
 11
377.6799154923128
 21
108.7799173293185
 31
0.0
 12
382.6799154923128
 22
107.9465839959851
 32
0.0
 13
382.6799154923128
 23
107.9465839959851
 33
0.0
  0
SOLID
  5
9AB
  8
DIMENSIONS
 62
     0
 10
244.6799154923128
 20
108.7799173293185
 30
0.0
 11
244.6799154923128
 21
107.1132506626518
 31
0.0
 12
239.6799154923128
 22
107.9465839959851
 32
0.0
 13
239.6799154923128
 23
107.9465839959851
 33
0.0
  0
TEXT
  5
9AC
  8
DIMENSIONS
  6
CONTINUOUS
 62
     5
 10
295.5074154923128
 20
110.3415839959851
 30
0.0
 40
5.0
  1
143 [5.63]
  0
POINT
  5
9AD
  8
DEFPOINTS
 62
     0
 10
382.6799154923128
 20
122.7960833044352
 30
0.0
  0
POINT
  5
9AE
  8
DEFPOINTS
 62
     0
 10
239.6799154923128
 20
122.7960833044352
 30
0.0
  0
POINT
  5
9AF
  8
DEFPOINTS
 62
     0
 10
239.6799154923128
 20
107.9465839959851
 30
0.0
  0
ENDBLK
  5
9A6
  8
0
  0
BLOCK
  8
0
  2
*D108
 70
     1
 10
0.0
 20
0.0
 30
0.0
  3
*D108
  1

  0
LINE
  5
9B6
  8
DIMENSIONS
  6
BYBLOCK
 62
     0
 10
239.6799154923128
 20
121.2960833044352
 30
0.0
 11
239.6799154923128
 21
107.7665839959851
 31
0.0
  0
LINE
  5
9B7
  8
DIMENSIONS
  6
BYBLOCK
 62
     0
 10
122.6799154923127
 20
121.2960833044352
 30
0.0
 11
122.6799154923127
 21
107.7665839959851
 31
0.0
  0
LINE
  5
9B8
  8
DIMENSIONS
  6
BYBLOCK
 62
     0
 10
234.6799154923128
 20
107.9465839959851
 30
0.0
 11
127.6799154923127
 21
107.9465839959851
 31
0.0
  0
SOLID
  5
9B9
  8
DIMENSIONS
 62
     0
 10
234.6799154923128
 20
107.1132506626518
 30
0.0
 11
234.6799154923128
 21
108.7799173293185
 31
0.0
 12
239.6799154923128
 22
107.9465839959851
 32
0.0
 13
239.6799154923128
 23
107.9465839959851
 33
0.0
  0
SOLID
  5
9BA
  8
DIMENSIONS
 62
     0
 10
127.6799154923127
 20
108.7799173293185
 30
0.0
 11
127.6799154923127
 21
107.1132506626518
 31
0.0
 12
122.6799154923127
 22
107.9465839959851
 32
0.0
 13
122.6799154923127
 23
107.9465839959851
 33
0.0
  0
TEXT
  5
9BB
  8
DIMENSIONS
  6
CONTINUOUS
 62
     5
 10
165.5074154923128
 20
110.3415839959851
 30
0.0
 40
5.0
  1
117 [4.61]
  0
POINT
  5
9BC
  8
DEFPOINTS
 62
     0
 10
239.6799154923128
 20
122.7960833044352
 30
0.0
  0
POINT
  5
9BD
  8
DEFPOINTS
 62
     0
 10
122.6799154923127
 20
122.7960833044352
 30
0.0
  0
POINT
  5
9BE
  8
DEFPOINTS
 62
     0
 10
122.6799154923127
 20
107.9465839959851
 30
0.0
  0
ENDBLK
  5
9B5
  8
0
  0
BLOCK
  8
0
  2
*D109
 70
     1
 10
0.0
 20
0.0
 30
0.0
  3
*D109
  1

  0
LINE
  5
9C5
  8
DIMENSIONS
  6
BYBLOCK
 62
     0
 10
374.6799154923128
 20
311.2960833044353
 30
0.0
 11
374.6799154923128
 21
297.3109191353582
 31
0.0
  0
LINE
  5
9C6
  8
DIMENSIONS
  6
BYBLOCK
 62
     0
 10
392.6799154923128
 20
311.2960833044353
 30
0.0
 11
392.6799154923128
 21
297.3109191353582
 31
0.0
  0
LINE
  5
9C7
  8
DIMENSIONS
  6
BYBLOCK
 62
     0
 10
392.6799154923128
 20
297.4909191353582
 30
0.0
 11
425.6249154923129
 21
297.4909191353582
 31
0.0
  0
LINE
  5
9C8
  8
DIMENSIONS
  6
BYBLOCK
 62
     0
 10
379.6799154923128
 20
297.4909191353582
 30
0.0
 11
387.6799154923128
 21
297.4909191353582
 31
0.0
  0
SOLID
  5
9C9
  8
DIMENSIONS
 62
     0
 10
379.6799154923128
 20
298.3242524686916
 30
0.0
 11
379.6799154923128
 21
296.6575858020249
 31
0.0
 12
374.6799154923128
 22
297.4909191353582
 32
0.0
 13
374.6799154923128
 23
297.4909191353582
 33
0.0
  0
SOLID
  5
9CA
  8
DIMENSIONS
 62
     0
 10
387.6799154923128
 20
296.6575858020249
 30
0.0
 11
387.6799154923128
 21
298.3242524686916
 31
0.0
 12
392.6799154923128
 22
297.4909191353582
 32
0.0
 13
392.6799154923128
 23
297.4909191353582
 33
0.0
  0
TEXT
  5
9CB
  8
DIMENSIONS
  6
CONTINUOUS
 62
     5
 10
397.9199154923128
 20
299.8859191353582
 30
0.0
 40
5.0
  1
18 [0.71]
  0
POINT
  5
9CC
  8
DEFPOINTS
 62
     0
 10
374.6799154923128
 20
312.7960833044353
 30
0.0
  0
POINT
  5
9CD
  8
DEFPOINTS
 62
     0
 10
392.6799154923128
 20
312.7960833044353
 30
0.0
  0
POINT
  5
9EF
  8
DEFPOINTS
 62
     0
 10
392.6799154923128
 20
297.4909191353582
 30
0.0
  0
ENDBLK
  5
9C4
  8
0
  0
BLOCK
  8
0
  2
*D110
 70
     1
 10
0.0
 20
0.0
 30
0.0
  3
*D110
  1

  0
LINE
  5
9D4
  8
DIMENSIONS
  6
BYBLOCK
 62
     0
 10
374.6799154923128
 20
311.2960833044353
 30
0.0
 11
374.6799154923128
 21
297.3109191353582
 31
0.0
  0
LINE
  5
9D5
  8
DIMENSIONS
  6
BYBLOCK
 62
     0
 10
195.6799154923128
 20
311.2960833044353
 30
0.0
 11
195.6799154923128
 21
297.3109191353582
 31
0.0
  0
LINE
  5
9D6
  8
DIMENSIONS
  6
BYBLOCK
 62
     0
 10
369.6799154923128
 20
297.4909191353582
 30
0.0
 11
200.6799154923128
 21
297.4909191353582
 31
0.0
  0
SOLID
  5
9D7
  8
DIMENSIONS
 62
     0
 10
369.6799154923128
 20
296.6575858020249
 30
0.0
 11
369.6799154923128
 21
298.3242524686916
 31
0.0
 12
374.6799154923128
 22
297.4909191353582
 32
0.0
 13
374.6799154923128
 23
297.4909191353582
 33
0.0
  0
SOLID
  5
9D8
  8
DIMENSIONS
 62
     0
 10
200.6799154923128
 20
298.3242524686916
 30
0.0
 11
200.6799154923128
 21
296.6575858020249
 31
0.0
 12
195.6799154923128
 22
297.4909191353582
 32
0.0
 13
195.6799154923128
 23
297.4909191353582
 33
0.0
  0
TEXT
  5
9D9
  8
DIMENSIONS
  6
CONTINUOUS
 62
     5
 10
269.5074154923128
 20
299.8859191353582
 30
0.0
 40
5.0
  1
179 [7.05]
  0
POINT
  5
9DA
  8
DEFPOINTS
 62
     0
 10
374.6799154923128
 20
312.7960833044353
 30
0.0
  0
POINT
  5
9DB
  8
DEFPOINTS
 62
     0
 10
195.6799154923128
 20
312.7960833044353
 30
0.0
  0
POINT
  5
9DC
  8
DEFPOINTS
 62
     0
 10
195.6799154923128
 20
297.4909191353582
 30
0.0
  0
ENDBLK
  5
9D3
  8
0
  0
BLOCK
  8
0
  2
*D111
 70
     1
 10
0.0
 20
0.0
 30
0.0
  3
*D111
  1

  0
LINE
  5
9E3
  8
DIMENSIONS
  6
BYBLOCK
 62
     0
 10
195.6799154923128
 20
311.2960833044353
 30
0.0
 11
195.6799154923128
 21
297.3109191353582
 31
0.0
  0
LINE
  5
9E4
  8
DIMENSIONS
  6
BYBLOCK
 62
     0
 10
122.6799154923127
 20
311.2960833044353
 30
0.0
 11
122.6799154923127
 21
297.3109191353582
 31
0.0
  0
LINE
  5
9E5
  8
DIMENSIONS
  6
BYBLOCK
 62
     0
 10
190.6799154923128
 20
297.4909191353582
 30
0.0
 11
127.6799154923127
 21
297.4909191353582
 31
0.0
  0
SOLID
  5
9E6
  8
DIMENSIONS
 62
     0
 10
190.6799154923128
 20
296.6575858020249
 30
0.0
 11
190.6799154923128
 21
298.3242524686916
 31
0.0
 12
195.6799154923128
 22
297.4909191353582
 32
0.0
 13
195.6799154923128
 23
297.4909191353582
 33
0.0
  0
SOLID
  5
9E7
  8
DIMENSIONS
 62
     0
 10
127.6799154923127
 20
298.3242524686916
 30
0.0
 11
127.6799154923127
 21
296.6575858020249
 31
0.0
 12
122.6799154923127
 22
297.4909191353582
 32
0.0
 13
122.6799154923127
 23
297.4909191353582
 33
0.0
  0
TEXT
  5
9E8
  8
DIMENSIONS
  6
CONTINUOUS
 62
     5
 10
145.6624154923128
 20
299.8859191353582
 30
0.0
 40
5.0
  1
73 [2.87]
  0
POINT
  5
9E9
  8
DEFPOINTS
 62
     0
 10
195.6799154923128
 20
312.7960833044353
 30
0.0
  0
POINT
  5
9EA
  8
DEFPOINTS
 62
     0
 10
122.6799154923127
 20
312.7960833044353
 30
0.0
  0
POINT
  5
9EB
  8
DEFPOINTS
 62
     0
 10
122.6799154923127
 20
297.4909191353582
 30
0.0
  0
ENDBLK
  5
9E2
  8
0
  0
BLOCK
  8
0
  2
*D112
 70
     1
 10
0.0
 20
0.0
 30
0.0
  3
*D112
  1

  0
LINE
  5
A08
  8
0
  6
BYBLOCK
 62
     0
 10
70.34684447919727
 20
551.6340453173323
 30
0.0
 11
70.34684447919727
 21
581.6598682138172
 31
0.0
  0
LINE
  5
A09
  8
0
  6
BYBLOCK
 62
     0
 10
470.577642590043
 20
551.6340453173323
 30
0.0
 11
470.577642590043
 21
581.6598682138172
 31
0.0
  0
LINE
  5
A0A
  8
0
  6
BYBLOCK
 62
     0
 10
75.34684447919727
 20
581.4798682138172
 30
0.0
 11
465.577642590043
 21
581.4798682138172
 31
0.0
  0
SOLID
  5
A0B
  8
0
 62
     0
 10
75.34684447919727
 20
582.3132015471506
 30
0.0
 11
75.34684447919727
 21
580.6465348804838
 31
0.0
 12
70.34684447919727
 22
581.4798682138172
 32
0.0
 13
70.34684447919727
 23
581.4798682138172
 33
0.0
  0
SOLID
  5
A0C
  8
0
 62
     0
 10
465.577642590043
 20
580.6465348804838
 30
0.0
 11
465.577642590043
 21
582.3132015471506
 31
0.0
 12
470.577642590043
 22
581.4798682138172
 32
0.0
 13
470.577642590043
 23
581.4798682138172
 33
0.0
  0
TEXT
  5
A0D
  8
0
  6
CONTINUOUS
 62
     5
 10
244.4547435346201
 20
583.8748682138172
 30
0.0
 40
5.0
  1
400.2308 [15.76]
  0
POINT
  5
A0E
  8
DEFPOINTS
 62
     0
 10
70.34684447919727
 20
550.1340453173323
 30
0.0
  0
POINT
  5
A0F
  8
DEFPOINTS
 62
     0
 10
470.577642590043
 20
550.1340453173323
 30
0.0
  0
POINT
  5
A10
  8
DEFPOINTS
 62
     0
 10
470.577642590043
 20
581.4798682138172
 30
0.0
  0
ENDBLK
  5
A07
  8
0
  0
BLOCK
  8
0
  2
*D114
 70
     1
 10
0.0
 20
0.0
 30
0.0
  3
*D114
  1

  0
LINE
  5
A49
  8
DIMENSIONS
  6
BYBLOCK
 62
     0
 10
391.5645066172513
 20
468.3587515279283
 30
0.0
 11
415.5578278376732
 21
468.3587515279283
 31
0.0
  0
LINE
  5
A4A
  8
DIMENSIONS
  6
BYBLOCK
 62
     0
 10
391.5645066172513
 20
-32.64124847207097
 30
0.0
 11
415.5578278376731
 21
-32.64124847207097
 31
0.0
  0
LINE
  5
A4B
  8
DIMENSIONS
  6
BYBLOCK
 62
     0
 10
415.3778278376732
 20
463.3587515279283
 30
0.0
 11
415.3778278376731
 21
-27.64124847207097
 31
0.0
  0
SOLID
  5
A4C
  8
DIMENSIONS
 62
     0
 10
416.2111611710065
 20
463.3587515279283
 30
0.0
 11
414.5444945043399
 21
463.3587515279283
 31
0.0
 12
415.3778278376732
 22
468.3587515279283
 32
0.0
 13
415.3778278376732
 23
468.3587515279283
 33
0.0
  0
SOLID
  5
A4D
  8
DIMENSIONS
 62
     0
 10
414.5444945043398
 20
-27.64124847207097
 30
0.0
 11
416.2111611710064
 21
-27.64124847207097
 31
0.0
 12
415.3778278376731
 22
-32.64124847207097
 32
0.0
 13
415.3778278376731
 23
-32.64124847207097
 33
0.0
  0
TEXT
  5
A4E
  8
DIMENSIONS
  6
CONTINUOUS
 62
     5
 10
412.9828278376733
 20
200.4812515279287
 30
0.0
 40
5.0
  1
501 [19.72]
 50
90.0
  0
POINT
  5
A4F
  8
DEFPOINTS
 62
     0
 10
390.0645066172513
 20
468.3587515279283
 30
0.0
  0
POINT
  5
A50
  8
DEFPOINTS
 62
     0
 10
390.0645066172513
 20
-32.64124847207097
 30
0.0
  0
POINT
  5
A51
  8
DEFPOINTS
 62
     0
 10
415.3778278376731
 20
-32.64124847207097
 30
0.0
  0
ENDBLK
  5
A48
  8
0
  0
BLOCK
  8
0
  2
*D115
 70
     1
 10
0.0
 20
0.0
 30
0.0
  3
*D115
  1

  0
LINE
  5
A58
  8
DIMENSIONS
  6
BYBLOCK
 62
     0
 10
139.0645066172517
 20
469.8587515279283
 30
0.0
 11
139.0645066172517
 21
490.5741578591525
 31
0.0
  0
LINE
  5
A59
  8
DIMENSIONS
  6
BYBLOCK
 62
     0
 10
390.0645066172513
 20
469.8587515279283
 30
0.0
 11
390.0645066172513
 21
490.5741578591525
 31
0.0
  0
LINE
  5
A5A
  8
DIMENSIONS
  6
BYBLOCK
 62
     0
 10
144.0645066172517
 20
490.3941578591525
 30
0.0
 11
385.0645066172513
 21
490.3941578591525
 31
0.0
  0
SOLID
  5
A5B
  8
DIMENSIONS
 62
     0
 10
144.0645066172517
 20
491.2274911924858
 30
0.0
 11
144.0645066172517
 21
489.5608245258192
 31
0.0
 12
139.0645066172517
 22
490.3941578591525
 32
0.0
 13
139.0645066172517
 23
490.3941578591525
 33
0.0
  0
SOLID
  5
A5C
  8
DIMENSIONS
 62
     0
 10
385.0645066172513
 20
489.5608245258192
 30
0.0
 11
385.0645066172513
 21
491.2274911924858
 31
0.0
 12
390.0645066172513
 22
490.3941578591525
 32
0.0
 13
390.0645066172513
 23
490.3941578591525
 33
0.0
  0
TEXT
  5
A5D
  8
DIMENSIONS
  6
CONTINUOUS
 62
     5
 10
249.1695066172515
 20
492.7891578591525
 30
0.0
 40
5.0
  1
251 [9.88]
  0
POINT
  5
A5E
  8
DEFPOINTS
 62
     0
 10
139.0645066172517
 20
468.3587515279283
 30
0.0
  0
POINT
  5
A5F
  8
DEFPOINTS
 62
     0
 10
390.0645066172513
 20
468.3587515279283
 30
0.0
  0
POINT
  5
A60
  8
DEFPOINTS
 62
     0
 10
390.0645066172513
 20
490.3941578591525
 30
0.0
  0
ENDBLK
  5
A57
  8
0
  0
BLOCK
  8
0
  2
*D117
 70
     1
 10
0.0
 20
0.0
 30
0.0
  3
*D117
  1

  0
LINE
  5
ABD
  8
DIMENSIONS
  6
BYBLOCK
 62
     0
 10
129.6109226017614
 20
327.7408522494085
 30
0.0
 11
129.6109226017614
 21
366.6136743089129
 31
0.0
  0
LINE
  5
ABE
  8
DIMENSIONS
  6
BYBLOCK
 62
     0
 10
234.6109226017614
 20
317.7408522494086
 30
0.0
 11
234.6109226017614
 21
366.6136743089129
 31
0.0
  0
LINE
  5
ABF
  8
DIMENSIONS
  6
BYBLOCK
 62
     0
 10
134.6109226017614
 20
366.4336743089129
 30
0.0
 11
229.6109226017614
 21
366.4336743089129
 31
0.0
  0
SOLID
  5
AC0
  8
DIMENSIONS
 62
     0
 10
134.6109226017614
 20
367.2670076422463
 30
0.0
 11
134.6109226017614
 21
365.6003409755796
 31
0.0
 12
129.6109226017614
 22
366.4336743089129
 32
0.0
 13
129.6109226017614
 23
366.4336743089129
 33
0.0
  0
SOLID
  5
AC1
  8
DIMENSIONS
 62
     0
 10
229.6109226017614
 20
365.6003409755796
 30
0.0
 11
229.6109226017614
 21
367.2670076422463
 31
0.0
 12
234.6109226017614
 22
366.4336743089129
 32
0.0
 13
234.6109226017614
 23
366.4336743089129
 33
0.0
  0
TEXT
  5
AC2
  8
DIMENSIONS
  6
CONTINUOUS
 62
     5
 10
166.4384226017615
 20
368.8286743089129
 30
0.0
 40
5.0
  1
105 [4.13]
  0
POINT
  5
AC3
  8
DEFPOINTS
 62
     0
 10
129.6109226017614
 20
326.2408522494085
 30
0.0
  0
POINT
  5
AC4
  8
DEFPOINTS
 62
     0
 10
234.6109226017614
 20
316.2408522494086
 30
0.0
  0
POINT
  5
AC5
  8
DEFPOINTS
 62
     0
 10
234.6109226017614
 20
366.4336743089129
 30
0.0
  0
ENDBLK
  5
ABC
  8
0
  0
BLOCK
  8
0
  2
*D118
 70
     1
 10
0.0
 20
0.0
 30
0.0
  3
*D118
  1

  0
LINE
  5
ACC
  8
DIMENSIONS
  6
BYBLOCK
 62
     0
 10
234.6109226017614
 20
317.7408522494086
 30
0.0
 11
234.6109226017614
 21
366.6136743089129
 31
0.0
  0
LINE
  5
ACD
  8
DIMENSIONS
  6
BYBLOCK
 62
     0
 10
304.6109226017614
 20
317.7408522494086
 30
0.0
 11
304.6109226017614
 21
366.6136743089129
 31
0.0
  0
LINE
  5
ACE
  8
DIMENSIONS
  6
BYBLOCK
 62
     0
 10
239.6109226017614
 20
366.4336743089129
 30
0.0
 11
299.6109226017614
 21
366.4336743089129
 31
0.0
  0
SOLID
  5
ACF
  8
DIMENSIONS
 62
     0
 10
239.6109226017614
 20
367.2670076422463
 30
0.0
 11
239.6109226017614
 21
365.6003409755796
 31
0.0
 12
234.6109226017614
 22
366.4336743089129
 32
0.0
 13
234.6109226017614
 23
366.4336743089129
 33
0.0
  0
SOLID
  5
AD0
  8
DIMENSIONS
 62
     0
 10
299.6109226017614
 20
365.6003409755796
 30
0.0
 11
299.6109226017614
 21
367.2670076422463
 31
0.0
 12
304.6109226017614
 22
366.4336743089129
 32
0.0
 13
304.6109226017614
 23
366.4336743089129
 33
0.0
  0
TEXT
  5
AD1
  8
DIMENSIONS
  6
CONTINUOUS
 62
     5
 10
256.0934226017615
 20
368.8286743089129
 30
0.0
 40
5.0
  1
70 [2.76]
  0
POINT
  5
AD2
  8
DEFPOINTS
 62
     0
 10
234.6109226017614
 20
316.2408522494086
 30
0.0
  0
POINT
  5
AD3
  8
DEFPOINTS
 62
     0
 10
304.6109226017614
 20
316.2408522494086
 30
0.0
  0
POINT
  5
AD4
  8
DEFPOINTS
 62
     0
 10
304.6109226017614
 20
366.4336743089129
 30
0.0
  0
ENDBLK
  5
ACB
  8
0
  0
BLOCK
  8
0
  2
*D119
 70
     1
 10
0.0
 20
0.0
 30
0.0
  3
*D119
  1

  0
LINE
  5
ADB
  8
DIMENSIONS
  6
BYBLOCK
 62
     0
 10
304.6109226017614
 20
317.7408522494086
 30
0.0
 11
304.6109226017614
 21
366.6136743089129
 31
0.0
  0
LINE
  5
ADC
  8
DIMENSIONS
  6
BYBLOCK
 62
     0
 10
446.6109226017614
 20
314.7408522494085
 30
0.0
 11
446.6109226017614
 21
366.6136743089129
 31
0.0
  0
LINE
  5
ADD
  8
DIMENSIONS
  6
BYBLOCK
 62
     0
 10
309.6109226017614
 20
366.4336743089129
 30
0.0
 11
441.6109226017614
 21
366.4336743089129
 31
0.0
  0
SOLID
  5
ADE
  8
DIMENSIONS
 62
     0
 10
309.6109226017614
 20
367.2670076422463
 30
0.0
 11
309.6109226017614
 21
365.6003409755796
 31
0.0
 12
304.6109226017614
 22
366.4336743089129
 32
0.0
 13
304.6109226017614
 23
366.4336743089129
 33
0.0
  0
SOLID
  5
ADF
  8
DIMENSIONS
 62
     0
 10
441.6109226017614
 20
365.6003409755796
 30
0.0
 11
441.6109226017614
 21
367.2670076422463
 31
0.0
 12
446.6109226017614
 22
366.4336743089129
 32
0.0
 13
446.6109226017614
 23
366.4336743089129
 33
0.0
  0
TEXT
  5
AE0
  8
DIMENSIONS
  6
CONTINUOUS
 62
     5
 10
359.9384226017614
 20
368.8286743089129
 30
0.0
 40
5.0
  1
142 [5.59]
  0
POINT
  5
AE1
  8
DEFPOINTS
 62
     0
 10
304.6109226017614
 20
316.2408522494086
 30
0.0
  0
POINT
  5
AE2
  8
DEFPOINTS
 62
     0
 10
446.6109226017614
 20
313.2408522494085
 30
0.0
  0
POINT
  5
AE3
  8
DEFPOINTS
 62
     0
 10
446.6109226017614
 20
366.4336743089129
 30
0.0
  0
ENDBLK
  5
ADA
  8
0
  0
BLOCK
  8
0
  2
*D120
 70
     1
 10
0.0
 20
0.0
 30
0.0
  3
*D120
  1

  0
LINE
  5
AEA
  8
DIMENSIONS
  6
BYBLOCK
 62
     0
 10
446.6109226017614
 20
314.7408522494085
 30
0.0
 11
446.6109226017614
 21
366.6136743089129
 31
0.0
  0
LINE
  5
AEB
  8
DIMENSIONS
  6
BYBLOCK
 62
     0
 10
631.6109226017614
 20
314.7408522494085
 30
0.0
 11
631.6109226017614
 21
366.6136743089129
 31
0.0
  0
LINE
  5
AEC
  8
DIMENSIONS
  6
BYBLOCK
 62
     0
 10
451.6109226017614
 20
366.4336743089129
 30
0.0
 11
626.6109226017614
 21
366.4336743089129
 31
0.0
  0
SOLID
  5
AED
  8
DIMENSIONS
 62
     0
 10
451.6109226017614
 20
367.2670076422463
 30
0.0
 11
451.6109226017614
 21
365.6003409755796
 31
0.0
 12
446.6109226017614
 22
366.4336743089129
 32
0.0
 13
446.6109226017614
 23
366.4336743089129
 33
0.0
  0
SOLID
  5
AEE
  8
DIMENSIONS
 62
     0
 10
626.6109226017614
 20
365.6003409755796
 30
0.0
 11
626.6109226017614
 21
367.2670076422463
 31
0.0
 12
631.6109226017614
 22
366.4336743089129
 32
0.0
 13
631.6109226017614
 23
366.4336743089129
 33
0.0
  0
TEXT
  5
AEF
  8
DIMENSIONS
  6
CONTINUOUS
 62
     5
 10
523.4384226017614
 20
368.8286743089129
 30
0.0
 40
5.0
  1
185 [7.28]
  0
POINT
  5
AF0
  8
DEFPOINTS
 62
     0
 10
446.6109226017614
 20
313.2408522494085
 30
0.0
  0
POINT
  5
AF1
  8
DEFPOINTS
 62
     0
 10
631.6109226017614
 20
313.2408522494085
 30
0.0
  0
POINT
  5
AF2
  8
DEFPOINTS
 62
     0
 10
631.6109226017614
 20
366.4336743089129
 30
0.0
  0
ENDBLK
  5
AE9
  8
0
  0
BLOCK
  8
0
  2
*D121
 70
     1
 10
0.0
 20
0.0
 30
0.0
  3
*D121
  1

  0
LINE
  5
AF9
  8
DIMENSIONS
  6
BYBLOCK
 62
     0
 10
631.6109226017614
 20
314.7408522494085
 30
0.0
 11
631.6109226017614
 21
366.6136743089129
 31
0.0
  0
LINE
  5
AFA
  8
DIMENSIONS
  6
BYBLOCK
 62
     0
 10
649.6109226017614
 20
327.7408522494085
 30
0.0
 11
649.6109226017614
 21
366.6136743089129
 31
0.0
  0
LINE
  5
AFB
  8
DIMENSIONS
  6
BYBLOCK
 62
     0
 10
649.6109226017614
 20
366.4336743089129
 30
0.0
 11
682.5559226017614
 21
366.4336743089129
 31
0.0
  0
LINE
  5
AFC
  8
DIMENSIONS
  6
BYBLOCK
 62
     0
 10
636.6109226017614
 20
366.4336743089129
 30
0.0
 11
644.6109226017614
 21
366.4336743089129
 31
0.0
  0
SOLID
  5
AFD
  8
DIMENSIONS
 62
     0
 10
636.6109226017614
 20
367.2670076422463
 30
0.0
 11
636.6109226017614
 21
365.6003409755796
 31
0.0
 12
631.6109226017614
 22
366.4336743089129
 32
0.0
 13
631.6109226017614
 23
366.4336743089129
 33
0.0
  0
SOLID
  5
AFE
  8
DIMENSIONS
 62
     0
 10
644.6109226017614
 20
365.6003409755796
 30
0.0
 11
644.6109226017614
 21
367.2670076422463
 31
0.0
 12
649.6109226017614
 22
366.4336743089129
 32
0.0
 13
649.6109226017614
 23
366.4336743089129
 33
0.0
  0
TEXT
  5
AFF
  8
DIMENSIONS
  6
CONTINUOUS
 62
     5
 10
654.8509226017615
 20
368.8286743089129
 30
0.0
 40
5.0
  1
18 [0.71]
  0
POINT
  5
B00
  8
DEFPOINTS
 62
     0
 10
631.6109226017614
 20
313.2408522494085
 30
0.0
  0
POINT
  5
B01
  8
DEFPOINTS
 62
     0
 10
649.6109226017614
 20
326.2408522494085
 30
0.0
  0
POINT
  5
BCC
  8
DEFPOINTS
 62
     0
 10
649.6109226017614
 20
366.4336743089129
 30
0.0
  0
ENDBLK
  5
AF8
  8
0
  0
BLOCK
  8
0
  2
*D122
 70
     1
 10
0.0
 20
0.0
 30
0.0
  3
*D122
  1

  0
LINE
  5
B08
  8
DIMENSIONS
  6
BYBLOCK
 62
     0
 10
129.6109226017614
 20
-15.25914775059135
 30
0.0
 11
129.6109226017614
 21
-29.43798462626206
 31
0.0
  0
LINE
  5
B09
  8
DIMENSIONS
  6
BYBLOCK
 62
     0
 10
142.6109226017614
 20
-2.259147750591358
 30
0.0
 11
142.6109226017614
 21
-29.43798462626206
 31
0.0
  0
LINE
  5
B0A
  8
DIMENSIONS
  6
BYBLOCK
 62
     0
 10
129.6109226017614
 20
-29.25798462626206
 30
0.0
 11
96.66182442391855
 21
-29.25798462626206
 31
0.0
  0
LINE
  5
B0B
  8
DIMENSIONS
  6
BYBLOCK
 62
     0
 10
134.6109226017614
 20
-29.25798462626206
 30
0.0
 11
137.6109226017614
 21
-29.25798462626206
 31
0.0
  0
SOLID
  5
B0C
  8
DIMENSIONS
 62
     0
 10
134.6109226017614
 20
-28.42465129292873
 30
0.0
 11
134.6109226017614
 21
-30.09131795959539
 31
0.0
 12
129.6109226017614
 22
-29.25798462626206
 32
0.0
 13
129.6109226017614
 23
-29.25798462626206
 33
0.0
  0
SOLID
  5
B0D
  8
DIMENSIONS
 62
     0
 10
137.6109226017614
 20
-30.09131795959539
 30
0.0
 11
137.6109226017614
 21
-28.42465129292873
 31
0.0
 12
142.6109226017614
 22
-29.25798462626206
 32
0.0
 13
142.6109226017614
 23
-29.25798462626206
 33
0.0
  0
TEXT
  5
B0E
  8
DIMENSIONS
  6
CONTINUOUS
 62
     5
 10
96.90182442391854
 20
-26.86298462626205
 30
0.0
 40
5.0
  1
13 [0.51]
  0
POINT
  5
B0F
  8
DEFPOINTS
 62
     0
 10
129.6109226017614
 20
-13.75914775059135
 30
0.0
  0
POINT
  5
B10
  8
DEFPOINTS
 62
     0
 10
142.6109226017614
 20
-0.7591477505913584
 30
0.0
  0
POINT
  5
BCB
  8
DEFPOINTS
 62
     0
 10
142.6109226017614
 20
-29.25798462626206
 30
0.0
  0
ENDBLK
  5
B07
  8
0
  0
BLOCK
  8
0
  2
*D123
 70
     1
 10
0.0
 20
0.0
 30
0.0
  3
*D123
  1

  0
LINE
  5
B17
  8
DIMENSIONS
  6
BYBLOCK
 62
     0
 10
142.6109226017614
 20
-2.259147750591358
 30
0.0
 11
142.6109226017614
 21
-29.43798462626206
 31
0.0
  0
LINE
  5
B18
  8
DIMENSIONS
  6
BYBLOCK
 62
     0
 10
389.6109226017614
 20
-2.259147750591358
 30
0.0
 11
389.6109226017614
 21
-29.43798462626206
 31
0.0
  0
LINE
  5
B19
  8
DIMENSIONS
  6
BYBLOCK
 62
     0
 10
147.6109226017614
 20
-29.25798462626206
 30
0.0
 11
384.6109226017614
 21
-29.25798462626206
 31
0.0
  0
SOLID
  5
B1A
  8
DIMENSIONS
 62
     0
 10
147.6109226017614
 20
-28.42465129292873
 30
0.0
 11
147.6109226017614
 21
-30.09131795959539
 31
0.0
 12
142.6109226017614
 22
-29.25798462626206
 32
0.0
 13
142.6109226017614
 23
-29.25798462626206
 33
0.0
  0
SOLID
  5
B1B
  8
DIMENSIONS
 62
     0
 10
384.6109226017614
 20
-30.09131795959539
 30
0.0
 11
384.6109226017614
 21
-28.42465129292873
 31
0.0
 12
389.6109226017614
 22
-29.25798462626206
 32
0.0
 13
389.6109226017614
 23
-29.25798462626206
 33
0.0
  0
TEXT
  5
B1C
  8
DIMENSIONS
  6
CONTINUOUS
 62
     5
 10
250.7159226017614
 20
-26.86298462626205
 30
0.0
 40
5.0
  1
247 [9.72]
  0
POINT
  5
B1D
  8
DEFPOINTS
 62
     0
 10
142.6109226017614
 20
-0.7591477505913584
 30
0.0
  0
POINT
  5
B1E
  8
DEFPOINTS
 62
     0
 10
389.6109226017614
 20
-0.7591477505913584
 30
0.0
  0
POINT
  5
B1F
  8
DEFPOINTS
 62
     0
 10
389.6109226017614
 20
-29.25798462626206
 30
0.0
  0
ENDBLK
  5
B16
  8
0
  0
BLOCK
  8
0
  2
*D124
 70
     1
 10
0.0
 20
0.0
 30
0.0
  3
*D124
  1

  0
LINE
  5
B27
  8
DIMENSIONS
  6
BYBLOCK
 62
     0
 10
389.6109226017614
 20
-2.259147750591358
 30
0.0
 11
389.6109226017614
 21
-29.43798462626206
 31
0.0
  0
LINE
  5
B28
  8
DIMENSIONS
  6
BYBLOCK
 62
     0
 10
636.6109226017614
 20
-2.259147750591358
 30
0.0
 11
636.6109226017614
 21
-29.43798462626206
 31
0.0
  0
LINE
  5
B29
  8
DIMENSIONS
  6
BYBLOCK
 62
     0
 10
394.6109226017614
 20
-29.25798462626206
 30
0.0
 11
631.6109226017614
 21
-29.25798462626206
 31
0.0
  0
SOLID
  5
B2A
  8
DIMENSIONS
 62
     0
 10
394.6109226017614
 20
-28.42465129292873
 30
0.0
 11
394.6109226017614
 21
-30.09131795959539
 31
0.0
 12
389.6109226017614
 22
-29.25798462626206
 32
0.0
 13
389.6109226017614
 23
-29.25798462626206
 33
0.0
  0
SOLID
  5
B2B
  8
DIMENSIONS
 62
     0
 10
631.6109226017614
 20
-30.09131795959539
 30
0.0
 11
631.6109226017614
 21
-28.42465129292873
 31
0.0
 12
636.6109226017614
 22
-29.25798462626206
 32
0.0
 13
636.6109226017614
 23
-29.25798462626206
 33
0.0
  0
TEXT
  5
B2C
  8
DIMENSIONS
  6
CONTINUOUS
 62
     5
 10
497.7159226017615
 20
-26.86298462626205
 30
0.0
 40
5.0
  1
247 [9.72]
  0
POINT
  5
B2D
  8
DEFPOINTS
 62
     0
 10
389.6109226017614
 20
-0.7591477505913584
 30
0.0
  0
POINT
  5
B2E
  8
DEFPOINTS
 62
     0
 10
636.6109226017614
 20
-0.7591477505913584
 30
0.0
  0
POINT
  5
B2F
  8
DEFPOINTS
 62
     0
 10
636.6109226017614
 20
-29.25798462626206
 30
0.0
  0
ENDBLK
  5
B26
  8
0
  0
BLOCK
  8
0
  2
*D125
 70
     1
 10
0.0
 20
0.0
 30
0.0
  3
*D125
  1

  0
LINE
  5
B36
  8
DIMENSIONS
  6
BYBLOCK
 62
     0
 10
636.6109226017614
 20
-2.259147750591358
 30
0.0
 11
636.6109226017614
 21
-29.43798462626206
 31
0.0
  0
LINE
  5
B37
  8
DIMENSIONS
  6
BYBLOCK
 62
     0
 10
649.6109226017614
 20
-15.25914775059135
 30
0.0
 11
649.6109226017614
 21
-29.43798462626206
 31
0.0
  0
LINE
  5
B38
  8
DIMENSIONS
  6
BYBLOCK
 62
     0
 10
649.6109226017614
 20
-29.25798462626206
 30
0.0
 11
682.5559226017614
 21
-29.25798462626206
 31
0.0
  0
LINE
  5
B39
  8
DIMENSIONS
  6
BYBLOCK
 62
     0
 10
641.6109226017614
 20
-29.25798462626206
 30
0.0
 11
644.6109226017614
 21
-29.25798462626206
 31
0.0
  0
SOLID
  5
B3A
  8
DIMENSIONS
 62
     0
 10
641.6109226017614
 20
-28.42465129292873
 30
0.0
 11
641.6109226017614
 21
-30.09131795959539
 31
0.0
 12
636.6109226017614
 22
-29.25798462626206
 32
0.0
 13
636.6109226017614
 23
-29.25798462626206
 33
0.0
  0
SOLID
  5
B3B
  8
DIMENSIONS
 62
     0
 10
644.6109226017614
 20
-30.09131795959539
 30
0.0
 11
644.6109226017614
 21
-28.42465129292873
 31
0.0
 12
649.6109226017614
 22
-29.25798462626206
 32
0.0
 13
649.6109226017614
 23
-29.25798462626206
 33
0.0
  0
TEXT
  5
B3C
  8
DIMENSIONS
  6
CONTINUOUS
 62
     5
 10
654.8509226017615
 20
-26.86298462626205
 30
0.0
 40
5.0
  1
13 [0.51]
  0
POINT
  5
B3D
  8
DEFPOINTS
 62
     0
 10
636.6109226017614
 20
-0.7591477505913584
 30
0.0
  0
POINT
  5
B3E
  8
DEFPOINTS
 62
     0
 10
649.6109226017614
 20
-13.75914775059135
 30
0.0
  0
POINT
  5
BCD
  8
DEFPOINTS
 62
     0
 10
649.6109226017614
 20
-29.25798462626206
 30
0.0
  0
ENDBLK
  5
B35
  8
0
  0
BLOCK
  8
0
  2
*D126
 70
     1
 10
0.0
 20
0.0
 30
0.0
  3
*D126
  1

  0
LINE
  5
B45
  8
DIMENSIONS
  6
BYBLOCK
 62
     0
 10
128.1109226017614
 20
326.2408522494085
 30
0.0
 11
95.45133588049242
 21
326.2408522494085
 31
0.0
  0
LINE
  5
B46
  8
DIMENSIONS
  6
BYBLOCK
 62
     0
 10
128.1109226017614
 20
-13.75914775059135
 30
0.0
 11
95.45133588049241
 21
-13.75914775059135
 31
0.0
  0
LINE
  5
B47
  8
DIMENSIONS
  6
BYBLOCK
 62
     0
 10
95.63133588049243
 20
321.2408522494085
 30
0.0
 11
95.63133588049241
 21
-8.759147750591351
 31
0.0
  0
SOLID
  5
B48
  8
DIMENSIONS
 62
     0
 10
96.46466921382576
 20
321.2408522494085
 30
0.0
 11
94.7980025471591
 21
321.2408522494085
 31
0.0
 12
95.63133588049243
 22
326.2408522494085
 32
0.0
 13
95.63133588049243
 23
326.2408522494085
 33
0.0
  0
SOLID
  5
B49
  8
DIMENSIONS
 62
     0
 10
94.79800254715909
 20
-8.759147750591351
 30
0.0
 11
96.46466921382574
 21
-8.759147750591351
 31
0.0
 12
95.63133588049241
 22
-13.75914775059135
 32
0.0
 13
95.63133588049241
 23
-13.75914775059135
 33
0.0
  0
TEXT
  5
B4A
  8
DIMENSIONS
  6
CONTINUOUS
 62
     5
 10
93.23633588049248
 20
138.8608522494086
 30
0.0
 40
5.0
  1
340 [13.39]
 50
90.0
  0
POINT
  5
B4B
  8
DEFPOINTS
 62
     0
 10
129.6109226017614
 20
326.2408522494085
 30
0.0
  0
POINT
  5
B4C
  8
DEFPOINTS
 62
     0
 10
129.6109226017614
 20
-13.75914775059135
 30
0.0
  0
POINT
  5
B4D
  8
DEFPOINTS
 62
     0
 10
95.63133588049241
 20
-13.75914775059135
 30
0.0
  0
ENDBLK
  5
B44
  8
0
  0
BLOCK
  8
0
  2
*D127
 70
     1
 10
0.0
 20
0.0
 30
0.0
  3
*D127
  1

  0
LINE
  5
B54
  8
DIMENSIONS
  6
BYBLOCK
 62
     0
 10
141.1109226017614
 20
-0.7591477505913582
 30
0.0
 11
112.8551265931537
 21
-0.7591477505913531
 31
0.0
  0
LINE
  5
B55
  8
DIMENSIONS
  6
BYBLOCK
 62
     0
 10
141.1109226017614
 20
313.2408522494085
 30
0.0
 11
112.8551265931538
 21
313.2408522494085
 31
0.0
  0
LINE
  5
B56
  8
DIMENSIONS
  6
BYBLOCK
 62
     0
 10
113.0351265931537
 20
4.240852249408647
 30
0.0
 11
113.0351265931538
 21
308.2408522494085
 31
0.0
  0
SOLID
  5
B57
  8
DIMENSIONS
 62
     0
 10
112.2017932598204
 20
4.240852249408647
 30
0.0
 11
113.8684599264871
 21
4.240852249408647
 31
0.0
 12
113.0351265931537
 22
-0.7591477505913531
 32
0.0
 13
113.0351265931537
 23
-0.7591477505913531
 33
0.0
  0
SOLID
  5
B58
  8
DIMENSIONS
 62
     0
 10
113.8684599264871
 20
308.2408522494085
 30
0.0
 11
112.2017932598204
 21
308.2408522494085
 31
0.0
 12
113.0351265931538
 22
313.2408522494085
 32
0.0
 13
113.0351265931538
 23
313.2408522494085
 33
0.0
  0
TEXT
  5
B59
  8
DIMENSIONS
  6
CONTINUOUS
 62
     5
 10
110.6401265931538
 20
138.8608522494086
 30
0.0
 40
5.0
  1
314 [12.36]
 50
90.0
  0
POINT
  5
B5A
  8
DEFPOINTS
 62
     0
 10
142.6109226017614
 20
-0.7591477505913584
 30
0.0
  0
POINT
  5
B5B
  8
DEFPOINTS
 62
     0
 10
142.6109226017614
 20
313.2408522494085
 30
0.0
  0
POINT
  5
B5C
  8
DEFPOINTS
 62
     0
 10
113.0351265931538
 20
313.2408522494085
 30
0.0
  0
ENDBLK
  5
B53
  8
0
  0
BLOCK
  8
0
  2
*D128
 70
     1
 10
0.0
 20
0.0
 30
0.0
  3
*D128
  1

  0
LINE
  5
B63
  8
DIMENSIONS
  6
BYBLOCK
 62
     0
 10
233.1109226017614
 20
316.2408522494086
 30
0.0
 11
223.5307127298132
 21
316.2408522494086
 31
0.0
  0
LINE
  5
B64
  8
DIMENSIONS
  6
BYBLOCK
 62
     0
 10
233.1109226017614
 20
326.2408522494085
 30
0.0
 11
223.5307127298132
 21
326.2408522494085
 31
0.0
  0
LINE
  5
B65
  8
DIMENSIONS
  6
BYBLOCK
 62
     0
 10
223.7107127298132
 20
331.2408522494085
 30
0.0
 11
223.7107127298132
 21
364.1858522494085
 31
0.0
  0
LINE
  5
B66
  8
DIMENSIONS
  6
BYBLOCK
 62
     0
 10
223.7107127298132
 20
311.2408522494086
 30
0.0
 11
223.7107127298132
 21
306.2408522494086
 31
0.0
  0
SOLID
  5
B67
  8
DIMENSIONS
 62
     0
 10
224.5440460631466
 20
311.2408522494086
 30
0.0
 11
222.8773793964799
 21
311.2408522494086
 31
0.0
 12
223.7107127298132
 22
316.2408522494086
 32
0.0
 13
223.7107127298132
 23
316.2408522494086
 33
0.0
  0
SOLID
  5
B68
  8
DIMENSIONS
 62
     0
 10
222.8773793964799
 20
331.2408522494085
 30
0.0
 11
224.5440460631466
 21
331.2408522494085
 31
0.0
 12
223.7107127298132
 22
326.2408522494085
 32
0.0
 13
223.7107127298132
 23
326.2408522494085
 33
0.0
  0
TEXT
  5
B69
  8
DIMENSIONS
  6
CONTINUOUS
 62
     5
 10
221.3157127298132
 20
336.4808522494086
 30
0.0
 40
5.0
  1
10 [0.39]
 50
90.0
  0
POINT
  5
B6A
  8
DEFPOINTS
 62
     0
 10
234.6109226017614
 20
316.2408522494086
 30
0.0
  0
POINT
  5
B6B
  8
DEFPOINTS
 62
     0
 10
234.6109226017614
 20
326.2408522494085
 30
0.0
  0
POINT
  5
B6C
  8
DEFPOINTS
 62
     0
 10
223.7107127298132
 20
326.2408522494085
 30
0.0
  0
ENDBLK
  5
B62
  8
0
  0
BLOCK
  8
0
  2
*D129
 70
     1
 10
0.0
 20
0.0
 30
0.0
  3
*D129
  1

  0
LINE
  5
B73
  8
DIMENSIONS
  6
BYBLOCK
 62
     0
 10
233.1109226017614
 20
316.2408522494086
 30
0.0
 11
223.5307127298132
 21
316.2408522494086
 31
0.0
  0
LINE
  5
B74
  8
DIMENSIONS
  6
BYBLOCK
 62
     0
 10
233.1109226017614
 20
136.2408522494086
 30
0.0
 11
223.5307127298132
 21
136.2408522494086
 31
0.0
  0
LINE
  5
B75
  8
DIMENSIONS
  6
BYBLOCK
 62
     0
 10
223.7107127298132
 20
311.2408522494086
 30
0.0
 11
223.7107127298132
 21
141.2408522494086
 31
0.0
  0
SOLID
  5
B76
  8
DIMENSIONS
 62
     0
 10
224.5440460631466
 20
311.2408522494086
 30
0.0
 11
222.8773793964799
 21
311.2408522494086
 31
0.0
 12
223.7107127298132
 22
316.2408522494086
 32
0.0
 13
223.7107127298132
 23
316.2408522494086
 33
0.0
  0
SOLID
  5
B77
  8
DIMENSIONS
 62
     0
 10
222.8773793964799
 20
141.2408522494086
 30
0.0
 11
224.5440460631466
 21
141.2408522494086
 31
0.0
 12
223.7107127298132
 22
136.2408522494086
 32
0.0
 13
223.7107127298132
 23
136.2408522494086
 33
0.0
  0
TEXT
  5
B78
  8
DIMENSIONS
  6
CONTINUOUS
 62
     5
 10
221.3157127298133
 20
210.5683522494087
 30
0.0
 40
5.0
  1
180 [7.09]
 50
90.0
  0
POINT
  5
B79
  8
DEFPOINTS
 62
     0
 10
234.6109226017614
 20
316.2408522494086
 30
0.0
  0
POINT
  5
B7A
  8
DEFPOINTS
 62
     0
 10
234.6109226017614
 20
136.2408522494086
 30
0.0
  0
POINT
  5
B7B
  8
DEFPOINTS
 62
     0
 10
223.7107127298132
 20
136.2408522494086
 30
0.0
  0
ENDBLK
  5
B72
  8
0
  0
BLOCK
  8
0
  2
*D130
 70
     1
 10
0.0
 20
0.0
 30
0.0
  3
*D130
  1

  0
LINE
  5
B82
  8
DIMENSIONS
  6
BYBLOCK
 62
     0
 10
233.1109226017614
 20
136.2408522494086
 30
0.0
 11
223.5307127298132
 21
136.2408522494086
 31
0.0
  0
LINE
  5
B83
  8
DIMENSIONS
  6
BYBLOCK
 62
     0
 10
233.1109226017614
 20
-13.75914775059135
 30
0.0
 11
223.5307127298132
 21
-13.75914775059135
 31
0.0
  0
LINE
  5
B84
  8
DIMENSIONS
  6
BYBLOCK
 62
     0
 10
223.7107127298132
 20
131.2408522494086
 30
0.0
 11
223.7107127298132
 21
-8.759147750591353
 31
0.0
  0
SOLID
  5
B85
  8
DIMENSIONS
 62
     0
 10
224.5440460631466
 20
131.2408522494086
 30
0.0
 11
222.8773793964799
 21
131.2408522494086
 31
0.0
 12
223.7107127298132
 22
136.2408522494086
 32
0.0
 13
223.7107127298132
 23
136.2408522494086
 33
0.0
  0
SOLID
  5
B86
  8
DIMENSIONS
 62
     0
 10
222.8773793964799
 20
-8.759147750591353
 30
0.0
 11
224.5440460631466
 21
-8.759147750591353
 31
0.0
 12
223.7107127298132
 22
-13.75914775059135
 32
0.0
 13
223.7107127298132
 23
-13.75914775059135
 33
0.0
  0
TEXT
  5
B87
  8
DIMENSIONS
  6
CONTINUOUS
 62
     5
 10
221.3157127298132
 20
45.56835224940866
 30
0.0
 40
5.0
  1
150 [5.91]
 50
90.0
  0
POINT
  5
B88
  8
DEFPOINTS
 62
     0
 10
234.6109226017614
 20
136.2408522494086
 30
0.0
  0
POINT
  5
B89
  8
DEFPOINTS
 62
     0
 10
234.6109226017614
 20
-13.75914775059135
 30
0.0
  0
POINT
  5
B8A
  8
DEFPOINTS
 62
     0
 10
223.7107127298132
 20
-13.75914775059135
 30
0.0
  0
ENDBLK
  5
B81
  8
0
  0
BLOCK
  8
0
  2
*D131
 70
     1
 10
0.0
 20
0.0
 30
0.0
  3
*D131
  1

  0
LINE
  5
B91
  8
DIMENSIONS
  6
BYBLOCK
 62
     0
 10
445.1109226017614
 20
313.2408522494085
 30
0.0
 11
434.4673931857451
 21
313.2408522494085
 31
0.0
  0
LINE
  5
B92
  8
DIMENSIONS
  6
BYBLOCK
 62
     0
 10
445.1109226017614
 20
327.5789880982616
 30
0.0
 11
434.4673931857451
 21
327.5789880982616
 31
0.0
  0
LINE
  5
B93
  8
DIMENSIONS
  6
BYBLOCK
 62
     0
 10
434.6473931857451
 20
327.5789880982616
 30
0.0
 11
434.6473931857451
 21
377.9839880982616
 31
0.0
  0
LINE
  5
B94
  8
DIMENSIONS
  6
BYBLOCK
 62
     0
 10
434.6473931857451
 20
318.2408522494085
 30
0.0
 11
434.6473931857451
 21
322.5789880982616
 31
0.0
  0
SOLID
  5
B95
  8
DIMENSIONS
 62
     0
 10
433.8140598524118
 20
318.2408522494085
 30
0.0
 11
435.4807265190784
 21
318.2408522494085
 31
0.0
 12
434.6473931857451
 22
313.2408522494085
 32
0.0
 13
434.6473931857451
 23
313.2408522494085
 33
0.0
  0
SOLID
  5
B96
  8
DIMENSIONS
 62
     0
 10
435.4807265190784
 20
322.5789880982616
 30
0.0
 11
433.8140598524118
 21
322.5789880982616
 31
0.0
 12
434.6473931857451
 22
327.5789880982616
 32
0.0
 13
434.6473931857451
 23
327.5789880982616
 33
0.0
  0
TEXT
  5
B97
  8
DIMENSIONS
  6
CONTINUOUS
 62
     5
 10
432.2523931857451
 20
332.8189880982616
 30
0.0
 40
5.0
  1
14.3381 [0.56]
 50
90.0
  0
POINT
  5
B98
  8
DEFPOINTS
 62
     0
 10
446.6109226017614
 20
313.2408522494085
 30
0.0
  0
POINT
  5
B99
  8
DEFPOINTS
 62
     0
 10
446.6109226017614
 20
327.5789880982616
 30
0.0
  0
POINT
  5
BCE
  8
DEFPOINTS
 62
     0
 10
434.6473931857451
 20
327.5789880982616
 30
0.0
  0
ENDBLK
  5
B90
  8
0
  0
BLOCK
  8
0
  2
*D132
 70
     1
 10
0.0
 20
0.0
 30
0.0
  3
*D132
  1

  0
LINE
  5
BA0
  8
DIMENSIONS
  6
BYBLOCK
 62
     0
 10
445.1109226017614
 20
313.2408522494085
 30
0.0
 11
433.8897521184223
 21
313.2408522494085
 31
0.0
  0
LINE
  5
BA1
  8
DIMENSIONS
  6
BYBLOCK
 62
     0
 10
445.1109226017614
 20
188.2408522494086
 30
0.0
 11
433.8897521184223
 21
188.2408522494086
 31
0.0
  0
LINE
  5
BA2
  8
DIMENSIONS
  6
BYBLOCK
 62
     0
 10
434.0697521184223
 20
308.2408522494085
 30
0.0
 11
434.0697521184223
 21
193.2408522494086
 31
0.0
  0
SOLID
  5
BA3
  8
DIMENSIONS
 62
     0
 10
434.9030854517557
 20
308.2408522494085
 30
0.0
 11
433.236418785089
 21
308.2408522494085
 31
0.0
 12
434.0697521184223
 22
313.2408522494085
 32
0.0
 13
434.0697521184223
 23
313.2408522494085
 33
0.0
  0
SOLID
  5
BA4
  8
DIMENSIONS
 62
     0
 10
433.236418785089
 20
193.2408522494086
 30
0.0
 11
434.9030854517557
 21
193.2408522494086
 31
0.0
 12
434.0697521184223
 22
188.2408522494086
 32
0.0
 13
434.0697521184223
 23
188.2408522494086
 33
0.0
  0
TEXT
  5
BA5
  8
DIMENSIONS
  6
CONTINUOUS
 62
     5
 10
431.6747521184224
 20
235.0683522494086
 30
0.0
 40
5.0
  1
125 [4.92]
 50
90.0
  0
POINT
  5
BA6
  8
DEFPOINTS
 62
     0
 10
446.6109226017614
 20
313.2408522494085
 30
0.0
  0
POINT
  5
BA7
  8
DEFPOINTS
 62
     0
 10
446.6109226017614
 20
188.2408522494086
 30
0.0
  0
POINT
  5
BA8
  8
DEFPOINTS
 62
     0
 10
434.0697521184223
 20
188.2408522494086
 30
0.0
  0
ENDBLK
  5
B9F
  8
0
  0
BLOCK
  8
0
  2
*D133
 70
     1
 10
0.0
 20
0.0
 30
0.0
  3
*D133
  1

  0
LINE
  5
BAF
  8
DIMENSIONS
  6
BYBLOCK
 62
     0
 10
445.1109226017614
 20
188.2408522494086
 30
0.0
 11
433.8897521184223
 21
188.2408522494086
 31
0.0
  0
LINE
  5
BB0
  8
DIMENSIONS
  6
BYBLOCK
 62
     0
 10
445.1109226017614
 20
-13.75914775059135
 30
0.0
 11
433.8897521184223
 21
-13.75914775059135
 31
0.0
  0
LINE
  5
BB1
  8
DIMENSIONS
  6
BYBLOCK
 62
     0
 10
434.0697521184223
 20
183.2408522494086
 30
0.0
 11
434.0697521184223
 21
-8.759147750591353
 31
0.0
  0
SOLID
  5
BB2
  8
DIMENSIONS
 62
     0
 10
434.9030854517557
 20
183.2408522494086
 30
0.0
 11
433.236418785089
 21
183.2408522494086
 31
0.0
 12
434.0697521184223
 22
188.2408522494086
 32
0.0
 13
434.0697521184223
 23
188.2408522494086
 33
0.0
  0
SOLID
  5
BB3
  8
DIMENSIONS
 62
     0
 10
433.236418785089
 20
-8.759147750591353
 30
0.0
 11
434.9030854517557
 21
-8.759147750591353
 31
0.0
 12
434.0697521184223
 22
-13.75914775059135
 32
0.0
 13
434.0697521184223
 23
-13.75914775059135
 33
0.0
  0
TEXT
  5
BB4
  8
DIMENSIONS
  6
CONTINUOUS
 62
     5
 10
431.6747521184223
 20
71.84585224940867
 30
0.0
 40
5.0
  1
202 [7.95]
 50
90.0
  0
POINT
  5
BB5
  8
DEFPOINTS
 62
     0
 10
446.6109226017614
 20
188.2408522494086
 30
0.0
  0
POINT
  5
BB6
  8
DEFPOINTS
 62
     0
 10
446.6109226017614
 20
-13.75914775059135
 30
0.0
  0
POINT
  5
BB7
  8
DEFPOINTS
 62
     0
 10
434.0697521184223
 20
-13.75914775059135
 30
0.0
  0
ENDBLK
  5
BAE
  8
0
  0
BLOCK
  8
0
  2
*D134
 70
     1
 10
0.0
 20
0.0
 30
0.0
  3
*D134
  1

  0
LINE
  5
BBE
  8
DIMENSIONS
  6
BYBLOCK
 62
     0
 10
628.1109309926345
 20
-0.7710911492718442
 30
0.0
 11
583.0017761899004
 21
-0.8344743436001022
 31
0.0
  0
TEXT
  5
BBF
  8
DIMENSIONS
  6
CONTINUOUS
 62
     5
 10
583.7182978424694
 20
1.641534889298613
 30
0.0
 40
5.0
  1
Ø7 [Ø0.28]
 50
0.0805066544245891
  0
SOLID
  5
BC0
  8
DIMENSIONS
 62
     0
 10
628.1121019140737
 20
-1.604423659970561
 30
0.0
 11
628.1097600711953
 21
0.062241361426873
 31
0.0
 12
633.1109260568268
 22
-0.7640656206362506
 32
0.0
 13
633.1109260568268
 23
-0.7640656206362506
 33
0.0
  0
LINE
  5
BC1
  8
DIMENSIONS
  6
BYBLOCK
 62
     0
 10
634.1109226017613
 20
-0.7591477505913351
 30
0.0
 11
639.1109226017613
 21
-0.7591477505913351
 31
0.0
  0
LINE
  5
BC2
  8
DIMENSIONS
  6
BYBLOCK
 62
     0
 10
636.6109226017613
 20
-3.259147750591335
 30
0.0
 11
636.6109226017613
 21
1.740852249408665
 31
0.0
  0
POINT
  5
BC3
  8
DEFPOINTS
 62
     0
 10
633.1109260568268
 20
-0.7640656206362506
 30
0.0
  0
POINT
  5
BC4
  8
DEFPOINTS
 62
     0
 10
640.110919146696
 20
-0.7542298805464196
 30
0.0
  0
ENDBLK
  5
BBD
  8
0
  0
BLOCK
  8
0
  2
*D135
 70
     1
 10
0.0
 20
0.0
 30
0.0
  3
*D135
  1

  0
LINE
  5
BD5
  8
DIMENSIONS
  6
BYBLOCK
 62
     0
 10
445.1109226017614
 20
313.2408522494085
 30
0.0
 11
433.9094483903211
 21
313.2408522494085
 31
0.0
  0
LINE
  5
BD6
  8
DIMENSIONS
  6
BYBLOCK
 62
     0
 10
445.1109226017614
 20
326.2408522494085
 30
0.0
 11
433.9094483903211
 21
326.2408522494085
 31
0.0
  0
LINE
  5
BD7
  8
DIMENSIONS
  6
BYBLOCK
 62
     0
 10
434.0894483903211
 20
326.2408522494085
 30
0.0
 11
434.0894483903211
 21
359.1858522494086
 31
0.0
  0
LINE
  5
BD8
  8
DIMENSIONS
  6
BYBLOCK
 62
     0
 10
434.0894483903211
 20
318.2408522494085
 30
0.0
 11
434.0894483903211
 21
321.2408522494085
 31
0.0
  0
SOLID
  5
BD9
  8
DIMENSIONS
 62
     0
 10
433.2561150569878
 20
318.2408522494085
 30
0.0
 11
434.9227817236544
 21
318.2408522494085
 31
0.0
 12
434.0894483903211
 22
313.2408522494085
 32
0.0
 13
434.0894483903211
 23
313.2408522494085
 33
0.0
  0
SOLID
  5
BDA
  8
DIMENSIONS
 62
     0
 10
434.9227817236544
 20
321.2408522494085
 30
0.0
 11
433.2561150569878
 21
321.2408522494085
 31
0.0
 12
434.0894483903211
 22
326.2408522494085
 32
0.0
 13
434.0894483903211
 23
326.2408522494085
 33
0.0
  0
TEXT
  5
BDB
  8
DIMENSIONS
  6
CONTINUOUS
 62
     5
 10
431.6944483903211
 20
331.4808522494085
 30
0.0
 40
5.0
  1
13 [0.51]
 50
90.0
  0
POINT
  5
BDC
  8
DEFPOINTS
 62
     0
 10
446.6109226017614
 20
313.2408522494085
 30
0.0
  0
POINT
  5
BDD
  8
DEFPOINTS
 62
     0
 10
446.6109226017614
 20
326.2408522494085
 30
0.0
  0
POINT
  5
BDE
  8
DEFPOINTS
 62
     0
 10
434.0894483903211
 20
326.2408522494085
 30
0.0
  0
ENDBLK
  5
BD4
  8
0
  0
BLOCK
  8
0
  2
*D137
 70
     1
 10
0.0
 20
0.0
 30
0.0
  3
*D137
  1

  0
LINE
  5
C23
  8
DIMENSIONS
  6
BYBLOCK
 62
     0
 10
130.3274911226833
 20
334.3022438951317
 30
0.0
 11
130.3274911226833
 21
351.0732042014709
 31
0.0
  0
LINE
  5
C24
  8
DIMENSIONS
  6
BYBLOCK
 62
     0
 10
631.3274911226831
 20
334.3022438951317
 30
0.0
 11
631.3274911226831
 21
351.0732042014709
 31
0.0
  0
LINE
  5
C25
  8
DIMENSIONS
  6
BYBLOCK
 62
     0
 10
135.3274911226833
 20
350.8932042014709
 30
0.0
 11
626.3274911226831
 21
350.8932042014709
 31
0.0
  0
SOLID
  5
C26
  8
DIMENSIONS
 62
     0
 10
135.3274911226833
 20
351.7265375348042
 30
0.0
 11
135.3274911226833
 21
350.0598708681376
 31
0.0
 12
130.3274911226833
 22
350.8932042014709
 32
0.0
 13
130.3274911226833
 23
350.8932042014709
 33
0.0
  0
SOLID
  5
C27
  8
DIMENSIONS
 62
     0
 10
626.3274911226831
 20
350.0598708681376
 30
0.0
 11
626.3274911226831
 21
351.7265375348042
 31
0.0
 12
631.3274911226831
 22
350.8932042014709
 32
0.0
 13
631.3274911226831
 23
350.8932042014709
 33
0.0
  0
TEXT
  5
C28
  8
DIMENSIONS
  6
CONTINUOUS
 62
     5
 10
363.4499911226832
 20
353.2882042014709
 30
0.0
 40
5.0
  1
501 [19.72]
  0
POINT
  5
C29
  8
DEFPOINTS
 62
     0
 10
130.3274911226833
 20
332.8022438951317
 30
0.0
  0
POINT
  5
C2A
  8
DEFPOINTS
 62
     0
 10
631.3274911226831
 20
332.8022438951317
 30
0.0
  0
POINT
  5
C2B
  8
DEFPOINTS
 62
     0
 10
631.3274911226831
 20
350.8932042014709
 30
0.0
  0
ENDBLK
  5
C22
  8
0
  0
BLOCK
  8
0
  2
*D138
 70
     1
 10
0.0
 20
0.0
 30
0.0
  3
*D138
  1

  0
LINE
  5
C32
  8
DIMENSIONS
  6
BYBLOCK
 62
     0
 10
128.8274911226833
 20
332.8022438951317
 30
0.0
 11
111.3730070358954
 21
332.8022438951317
 31
0.0
  0
LINE
  5
C33
  8
DIMENSIONS
  6
BYBLOCK
 62
     0
 10
128.8274911226833
 20
11.80224389513168
 30
0.0
 11
111.3730070358953
 21
11.80224389513168
 31
0.0
  0
LINE
  5
C34
  8
DIMENSIONS
  6
BYBLOCK
 62
     0
 10
111.5530070358954
 20
327.8022438951317
 30
0.0
 11
111.5530070358953
 21
16.80224389513168
 31
0.0
  0
SOLID
  5
C35
  8
DIMENSIONS
 62
     0
 10
112.3863403692287
 20
327.8022438951317
 30
0.0
 11
110.719673702562
 21
327.8022438951317
 31
0.0
 12
111.5530070358954
 22
332.8022438951317
 32
0.0
 13
111.5530070358954
 23
332.8022438951317
 33
0.0
  0
SOLID
  5
C36
  8
DIMENSIONS
 62
     0
 10
110.719673702562
 20
16.80224389513168
 30
0.0
 11
112.3863403692287
 21
16.80224389513168
 31
0.0
 12
111.5530070358953
 22
11.80224389513168
 32
0.0
 13
111.5530070358953
 23
11.80224389513168
 33
0.0
  0
TEXT
  5
C37
  8
DIMENSIONS
  6
CONTINUOUS
 62
     5
 10
109.1580070358954
 20
154.9222438951317
 30
0.0
 40
5.0
  1
321 [12.64]
 50
90.0
  0
POINT
  5
C38
  8
DEFPOINTS
 62
     0
 10
130.3274911226833
 20
332.8022438951317
 30
0.0
  0
POINT
  5
C39
  8
DEFPOINTS
 62
     0
 10
130.3274911226833
 20
11.80224389513168
 30
0.0
  0
POINT
  5
C3A
  8
DEFPOINTS
 62
     0
 10
111.5530070358953
 20
11.80224389513168
 30
0.0
  0
ENDBLK
  5
C31
  8
0
  0
BLOCK
  8
0
  2
*D140
 70
     1
 10
0.0
 20
0.0
 30
0.0
  3
*D140
  1

  0
LINE
  5
CA1
  8
DIMENSIONS
  6
BYBLOCK
 62
     0
 10
148.0921972893064
 20
503.2707082651301
 30
0.0
 11
148.0921972893064
 21
535.2793406800054
 31
0.0
  0
LINE
  5
CA2
  8
DIMENSIONS
  6
BYBLOCK
 62
     0
 10
430.3002993355803
 20
503.2707082651301
 30
0.0
 11
430.3002993355803
 21
535.2793406800054
 31
0.0
  0
LINE
  5
CA3
  8
DIMENSIONS
  6
BYBLOCK
 62
     0
 10
153.0921972893064
 20
535.0993406800054
 30
0.0
 11
425.3002993355803
 21
535.0993406800054
 31
0.0
  0
SOLID
  5
CA4
  8
DIMENSIONS
 62
     0
 10
153.0921972893064
 20
535.9326740133388
 30
0.0
 11
153.0921972893064
 21
534.266007346672
 31
0.0
 12
148.0921972893064
 22
535.0993406800054
 32
0.0
 13
148.0921972893064
 23
535.0993406800054
 33
0.0
  0
SOLID
  5
CA5
  8
DIMENSIONS
 62
     0
 10
425.3002993355803
 20
534.266007346672
 30
0.0
 11
425.3002993355803
 21
535.9326740133388
 31
0.0
 12
430.3002993355803
 22
535.0993406800054
 32
0.0
 13
430.3002993355803
 23
535.0993406800054
 33
0.0
  0
TEXT
  5
CA6
  8
DIMENSIONS
  6
CONTINUOUS
 62
     5
 10
263.1312483124433
 20
537.4943406800054
 30
0.0
 40
5.0
  1
282.2081 [11.11]
  0
POINT
  5
CA7
  8
DEFPOINTS
 62
     0
 10
148.0921972893064
 20
501.7707082651301
 30
0.0
  0
POINT
  5
CA8
  8
DEFPOINTS
 62
     0
 10
430.3002993355803
 20
501.7707082651301
 30
0.0
  0
POINT
  5
CA9
  8
DEFPOINTS
 62
     0
 10
430.3002993355803
 20
535.0993406800054
 30
0.0
  0
ENDBLK
  5
CA0
  8
0
  0
BLOCK
  8
0
  2
*D141
 70
     1
 10
0.0
 20
0.0
 30
0.0
  3
*D141
  1

  0
LINE
  5
CB0
  8
DIMENSIONS
  6
BYBLOCK
 62
     0
 10
128.9002993355805
 20
518.2707082651301
 30
0.0
 11
128.9002993355805
 21
553.3125392244937
 31
0.0
  0
LINE
  5
CB1
  8
DIMENSIONS
  6
BYBLOCK
 62
     0
 10
448.9002993355805
 20
518.2707082651301
 30
0.0
 11
448.9002993355805
 21
553.3125392244937
 31
0.0
  0
LINE
  5
CB2
  8
DIMENSIONS
  6
BYBLOCK
 62
     0
 10
133.9002993355805
 20
553.1325392244937
 30
0.0
 11
443.9002993355805
 21
553.1325392244937
 31
0.0
  0
SOLID
  5
CB3
  8
DIMENSIONS
 62
     0
 10
133.9002993355805
 20
553.9658725578271
 30
0.0
 11
133.9002993355805
 21
552.2992058911603
 31
0.0
 12
128.9002993355805
 22
553.1325392244937
 32
0.0
 13
128.9002993355805
 23
553.1325392244937
 33
0.0
  0
SOLID
  5
CB4
  8
DIMENSIONS
 62
     0
 10
443.9002993355805
 20
552.2992058911603
 30
0.0
 11
443.9002993355805
 21
553.9658725578271
 31
0.0
 12
448.9002993355805
 22
553.1325392244937
 32
0.0
 13
448.9002993355805
 23
553.1325392244937
 33
0.0
  0
TEXT
  5
CB5
  8
DIMENSIONS
  6
CONTINUOUS
 62
     5
 10
271.5202993355805
 20
555.5275392244937
 30
0.0
 40
5.0
  1
320 [12.60]
  0
POINT
  5
CB6
  8
DEFPOINTS
 62
     0
 10
128.9002993355805
 20
516.7707082651301
 30
0.0
  0
POINT
  5
CB7
  8
DEFPOINTS
 62
     0
 10
448.9002993355805
 20
516.7707082651301
 30
0.0
  0
POINT
  5
CB8
  8
DEFPOINTS
 62
     0
 10
448.9002993355805
 20
553.1325392244937
 30
0.0
  0
ENDBLK
  5
CAF
  8
0
  0
BLOCK
  8
0
  2
*D142
 70
     1
 10
0.0
 20
0.0
 30
0.0
  3
*D142
  1

  0
LINE
  5
CBF
  8
DIMENSIONS
  6
BYBLOCK
 62
     0
 10
127.4002993355805
 20
516.7707082651301
 30
0.0
 11
83.13839168256237
 21
516.7707082651301
 31
0.0
  0
LINE
  5
CC0
  8
DIMENSIONS
  6
BYBLOCK
 62
     0
 10
142.5002993355805
 20
498.2707082651301
 30
0.0
 11
83.13839168256237
 21
498.2707082651301
 31
0.0
  0
LINE
  5
CC1
  8
DIMENSIONS
  6
BYBLOCK
 62
     0
 10
83.31839168256238
 20
516.7707082651301
 30
0.0
 11
83.31839168256238
 21
555.5357082651301
 31
0.0
  0
LINE
  5
CC2
  8
DIMENSIONS
  6
BYBLOCK
 62
     0
 10
83.31839168256238
 20
511.7707082651301
 30
0.0
 11
83.31839168256238
 21
503.2707082651301
 31
0.0
  0
SOLID
  5
CC3
  8
DIMENSIONS
 62
     0
 10
84.1517250158957
 20
511.7707082651301
 30
0.0
 11
82.48505834922905
 21
511.7707082651301
 31
0.0
 12
83.31839168256238
 22
516.7707082651301
 32
0.0
 13
83.31839168256238
 23
516.7707082651301
 33
0.0
  0
SOLID
  5
CC4
  8
DIMENSIONS
 62
     0
 10
82.48505834922905
 20
503.2707082651301
 30
0.0
 11
84.1517250158957
 21
503.2707082651301
 31
0.0
 12
83.31839168256238
 22
498.2707082651301
 32
0.0
 13
83.31839168256238
 23
498.2707082651301
 33
0.0
  0
TEXT
  5
CC5
  8
DIMENSIONS
  6
CONTINUOUS
 62
     5
 10
80.9233916825624
 20
522.0107082651301
 30
0.0
 40
5.0
  1
18.5 [0.73]
 50
90.0
  0
POINT
  5
CC6
  8
DEFPOINTS
 62
     0
 10
128.9002993355805
 20
516.7707082651301
 30
0.0
  0
POINT
  5
CC7
  8
DEFPOINTS
 62
     0
 10
144.0002993355805
 20
498.2707082651301
 30
0.0
  0
POINT
  5
DAB
  8
DEFPOINTS
 62
     0
 10
83.31839168256238
 20
498.2707082651301
 30
0.0
  0
ENDBLK
  5
CBE
  8
0
  0
BLOCK
  8
0
  2
*D143
 70
     1
 10
0.0
 20
0.0
 30
0.0
  3
*D143
  1

  0
LINE
  5
CCE
  8
DIMENSIONS
  6
BYBLOCK
 62
     0
 10
142.5002993355805
 20
498.2707082651301
 30
0.0
 11
83.13839168256237
 21
498.2707082651301
 31
0.0
  0
LINE
  5
CCF
  8
DIMENSIONS
  6
BYBLOCK
 62
     0
 10
142.5002993355805
 20
389.7707082651301
 30
0.0
 11
83.13839168256237
 21
389.7707082651301
 31
0.0
  0
LINE
  5
CD0
  8
DIMENSIONS
  6
BYBLOCK
 62
     0
 10
83.31839168256238
 20
493.2707082651301
 30
0.0
 11
83.31839168256238
 21
394.7707082651301
 31
0.0
  0
SOLID
  5
CD1
  8
DIMENSIONS
 62
     0
 10
84.1517250158957
 20
493.2707082651301
 30
0.0
 11
82.48505834922905
 21
493.2707082651301
 31
0.0
 12
83.31839168256238
 22
498.2707082651301
 32
0.0
 13
83.31839168256238
 23
498.2707082651301
 33
0.0
  0
SOLID
  5
CD2
  8
DIMENSIONS
 62
     0
 10
82.48505834922905
 20
394.7707082651301
 30
0.0
 11
84.1517250158957
 21
394.7707082651301
 31
0.0
 12
83.31839168256238
 22
389.7707082651301
 32
0.0
 13
83.31839168256238
 23
389.7707082651301
 33
0.0
  0
TEXT
  5
CD3
  8
DIMENSIONS
  6
CONTINUOUS
 62
     5
 10
80.9233916825624
 20
425.4382082651301
 30
0.0
 40
5.0
  1
108.5 [4.27]
 50
90.0
  0
POINT
  5
CD4
  8
DEFPOINTS
 62
     0
 10
144.0002993355805
 20
498.2707082651301
 30
0.0
  0
POINT
  5
CD5
  8
DEFPOINTS
 62
     0
 10
144.0002993355805
 20
389.7707082651301
 30
0.0
  0
POINT
  5
CD6
  8
DEFPOINTS
 62
     0
 10
83.31839168256238
 20
389.7707082651301
 30
0.0
  0
ENDBLK
  5
CCD
  8
0
  0
BLOCK
  8
0
  2
*D144
 70
     1
 10
0.0
 20
0.0
 30
0.0
  3
*D144
  1

  0
LINE
  5
CDD
  8
DIMENSIONS
  6
BYBLOCK
 62
     0
 10
142.5002993355805
 20
389.7707082651301
 30
0.0
 11
83.13839168256237
 21
389.7707082651301
 31
0.0
  0
LINE
  5
CDE
  8
DIMENSIONS
  6
BYBLOCK
 62
     0
 10
133.0002993355805
 20
189.7707082651301
 30
0.0
 11
83.13839168256236
 21
189.7707082651301
 31
0.0
  0
LINE
  5
CDF
  8
DIMENSIONS
  6
BYBLOCK
 62
     0
 10
83.31839168256238
 20
384.7707082651301
 30
0.0
 11
83.31839168256236
 21
194.7707082651301
 31
0.0
  0
SOLID
  5
CE0
  8
DIMENSIONS
 62
     0
 10
84.1517250158957
 20
384.7707082651301
 30
0.0
 11
82.48505834922905
 21
384.7707082651301
 31
0.0
 12
83.31839168256238
 22
389.7707082651301
 32
0.0
 13
83.31839168256238
 23
389.7707082651301
 33
0.0
  0
SOLID
  5
CE1
  8
DIMENSIONS
 62
     0
 10
82.48505834922904
 20
194.7707082651301
 30
0.0
 11
84.15172501589569
 21
194.7707082651301
 31
0.0
 12
83.31839168256236
 22
189.7707082651301
 32
0.0
 13
83.31839168256236
 23
189.7707082651301
 33
0.0
  0
TEXT
  5
CE2
  8
DIMENSIONS
  6
CONTINUOUS
 62
     5
 10
80.9233916825624
 20
274.3757082651301
 30
0.0
 40
5.0
  1
200 [7.87]
 50
90.0
  0
POINT
  5
CE3
  8
DEFPOINTS
 62
     0
 10
144.0002993355805
 20
389.7707082651301
 30
0.0
  0
POINT
  5
CE4
  8
DEFPOINTS
 62
     0
 10
134.5002993355805
 20
189.7707082651301
 30
0.0
  0
POINT
  5
CE5
  8
DEFPOINTS
 62
     0
 10
83.31839168256236
 20
189.7707082651301
 30
0.0
  0
ENDBLK
  5
CDC
  8
0
  0
BLOCK
  8
0
  2
*D145
 70
     1
 10
0.0
 20
0.0
 30
0.0
  3
*D145
  1

  0
LINE
  5
CEC
  8
DIMENSIONS
  6
BYBLOCK
 62
     0
 10
133.0002993355805
 20
189.7707082651301
 30
0.0
 11
83.13839168256236
 21
189.7707082651301
 31
0.0
  0
LINE
  5
CED
  8
DIMENSIONS
  6
BYBLOCK
 62
     0
 10
133.0002993355805
 20
139.7707082651301
 30
0.0
 11
83.13839168256236
 21
139.7707082651301
 31
0.0
  0
LINE
  5
CEE
  8
DIMENSIONS
  6
BYBLOCK
 62
     0
 10
83.31839168256236
 20
184.7707082651301
 30
0.0
 11
83.31839168256236
 21
144.7707082651301
 31
0.0
  0
SOLID
  5
CEF
  8
DIMENSIONS
 62
     0
 10
84.15172501589569
 20
184.7707082651301
 30
0.0
 11
82.48505834922904
 21
184.7707082651301
 31
0.0
 12
83.31839168256236
 22
189.7707082651301
 32
0.0
 13
83.31839168256236
 23
189.7707082651301
 33
0.0
  0
SOLID
  5
CF0
  8
DIMENSIONS
 62
     0
 10
82.48505834922904
 20
144.7707082651301
 30
0.0
 11
84.15172501589569
 21
144.7707082651301
 31
0.0
 12
83.31839168256236
 22
139.7707082651301
 32
0.0
 13
83.31839168256236
 23
139.7707082651301
 33
0.0
  0
TEXT
  5
CF1
  8
DIMENSIONS
  6
CONTINUOUS
 62
     5
 10
80.9233916825624
 20
151.2732082651301
 30
0.0
 40
5.0
  1
50 [1.97]
 50
90.0
  0
POINT
  5
CF2
  8
DEFPOINTS
 62
     0
 10
134.5002993355805
 20
189.7707082651301
 30
0.0
  0
POINT
  5
CF3
  8
DEFPOINTS
 62
     0
 10
134.5002993355805
 20
139.7707082651301
 30
0.0
  0
POINT
  5
CF4
  8
DEFPOINTS
 62
     0
 10
83.31839168256236
 20
139.7707082651301
 30
0.0
  0
ENDBLK
  5
CEB
  8
0
  0
BLOCK
  8
0
  2
*D146
 70
     1
 10
0.0
 20
0.0
 30
0.0
  3
*D146
  1

  0
LINE
  5
CFB
  8
DIMENSIONS
  6
BYBLOCK
 62
     0
 10
133.0002993355805
 20
139.7707082651301
 30
0.0
 11
83.13839168256236
 21
139.7707082651301
 31
0.0
  0
LINE
  5
CFC
  8
DIMENSIONS
  6
BYBLOCK
 62
     0
 10
127.4002993355805
 20
-3.229291734869889
 30
0.0
 11
83.13839168256234
 21
-3.229291734869887
 31
0.0
  0
LINE
  5
CFD
  8
DIMENSIONS
  6
BYBLOCK
 62
     0
 10
83.31839168256236
 20
134.7707082651301
 30
0.0
 11
83.31839168256235
 21
1.770708265130113
 31
0.0
  0
SOLID
  5
CFE
  8
DIMENSIONS
 62
     0
 10
84.15172501589569
 20
134.7707082651301
 30
0.0
 11
82.48505834922904
 21
134.7707082651301
 31
0.0
 12
83.31839168256236
 22
139.7707082651301
 32
0.0
 13
83.31839168256236
 23
139.7707082651301
 33
0.0
  0
SOLID
  5
CFF
  8
DIMENSIONS
 62
     0
 10
82.48505834922902
 20
1.770708265130113
 30
0.0
 11
84.15172501589568
 21
1.770708265130113
 31
0.0
 12
83.31839168256235
 22
-3.229291734869887
 32
0.0
 13
83.31839168256235
 23
-3.229291734869887
 33
0.0
  0
TEXT
  5
D00
  8
DIMENSIONS
  6
CONTINUOUS
 62
     5
 10
80.92339168256234
 20
52.59820826513011
 30
0.0
 40
5.0
  1
143 [5.63]
 50
90.0
  0
POINT
  5
D01
  8
DEFPOINTS
 62
     0
 10
134.5002993355805
 20
139.7707082651301
 30
0.0
  0
POINT
  5
D02
  8
DEFPOINTS
 62
     0
 10
128.9002993355805
 20
-3.229291734869889
 30
0.0
  0
POINT
  5
D03
  8
DEFPOINTS
 62
     0
 10
83.31839168256235
 20
-3.229291734869887
 30
0.0
  0
ENDBLK
  5
CFA
  8
0
  0
BLOCK
  8
0
  2
*D147
 70
     1
 10
0.0
 20
0.0
 30
0.0
  3
*D147
  1

  0
LINE
  5
D0B
  8
DIMENSIONS
  6
BYBLOCK
 62
     0
 10
450.4002993355805
 20
516.7707082651301
 30
0.0
 11
468.8871032133379
 21
516.7707082651301
 31
0.0
  0
LINE
  5
D0C
  8
DIMENSIONS
  6
BYBLOCK
 62
     0
 10
431.8002993355803
 20
501.7707082651301
 30
0.0
 11
468.8871032133379
 21
501.7707082651301
 31
0.0
  0
LINE
  5
D0D
  8
DIMENSIONS
  6
BYBLOCK
 62
     0
 10
468.7071032133379
 20
516.7707082651301
 30
0.0
 11
468.7071032133379
 21
549.7157082651302
 31
0.0
  0
LINE
  5
D0E
  8
DIMENSIONS
  6
BYBLOCK
 62
     0
 10
468.7071032133379
 20
511.7707082651301
 30
0.0
 11
468.7071032133379
 21
506.7707082651301
 31
0.0
  0
SOLID
  5
D0F
  8
DIMENSIONS
 62
     0
 10
469.5404365466712
 20
511.7707082651301
 30
0.0
 11
467.8737698800045
 21
511.7707082651301
 31
0.0
 12
468.7071032133379
 22
516.7707082651301
 32
0.0
 13
468.7071032133379
 23
516.7707082651301
 33
0.0
  0
SOLID
  5
D10
  8
DIMENSIONS
 62
     0
 10
467.8737698800045
 20
506.7707082651301
 30
0.0
 11
469.5404365466712
 21
506.7707082651301
 31
0.0
 12
468.7071032133379
 22
501.7707082651301
 32
0.0
 13
468.7071032133379
 23
501.7707082651301
 33
0.0
  0
TEXT
  5
D11
  8
DIMENSIONS
  6
CONTINUOUS
 62
     5
 10
466.3121032133379
 20
522.01070826513
 30
0.0
 40
5.0
  1
15 [0.59]
 50
90.0
  0
POINT
  5
D12
  8
DEFPOINTS
 62
     0
 10
448.9002993355805
 20
516.7707082651301
 30
0.0
  0
POINT
  5
D13
  8
DEFPOINTS
 62
     0
 10
430.3002993355803
 20
501.7707082651301
 30
0.0
  0
POINT
  5
DAC
  8
DEFPOINTS
 62
     0
 10
468.7071032133379
 20
501.7707082651301
 30
0.0
  0
ENDBLK
  5
D0A
  8
0
  0
BLOCK
  8
0
  2
*D148
 70
     1
 10
0.0
 20
0.0
 30
0.0
  3
*D148
  1

  0
LINE
  5
D1A
  8
DIMENSIONS
  6
BYBLOCK
 62
     0
 10
431.8002993355803
 20
501.7707082651301
 30
0.0
 11
468.8871032133379
 21
501.7707082651301
 31
0.0
  0
LINE
  5
D1B
  8
DIMENSIONS
  6
BYBLOCK
 62
     0
 10
431.8002993355803
 20
231.7707082651301
 30
0.0
 11
468.8871032133379
 21
231.7707082651301
 31
0.0
  0
LINE
  5
D1C
  8
DIMENSIONS
  6
BYBLOCK
 62
     0
 10
468.7071032133379
 20
496.7707082651301
 30
0.0
 11
468.7071032133379
 21
236.7707082651301
 31
0.0
  0
SOLID
  5
D1D
  8
DIMENSIONS
 62
     0
 10
469.5404365466712
 20
496.7707082651301
 30
0.0
 11
467.8737698800045
 21
496.7707082651301
 31
0.0
 12
468.7071032133379
 22
501.7707082651301
 32
0.0
 13
468.7071032133379
 23
501.7707082651301
 33
0.0
  0
SOLID
  5
D1E
  8
DIMENSIONS
 62
     0
 10
467.8737698800045
 20
236.7707082651301
 30
0.0
 11
469.5404365466712
 21
236.7707082651301
 31
0.0
 12
468.7071032133379
 22
231.7707082651301
 32
0.0
 13
468.7071032133379
 23
231.7707082651301
 33
0.0
  0
TEXT
  5
D1F
  8
DIMENSIONS
  6
CONTINUOUS
 62
     5
 10
466.3121032133379
 20
349.4357082651301
 30
0.0
 40
5.0
  1
270 [10.63]
 50
90.0
  0
POINT
  5
D20
  8
DEFPOINTS
 62
     0
 10
430.3002993355803
 20
501.7707082651301
 30
0.0
  0
POINT
  5
D21
  8
DEFPOINTS
 62
     0
 10
430.3002993355803
 20
231.7707082651301
 30
0.0
  0
POINT
  5
D22
  8
DEFPOINTS
 62
     0
 10
468.7071032133379
 20
231.7707082651301
 30
0.0
  0
ENDBLK
  5
D19
  8
0
  0
BLOCK
  8
0
  2
*D149
 70
     1
 10
0.0
 20
0.0
 30
0.0
  3
*D149
  1

  0
LINE
  5
D29
  8
DIMENSIONS
  6
BYBLOCK
 62
     0
 10
431.8002993355803
 20
231.7707082651301
 30
0.0
 11
468.8871032133379
 21
231.7707082651301
 31
0.0
  0
LINE
  5
D2A
  8
DIMENSIONS
  6
BYBLOCK
 62
     0
 10
431.8002993355803
 20
11.77070826513011
 30
0.0
 11
468.8871032133379
 21
11.77070826513011
 31
0.0
  0
LINE
  5
D2B
  8
DIMENSIONS
  6
BYBLOCK
 62
     0
 10
468.7071032133379
 20
226.7707082651301
 30
0.0
 11
468.7071032133379
 21
16.7707082651301
 31
0.0
  0
SOLID
  5
D2C
  8
DIMENSIONS
 62
     0
 10
469.5404365466712
 20
226.7707082651301
 30
0.0
 11
467.8737698800045
 21
226.7707082651301
 31
0.0
 12
468.7071032133379
 22
231.7707082651301
 32
0.0
 13
468.7071032133379
 23
231.7707082651301
 33
0.0
  0
SOLID
  5
D2D
  8
DIMENSIONS
 62
     0
 10
467.8737698800045
 20
16.7707082651301
 30
0.0
 11
469.5404365466712
 21
16.7707082651301
 31
0.0
 12
468.7071032133379
 22
11.77070826513011
 32
0.0
 13
468.7071032133379
 23
11.77070826513011
 33
0.0
  0
TEXT
  5
D2E
  8
DIMENSIONS
  6
CONTINUOUS
 62
     5
 10
466.3121032133379
 20
106.3757082651301
 30
0.0
 40
5.0
  1
220 [8.66]
 50
90.0
  0
POINT
  5
D2F
  8
DEFPOINTS
 62
     0
 10
430.3002993355803
 20
231.7707082651301
 30
0.0
  0
POINT
  5
D30
  8
DEFPOINTS
 62
     0
 10
430.3002993355803
 20
11.77070826513011
 30
0.0
  0
POINT
  5
D31
  8
DEFPOINTS
 62
     0
 10
468.7071032133379
 20
11.77070826513011
 30
0.0
  0
ENDBLK
  5
D28
  8
0
  0
BLOCK
  8
0
  2
*D150
 70
     1
 10
0.0
 20
0.0
 30
0.0
  3
*D150
  1

  0
LINE
  5
D38
  8
DIMENSIONS
  6
BYBLOCK
 62
     0
 10
431.8002993355803
 20
11.77070826513011
 30
0.0
 11
468.8871032133379
 21
11.77070826513011
 31
0.0
  0
LINE
  5
D39
  8
DIMENSIONS
  6
BYBLOCK
 62
     0
 10
450.4002993355805
 20
-3.229291734869889
 30
0.0
 11
468.8871032133379
 21
-3.229291734869891
 31
0.0
  0
LINE
  5
D3A
  8
DIMENSIONS
  6
BYBLOCK
 62
     0
 10
468.7071032133379
 20
-3.229291734869891
 30
0.0
 11
468.7071032133379
 21
-36.17429173486994
 31
0.0
  0
LINE
  5
D3B
  8
DIMENSIONS
  6
BYBLOCK
 62
     0
 10
468.7071032133379
 20
6.770708265130105
 30
0.0
 11
468.7071032133379
 21
1.770708265130109
 31
0.0
  0
SOLID
  5
D3C
  8
DIMENSIONS
 62
     0
 10
469.5404365466712
 20
6.770708265130105
 30
0.0
 11
467.8737698800045
 21
6.770708265130105
 31
0.0
 12
468.7071032133379
 22
11.77070826513011
 32
0.0
 13
468.7071032133379
 23
11.77070826513011
 33
0.0
  0
SOLID
  5
D3D
  8
DIMENSIONS
 62
     0
 10
467.8737698800045
 20
1.770708265130109
 30
0.0
 11
469.5404365466712
 21
1.770708265130109
 31
0.0
 12
468.7071032133379
 22
-3.229291734869891
 32
0.0
 13
468.7071032133379
 23
-3.229291734869891
 33
0.0
  0
TEXT
  5
D3E
  8
DIMENSIONS
  6
CONTINUOUS
 62
     5
 10
466.3121032133379
 20
-35.93429173486993
 30
0.0
 40
5.0
  1
15 [0.59]
 50
90.0
  0
POINT
  5
D3F
  8
DEFPOINTS
 62
     0
 10
430.3002993355803
 20
11.77070826513011
 30
0.0
  0
POINT
  5
D40
  8
DEFPOINTS
 62
     0
 10
448.9002993355805
 20
-3.229291734869889
 30
0.0
  0
POINT
  5
DAD
  8
DEFPOINTS
 62
     0
 10
468.7071032133379
 20
-3.229291734869891
 30
0.0
  0
ENDBLK
  5
D37
  8
0
  0
BLOCK
  8
0
  2
*D151
 70
     1
 10
0.0
 20
0.0
 30
0.0
  3
*D151
  1

  0
LINE
  5
D47
  8
DIMENSIONS
  6
BYBLOCK
 62
     0
 10
144.0002993355805
 20
388.2707082651301
 30
0.0
 11
144.0002993355805
 21
376.2755179202895
 31
0.0
  0
LINE
  5
D48
  8
DIMENSIONS
  6
BYBLOCK
 62
     0
 10
128.9002993355805
 20
388.2707082651301
 30
0.0
 11
128.9002993355805
 21
376.2755179202895
 31
0.0
  0
LINE
  5
D49
  8
DIMENSIONS
  6
BYBLOCK
 62
     0
 10
128.9002993355805
 20
376.4555179202895
 30
0.0
 11
90.1352993355805
 21
376.4555179202895
 31
0.0
  0
LINE
  5
D4A
  8
DIMENSIONS
  6
BYBLOCK
 62
     0
 10
139.0002993355805
 20
376.4555179202895
 30
0.0
 11
133.9002993355805
 21
376.4555179202895
 31
0.0
  0
SOLID
  5
D4B
  8
DIMENSIONS
 62
     0
 10
139.0002993355805
 20
375.6221845869562
 30
0.0
 11
139.0002993355805
 21
377.2888512536229
 31
0.0
 12
144.0002993355805
 22
376.4555179202895
 32
0.0
 13
144.0002993355805
 23
376.4555179202895
 33
0.0
  0
SOLID
  5
D4C
  8
DIMENSIONS
 62
     0
 10
133.9002993355805
 20
377.2888512536229
 30
0.0
 11
133.9002993355805
 21
375.6221845869562
 31
0.0
 12
128.9002993355805
 22
376.4555179202895
 32
0.0
 13
128.9002993355805
 23
376.4555179202895
 33
0.0
  0
TEXT
  5
D4D
  8
DIMENSIONS
  6
CONTINUOUS
 62
     5
 10
90.3752993355805
 20
378.8505179202895
 30
0.0
 40
5.0
  1
15.1 [0.59]
  0
POINT
  5
D4E
  8
DEFPOINTS
 62
     0
 10
144.0002993355805
 20
389.7707082651301
 30
0.0
  0
POINT
  5
D4F
  8
DEFPOINTS
 62
     0
 10
128.9002993355805
 20
389.7707082651301
 30
0.0
  0
POINT
  5
DAE
  8
DEFPOINTS
 62
     0
 10
128.9002993355805
 20
376.4555179202895
 30
0.0
  0
ENDBLK
  5
D46
  8
0
  0
BLOCK
  8
0
  2
*D152
 70
     1
 10
0.0
 20
0.0
 30
0.0
  3
*D152
  1

  0
LINE
  5
D56
  8
DIMENSIONS
  6
BYBLOCK
 62
     0
 10
128.9002993355805
 20
388.2707082651301
 30
0.0
 11
128.9002993355805
 21
376.2755179202895
 31
0.0
  0
LINE
  5
D57
  8
DIMENSIONS
  6
BYBLOCK
 62
     0
 10
302.5002993355805
 20
388.2707082651301
 30
0.0
 11
302.5002993355805
 21
376.2755179202895
 31
0.0
  0
LINE
  5
D58
  8
DIMENSIONS
  6
BYBLOCK
 62
     0
 10
133.9002993355805
 20
376.4555179202895
 30
0.0
 11
297.5002993355805
 21
376.4555179202895
 31
0.0
  0
SOLID
  5
D59
  8
DIMENSIONS
 62
     0
 10
133.9002993355805
 20
377.2888512536229
 30
0.0
 11
133.9002993355805
 21
375.6221845869562
 31
0.0
 12
128.9002993355805
 22
376.4555179202895
 32
0.0
 13
128.9002993355805
 23
376.4555179202895
 33
0.0
  0
SOLID
  5
D5A
  8
DIMENSIONS
 62
     0
 10
297.5002993355805
 20
375.6221845869562
 30
0.0
 11
297.5002993355805
 21
377.2888512536229
 31
0.0
 12
302.5002993355805
 22
376.4555179202895
 32
0.0
 13
302.5002993355805
 23
376.4555179202895
 33
0.0
  0
TEXT
  5
D5B
  8
DIMENSIONS
  6
CONTINUOUS
 62
     5
 10
197.1177993355805
 20
378.8505179202895
 30
0.0
 40
5.0
  1
173.6 [6.83]
  0
POINT
  5
D5C
  8
DEFPOINTS
 62
     0
 10
128.9002993355805
 20
389.7707082651301
 30
0.0
  0
POINT
  5
D5D
  8
DEFPOINTS
 62
     0
 10
302.5002993355805
 20
389.7707082651301
 30
0.0
  0
POINT
  5
D5E
  8
DEFPOINTS
 62
     0
 10
302.5002993355805
 20
376.4555179202895
 30
0.0
  0
ENDBLK
  5
D55
  8
0
  0
BLOCK
  8
0
  2
*D153
 70
     1
 10
0.0
 20
0.0
 30
0.0
  3
*D153
  1

  0
LINE
  5
D65
  8
DIMENSIONS
  6
BYBLOCK
 62
     0
 10
302.5002993355805
 20
388.2707082651301
 30
0.0
 11
302.5002993355805
 21
376.2755179202895
 31
0.0
  0
LINE
  5
D66
  8
DIMENSIONS
  6
BYBLOCK
 62
     0
 10
448.9002993355805
 20
258.2707082651301
 30
0.0
 11
448.9002993355805
 21
376.6355179202895
 31
0.0
  0
LINE
  5
D67
  8
DIMENSIONS
  6
BYBLOCK
 62
     0
 10
307.5002993355805
 20
376.4555179202895
 30
0.0
 11
443.9002993355805
 21
376.4555179202895
 31
0.0
  0
SOLID
  5
D68
  8
DIMENSIONS
 62
     0
 10
307.5002993355805
 20
377.2888512536229
 30
0.0
 11
307.5002993355805
 21
375.6221845869562
 31
0.0
 12
302.5002993355805
 22
376.4555179202895
 32
0.0
 13
302.5002993355805
 23
376.4555179202895
 33
0.0
  0
SOLID
  5
D69
  8
DIMENSIONS
 62
     0
 10
443.9002993355805
 20
375.6221845869562
 30
0.0
 11
443.9002993355805
 21
377.2888512536229
 31
0.0
 12
448.9002993355805
 22
376.4555179202895
 32
0.0
 13
448.9002993355805
 23
376.4555179202895
 33
0.0
  0
TEXT
  5
D6A
  8
DIMENSIONS
  6
CONTINUOUS
 62
     5
 10
357.1177993355805
 20
378.8505179202895
 30
0.0
 40
5.0
  1
146.4 [5.76]
  0
POINT
  5
D6B
  8
DEFPOINTS
 62
     0
 10
302.5002993355805
 20
389.7707082651301
 30
0.0
  0
POINT
  5
D6C
  8
DEFPOINTS
 62
     0
 10
448.9002993355805
 20
256.7707082651301
 30
0.0
  0
POINT
  5
D6D
  8
DEFPOINTS
 62
     0
 10
448.9002993355805
 20
376.4555179202895
 30
0.0
  0
ENDBLK
  5
D64
  8
0
  0
BLOCK
  8
0
  2
*D154
 70
     1
 10
0.0
 20
0.0
 30
0.0
  3
*D154
  1

  0
LINE
  5
D74
  8
DIMENSIONS
  6
BYBLOCK
 62
     0
 10
128.9002993355805
 20
138.2707082651301
 30
0.0
 11
128.9002993355805
 21
127.9369825684796
 31
0.0
  0
LINE
  5
D75
  8
DIMENSIONS
  6
BYBLOCK
 62
     0
 10
134.5002993355805
 20
138.2707082651301
 30
0.0
 11
134.5002993355805
 21
127.9369825684796
 31
0.0
  0
LINE
  5
D76
  8
DIMENSIONS
  6
BYBLOCK
 62
     0
 10
128.9002993355805
 20
128.1169825684796
 30
0.0
 11
88.54529933558048
 21
128.1169825684796
 31
0.0
  0
LINE
  5
D77
  8
DIMENSIONS
  6
BYBLOCK
 62
     0
 10
123.9002993355805
 20
128.1169825684796
 30
0.0
 11
118.9002993355805
 21
128.1169825684796
 31
0.0
  0
LINE
  5
D78
  8
DIMENSIONS
  6
BYBLOCK
 62
     0
 10
139.5002993355805
 20
128.1169825684796
 30
0.0
 11
144.5002993355805
 21
128.1169825684796
 31
0.0
  0
SOLID
  5
D79
  8
DIMENSIONS
 62
     0
 10
123.9002993355805
 20
127.2836492351463
 30
0.0
 11
123.9002993355805
 21
128.950315901813
 31
0.0
 12
128.9002993355805
 22
128.1169825684796
 32
0.0
 13
128.9002993355805
 23
128.1169825684796
 33
0.0
  0
SOLID
  5
D7A
  8
DIMENSIONS
 62
     0
 10
139.5002993355805
 20
128.950315901813
 30
0.0
 11
139.5002993355805
 21
127.2836492351463
 31
0.0
 12
134.5002993355805
 22
128.1169825684796
 32
0.0
 13
134.5002993355805
 23
128.1169825684796
 33
0.0
  0
TEXT
  5
D7B
  8
DIMENSIONS
  6
CONTINUOUS
 62
     5
 10
89.25529933558047
 20
130.5119825684796
 30
0.0
 40
5.0
  1
5.6 [0.22]
  0
POINT
  5
D7C
  8
DEFPOINTS
 62
     0
 10
128.9002993355805
 20
139.7707082651301
 30
0.0
  0
POINT
  5
D7D
  8
DEFPOINTS
 62
     0
 10
134.5002993355805
 20
139.7707082651301
 30
0.0
  0
POINT
  5
DAF
  8
DEFPOINTS
 62
     0
 10
134.5002993355805
 20
128.1169825684796
 30
0.0
  0
ENDBLK
  5
D73
  8
0
  0
BLOCK
  8
0
  2
*D155
 70
     1
 10
0.0
 20
0.0
 30
0.0
  3
*D155
  1

  0
LINE
  5
D84
  8
DIMENSIONS
  6
BYBLOCK
 62
     0
 10
134.5002993355805
 20
138.2707082651301
 30
0.0
 11
134.5002993355805
 21
127.9369825684796
 31
0.0
  0
LINE
  5
D85
  8
DIMENSIONS
  6
BYBLOCK
 62
     0
 10
266.5002993355805
 20
138.2707082651301
 30
0.0
 11
266.5002993355805
 21
127.9369825684796
 31
0.0
  0
LINE
  5
D86
  8
DIMENSIONS
  6
BYBLOCK
 62
     0
 10
139.5002993355805
 20
128.1169825684796
 30
0.0
 11
261.5002993355805
 21
128.1169825684796
 31
0.0
  0
SOLID
  5
D87
  8
DIMENSIONS
 62
     0
 10
139.5002993355805
 20
128.950315901813
 30
0.0
 11
139.5002993355805
 21
127.2836492351463
 31
0.0
 12
134.5002993355805
 22
128.1169825684796
 32
0.0
 13
134.5002993355805
 23
128.1169825684796
 33
0.0
  0
SOLID
  5
D88
  8
DIMENSIONS
 62
     0
 10
261.5002993355805
 20
127.2836492351463
 30
0.0
 11
261.5002993355805
 21
128.950315901813
 31
0.0
 12
266.5002993355805
 22
128.1169825684796
 32
0.0
 13
266.5002993355805
 23
128.1169825684796
 33
0.0
  0
TEXT
  5
D89
  8
DIMENSIONS
  6
CONTINUOUS
 62
     5
 10
184.8277993355805
 20
130.5119825684796
 30
0.0
 40
5.0
  1
132 [5.20]
  0
POINT
  5
D8A
  8
DEFPOINTS
 62
     0
 10
134.5002993355805
 20
139.7707082651301
 30
0.0
  0
POINT
  5
D8B
  8
DEFPOINTS
 62
     0
 10
266.5002993355805
 20
139.7707082651301
 30
0.0
  0
POINT
  5
D8C
  8
DEFPOINTS
 62
     0
 10
266.5002993355805
 20
128.1169825684796
 30
0.0
  0
ENDBLK
  5
D83
  8
0
  0
BLOCK
  8
0
  2
*D156
 70
     1
 10
0.0
 20
0.0
 30
0.0
  3
*D156
  1

  0
LINE
  5
D93
  8
DIMENSIONS
  6
BYBLOCK
 62
     0
 10
266.5002993355805
 20
138.2707082651301
 30
0.0
 11
266.5002993355805
 21
127.9369825684796
 31
0.0
  0
LINE
  5
D94
  8
DIMENSIONS
  6
BYBLOCK
 62
     0
 10
448.9002993355805
 20
255.2707082651301
 30
0.0
 11
448.9002993355805
 21
127.9369825684796
 31
0.0
  0
LINE
  5
D95
  8
DIMENSIONS
  6
BYBLOCK
 62
     0
 10
271.5002993355805
 20
128.1169825684796
 30
0.0
 11
443.9002993355805
 21
128.1169825684796
 31
0.0
  0
SOLID
  5
D96
  8
DIMENSIONS
 62
     0
 10
271.5002993355805
 20
128.950315901813
 30
0.0
 11
271.5002993355805
 21
127.2836492351463
 31
0.0
 12
266.5002993355805
 22
128.1169825684796
 32
0.0
 13
266.5002993355805
 23
128.1169825684796
 33
0.0
  0
SOLID
  5
D97
  8
DIMENSIONS
 62
     0
 10
443.9002993355805
 20
127.2836492351463
 30
0.0
 11
443.9002993355805
 21
128.950315901813
 31
0.0
 12
448.9002993355805
 22
128.1169825684796
 32
0.0
 13
448.9002993355805
 23
128.1169825684796
 33
0.0
  0
TEXT
  5
D98
  8
DIMENSIONS
  6
CONTINUOUS
 62
     5
 10
339.1177993355805
 20
130.5119825684796
 30
0.0
 40
5.0
  1
182.4 [7.18]
  0
POINT
  5
D99
  8
DEFPOINTS
 62
     0
 10
266.5002993355805
 20
139.7707082651301
 30
0.0
  0
POINT
  5
D9A
  8
DEFPOINTS
 62
     0
 10
448.9002993355805
 20
256.7707082651301
 30
0.0
  0
POINT
  5
D9B
  8
DEFPOINTS
 62
     0
 10
448.9002993355805
 20
128.1169825684796
 30
0.0
  0
ENDBLK
  5
D92
  8
0
  0
BLOCK
  8
0
  2
*D157
 70
     1
 10
0.0
 20
0.0
 30
0.0
  3
*D157
  1

  0
LINE
  5
DA2
  8
DIMENSIONS
  6
BYBLOCK
 62
     0
 10
156.0002812895708
 20
11.75319307637042
 30
0.0
 11
197.2037620723885
 21
11.66828857335224
 31
0.0
  0
TEXT
  5
DA3
  8
DIMENSIONS
  6
CONTINUOUS
 62
     5
 10
162.5239357215677
 20
14.21475559197058
 30
0.0
 40
5.0
  1
Ø7 [Ø0.28]
 50
359.8819356348821
  0
SOLID
  5
DA4
  8
DIMENSIONS
 62
     0
 10
156.0019984649394
 20
12.58652464048713
 30
0.0
 11
155.9985641142023
 21
10.91986151225371
 31
0.0
 12
151.0002919048706
 22
11.763496128582
 32
0.0
 13
151.0002919048706
 23
11.763496128582
 33
0.0
  0
LINE
  5
DA5
  8
DIMENSIONS
  6
BYBLOCK
 62
     0
 10
145.0002993355804
 20
11.77070826513011
 30
0.0
 11
150.0002993355804
 21
11.77070826513011
 31
0.0
  0
LINE
  5
DA6
  8
DIMENSIONS
  6
BYBLOCK
 62
     0
 10
147.5002993355804
 20
9.270708265130105
 30
0.0
 11
147.5002993355804
 21
14.27070826513011
 31
0.0
  0
POINT
  5
DA7
  8
DEFPOINTS
 62
     0
 10
151.0002919048706
 20
11.763496128582
 30
0.0
  0
POINT
  5
DA8
  8
DEFPOINTS
 62
     0
 10
144.0003067662902
 20
11.77792040167821
 30
0.0
  0
ENDBLK
  5
DA1
  8
0
  0
BLOCK
  8
0
  2
*D158
 70
     1
 10
0.0
 20
0.0
 30
0.0
  3
*D158
  1

  0
LINE
  5
DB8
  8
DIMENSIONS
  6
BYBLOCK
 62
     0
 10
144.0002993355805
 20
388.2707082651301
 30
0.0
 11
144.0002993355805
 21
376.2755179202895
 31
0.0
  0
LINE
  5
DB9
  8
DIMENSIONS
  6
BYBLOCK
 62
     0
 10
302.5002993355805
 20
388.2707082651301
 30
0.0
 11
302.5002993355805
 21
376.2755179202895
 31
0.0
  0
LINE
  5
DBA
  8
DIMENSIONS
  6
BYBLOCK
 62
     0
 10
149.0002993355805
 20
376.4555179202895
 30
0.0
 11
297.5002993355805
 21
376.4555179202895
 31
0.0
  0
SOLID
  5
DBB
  8
DIMENSIONS
 62
     0
 10
149.0002993355805
 20
377.2888512536229
 30
0.0
 11
149.0002993355805
 21
375.6221845869562
 31
0.0
 12
144.0002993355805
 22
376.4555179202895
 32
0.0
 13
144.0002993355805
 23
376.4555179202895
 33
0.0
  0
SOLID
  5
DBC
  8
DIMENSIONS
 62
     0
 10
297.5002993355805
 20
375.6221845869562
 30
0.0
 11
297.5002993355805
 21
377.2888512536229
 31
0.0
 12
302.5002993355805
 22
376.4555179202895
 32
0.0
 13
302.5002993355805
 23
376.4555179202895
 33
0.0
  0
TEXT
  5
DBD
  8
DIMENSIONS
  6
CONTINUOUS
 62
     5
 10
204.6677993355805
 20
378.8505179202895
 30
0.0
 40
5.0
  1
158.5 [6.24]
  0
POINT
  5
DBE
  8
DEFPOINTS
 62
     0
 10
144.0002993355805
 20
389.7707082651301
 30
0.0
  0
POINT
  5
DBF
  8
DEFPOINTS
 62
     0
 10
302.5002993355805
 20
389.7707082651301
 30
0.0
  0
POINT
  5
DC0
  8
DEFPOINTS
 62
     0
 10
302.5002993355805
 20
376.4555179202895
 30
0.0
  0
ENDBLK
  5
DB7
  8
0
  0
BLOCK
  8
0
  2
*D160
 70
     1
 10
0.0
 20
0.0
 30
0.0
  3
*D160
  1

  0
LINE
  5
E02
  8
DIMENSIONS
  6
BYBLOCK
 62
     0
 10
128.5386445833503
 20
-2.984467791359918
 30
0.0
 11
108.0455510031795
 21
-2.984467791359918
 31
0.0
  0
LINE
  5
E03
  8
DIMENSIONS
  6
BYBLOCK
 62
     0
 10
128.5386445833503
 20
501.0155322086403
 30
0.0
 11
108.0455510031796
 21
501.0155322086403
 31
0.0
  0
LINE
  5
E04
  8
DIMENSIONS
  6
BYBLOCK
 62
     0
 10
108.2255510031795
 20
2.015532208640082
 30
0.0
 11
108.2255510031796
 21
496.0155322086403
 31
0.0
  0
SOLID
  5
E05
  8
DIMENSIONS
 62
     0
 10
107.3922176698462
 20
2.015532208640082
 30
0.0
 11
109.0588843365129
 21
2.015532208640082
 31
0.0
 12
108.2255510031795
 22
-2.984467791359918
 32
0.0
 13
108.2255510031795
 23
-2.984467791359918
 33
0.0
  0
SOLID
  5
E06
  8
DIMENSIONS
 62
     0
 10
109.0588843365129
 20
496.0155322086403
 30
0.0
 11
107.3922176698462
 21
496.0155322086403
 31
0.0
 12
108.2255510031796
 22
501.0155322086403
 32
0.0
 13
108.2255510031796
 23
501.0155322086403
 33
0.0
  0
TEXT
  5
E07
  8
DIMENSIONS
  6
CONTINUOUS
 62
     5
 10
105.8305510031796
 20
231.6380322086402
 30
0.0
 40
5.0
  1
504 [19.84]
 50
90.0
  0
POINT
  5
E08
  8
DEFPOINTS
 62
     0
 10
130.0386445833503
 20
-2.984467791359918
 30
0.0
  0
POINT
  5
E09
  8
DEFPOINTS
 62
     0
 10
130.0386445833503
 20
501.0155322086403
 30
0.0
  0
POINT
  5
E0A
  8
DEFPOINTS
 62
     0
 10
108.2255510031796
 20
501.0155322086403
 30
0.0
  0
ENDBLK
  5
E01
  8
0
  0
BLOCK
  8
0
  2
*D161
 70
     1
 10
0.0
 20
0.0
 30
0.0
  3
*D161
  1

  0
LINE
  5
E11
  8
DIMENSIONS
  6
BYBLOCK
 62
     0
 10
130.0386445833503
 20
502.5155322086403
 30
0.0
 11
130.0386445833503
 21
522.0581666202299
 31
0.0
  0
LINE
  5
E12
  8
DIMENSIONS
  6
BYBLOCK
 62
     0
 10
435.0386445833503
 20
502.5155322086403
 30
0.0
 11
435.0386445833503
 21
522.0581666202299
 31
0.0
  0
LINE
  5
E13
  8
DIMENSIONS
  6
BYBLOCK
 62
     0
 10
135.0386445833503
 20
521.87816662023
 30
0.0
 11
430.0386445833503
 21
521.87816662023
 31
0.0
  0
SOLID
  5
E14
  8
DIMENSIONS
 62
     0
 10
135.0386445833503
 20
522.7114999535634
 30
0.0
 11
135.0386445833503
 21
521.0448332868966
 31
0.0
 12
130.0386445833503
 22
521.87816662023
 32
0.0
 13
130.0386445833503
 23
521.87816662023
 33
0.0
  0
SOLID
  5
E15
  8
DIMENSIONS
 62
     0
 10
430.0386445833503
 20
521.0448332868966
 30
0.0
 11
430.0386445833503
 21
522.7114999535634
 31
0.0
 12
435.0386445833503
 22
521.87816662023
 32
0.0
 13
435.0386445833503
 23
521.87816662023
 33
0.0
  0
TEXT
  5
E16
  8
DIMENSIONS
  6
CONTINUOUS
 62
     5
 10
265.1586445833503
 20
524.27316662023
 30
0.0
 40
5.0
  1
305 [12.01]
  0
POINT
  5
E17
  8
DEFPOINTS
 62
     0
 10
130.0386445833503
 20
501.0155322086403
 30
0.0
  0
POINT
  5
E18
  8
DEFPOINTS
 62
     0
 10
435.0386445833503
 20
501.0155322086403
 30
0.0
  0
POINT
  5
E19
  8
DEFPOINTS
 62
     0
 10
435.0386445833503
 20
521.87816662023
 30
0.0
  0
ENDBLK
  5
E10
  8
0
  0
BLOCK
  8
0
  2
*D163
 70
     1
 10
0.0
 20
0.0
 30
0.0
  3
*D163
  1

  0
LINE
  5
E5F
  8
DIMENSIONS
  6
BYBLOCK
 62
     0
 10
135.0959916468372
 20
572.327031311172
 30
0.0
 11
119.7421974494532
 21
572.327031311172
 31
0.0
  0
LINE
  5
E60
  8
DIMENSIONS
  6
BYBLOCK
 62
     0
 10
135.0959916468372
 20
-8.672968688827495
 30
0.0
 11
119.7421974494532
 21
-8.672968688827494
 31
0.0
  0
LINE
  5
E61
  8
DIMENSIONS
  6
BYBLOCK
 62
     0
 10
119.9221974494533
 20
567.327031311172
 30
0.0
 11
119.9221974494532
 21
-3.672968688827494
 31
0.0
  0
SOLID
  5
E62
  8
DIMENSIONS
 62
     0
 10
120.7555307827866
 20
567.327031311172
 30
0.0
 11
119.0888641161199
 21
567.327031311172
 31
0.0
 12
119.9221974494533
 22
572.327031311172
 32
0.0
 13
119.9221974494533
 23
572.327031311172
 33
0.0
  0
SOLID
  5
E63
  8
DIMENSIONS
 62
     0
 10
119.0888641161199
 20
-3.672968688827494
 30
0.0
 11
120.7555307827865
 21
-3.672968688827494
 31
0.0
 12
119.9221974494532
 22
-8.672968688827494
 32
0.0
 13
119.9221974494532
 23
-8.672968688827494
 33
0.0
  0
TEXT
  5
E64
  8
DIMENSIONS
  6
CONTINUOUS
 62
     5
 10
117.5271974494532
 20
264.4495313111723
 30
0.0
 40
5.0
  1
581 [22.87]
 50
90.0
  0
POINT
  5
E65
  8
DEFPOINTS
 62
     0
 10
136.5959916468372
 20
572.327031311172
 30
0.0
  0
POINT
  5
E66
  8
DEFPOINTS
 62
     0
 10
136.5959916468372
 20
-8.672968688827495
 30
0.0
  0
POINT
  5
E67
  8
DEFPOINTS
 62
     0
 10
119.9221974494532
 20
-8.672968688827494
 30
0.0
  0
ENDBLK
  5
E5E
  8
0
  0
BLOCK
  8
0
  2
*D164
 70
     1
 10
0.0
 20
0.0
 30
0.0
  3
*D164
  1

  0
LINE
  5
E6E
  8
DIMENSIONS
  6
BYBLOCK
 62
     0
 10
136.5959916468372
 20
573.827031311172
 30
0.0
 11
136.5959916468372
 21
588.9294375854428
 31
0.0
  0
LINE
  5
E6F
  8
DIMENSIONS
  6
BYBLOCK
 62
     0
 10
437.5959916468374
 20
573.827031311172
 30
0.0
 11
437.5959916468374
 21
588.9294375854428
 31
0.0
  0
LINE
  5
E70
  8
DIMENSIONS
  6
BYBLOCK
 62
     0
 10
141.5959916468372
 20
588.7494375854428
 30
0.0
 11
432.5959916468374
 21
588.7494375854428
 31
0.0
  0
SOLID
  5
E71
  8
DIMENSIONS
 62
     0
 10
141.5959916468372
 20
589.5827709187762
 30
0.0
 11
141.5959916468372
 21
587.9161042521094
 31
0.0
 12
136.5959916468372
 22
588.7494375854428
 32
0.0
 13
136.5959916468372
 23
588.7494375854428
 33
0.0
  0
SOLID
  5
E72
  8
DIMENSIONS
 62
     0
 10
432.5959916468374
 20
587.9161042521094
 30
0.0
 11
432.5959916468374
 21
589.5827709187762
 31
0.0
 12
437.5959916468374
 22
588.7494375854428
 32
0.0
 13
437.5959916468374
 23
588.7494375854428
 33
0.0
  0
TEXT
  5
E73
  8
DIMENSIONS
  6
CONTINUOUS
 62
     5
 10
269.7159916468373
 20
591.1444375854428
 30
0.0
 40
5.0
  1
301 [11.85]
  0
POINT
  5
E74
  8
DEFPOINTS
 62
     0
 10
136.5959916468372
 20
572.327031311172
 30
0.0
  0
POINT
  5
E75
  8
DEFPOINTS
 62
     0
 10
437.5959916468374
 20
572.327031311172
 30
0.0
  0
POINT
  5
E76
  8
DEFPOINTS
 62
     0
 10
437.5959916468374
 20
588.7494375854428
 30
0.0
  0
ENDBLK
  5
E6D
  8
0
  0
BLOCK
  8
0
  2
*D166
 70
     1
 10
0.0
 20
0.0
 30
0.0
  3
*D166
  1

  0
LINE
  5
ED5
  8
DIMENSIONS
  6
BYBLOCK
 62
     0
 10
146.8673743422465
 20
577.3927240374406
 30
0.0
 11
146.8673743422465
 21
601.362554508174
 31
0.0
  0
LINE
  5
ED6
  8
DIMENSIONS
  6
BYBLOCK
 62
     0
 10
440.8673743422463
 20
577.3927240374406
 30
0.0
 11
440.8673743422463
 21
601.362554508174
 31
0.0
  0
LINE
  5
ED7
  8
DIMENSIONS
  6
BYBLOCK
 62
     0
 10
151.8673743422465
 20
601.182554508174
 30
0.0
 11
435.8673743422463
 21
601.182554508174
 31
0.0
  0
SOLID
  5
ED8
  8
DIMENSIONS
 62
     0
 10
151.8673743422465
 20
602.0158878415074
 30
0.0
 11
151.8673743422465
 21
600.3492211748406
 31
0.0
 12
146.8673743422465
 22
601.182554508174
 32
0.0
 13
146.8673743422465
 23
601.182554508174
 33
0.0
  0
SOLID
  5
ED9
  8
DIMENSIONS
 62
     0
 10
435.8673743422463
 20
600.3492211748406
 30
0.0
 11
435.8673743422463
 21
602.0158878415074
 31
0.0
 12
440.8673743422463
 22
601.182554508174
 32
0.0
 13
440.8673743422463
 23
601.182554508174
 33
0.0
  0
TEXT
  5
EDA
  8
DIMENSIONS
  6
CONTINUOUS
 62
     5
 10
276.5323743422464
 20
603.577554508174
 30
0.0
 40
5.0
  1
294 [11.57]
  0
POINT
  5
EDB
  8
DEFPOINTS
 62
     0
 10
146.8673743422465
 20
575.8927240374406
 30
0.0
  0
POINT
  5
EDC
  8
DEFPOINTS
 62
     0
 10
440.8673743422463
 20
575.8927240374406
 30
0.0
  0
POINT
  5
EDD
  8
DEFPOINTS
 62
     0
 10
440.8673743422463
 20
601.182554508174
 30
0.0
  0
ENDBLK
  5
ED4
  8
0
  0
BLOCK
  8
0
  2
*D167
 70
     1
 10
0.0
 20
0.0
 30
0.0
  3
*D167
  1

  0
LINE
  5
EE4
  8
DIMENSIONS
  6
BYBLOCK
 62
     0
 10
453.8673743422463
 20
590.3927240374406
 30
0.0
 11
453.8673743422463
 21
618.0669910546474
 31
0.0
  0
LINE
  5
EE5
  8
DIMENSIONS
  6
BYBLOCK
 62
     0
 10
133.8673743422465
 20
590.3927240374406
 30
0.0
 11
133.8673743422465
 21
618.0669910546474
 31
0.0
  0
LINE
  5
EE6
  8
DIMENSIONS
  6
BYBLOCK
 62
     0
 10
448.8673743422463
 20
617.8869910546474
 30
0.0
 11
138.8673743422465
 21
617.8869910546474
 31
0.0
  0
SOLID
  5
EE7
  8
DIMENSIONS
 62
     0
 10
448.8673743422463
 20
617.053657721314
 30
0.0
 11
448.8673743422463
 21
618.7203243879808
 31
0.0
 12
453.8673743422463
 22
617.8869910546474
 32
0.0
 13
453.8673743422463
 23
617.8869910546474
 33
0.0
  0
SOLID
  5
EE8
  8
DIMENSIONS
 62
     0
 10
138.8673743422465
 20
618.7203243879808
 30
0.0
 11
138.8673743422465
 21
617.053657721314
 31
0.0
 12
133.8673743422465
 22
617.8869910546474
 32
0.0
 13
133.8673743422465
 23
617.8869910546474
 33
0.0
  0
TEXT
  5
EE9
  8
DIMENSIONS
  6
CONTINUOUS
 62
     5
 10
276.4873743422464
 20
620.2819910546474
 30
0.0
 40
5.0
  1
320 [12.60]
  0
POINT
  5
EEA
  8
DEFPOINTS
 62
     0
 10
453.8673743422463
 20
588.8927240374406
 30
0.0
  0
POINT
  5
EEB
  8
DEFPOINTS
 62
     0
 10
133.8673743422465
 20
588.8927240374406
 30
0.0
  0
POINT
  5
EEC
  8
DEFPOINTS
 62
     0
 10
133.8673743422465
 20
617.8869910546474
 30
0.0
  0
ENDBLK
  5
EE3
  8
0
  0
BLOCK
  8
0
  2
*D168
 70
     1
 10
0.0
 20
0.0
 30
0.0
  3
*D168
  1

  0
LINE
  5
EF3
  8
DIMENSIONS
  6
BYBLOCK
 62
     0
 10
132.3673743422465
 20
588.8927240374406
 30
0.0
 11
118.4742373317815
 21
588.8927240374406
 31
0.0
  0
LINE
  5
EF4
  8
DIMENSIONS
  6
BYBLOCK
 62
     0
 10
145.3673743422465
 20
575.8927240374406
 30
0.0
 11
118.4742373317815
 21
575.8927240374406
 31
0.0
  0
LINE
  5
EF5
  8
DIMENSIONS
  6
BYBLOCK
 62
     0
 10
118.6542373317815
 20
588.8927240374406
 30
0.0
 11
118.6542373317815
 21
621.8377240374406
 31
0.0
  0
LINE
  5
EF6
  8
DIMENSIONS
  6
BYBLOCK
 62
     0
 10
118.6542373317815
 20
583.8927240374406
 30
0.0
 11
118.6542373317815
 21
580.8927240374406
 31
0.0
  0
SOLID
  5
EF7
  8
DIMENSIONS
 62
     0
 10
119.4875706651148
 20
583.8927240374406
 30
0.0
 11
117.8209039984482
 21
583.8927240374406
 31
0.0
 12
118.6542373317815
 22
588.8927240374406
 32
0.0
 13
118.6542373317815
 23
588.8927240374406
 33
0.0
  0
SOLID
  5
EF8
  8
DIMENSIONS
 62
     0
 10
117.8209039984482
 20
580.8927240374406
 30
0.0
 11
119.4875706651148
 21
580.8927240374406
 31
0.0
 12
118.6542373317815
 22
575.8927240374406
 32
0.0
 13
118.6542373317815
 23
575.8927240374406
 33
0.0
  0
TEXT
  5
EF9
  8
DIMENSIONS
  6
CONTINUOUS
 62
     5
 10
116.2592373317815
 20
594.1327240374407
 30
0.0
 40
5.0
  1
13 [0.51]
 50
90.0
  0
POINT
  5
EFA
  8
DEFPOINTS
 62
     0
 10
133.8673743422465
 20
588.8927240374406
 30
0.0
  0
POINT
  5
EFB
  8
DEFPOINTS
 62
     0
 10
146.8673743422465
 20
575.8927240374406
 30
0.0
  0
POINT
  5
FDD
  8
DEFPOINTS
 62
     0
 10
118.6542373317815
 20
575.8927240374406
 30
0.0
  0
ENDBLK
  5
EF2
  8
0
  0
BLOCK
  8
0
  2
*D169
 70
     1
 10
0.0
 20
0.0
 30
0.0
  3
*D169
  1

  0
LINE
  5
F02
  8
DIMENSIONS
  6
BYBLOCK
 62
     0
 10
145.3673743422465
 20
575.8927240374406
 30
0.0
 11
118.4742373317815
 21
575.8927240374406
 31
0.0
  0
LINE
  5
F03
  8
DIMENSIONS
  6
BYBLOCK
 62
     0
 10
145.3673743422465
 20
330.8927240374406
 30
0.0
 11
118.4742373317815
 21
330.8927240374406
 31
0.0
  0
LINE
  5
F04
  8
DIMENSIONS
  6
BYBLOCK
 62
     0
 10
118.6542373317815
 20
570.8927240374406
 30
0.0
 11
118.6542373317815
 21
335.8927240374406
 31
0.0
  0
SOLID
  5
F05
  8
DIMENSIONS
 62
     0
 10
119.4875706651148
 20
570.8927240374406
 30
0.0
 11
117.8209039984482
 21
570.8927240374406
 31
0.0
 12
118.6542373317815
 22
575.8927240374406
 32
0.0
 13
118.6542373317815
 23
575.8927240374406
 33
0.0
  0
SOLID
  5
F06
  8
DIMENSIONS
 62
     0
 10
117.8209039984482
 20
335.8927240374406
 30
0.0
 11
119.4875706651148
 21
335.8927240374406
 31
0.0
 12
118.6542373317815
 22
330.8927240374406
 32
0.0
 13
118.6542373317815
 23
330.8927240374406
 33
0.0
  0
TEXT
  5
F07
  8
DIMENSIONS
  6
CONTINUOUS
 62
     5
 10
116.2592373317815
 20
437.9977240374407
 30
0.0
 40
5.0
  1
245 [9.65]
 50
90.0
  0
POINT
  5
F08
  8
DEFPOINTS
 62
     0
 10
146.8673743422465
 20
575.8927240374406
 30
0.0
  0
POINT
  5
F09
  8
DEFPOINTS
 62
     0
 10
146.8673743422465
 20
330.8927240374406
 30
0.0
  0
POINT
  5
F0A
  8
DEFPOINTS
 62
     0
 10
118.6542373317815
 20
330.8927240374406
 30
0.0
  0
ENDBLK
  5
F01
  8
0
  0
BLOCK
  8
0
  2
*D170
 70
     1
 10
0.0
 20
0.0
 30
0.0
  3
*D170
  1

  0
LINE
  5
F11
  8
DIMENSIONS
  6
BYBLOCK
 62
     0
 10
145.3673743422465
 20
330.8927240374406
 30
0.0
 11
118.4742373317815
 21
330.8927240374406
 31
0.0
  0
LINE
  5
F12
  8
DIMENSIONS
  6
BYBLOCK
 62
     0
 10
145.3673743422465
 20
1.892724037440757
 30
0.0
 11
118.4742373317815
 21
1.892724037440759
 31
0.0
  0
LINE
  5
F13
  8
DIMENSIONS
  6
BYBLOCK
 62
     0
 10
118.6542373317815
 20
325.8927240374406
 30
0.0
 11
118.6542373317815
 21
6.892724037440759
 31
0.0
  0
SOLID
  5
F14
  8
DIMENSIONS
 62
     0
 10
119.4875706651148
 20
325.8927240374406
 30
0.0
 11
117.8209039984482
 21
325.8927240374406
 31
0.0
 12
118.6542373317815
 22
330.8927240374406
 32
0.0
 13
118.6542373317815
 23
330.8927240374406
 33
0.0
  0
SOLID
  5
F15
  8
DIMENSIONS
 62
     0
 10
117.8209039984481
 20
6.892724037440759
 30
0.0
 11
119.4875706651148
 21
6.892724037440759
 31
0.0
 12
118.6542373317815
 22
1.892724037440759
 32
0.0
 13
118.6542373317815
 23
1.892724037440759
 33
0.0
  0
TEXT
  5
F16
  8
DIMENSIONS
  6
CONTINUOUS
 62
     5
 10
116.2592373317815
 20
149.0127240374407
 30
0.0
 40
5.0
  1
329 [12.95]
 50
90.0
  0
POINT
  5
F17
  8
DEFPOINTS
 62
     0
 10
146.8673743422465
 20
330.8927240374406
 30
0.0
  0
POINT
  5
F18
  8
DEFPOINTS
 62
     0
 10
146.8673743422465
 20
1.892724037440757
 30
0.0
  0
POINT
  5
F19
  8
DEFPOINTS
 62
     0
 10
118.6542373317815
 20
1.892724037440759
 30
0.0
  0
ENDBLK
  5
F10
  8
0
  0
BLOCK
  8
0
  2
*D171
 70
     1
 10
0.0
 20
0.0
 30
0.0
  3
*D171
  1

  0
LINE
  5
F20
  8
DIMENSIONS
  6
BYBLOCK
 62
     0
 10
145.3673743422465
 20
1.892724037440757
 30
0.0
 11
118.4742373317815
 21
1.892724037440759
 31
0.0
  0
LINE
  5
F21
  8
DIMENSIONS
  6
BYBLOCK
 62
     0
 10
132.3673743422465
 20
-11.10727596255913
 30
0.0
 11
118.4742373317815
 21
-11.10727596255913
 31
0.0
  0
LINE
  5
F22
  8
DIMENSIONS
  6
BYBLOCK
 62
     0
 10
118.6542373317815
 20
-11.10727596255913
 30
0.0
 11
118.6542373317815
 21
-44.05227596255912
 31
0.0
  0
LINE
  5
F23
  8
DIMENSIONS
  6
BYBLOCK
 62
     0
 10
118.6542373317815
 20
-3.107275962559241
 30
0.0
 11
118.6542373317815
 21
-6.107275962559127
 31
0.0
  0
SOLID
  5
F24
  8
DIMENSIONS
 62
     0
 10
119.4875706651148
 20
-3.107275962559241
 30
0.0
 11
117.8209039984481
 21
-3.107275962559241
 31
0.0
 12
118.6542373317815
 22
1.892724037440759
 32
0.0
 13
118.6542373317815
 23
1.892724037440759
 33
0.0
  0
SOLID
  5
F25
  8
DIMENSIONS
 62
     0
 10
117.8209039984481
 20
-6.107275962559127
 30
0.0
 11
119.4875706651148
 21
-6.107275962559127
 31
0.0
 12
118.6542373317815
 22
-11.10727596255913
 32
0.0
 13
118.6542373317815
 23
-11.10727596255913
 33
0.0
  0
TEXT
  5
F26
  8
DIMENSIONS
  6
CONTINUOUS
 62
     5
 10
116.2592373317815
 20
-43.81227596255911
 30
0.0
 40
5.0
  1
13 [0.51]
 50
90.0
  0
POINT
  5
F27
  8
DEFPOINTS
 62
     0
 10
146.8673743422465
 20
1.892724037440757
 30
0.0
  0
POINT
  5
F28
  8
DEFPOINTS
 62
     0
 10
133.8673743422465
 20
-11.10727596255913
 30
0.0
  0
POINT
  5
FDE
  8
DEFPOINTS
 62
     0
 10
118.6542373317815
 20
-11.10727596255913
 30
0.0
  0
ENDBLK
  5
F1F
  8
0
  0
BLOCK
  8
0
  2
*D172
 70
     1
 10
0.0
 20
0.0
 30
0.0
  3
*D172
  1

  0
LINE
  5
F2F
  8
DIMENSIONS
  6
BYBLOCK
 62
     0
 10
217.8673743422466
 20
421.3927240374406
 30
0.0
 11
217.8673743422466
 21
406.4104309881315
 31
0.0
  0
LINE
  5
F30
  8
DIMENSIONS
  6
BYBLOCK
 62
     0
 10
133.8673743422465
 20
421.3927240374406
 30
0.0
 11
133.8673743422465
 21
406.4104309881315
 31
0.0
  0
LINE
  5
F31
  8
DIMENSIONS
  6
BYBLOCK
 62
     0
 10
212.8673743422466
 20
406.5904309881315
 30
0.0
 11
138.8673743422465
 21
406.5904309881315
 31
0.0
  0
SOLID
  5
F32
  8
DIMENSIONS
 62
     0
 10
212.8673743422466
 20
405.7570976547981
 30
0.0
 11
212.8673743422466
 21
407.4237643214648
 31
0.0
 12
217.8673743422466
 22
406.5904309881315
 32
0.0
 13
217.8673743422466
 23
406.5904309881315
 33
0.0
  0
SOLID
  5
F33
  8
DIMENSIONS
 62
     0
 10
138.8673743422465
 20
407.4237643214648
 30
0.0
 11
138.8673743422465
 21
405.7570976547981
 31
0.0
 12
133.8673743422465
 22
406.5904309881315
 32
0.0
 13
133.8673743422465
 23
406.5904309881315
 33
0.0
  0
TEXT
  5
F34
  8
DIMENSIONS
  6
CONTINUOUS
 62
     5
 10
162.3723743422466
 20
408.9854309881314
 30
0.0
 40
5.0
  1
84 [3.31]
  0
POINT
  5
F35
  8
DEFPOINTS
 62
     0
 10
217.8673743422466
 20
422.8927240374406
 30
0.0
  0
POINT
  5
F36
  8
DEFPOINTS
 62
     0
 10
133.8673743422465
 20
422.8927240374406
 30
0.0
  0
POINT
  5
F37
  8
DEFPOINTS
 62
     0
 10
133.8673743422465
 20
406.5904309881315
 30
0.0
  0
ENDBLK
  5
F2E
  8
0
  0
BLOCK
  8
0
  2
*D173
 70
     1
 10
0.0
 20
0.0
 30
0.0
  3
*D173
  1

  0
LINE
  5
F3E
  8
DIMENSIONS
  6
BYBLOCK
 62
     0
 10
217.8673743422466
 20
421.3927240374406
 30
0.0
 11
217.8673743422466
 21
406.4104309881315
 31
0.0
  0
LINE
  5
F3F
  8
DIMENSIONS
  6
BYBLOCK
 62
     0
 10
419.8673743422464
 20
421.3927240374406
 30
0.0
 11
419.8673743422464
 21
406.4104309881315
 31
0.0
  0
LINE
  5
F40
  8
DIMENSIONS
  6
BYBLOCK
 62
     0
 10
222.8673743422466
 20
406.5904309881315
 30
0.0
 11
414.8673743422464
 21
406.5904309881315
 31
0.0
  0
SOLID
  5
F41
  8
DIMENSIONS
 62
     0
 10
222.8673743422466
 20
407.4237643214648
 30
0.0
 11
222.8673743422466
 21
405.7570976547981
 31
0.0
 12
217.8673743422466
 22
406.5904309881315
 32
0.0
 13
217.8673743422466
 23
406.5904309881315
 33
0.0
  0
SOLID
  5
F42
  8
DIMENSIONS
 62
     0
 10
414.8673743422464
 20
405.7570976547981
 30
0.0
 11
414.8673743422464
 21
407.4237643214648
 31
0.0
 12
419.8673743422464
 22
406.5904309881315
 32
0.0
 13
419.8673743422464
 23
406.5904309881315
 33
0.0
  0
TEXT
  5
F43
  8
DIMENSIONS
  6
CONTINUOUS
 62
     5
 10
303.4723743422466
 20
408.9854309881314
 30
0.0
 40
5.0
  1
202 [7.95]
  0
POINT
  5
F44
  8
DEFPOINTS
 62
     0
 10
217.8673743422466
 20
422.8927240374406
 30
0.0
  0
POINT
  5
F45
  8
DEFPOINTS
 62
     0
 10
419.8673743422464
 20
422.8927240374406
 30
0.0
  0
POINT
  5
F46
  8
DEFPOINTS
 62
     0
 10
419.8673743422464
 20
406.5904309881315
 30
0.0
  0
ENDBLK
  5
F3D
  8
0
  0
BLOCK
  8
0
  2
*D174
 70
     1
 10
0.0
 20
0.0
 30
0.0
  3
*D174
  1

  0
LINE
  5
F4D
  8
DIMENSIONS
  6
BYBLOCK
 62
     0
 10
419.8673743422464
 20
421.3927240374406
 30
0.0
 11
419.8673743422464
 21
406.4104309881315
 31
0.0
  0
LINE
  5
F4E
  8
DIMENSIONS
  6
BYBLOCK
 62
     0
 10
453.8673743422463
 20
421.3927240374406
 30
0.0
 11
453.8673743422463
 21
406.4104309881315
 31
0.0
  0
LINE
  5
F4F
  8
DIMENSIONS
  6
BYBLOCK
 62
     0
 10
424.8673743422464
 20
406.5904309881315
 30
0.0
 11
448.8673743422463
 21
406.5904309881315
 31
0.0
  0
SOLID
  5
F50
  8
DIMENSIONS
 62
     0
 10
424.8673743422464
 20
407.4237643214648
 30
0.0
 11
424.8673743422464
 21
405.7570976547981
 31
0.0
 12
419.8673743422464
 22
406.5904309881315
 32
0.0
 13
419.8673743422464
 23
406.5904309881315
 33
0.0
  0
SOLID
  5
F51
  8
DIMENSIONS
 62
     0
 10
448.8673743422463
 20
405.7570976547981
 30
0.0
 11
448.8673743422463
 21
407.4237643214648
 31
0.0
 12
453.8673743422463
 22
406.5904309881315
 32
0.0
 13
453.8673743422463
 23
406.5904309881315
 33
0.0
  0
TEXT
  5
F52
  8
DIMENSIONS
  6
CONTINUOUS
 62
     5
 10
423.3673743422464
 20
408.9854309881314
 30
0.0
 40
5.0
  1
34 [1.34]
  0
POINT
  5
F53
  8
DEFPOINTS
 62
     0
 10
419.8673743422464
 20
422.8927240374406
 30
0.0
  0
POINT
  5
F54
  8
DEFPOINTS
 62
     0
 10
453.8673743422463
 20
422.8927240374406
 30
0.0
  0
POINT
  5
F55
  8
DEFPOINTS
 62
     0
 10
453.8673743422463
 20
406.5904309881315
 30
0.0
  0
ENDBLK
  5
F4C
  8
0
  0
BLOCK
  8
0
  2
*D175
 70
     1
 10
0.0
 20
0.0
 30
0.0
  3
*D175
  1

  0
LINE
  5
F5C
  8
DIMENSIONS
  6
BYBLOCK
 62
     0
 10
260.8673743422465
 20
223.392724037441
 30
0.0
 11
260.8673743422465
 21
208.9342655070051
 31
0.0
  0
LINE
  5
F5D
  8
DIMENSIONS
  6
BYBLOCK
 62
     0
 10
133.8673743422465
 20
223.392724037441
 30
0.0
 11
133.8673743422465
 21
208.9342655070051
 31
0.0
  0
LINE
  5
F5E
  8
DIMENSIONS
  6
BYBLOCK
 62
     0
 10
255.8673743422465
 20
209.1142655070051
 30
0.0
 11
138.8673743422465
 21
209.1142655070051
 31
0.0
  0
SOLID
  5
F5F
  8
DIMENSIONS
 62
     0
 10
255.8673743422465
 20
208.2809321736718
 30
0.0
 11
255.8673743422465
 21
209.9475988403385
 31
0.0
 12
260.8673743422465
 22
209.1142655070051
 32
0.0
 13
260.8673743422465
 23
209.1142655070051
 33
0.0
  0
SOLID
  5
F60
  8
DIMENSIONS
 62
     0
 10
138.8673743422465
 20
209.9475988403385
 30
0.0
 11
138.8673743422465
 21
208.2809321736718
 31
0.0
 12
133.8673743422465
 22
209.1142655070051
 32
0.0
 13
133.8673743422465
 23
209.1142655070051
 33
0.0
  0
TEXT
  5
F61
  8
DIMENSIONS
  6
CONTINUOUS
 62
     5
 10
181.6948743422465
 20
211.5092655070051
 30
0.0
 40
5.0
  1
127 [5.00]
  0
POINT
  5
F62
  8
DEFPOINTS
 62
     0
 10
260.8673743422465
 20
224.892724037441
 30
0.0
  0
POINT
  5
F63
  8
DEFPOINTS
 62
     0
 10
133.8673743422465
 20
224.892724037441
 30
0.0
  0
POINT
  5
F64
  8
DEFPOINTS
 62
     0
 10
133.8673743422465
 20
209.1142655070051
 30
0.0
  0
ENDBLK
  5
F5B
  8
0
  0
BLOCK
  8
0
  2
*D176
 70
     1
 10
0.0
 20
0.0
 30
0.0
  3
*D176
  1

  0
LINE
  5
F6B
  8
DIMENSIONS
  6
BYBLOCK
 62
     0
 10
260.8673743422465
 20
223.392724037441
 30
0.0
 11
260.8673743422465
 21
208.9342655070051
 31
0.0
  0
LINE
  5
F6C
  8
DIMENSIONS
  6
BYBLOCK
 62
     0
 10
440.8673743422463
 20
223.392724037441
 30
0.0
 11
440.8673743422463
 21
208.9342655070051
 31
0.0
  0
LINE
  5
F6D
  8
DIMENSIONS
  6
BYBLOCK
 62
     0
 10
265.8673743422465
 20
209.1142655070051
 30
0.0
 11
435.8673743422463
 21
209.1142655070051
 31
0.0
  0
SOLID
  5
F6E
  8
DIMENSIONS
 62
     0
 10
265.8673743422465
 20
209.9475988403385
 30
0.0
 11
265.8673743422465
 21
208.2809321736718
 31
0.0
 12
260.8673743422465
 22
209.1142655070051
 32
0.0
 13
260.8673743422465
 23
209.1142655070051
 33
0.0
  0
SOLID
  5
F6F
  8
DIMENSIONS
 62
     0
 10
435.8673743422463
 20
208.2809321736718
 30
0.0
 11
435.8673743422463
 21
209.9475988403385
 31
0.0
 12
440.8673743422463
 22
209.1142655070051
 32
0.0
 13
440.8673743422463
 23
209.1142655070051
 33
0.0
  0
TEXT
  5
F70
  8
DIMENSIONS
  6
CONTINUOUS
 62
     5
 10
335.1948743422464
 20
211.5092655070051
 30
0.0
 40
5.0
  1
180 [7.09]
  0
POINT
  5
F71
  8
DEFPOINTS
 62
     0
 10
260.8673743422465
 20
224.892724037441
 30
0.0
  0
POINT
  5
F72
  8
DEFPOINTS
 62
     0
 10
440.8673743422463
 20
224.892724037441
 30
0.0
  0
POINT
  5
F73
  8
DEFPOINTS
 62
     0
 10
440.8673743422463
 20
209.1142655070051
 30
0.0
  0
ENDBLK
  5
F6A
  8
0
  0
BLOCK
  8
0
  2
*D177
 70
     1
 10
0.0
 20
0.0
 30
0.0
  3
*D177
  1

  0
LINE
  5
F7A
  8
DIMENSIONS
  6
BYBLOCK
 62
     0
 10
440.8673743422463
 20
223.392724037441
 30
0.0
 11
440.8673743422463
 21
208.9342655070051
 31
0.0
  0
LINE
  5
F7B
  8
DIMENSIONS
  6
BYBLOCK
 62
     0
 10
453.8673743422463
 20
223.392724037441
 30
0.0
 11
453.8673743422463
 21
208.9342655070051
 31
0.0
  0
LINE
  5
F7C
  8
DIMENSIONS
  6
BYBLOCK
 62
     0
 10
453.8673743422463
 20
209.1142655070051
 30
0.0
 11
486.8123743422464
 21
209.1142655070051
 31
0.0
  0
LINE
  5
F7D
  8
DIMENSIONS
  6
BYBLOCK
 62
     0
 10
445.8673743422463
 20
209.1142655070051
 30
0.0
 11
448.8673743422463
 21
209.1142655070051
 31
0.0
  0
SOLID
  5
F7E
  8
DIMENSIONS
 62
     0
 10
445.8673743422463
 20
209.9475988403385
 30
0.0
 11
445.8673743422463
 21
208.2809321736718
 31
0.0
 12
440.8673743422463
 22
209.1142655070051
 32
0.0
 13
440.8673743422463
 23
209.1142655070051
 33
0.0
  0
SOLID
  5
F7F
  8
DIMENSIONS
 62
     0
 10
448.8673743422463
 20
208.2809321736718
 30
0.0
 11
448.8673743422463
 21
209.9475988403385
 31
0.0
 12
453.8673743422463
 22
209.1142655070051
 32
0.0
 13
453.8673743422463
 23
209.1142655070051
 33
0.0
  0
TEXT
  5
F80
  8
DIMENSIONS
  6
CONTINUOUS
 62
     5
 10
459.1073743422463
 20
211.5092655070051
 30
0.0
 40
5.0
  1
13 [0.51]
  0
POINT
  5
F81
  8
DEFPOINTS
 62
     0
 10
440.8673743422463
 20
224.892724037441
 30
0.0
  0
POINT
  5
F82
  8
DEFPOINTS
 62
     0
 10
453.8673743422463
 20
224.892724037441
 30
0.0
  0
POINT
  5
FDF
  8
DEFPOINTS
 62
     0
 10
453.8673743422463
 20
209.1142655070051
 30
0.0
  0
ENDBLK
  5
F79
  8
0
  0
BLOCK
  8
0
  2
*D178
 70
     1
 10
0.0
 20
0.0
 30
0.0
  3
*D178
  1

  0
LINE
  5
F89
  8
DIMENSIONS
  6
BYBLOCK
 62
     0
 10
455.3673743422463
 20
588.8927240374406
 30
0.0
 11
491.1457869997416
 21
588.8927240374406
 31
0.0
  0
LINE
  5
F8A
  8
DIMENSIONS
  6
BYBLOCK
 62
     0
 10
421.3673743422464
 20
573.8927240374406
 30
0.0
 11
491.1457869997416
 21
573.8927240374406
 31
0.0
  0
LINE
  5
F8B
  8
DIMENSIONS
  6
BYBLOCK
 62
     0
 10
490.9657869997416
 20
588.8927240374406
 30
0.0
 11
490.9657869997416
 21
623.7572245730926
 31
0.0
  0
LINE
  5
F8C
  8
DIMENSIONS
  6
BYBLOCK
 62
     0
 10
490.9657869997416
 20
583.8927240374406
 30
0.0
 11
490.9657869997416
 21
578.8927240374406
 31
0.0
  0
SOLID
  5
F8D
  8
DIMENSIONS
 62
     0
 10
491.7991203330749
 20
583.8927240374406
 30
0.0
 11
490.1324536664083
 21
583.8927240374406
 31
0.0
 12
490.9657869997416
 22
588.8927240374406
 32
0.0
 13
490.9657869997416
 23
588.8927240374406
 33
0.0
  0
SOLID
  5
F8E
  8
DIMENSIONS
 62
     0
 10
490.1324536664083
 20
578.8927240374406
 30
0.0
 11
491.7991203330749
 21
578.8927240374406
 31
0.0
 12
490.9657869997416
 22
573.8927240374406
 32
0.0
 13
490.9657869997416
 23
573.8927240374406
 33
0.0
  0
TEXT
  5
F8F
  8
DIMENSIONS
  6
CONTINUOUS
 62
     5
 10
488.5707869997416
 20
596.0522245730926
 30
0.0
 40
5.0
  1
15 [0.59]
 50
90.0
  0
POINT
  5
F90
  8
DEFPOINTS
 62
     0
 10
453.8673743422463
 20
588.8927240374406
 30
0.0
  0
POINT
  5
F91
  8
DEFPOINTS
 62
     0
 10
419.8673743422464
 20
573.8927240374406
 30
0.0
  0
POINT
  5
FE0
  8
DEFPOINTS
 62
     0
 10
490.9657869997416
 20
573.8927240374406
 30
0.0
  0
ENDBLK
  5
F88
  8
0
  0
BLOCK
  8
0
  2
*D179
 70
     1
 10
0.0
 20
0.0
 30
0.0
  3
*D179
  1

  0
LINE
  5
F98
  8
DIMENSIONS
  6
BYBLOCK
 62
     0
 10
421.3673743422464
 20
573.8927240374406
 30
0.0
 11
491.1457869997416
 21
573.8927240374406
 31
0.0
  0
LINE
  5
F99
  8
DIMENSIONS
  6
BYBLOCK
 62
     0
 10
421.3673743422464
 20
422.8927240374406
 30
0.0
 11
491.1457869997416
 21
422.8927240374406
 31
0.0
  0
LINE
  5
F9A
  8
DIMENSIONS
  6
BYBLOCK
 62
     0
 10
490.9657869997416
 20
568.8927240374406
 30
0.0
 11
490.9657869997416
 21
427.8927240374406
 31
0.0
  0
SOLID
  5
F9B
  8
DIMENSIONS
 62
     0
 10
491.7991203330749
 20
568.8927240374406
 30
0.0
 11
490.1324536664083
 21
568.8927240374406
 31
0.0
 12
490.9657869997416
 22
573.8927240374406
 32
0.0
 13
490.9657869997416
 23
573.8927240374406
 33
0.0
  0
SOLID
  5
F9C
  8
DIMENSIONS
 62
     0
 10
490.1324536664083
 20
427.8927240374406
 30
0.0
 11
491.7991203330749
 21
427.8927240374406
 31
0.0
 12
490.9657869997416
 22
422.8927240374406
 32
0.0
 13
490.9657869997416
 23
422.8927240374406
 33
0.0
  0
TEXT
  5
F9D
  8
DIMENSIONS
  6
CONTINUOUS
 62
     5
 10
488.5707869997416
 20
482.7202240374406
 30
0.0
 40
5.0
  1
151 [5.94]
 50
90.0
  0
POINT
  5
F9E
  8
DEFPOINTS
 62
     0
 10
419.8673743422464
 20
573.8927240374406
 30
0.0
  0
POINT
  5
F9F
  8
DEFPOINTS
 62
     0
 10
419.8673743422464
 20
422.8927240374406
 30
0.0
  0
POINT
  5
FA0
  8
DEFPOINTS
 62
     0
 10
490.9657869997416
 20
422.8927240374406
 30
0.0
  0
ENDBLK
  5
F97
  8
0
  0
BLOCK
  8
0
  2
*D180
 70
     1
 10
0.0
 20
0.0
 30
0.0
  3
*D180
  1

  0
LINE
  5
FA7
  8
DIMENSIONS
  6
BYBLOCK
 62
     0
 10
421.3673743422464
 20
422.8927240374406
 30
0.0
 11
491.1457869997416
 21
422.8927240374406
 31
0.0
  0
LINE
  5
FA8
  8
DIMENSIONS
  6
BYBLOCK
 62
     0
 10
442.3673743422463
 20
304.8927240374409
 30
0.0
 11
491.1457869997416
 21
304.8927240374409
 31
0.0
  0
LINE
  5
FA9
  8
DIMENSIONS
  6
BYBLOCK
 62
     0
 10
490.9657869997416
 20
417.8927240374406
 30
0.0
 11
490.9657869997416
 21
309.8927240374409
 31
0.0
  0
SOLID
  5
FAA
  8
DIMENSIONS
 62
     0
 10
491.7991203330749
 20
417.8927240374406
 30
0.0
 11
490.1324536664083
 21
417.8927240374406
 31
0.0
 12
490.9657869997416
 22
422.8927240374406
 32
0.0
 13
490.9657869997416
 23
422.8927240374406
 33
0.0
  0
SOLID
  5
FAB
  8
DIMENSIONS
 62
     0
 10
490.1324536664083
 20
309.8927240374409
 30
0.0
 11
491.7991203330749
 21
309.8927240374409
 31
0.0
 12
490.9657869997416
 22
304.8927240374409
 32
0.0
 13
490.9657869997416
 23
304.8927240374409
 33
0.0
  0
TEXT
  5
FAC
  8
DIMENSIONS
  6
CONTINUOUS
 62
     5
 10
488.5707869997416
 20
348.2202240374407
 30
0.0
 40
5.0
  1
118 [4.65]
 50
90.0
  0
POINT
  5
FAD
  8
DEFPOINTS
 62
     0
 10
419.8673743422464
 20
422.8927240374406
 30
0.0
  0
POINT
  5
FAE
  8
DEFPOINTS
 62
     0
 10
440.8673743422463
 20
304.8927240374409
 30
0.0
  0
POINT
  5
FAF
  8
DEFPOINTS
 62
     0
 10
490.9657869997416
 20
304.8927240374409
 30
0.0
  0
ENDBLK
  5
FA6
  8
0
  0
BLOCK
  8
0
  2
*D181
 70
     1
 10
0.0
 20
0.0
 30
0.0
  3
*D181
  1

  0
LINE
  5
FB6
  8
DIMENSIONS
  6
BYBLOCK
 62
     0
 10
442.3673743422463
 20
304.8927240374409
 30
0.0
 11
491.1457869997416
 21
304.8927240374409
 31
0.0
  0
LINE
  5
FB7
  8
DIMENSIONS
  6
BYBLOCK
 62
     0
 10
442.3673743422463
 20
224.892724037441
 30
0.0
 11
491.1457869997416
 21
224.892724037441
 31
0.0
  0
LINE
  5
FB8
  8
DIMENSIONS
  6
BYBLOCK
 62
     0
 10
490.9657869997416
 20
299.8927240374409
 30
0.0
 11
490.9657869997416
 21
229.892724037441
 31
0.0
  0
SOLID
  5
FB9
  8
DIMENSIONS
 62
     0
 10
491.7991203330749
 20
299.8927240374409
 30
0.0
 11
490.1324536664083
 21
299.8927240374409
 31
0.0
 12
490.9657869997416
 22
304.8927240374409
 32
0.0
 13
490.9657869997416
 23
304.8927240374409
 33
0.0
  0
SOLID
  5
FBA
  8
DIMENSIONS
 62
     0
 10
490.1324536664083
 20
229.892724037441
 30
0.0
 11
491.7991203330749
 21
229.892724037441
 31
0.0
 12
490.9657869997416
 22
224.892724037441
 32
0.0
 13
490.9657869997416
 23
224.892724037441
 33
0.0
  0
TEXT
  5
FBB
  8
DIMENSIONS
  6
CONTINUOUS
 62
     5
 10
488.5707869997415
 20
251.3977240374409
 30
0.0
 40
5.0
  1
80 [3.15]
 50
90.0
  0
POINT
  5
FBC
  8
DEFPOINTS
 62
     0
 10
440.8673743422463
 20
304.8927240374409
 30
0.0
  0
POINT
  5
FBD
  8
DEFPOINTS
 62
     0
 10
440.8673743422463
 20
224.892724037441
 30
0.0
  0
POINT
  5
FBE
  8
DEFPOINTS
 62
     0
 10
490.9657869997416
 20
224.892724037441
 30
0.0
  0
ENDBLK
  5
FB5
  8
0
  0
BLOCK
  8
0
  2
*D182
 70
     1
 10
0.0
 20
0.0
 30
0.0
  3
*D182
  1

  0
LINE
  5
FC5
  8
DIMENSIONS
  6
BYBLOCK
 62
     0
 10
442.3673743422463
 20
224.892724037441
 30
0.0
 11
491.1457869997416
 21
224.892724037441
 31
0.0
  0
LINE
  5
FC6
  8
DIMENSIONS
  6
BYBLOCK
 62
     0
 10
455.3673743422463
 20
-11.10727596255913
 30
0.0
 11
491.1457869997416
 21
-11.10727596255913
 31
0.0
  0
LINE
  5
FC7
  8
DIMENSIONS
  6
BYBLOCK
 62
     0
 10
490.9657869997416
 20
219.892724037441
 30
0.0
 11
490.9657869997416
 21
-6.107275962559131
 31
0.0
  0
SOLID
  5
FC8
  8
DIMENSIONS
 62
     0
 10
491.7991203330749
 20
219.892724037441
 30
0.0
 11
490.1324536664083
 21
219.892724037441
 31
0.0
 12
490.9657869997416
 22
224.892724037441
 32
0.0
 13
490.9657869997416
 23
224.892724037441
 33
0.0
  0
SOLID
  5
FC9
  8
DIMENSIONS
 62
     0
 10
490.1324536664083
 20
-6.107275962559131
 30
0.0
 11
491.7991203330749
 21
-6.107275962559131
 31
0.0
 12
490.9657869997416
 22
-11.10727596255913
 32
0.0
 13
490.9657869997416
 23
-11.10727596255913
 33
0.0
  0
TEXT
  5
FCA
  8
DIMENSIONS
  6
CONTINUOUS
 62
     5
 10
488.5707869997415
 20
91.49772403744095
 30
0.0
 40
5.0
  1
236 [9.29]
 50
90.0
  0
POINT
  5
FCB
  8
DEFPOINTS
 62
     0
 10
440.8673743422463
 20
224.892724037441
 30
0.0
  0
POINT
  5
FCC
  8
DEFPOINTS
 62
     0
 10
453.8673743422463
 20
-11.10727596255913
 30
0.0
  0
POINT
  5
FCD
  8
DEFPOINTS
 62
     0
 10
490.9657869997416
 20
-11.10727596255913
 30
0.0
  0
ENDBLK
  5
FC4
  8
0
  0
BLOCK
  8
0
  2
*D183
 70
     1
 10
0.0
 20
0.0
 30
0.0
  3
*D183
  1

  0
LINE
  5
FD4
  8
DIMENSIONS
  6
BYBLOCK
 62
     0
 10
432.3673743422464
 20
1.892724037440765
 30
0.0
 11
388.8261407911506
 21
1.892724037440794
 31
0.0
  0
TEXT
  5
FD5
  8
DIMENSIONS
  6
CONTINUOUS
 62
     5
 10
389.5461407911507
 20
4.367724037440782
 30
0.0
 40
5.0
  1
Ø7 [Ø0.28]
 50
359.9999999999999
  0
SOLID
  5
FD6
  8
DIMENSIONS
 62
     0
 10
432.3673743422464
 20
1.059390704107432
 30
0.0
 11
432.3673743422464
 21
2.726057370774098
 31
0.0
 12
437.3673743422464
 22
1.892724037440762
 32
0.0
 13
437.3673743422464
 23
1.892724037440762
 33
0.0
  0
LINE
  5
FD7
  8
DIMENSIONS
  6
BYBLOCK
 62
     0
 10
438.3673743422464
 20
1.89272403744076
 30
0.0
 11
443.3673743422464
 21
1.89272403744076
 31
0.0
  0
LINE
  5
FD8
  8
DIMENSIONS
  6
BYBLOCK
 62
     0
 10
440.8673743422464
 20
-0.6072759625592403
 30
0.0
 11
440.8673743422464
 21
4.392724037440759
 31
0.0
  0
POINT
  5
FD9
  8
DEFPOINTS
 62
     0
 10
437.3673743422464
 20
1.892724037440762
 30
0.0
  0
POINT
  5
FDA
  8
DEFPOINTS
 62
     0
 10
444.3673743422464
 20
1.892724037440757
 30
0.0
  0
ENDBLK
  5
FD3
  8
0
  0
BLOCK
  8
0
  2
*D185
 70
     1
 10
0.0
 20
0.0
 30
0.0
  3
*D185
  1

  0
LINE
  5
104D
  8
DIMENSIONS
  6
BYBLOCK
 62
     0
 10
478.9647153659475
 20
856.091686106507
 30
0.0
 11
478.9647153659475
 21
891.1243402880008
 31
0.0
  0
LINE
  5
104E
  8
DIMENSIONS
  6
BYBLOCK
 62
     0
 10
173.9647153659475
 20
856.091686106507
 30
0.0
 11
173.9647153659475
 21
891.1243402880008
 31
0.0
  0
LINE
  5
104F
  8
DIMENSIONS
  6
BYBLOCK
 62
     0
 10
473.9647153659475
 20
890.9443402880008
 30
0.0
 11
178.9647153659475
 21
890.9443402880008
 31
0.0
  0
SOLID
  5
1050
  8
DIMENSIONS
 62
     0
 10
473.9647153659475
 20
890.1110069546675
 30
0.0
 11
473.9647153659475
 21
891.7776736213342
 31
0.0
 12
478.9647153659475
 22
890.9443402880008
 32
0.0
 13
478.9647153659475
 23
890.9443402880008
 33
0.0
  0
SOLID
  5
1051
  8
DIMENSIONS
 62
     0
 10
178.9647153659475
 20
891.7776736213342
 30
0.0
 11
178.9647153659475
 21
890.1110069546675
 31
0.0
 12
173.9647153659475
 22
890.9443402880008
 32
0.0
 13
173.9647153659475
 23
890.9443402880008
 33
0.0
  0
TEXT
  5
1052
  8
DIMENSIONS
  6
CONTINUOUS
 62
     5
 10
309.0847153659475
 20
893.3393402880008
 30
0.0
 40
5.0
  1
305 [12.01]
  0
POINT
  5
1053
  8
DEFPOINTS
 62
     0
 10
478.9647153659475
 20
854.591686106507
 30
0.0
  0
POINT
  5
1054
  8
DEFPOINTS
 62
     0
 10
173.9647153659475
 20
854.591686106507
 30
0.0
  0
POINT
  5
1055
  8
DEFPOINTS
 62
     0
 10
173.9647153659475
 20
890.9443402880008
 30
0.0
  0
ENDBLK
  5
104C
  8
0
  0
BLOCK
  8
0
  2
*D186
 70
     1
 10
0.0
 20
0.0
 30
0.0
  3
*D186
  1

  0
LINE
  5
105C
  8
DIMENSIONS
  6
BYBLOCK
 62
     0
 10
153.9647153659475
 20
846.091686106507
 30
0.0
 11
153.9647153659475
 21
911.7118900953212
 31
0.0
  0
LINE
  5
105D
  8
DIMENSIONS
  6
BYBLOCK
 62
     0
 10
498.9647153659475
 20
846.091686106507
 30
0.0
 11
498.9647153659475
 21
911.7118900953212
 31
0.0
  0
LINE
  5
105E
  8
DIMENSIONS
  6
BYBLOCK
 62
     0
 10
158.9647153659475
 20
911.5318900953213
 30
0.0
 11
493.9647153659475
 21
911.5318900953213
 31
0.0
  0
SOLID
  5
105F
  8
DIMENSIONS
 62
     0
 10
158.9647153659475
 20
912.3652234286546
 30
0.0
 11
158.9647153659475
 21
910.6985567619879
 31
0.0
 12
153.9647153659475
 22
911.5318900953213
 32
0.0
 13
153.9647153659475
 23
911.5318900953213
 33
0.0
  0
SOLID
  5
1060
  8
DIMENSIONS
 62
     0
 10
493.9647153659475
 20
910.6985567619879
 30
0.0
 11
493.9647153659475
 21
912.3652234286546
 31
0.0
 12
498.9647153659475
 22
911.5318900953213
 32
0.0
 13
498.9647153659475
 23
911.5318900953213
 33
0.0
  0
TEXT
  5
1061
  8
DIMENSIONS
  6
CONTINUOUS
 62
     5
 10
309.0847153659475
 20
913.9268900953213
 30
0.0
 40
5.0
  1
345 [13.58]
  0
POINT
  5
1062
  8
DEFPOINTS
 62
     0
 10
153.9647153659475
 20
844.591686106507
 30
0.0
  0
POINT
  5
1063
  8
DEFPOINTS
 62
     0
 10
498.9647153659475
 20
844.591686106507
 30
0.0
  0
POINT
  5
1064
  8
DEFPOINTS
 62
     0
 10
498.9647153659475
 20
911.5318900953213
 30
0.0
  0
ENDBLK
  5
105B
  8
0
  0
BLOCK
  8
0
  2
*D187
 70
     1
 10
0.0
 20
0.0
 30
0.0
  3
*D187
  1

  0
LINE
  5
106B
  8
DIMENSIONS
  6
BYBLOCK
 62
     0
 10
523.9647153659475
 20
871.091686106507
 30
0.0
 11
523.9647153659475
 21
930.86309921841
 31
0.0
  0
LINE
  5
106C
  8
DIMENSIONS
  6
BYBLOCK
 62
     0
 10
128.9647153659475
 20
871.091686106507
 30
0.0
 11
128.9647153659475
 21
930.86309921841
 31
0.0
  0
LINE
  5
106D
  8
DIMENSIONS
  6
BYBLOCK
 62
     0
 10
518.9647153659475
 20
930.68309921841
 30
0.0
 11
133.9647153659475
 21
930.68309921841
 31
0.0
  0
SOLID
  5
106E
  8
DIMENSIONS
 62
     0
 10
518.9647153659475
 20
929.8497658850766
 30
0.0
 11
518.9647153659475
 21
931.5164325517434
 31
0.0
 12
523.9647153659475
 22
930.68309921841
 32
0.0
 13
523.9647153659475
 23
930.68309921841
 33
0.0
  0
SOLID
  5
106F
  8
DIMENSIONS
 62
     0
 10
133.9647153659475
 20
931.5164325517434
 30
0.0
 11
133.9647153659475
 21
929.8497658850766
 31
0.0
 12
128.9647153659475
 22
930.68309921841
 32
0.0
 13
128.9647153659475
 23
930.68309921841
 33
0.0
  0
TEXT
  5
1070
  8
DIMENSIONS
  6
CONTINUOUS
 62
     5
 10
309.0847153659475
 20
933.07809921841
 30
0.0
 40
5.0
  1
395 [15.55]
  0
POINT
  5
1071
  8
DEFPOINTS
 62
     0
 10
523.9647153659475
 20
869.591686106507
 30
0.0
  0
POINT
  5
1072
  8
DEFPOINTS
 62
     0
 10
128.9647153659475
 20
869.591686106507
 30
0.0
  0
POINT
  5
1073
  8
DEFPOINTS
 62
     0
 10
128.9647153659475
 20
930.68309921841
 30
0.0
  0
ENDBLK
  5
106A
  8
0
  0
BLOCK
  8
0
  2
*D188
 70
     1
 10
0.0
 20
0.0
 30
0.0
  3
*D188
  1

  0
LINE
  5
107B
  8
DIMENSIONS
  6
BYBLOCK
 62
     0
 10
153.9647153659475
 20
210.6916861065075
 30
0.0
 11
153.9647153659475
 21
192.6630407466848
 31
0.0
  0
LINE
  5
107C
  8
DIMENSIONS
  6
BYBLOCK
 62
     0
 10
498.9647153659475
 20
210.6916861065075
 30
0.0
 11
498.9647153659475
 21
192.6630407466848
 31
0.0
  0
LINE
  5
107D
  8
DIMENSIONS
  6
BYBLOCK
 62
     0
 10
158.9647153659475
 20
192.8430407466848
 30
0.0
 11
493.9647153659475
 21
192.8430407466848
 31
0.0
  0
SOLID
  5
107E
  8
DIMENSIONS
 62
     0
 10
158.9647153659475
 20
193.6763740800181
 30
0.0
 11
158.9647153659475
 21
192.0097074133514
 31
0.0
 12
153.9647153659475
 22
192.8430407466848
 32
0.0
 13
153.9647153659475
 23
192.8430407466848
 33
0.0
  0
SOLID
  5
107F
  8
DIMENSIONS
 62
     0
 10
493.9647153659475
 20
192.0097074133514
 30
0.0
 11
493.9647153659475
 21
193.6763740800181
 31
0.0
 12
498.9647153659475
 22
192.8430407466848
 32
0.0
 13
498.9647153659475
 23
192.8430407466848
 33
0.0
  0
TEXT
  5
1080
  8
DIMENSIONS
  6
CONTINUOUS
 62
     5
 10
309.0847153659475
 20
195.2380407466847
 30
0.0
 40
5.0
  1
345 [13.58]
  0
POINT
  5
1081
  8
DEFPOINTS
 62
     0
 10
153.9647153659475
 20
212.1916861065075
 30
0.0
  0
POINT
  5
1082
  8
DEFPOINTS
 62
     0
 10
498.9647153659475
 20
212.1916861065075
 30
0.0
  0
POINT
  5
1083
  8
DEFPOINTS
 62
     0
 10
498.9647153659475
 20
192.8430407466848
 30
0.0
  0
ENDBLK
  5
107A
  8
0
  0
BLOCK
  8
0
  2
*D189
 70
     1
 10
0.0
 20
0.0
 30
0.0
  3
*D189
  1

  0
LINE
  5
108A
  8
DIMENSIONS
  6
BYBLOCK
 62
     0
 10
128.9647153659475
 20
58.09168610650727
 30
0.0
 11
128.9647153659475
 21
24.53990669504365
 31
0.0
  0
LINE
  5
108B
  8
DIMENSIONS
  6
BYBLOCK
 62
     0
 10
144.4647153659457
 20
80.59168610650727
 30
0.0
 11
144.4647153659457
 21
24.53990669504365
 31
0.0
  0
LINE
  5
108C
  8
DIMENSIONS
  6
BYBLOCK
 62
     0
 10
144.4647153659457
 20
24.71990669504365
 30
0.0
 11
184.2360001076136
 21
24.71990669504365
 31
0.0
  0
LINE
  5
108D
  8
DIMENSIONS
  6
BYBLOCK
 62
     0
 10
133.9647153659475
 20
24.71990669504365
 30
0.0
 11
139.4647153659457
 21
24.71990669504365
 31
0.0
  0
SOLID
  5
108E
  8
DIMENSIONS
 62
     0
 10
133.9647153659475
 20
25.55324002837698
 30
0.0
 11
133.9647153659475
 21
23.88657336171032
 31
0.0
 12
128.9647153659475
 22
24.71990669504365
 32
0.0
 13
128.9647153659475
 23
24.71990669504365
 33
0.0
  0
SOLID
  5
108F
  8
DIMENSIONS
 62
     0
 10
139.4647153659457
 20
23.88657336171032
 30
0.0
 11
139.4647153659457
 21
25.55324002837698
 31
0.0
 12
144.4647153659457
 22
24.71990669504365
 32
0.0
 13
144.4647153659457
 23
24.71990669504365
 33
0.0
  0
TEXT
  5
1090
  8
DIMENSIONS
  6
CONTINUOUS
 62
     5
 10
150.7110001076137
 20
27.11490669504365
 30
0.0
 40
5.0
  1
15.5 [0.61]
  0
POINT
  5
1091
  8
DEFPOINTS
 62
     0
 10
128.9647153659475
 20
59.59168610650727
 30
0.0
  0
POINT
  5
1092
  8
DEFPOINTS
 62
     0
 10
144.4647153659457
 20
82.09168610650727
 30
0.0
  0
POINT
  5
11C5
  8
DEFPOINTS
 62
     0
 10
144.4647153659457
 20
24.71990669504365
 30
0.0
  0
ENDBLK
  5
1089
  8
0
  0
BLOCK
  8
0
  2
*D190
 70
     1
 10
0.0
 20
0.0
 30
0.0
  3
*D190
  1

  0
LINE
  5
1099
  8
DIMENSIONS
  6
BYBLOCK
 62
     0
 10
144.4647153659457
 20
80.59168610650727
 30
0.0
 11
144.4647153659457
 21
41.73714344373487
 31
0.0
  0
LINE
  5
109A
  8
DIMENSIONS
  6
BYBLOCK
 62
     0
 10
253.9647153659477
 20
80.59168610650727
 30
0.0
 11
253.9647153659477
 21
41.73714344373487
 31
0.0
  0
LINE
  5
109B
  8
DIMENSIONS
  6
BYBLOCK
 62
     0
 10
149.4647153659457
 20
41.91714344373487
 30
0.0
 11
248.9647153659477
 21
41.91714344373487
 31
0.0
  0
SOLID
  5
109C
  8
DIMENSIONS
 62
     0
 10
149.4647153659457
 20
42.7504767770682
 30
0.0
 11
149.4647153659457
 21
41.08381011040153
 31
0.0
 12
144.4647153659457
 22
41.91714344373487
 32
0.0
 13
144.4647153659457
 23
41.91714344373487
 33
0.0
  0
SOLID
  5
109D
  8
DIMENSIONS
 62
     0
 10
248.9647153659477
 20
41.08381011040153
 30
0.0
 11
248.9647153659477
 21
42.7504767770682
 31
0.0
 12
253.9647153659477
 22
41.91714344373487
 32
0.0
 13
253.9647153659477
 23
41.91714344373487
 33
0.0
  0
TEXT
  5
109E
  8
DIMENSIONS
  6
CONTINUOUS
 62
     5
 10
180.6322153659467
 20
44.31214344373486
 30
0.0
 40
5.0
  1
109.5 [4.31]
  0
POINT
  5
109F
  8
DEFPOINTS
 62
     0
 10
144.4647153659457
 20
82.09168610650727
 30
0.0
  0
POINT
  5
10A0
  8
DEFPOINTS
 62
     0
 10
253.9647153659477
 20
82.09168610650727
 30
0.0
  0
POINT
  5
10A1
  8
DEFPOINTS
 62
     0
 10
253.9647153659477
 20
41.91714344373487
 30
0.0
  0
ENDBLK
  5
1098
  8
0
  0
BLOCK
  8
0
  2
*D191
 70
     1
 10
0.0
 20
0.0
 30
0.0
  3
*D191
  1

  0
LINE
  5
10A8
  8
DIMENSIONS
  6
BYBLOCK
 62
     0
 10
253.9647153659477
 20
80.59168610650727
 30
0.0
 11
253.9647153659477
 21
41.73714344373487
 31
0.0
  0
LINE
  5
10A9
  8
DIMENSIONS
  6
BYBLOCK
 62
     0
 10
326.4647153659475
 20
73.09168610650727
 30
0.0
 11
326.4647153659475
 21
41.73714344373487
 31
0.0
  0
LINE
  5
10AA
  8
DIMENSIONS
  6
BYBLOCK
 62
     0
 10
258.9647153659477
 20
41.91714344373487
 30
0.0
 11
321.4647153659475
 21
41.91714344373487
 31
0.0
  0
SOLID
  5
10AB
  8
DIMENSIONS
 62
     0
 10
258.9647153659477
 20
42.7504767770682
 30
0.0
 11
258.9647153659477
 21
41.08381011040153
 31
0.0
 12
253.9647153659477
 22
41.91714344373487
 32
0.0
 13
253.9647153659477
 23
41.91714344373487
 33
0.0
  0
SOLID
  5
10AC
  8
DIMENSIONS
 62
     0
 10
321.4647153659475
 20
41.08381011040153
 30
0.0
 11
321.4647153659475
 21
42.7504767770682
 31
0.0
 12
326.4647153659475
 22
41.91714344373487
 32
0.0
 13
326.4647153659475
 23
41.91714344373487
 33
0.0
  0
TEXT
  5
10AD
  8
DIMENSIONS
  6
CONTINUOUS
 62
     5
 10
273.7872153659476
 20
44.31214344373486
 30
0.0
 40
5.0
  1
72.5 [2.85]
  0
POINT
  5
10AE
  8
DEFPOINTS
 62
     0
 10
253.9647153659477
 20
82.09168610650727
 30
0.0
  0
POINT
  5
10AF
  8
DEFPOINTS
 62
     0
 10
326.4647153659475
 20
74.59168610650727
 30
0.0
  0
POINT
  5
10B0
  8
DEFPOINTS
 62
     0
 10
326.4647153659475
 20
41.91714344373487
 30
0.0
  0
ENDBLK
  5
10A7
  8
0
  0
BLOCK
  8
0
  2
*D192
 70
     1
 10
0.0
 20
0.0
 30
0.0
  3
*D192
  1

  0
LINE
  5
10B7
  8
DIMENSIONS
  6
BYBLOCK
 62
     0
 10
326.4647153659475
 20
73.09168610650727
 30
0.0
 11
326.4647153659475
 21
41.73714344373487
 31
0.0
  0
LINE
  5
10B8
  8
DIMENSIONS
  6
BYBLOCK
 62
     0
 10
478.9647153659475
 20
80.59168610650727
 30
0.0
 11
478.9647153659475
 21
41.73714344373487
 31
0.0
  0
LINE
  5
10B9
  8
DIMENSIONS
  6
BYBLOCK
 62
     0
 10
331.4647153659475
 20
41.91714344373487
 30
0.0
 11
473.9647153659475
 21
41.91714344373487
 31
0.0
  0
SOLID
  5
10BA
  8
DIMENSIONS
 62
     0
 10
331.4647153659475
 20
42.7504767770682
 30
0.0
 11
331.4647153659475
 21
41.08381011040153
 31
0.0
 12
326.4647153659475
 22
41.91714344373487
 32
0.0
 13
326.4647153659475
 23
41.91714344373487
 33
0.0
  0
SOLID
  5
10BB
  8
DIMENSIONS
 62
     0
 10
473.9647153659475
 20
41.08381011040153
 30
0.0
 11
473.9647153659475
 21
42.7504767770682
 31
0.0
 12
478.9647153659475
 22
41.91714344373487
 32
0.0
 13
478.9647153659475
 23
41.91714344373487
 33
0.0
  0
TEXT
  5
10BC
  8
DIMENSIONS
  6
CONTINUOUS
 62
     5
 10
384.1322153659476
 20
44.31214344373486
 30
0.0
 40
5.0
  1
152.5 [6.00]
  0
POINT
  5
10BD
  8
DEFPOINTS
 62
     0
 10
326.4647153659475
 20
74.59168610650727
 30
0.0
  0
POINT
  5
10BE
  8
DEFPOINTS
 62
     0
 10
478.9647153659475
 20
82.09168610650727
 30
0.0
  0
POINT
  5
10BF
  8
DEFPOINTS
 62
     0
 10
478.9647153659475
 20
41.91714344373487
 30
0.0
  0
ENDBLK
  5
10B6
  8
0
  0
BLOCK
  8
0
  2
*D193
 70
     1
 10
0.0
 20
0.0
 30
0.0
  3
*D193
  1

  0
LINE
  5
10C6
  8
DIMENSIONS
  6
BYBLOCK
 62
     0
 10
478.9647153659475
 20
80.59168610650727
 30
0.0
 11
478.9647153659475
 21
24.84880041973472
 31
0.0
  0
LINE
  5
10C7
  8
DIMENSIONS
  6
BYBLOCK
 62
     0
 10
508.4647153659475
 20
80.59168610650727
 30
0.0
 11
508.4647153659475
 21
24.84880041973472
 31
0.0
  0
LINE
  5
10C8
  8
DIMENSIONS
  6
BYBLOCK
 62
     0
 10
508.4647153659475
 20
25.02880041973471
 30
0.0
 11
550.2619339424488
 21
25.02880041973471
 31
0.0
  0
LINE
  5
10C9
  8
DIMENSIONS
  6
BYBLOCK
 62
     0
 10
483.9647153659475
 20
25.02880041973471
 30
0.0
 11
503.4647153659475
 21
25.02880041973471
 31
0.0
  0
SOLID
  5
10CA
  8
DIMENSIONS
 62
     0
 10
483.9647153659475
 20
25.86213375306805
 30
0.0
 11
483.9647153659475
 21
24.19546708640138
 31
0.0
 12
478.9647153659475
 22
25.02880041973471
 32
0.0
 13
478.9647153659475
 23
25.02880041973471
 33
0.0
  0
SOLID
  5
10CB
  8
DIMENSIONS
 62
     0
 10
503.4647153659475
 20
24.19546708640138
 30
0.0
 11
503.4647153659475
 21
25.86213375306805
 31
0.0
 12
508.4647153659475
 22
25.02880041973471
 32
0.0
 13
508.4647153659475
 23
25.02880041973471
 33
0.0
  0
TEXT
  5
10CC
  8
DIMENSIONS
  6
CONTINUOUS
 62
     5
 10
516.7369339424488
 20
27.42380041973472
 30
0.0
 40
5.0
  1
29.5 [1.16]
  0
POINT
  5
10CD
  8
DEFPOINTS
 62
     0
 10
478.9647153659475
 20
82.09168610650727
 30
0.0
  0
POINT
  5
10CE
  8
DEFPOINTS
 62
     0
 10
508.4647153659475
 20
82.09168610650727
 30
0.0
  0
POINT
  5
11A9
  8
DEFPOINTS
 62
     0
 10
508.4647153659475
 20
25.02880041973471
 30
0.0
  0
ENDBLK
  5
10C5
  8
0
  0
BLOCK
  8
0
  2
*D194
 70
     1
 10
0.0
 20
0.0
 30
0.0
  3
*D194
  1

  0
LINE
  5
10D5
  8
DIMENSIONS
  6
BYBLOCK
 62
     0
 10
508.4647153659475
 20
80.59168610650727
 30
0.0
 11
508.4647153659475
 21
41.73714344373487
 31
0.0
  0
LINE
  5
10D6
  8
DIMENSIONS
  6
BYBLOCK
 62
     0
 10
523.9647153659475
 20
58.09168610650727
 30
0.0
 11
523.9647153659475
 21
41.73714344373487
 31
0.0
  0
LINE
  5
10D7
  8
DIMENSIONS
  6
BYBLOCK
 62
     0
 10
523.9647153659475
 20
41.91714344373487
 30
0.0
 11
562.7297153659476
 21
41.91714344373487
 31
0.0
  0
LINE
  5
10D8
  8
DIMENSIONS
  6
BYBLOCK
 62
     0
 10
513.4647153659475
 20
41.91714344373487
 30
0.0
 11
518.9647153659475
 21
41.91714344373487
 31
0.0
  0
SOLID
  5
10D9
  8
DIMENSIONS
 62
     0
 10
513.4647153659475
 20
42.7504767770682
 30
0.0
 11
513.4647153659475
 21
41.08381011040153
 31
0.0
 12
508.4647153659475
 22
41.91714344373487
 32
0.0
 13
508.4647153659475
 23
41.91714344373487
 33
0.0
  0
SOLID
  5
10DA
  8
DIMENSIONS
 62
     0
 10
518.9647153659475
 20
41.08381011040153
 30
0.0
 11
518.9647153659475
 21
42.7504767770682
 31
0.0
 12
523.9647153659475
 22
41.91714344373487
 32
0.0
 13
523.9647153659475
 23
41.91714344373487
 33
0.0
  0
TEXT
  5
10DB
  8
DIMENSIONS
  6
CONTINUOUS
 62
     5
 10
529.2047153659475
 20
44.31214344373486
 30
0.0
 40
5.0
  1
15.5 [0.61]
  0
POINT
  5
10DC
  8
DEFPOINTS
 62
     0
 10
508.4647153659475
 20
82.09168610650727
 30
0.0
  0
POINT
  5
10DD
  8
DEFPOINTS
 62
     0
 10
523.9647153659475
 20
59.59168610650727
 30
0.0
  0
POINT
  5
11A2
  8
DEFPOINTS
 62
     0
 10
523.9647153659475
 20
41.91714344373487
 30
0.0
  0
ENDBLK
  5
10D4
  8
0
  0
BLOCK
  8
0
  2
*D195
 70
     1
 10
0.0
 20
0.0
 30
0.0
  3
*D195
  1

  0
LINE
  5
10E4
  8
DIMENSIONS
  6
BYBLOCK
 62
     0
 10
127.4647153659475
 20
869.591686106507
 30
0.0
 11
108.2350596308621
 21
869.591686106507
 31
0.0
  0
LINE
  5
10E5
  8
DIMENSIONS
  6
BYBLOCK
 62
     0
 10
142.9647153659457
 20
854.591686106507
 30
0.0
 11
108.2350596308621
 21
854.591686106507
 31
0.0
  0
LINE
  5
10E6
  8
DIMENSIONS
  6
BYBLOCK
 62
     0
 10
108.4150596308621
 20
869.591686106507
 30
0.0
 11
108.4150596308621
 21
902.9301731089956
 31
0.0
  0
LINE
  5
10E7
  8
DIMENSIONS
  6
BYBLOCK
 62
     0
 10
108.4150596308621
 20
864.591686106507
 30
0.0
 11
108.4150596308621
 21
859.591686106507
 31
0.0
  0
SOLID
  5
10E8
  8
DIMENSIONS
 62
     0
 10
109.2483929641954
 20
864.591686106507
 30
0.0
 11
107.5817262975287
 21
864.591686106507
 31
0.0
 12
108.4150596308621
 22
869.591686106507
 32
0.0
 13
108.4150596308621
 23
869.591686106507
 33
0.0
  0
SOLID
  5
10E9
  8
DIMENSIONS
 62
     0
 10
107.5817262975287
 20
859.591686106507
 30
0.0
 11
109.2483929641954
 21
859.591686106507
 31
0.0
 12
108.4150596308621
 22
854.591686106507
 32
0.0
 13
108.4150596308621
 23
854.591686106507
 33
0.0
  0
TEXT
  5
10EA
  8
DIMENSIONS
  6
CONTINUOUS
 62
     5
 10
106.0200596308621
 20
875.2251731089957
 30
0.0
 40
5.0
  1
15 [0.59]
 50
90.0
  0
POINT
  5
10EB
  8
DEFPOINTS
 62
     0
 10
128.9647153659475
 20
869.591686106507
 30
0.0
  0
POINT
  5
10EC
  8
DEFPOINTS
 62
     0
 10
144.4647153659457
 20
854.591686106507
 30
0.0
  0
POINT
  5
11A3
  8
DEFPOINTS
 62
     0
 10
108.4150596308621
 20
854.591686106507
 30
0.0
  0
ENDBLK
  5
10E3
  8
0
  0
BLOCK
  8
0
  2
*D196
 70
     1
 10
0.0
 20
0.0
 30
0.0
  3
*D196
  1

  0
LINE
  5
1120
  8
DIMENSIONS
  6
BYBLOCK
 62
     0
 10
142.9647153659457
 20
854.591686106507
 30
0.0
 11
108.2350596308621
 21
854.591686106507
 31
0.0
  0
LINE
  5
1121
  8
DIMENSIONS
  6
BYBLOCK
 62
     0
 10
142.9647153659457
 20
464.5916861065072
 30
0.0
 11
108.235059630862
 21
464.5916861065072
 31
0.0
  0
LINE
  5
1122
  8
DIMENSIONS
  6
BYBLOCK
 62
     0
 10
108.4150596308621
 20
849.591686106507
 30
0.0
 11
108.415059630862
 21
469.5916861065072
 31
0.0
  0
SOLID
  5
1123
  8
DIMENSIONS
 62
     0
 10
109.2483929641954
 20
849.591686106507
 30
0.0
 11
107.5817262975287
 21
849.591686106507
 31
0.0
 12
108.4150596308621
 22
854.591686106507
 32
0.0
 13
108.4150596308621
 23
854.591686106507
 33
0.0
  0
SOLID
  5
1124
  8
DIMENSIONS
 62
     0
 10
107.5817262975287
 20
469.5916861065072
 30
0.0
 11
109.2483929641954
 21
469.5916861065072
 31
0.0
 12
108.415059630862
 22
464.5916861065072
 32
0.0
 13
108.415059630862
 23
464.5916861065072
 33
0.0
  0
TEXT
  5
1125
  8
DIMENSIONS
  6
CONTINUOUS
 62
     5
 10
106.0200596308621
 20
642.2116861065072
 30
0.0
 40
5.0
  1
390 [15.35]
 50
90.0
  0
POINT
  5
1126
  8
DEFPOINTS
 62
     0
 10
144.4647153659457
 20
854.591686106507
 30
0.0
  0
POINT
  5
1127
  8
DEFPOINTS
 62
     0
 10
144.4647153659457
 20
464.5916861065072
 30
0.0
  0
POINT
  5
1128
  8
DEFPOINTS
 62
     0
 10
108.415059630862
 20
464.5916861065072
 30
0.0
  0
ENDBLK
  5
111F
  8
0
  0
BLOCK
  8
0
  2
*D197
 70
     1
 10
0.0
 20
0.0
 30
0.0
  3
*D197
  1

  0
LINE
  5
112F
  8
DIMENSIONS
  6
BYBLOCK
 62
     0
 10
142.9647153659457
 20
464.5916861065072
 30
0.0
 11
108.235059630862
 21
464.5916861065072
 31
0.0
  0
LINE
  5
1130
  8
DIMENSIONS
  6
BYBLOCK
 62
     0
 10
142.9647153659457
 20
82.09168610650727
 30
0.0
 11
108.235059630862
 21
82.09168610650727
 31
0.0
  0
LINE
  5
1131
  8
DIMENSIONS
  6
BYBLOCK
 62
     0
 10
108.415059630862
 20
459.5916861065072
 30
0.0
 11
108.415059630862
 21
87.09168610650727
 31
0.0
  0
SOLID
  5
1132
  8
DIMENSIONS
 62
     0
 10
109.2483929641954
 20
459.5916861065072
 30
0.0
 11
107.5817262975287
 21
459.5916861065072
 31
0.0
 12
108.415059630862
 22
464.5916861065072
 32
0.0
 13
108.415059630862
 23
464.5916861065072
 33
0.0
  0
SOLID
  5
1133
  8
DIMENSIONS
 62
     0
 10
107.5817262975287
 20
87.09168610650727
 30
0.0
 11
109.2483929641953
 21
87.09168610650727
 31
0.0
 12
108.415059630862
 22
82.09168610650727
 32
0.0
 13
108.415059630862
 23
82.09168610650727
 33
0.0
  0
TEXT
  5
1134
  8
DIMENSIONS
  6
CONTINUOUS
 62
     5
 10
106.020059630862
 20
253.0516861065073
 30
0.0
 40
5.0
  1
382.5 [15.06]
 50
90.0
  0
POINT
  5
1135
  8
DEFPOINTS
 62
     0
 10
144.4647153659457
 20
464.5916861065072
 30
0.0
  0
POINT
  5
1136
  8
DEFPOINTS
 62
     0
 10
144.4647153659457
 20
82.09168610650727
 30
0.0
  0
POINT
  5
1137
  8
DEFPOINTS
 62
     0
 10
108.415059630862
 20
82.09168610650727
 30
0.0
  0
ENDBLK
  5
112E
  8
0
  0
BLOCK
  8
0
  2
*D198
 70
     1
 10
0.0
 20
0.0
 30
0.0
  3
*D198
  1

  0
LINE
  5
113E
  8
DIMENSIONS
  6
BYBLOCK
 62
     0
 10
142.9647153659457
 20
82.09168610650727
 30
0.0
 11
108.235059630862
 21
82.09168610650727
 31
0.0
  0
LINE
  5
113F
  8
DIMENSIONS
  6
BYBLOCK
 62
     0
 10
127.4647153659475
 20
59.59168610650727
 30
0.0
 11
108.235059630862
 21
59.59168610650727
 31
0.0
  0
LINE
  5
1140
  8
DIMENSIONS
  6
BYBLOCK
 62
     0
 10
108.415059630862
 20
59.59168610650727
 30
0.0
 11
108.415059630862
 21
20.27168610650727
 31
0.0
  0
LINE
  5
1141
  8
DIMENSIONS
  6
BYBLOCK
 62
     0
 10
108.415059630862
 20
77.09168610650727
 30
0.0
 11
108.415059630862
 21
64.59168610650727
 31
0.0
  0
SOLID
  5
1142
  8
DIMENSIONS
 62
     0
 10
109.2483929641953
 20
77.09168610650727
 30
0.0
 11
107.5817262975287
 21
77.09168610650727
 31
0.0
 12
108.415059630862
 22
82.09168610650727
 32
0.0
 13
108.415059630862
 23
82.09168610650727
 33
0.0
  0
SOLID
  5
1143
  8
DIMENSIONS
 62
     0
 10
107.5817262975287
 20
64.59168610650727
 30
0.0
 11
109.2483929641953
 21
64.59168610650727
 31
0.0
 12
108.415059630862
 22
59.59168610650727
 32
0.0
 13
108.415059630862
 23
59.59168610650727
 33
0.0
  0
TEXT
  5
1144
  8
DIMENSIONS
  6
CONTINUOUS
 62
     5
 10
106.020059630862
 20
21.06668610650728
 30
0.0
 40
5.0
  1
22.5 [0.89]
 50
90.0
  0
POINT
  5
1145
  8
DEFPOINTS
 62
     0
 10
144.4647153659457
 20
82.09168610650727
 30
0.0
  0
POINT
  5
1146
  8
DEFPOINTS
 62
     0
 10
128.9647153659475
 20
59.59168610650727
 30
0.0
  0
POINT
  5
11A4
  8
DEFPOINTS
 62
     0
 10
108.415059630862
 20
59.59168610650727
 30
0.0
  0
ENDBLK
  5
113D
  8
0
  0
BLOCK
  8
0
  2
*D199
 70
     1
 10
0.0
 20
0.0
 30
0.0
  3
*D199
  1

  0
LINE
  5
114D
  8
DIMENSIONS
  6
BYBLOCK
 62
     0
 10
525.4647153659475
 20
869.591686106507
 30
0.0
 11
541.8593815892159
 21
869.591686106507
 31
0.0
  0
LINE
  5
114E
  8
DIMENSIONS
  6
BYBLOCK
 62
     0
 10
500.4647153659475
 20
844.591686106507
 30
0.0
 11
541.8593815892159
 21
844.591686106507
 31
0.0
  0
LINE
  5
114F
  8
DIMENSIONS
  6
BYBLOCK
 62
     0
 10
541.679381589216
 20
869.591686106507
 30
0.0
 11
541.679381589216
 21
903.091686106507
 31
0.0
  0
LINE
  5
1150
  8
DIMENSIONS
  6
BYBLOCK
 62
     0
 10
541.679381589216
 20
864.591686106507
 30
0.0
 11
541.679381589216
 21
849.591686106507
 31
0.0
  0
SOLID
  5
1151
  8
DIMENSIONS
 62
     0
 10
542.5127149225493
 20
864.591686106507
 30
0.0
 11
540.8460482558826
 21
864.591686106507
 31
0.0
 12
541.679381589216
 22
869.591686106507
 32
0.0
 13
541.679381589216
 23
869.591686106507
 33
0.0
  0
SOLID
  5
1152
  8
DIMENSIONS
 62
     0
 10
540.8460482558826
 20
849.591686106507
 30
0.0
 11
542.5127149225493
 21
849.591686106507
 31
0.0
 12
541.679381589216
 22
844.591686106507
 32
0.0
 13
541.679381589216
 23
844.591686106507
 33
0.0
  0
TEXT
  5
1153
  8
DIMENSIONS
  6
CONTINUOUS
 62
     5
 10
539.284381589216
 20
875.386686106507
 30
0.0
 40
5.0
  1
25 [0.98]
 50
90.0
  0
POINT
  5
1154
  8
DEFPOINTS
 62
     0
 10
523.9647153659475
 20
869.591686106507
 30
0.0
  0
POINT
  5
1155
  8
DEFPOINTS
 62
     0
 10
498.9647153659475
 20
844.591686106507
 30
0.0
  0
POINT
  5
11A5
  8
DEFPOINTS
 62
     0
 10
541.679381589216
 20
844.591686106507
 30
0.0
  0
ENDBLK
  5
114C
  8
0
  0
BLOCK
  8
0
  2
*D200
 70
     1
 10
0.0
 20
0.0
 30
0.0
  3
*D200
  1

  0
LINE
  5
115C
  8
DIMENSIONS
  6
BYBLOCK
 62
     0
 10
500.4647153659475
 20
844.591686106507
 30
0.0
 11
541.8593815892159
 21
844.591686106507
 31
0.0
  0
LINE
  5
115D
  8
DIMENSIONS
  6
BYBLOCK
 62
     0
 10
500.4647153659475
 20
614.5916861065073
 30
0.0
 11
541.8593815892159
 21
614.5916861065073
 31
0.0
  0
LINE
  5
115E
  8
DIMENSIONS
  6
BYBLOCK
 62
     0
 10
541.679381589216
 20
839.591686106507
 30
0.0
 11
541.679381589216
 21
619.5916861065073
 31
0.0
  0
SOLID
  5
115F
  8
DIMENSIONS
 62
     0
 10
542.5127149225493
 20
839.591686106507
 30
0.0
 11
540.8460482558826
 21
839.591686106507
 31
0.0
 12
541.679381589216
 22
844.591686106507
 32
0.0
 13
541.679381589216
 23
844.591686106507
 33
0.0
  0
SOLID
  5
1160
  8
DIMENSIONS
 62
     0
 10
540.8460482558826
 20
619.5916861065073
 30
0.0
 11
542.5127149225493
 21
619.5916861065073
 31
0.0
 12
541.679381589216
 22
614.5916861065073
 32
0.0
 13
541.679381589216
 23
614.5916861065073
 33
0.0
  0
TEXT
  5
1161
  8
DIMENSIONS
  6
CONTINUOUS
 62
     5
 10
539.2843815892161
 20
714.1966861065071
 30
0.0
 40
5.0
  1
230 [9.06]
 50
90.0
  0
POINT
  5
1162
  8
DEFPOINTS
 62
     0
 10
498.9647153659475
 20
844.591686106507
 30
0.0
  0
POINT
  5
1163
  8
DEFPOINTS
 62
     0
 10
498.9647153659475
 20
614.5916861065073
 30
0.0
  0
POINT
  5
1164
  8
DEFPOINTS
 62
     0
 10
541.679381589216
 20
614.5916861065073
 30
0.0
  0
ENDBLK
  5
115B
  8
0
  0
BLOCK
  8
0
  2
*D201
 70
     1
 10
0.0
 20
0.0
 30
0.0
  3
*D201
  1

  0
LINE
  5
116B
  8
DIMENSIONS
  6
BYBLOCK
 62
     0
 10
500.4647153659475
 20
614.5916861065073
 30
0.0
 11
541.8593815892159
 21
614.5916861065073
 31
0.0
  0
LINE
  5
116C
  8
DIMENSIONS
  6
BYBLOCK
 62
     0
 10
500.4647153659475
 20
442.1916861065077
 30
0.0
 11
541.8593815892159
 21
442.1916861065077
 31
0.0
  0
LINE
  5
116D
  8
DIMENSIONS
  6
BYBLOCK
 62
     0
 10
541.679381589216
 20
609.5916861065073
 30
0.0
 11
541.679381589216
 21
447.1916861065077
 31
0.0
  0
SOLID
  5
116E
  8
DIMENSIONS
 62
     0
 10
542.5127149225493
 20
609.5916861065073
 30
0.0
 11
540.8460482558826
 21
609.5916861065073
 31
0.0
 12
541.679381589216
 22
614.5916861065073
 32
0.0
 13
541.679381589216
 23
614.5916861065073
 33
0.0
  0
SOLID
  5
116F
  8
DIMENSIONS
 62
     0
 10
540.8460482558826
 20
447.1916861065077
 30
0.0
 11
542.5127149225493
 21
447.1916861065077
 31
0.0
 12
541.679381589216
 22
442.1916861065077
 32
0.0
 13
541.679381589216
 23
442.1916861065077
 33
0.0
  0
TEXT
  5
1170
  8
DIMENSIONS
  6
CONTINUOUS
 62
     5
 10
539.284381589216
 20
509.8091861065075
 30
0.0
 40
5.0
  1
172.4 [6.79]
 50
90.0
  0
POINT
  5
1171
  8
DEFPOINTS
 62
     0
 10
498.9647153659475
 20
614.5916861065073
 30
0.0
  0
POINT
  5
1172
  8
DEFPOINTS
 62
     0
 10
498.9647153659475
 20
442.1916861065077
 30
0.0
  0
POINT
  5
1173
  8
DEFPOINTS
 62
     0
 10
541.679381589216
 20
442.1916861065077
 30
0.0
  0
ENDBLK
  5
116A
  8
0
  0
BLOCK
  8
0
  2
*D202
 70
     1
 10
0.0
 20
0.0
 30
0.0
  3
*D202
  1

  0
LINE
  5
117A
  8
DIMENSIONS
  6
BYBLOCK
 62
     0
 10
500.4647153659475
 20
442.1916861065077
 30
0.0
 11
541.8593815892159
 21
442.1916861065077
 31
0.0
  0
LINE
  5
117B
  8
DIMENSIONS
  6
BYBLOCK
 62
     0
 10
500.4647153659475
 20
212.1916861065075
 30
0.0
 11
541.8593815892159
 21
212.1916861065075
 31
0.0
  0
LINE
  5
117C
  8
DIMENSIONS
  6
BYBLOCK
 62
     0
 10
541.679381589216
 20
437.1916861065077
 30
0.0
 11
541.679381589216
 21
217.1916861065075
 31
0.0
  0
SOLID
  5
117D
  8
DIMENSIONS
 62
     0
 10
542.5127149225493
 20
437.1916861065077
 30
0.0
 11
540.8460482558826
 21
437.1916861065077
 31
0.0
 12
541.679381589216
 22
442.1916861065077
 32
0.0
 13
541.679381589216
 23
442.1916861065077
 33
0.0
  0
SOLID
  5
117E
  8
DIMENSIONS
 62
     0
 10
540.8460482558826
 20
217.1916861065075
 30
0.0
 11
542.5127149225493
 21
217.1916861065075
 31
0.0
 12
541.679381589216
 22
212.1916861065075
 32
0.0
 13
541.679381589216
 23
212.1916861065075
 33
0.0
  0
TEXT
  5
117F
  8
DIMENSIONS
  6
CONTINUOUS
 62
     5
 10
539.284381589216
 20
311.7966861065075
 30
0.0
 40
5.0
  1
230 [9.06]
 50
90.0
  0
POINT
  5
1180
  8
DEFPOINTS
 62
     0
 10
498.9647153659475
 20
442.1916861065077
 30
0.0
  0
POINT
  5
1181
  8
DEFPOINTS
 62
     0
 10
498.9647153659475
 20
212.1916861065075
 30
0.0
  0
POINT
  5
1182
  8
DEFPOINTS
 62
     0
 10
541.679381589216
 20
212.1916861065075
 30
0.0
  0
ENDBLK
  5
1179
  8
0
  0
BLOCK
  8
0
  2
*D203
 70
     1
 10
0.0
 20
0.0
 30
0.0
  3
*D203
  1

  0
LINE
  5
1189
  8
DIMENSIONS
  6
BYBLOCK
 62
     0
 10
500.4647153659475
 20
212.1916861065075
 30
0.0
 11
541.8593815892159
 21
212.1916861065075
 31
0.0
  0
LINE
  5
118A
  8
DIMENSIONS
  6
BYBLOCK
 62
     0
 10
525.4647153659475
 20
59.59168610650727
 30
0.0
 11
541.8593815892159
 21
59.59168610650727
 31
0.0
  0
LINE
  5
118B
  8
DIMENSIONS
  6
BYBLOCK
 62
     0
 10
541.679381589216
 20
207.1916861065075
 30
0.0
 11
541.679381589216
 21
64.59168610650727
 31
0.0
  0
SOLID
  5
118C
  8
DIMENSIONS
 62
     0
 10
542.5127149225493
 20
207.1916861065075
 30
0.0
 11
540.8460482558826
 21
207.1916861065075
 31
0.0
 12
541.679381589216
 22
212.1916861065075
 32
0.0
 13
541.679381589216
 23
212.1916861065075
 33
0.0
  0
SOLID
  5
118D
  8
DIMENSIONS
 62
     0
 10
540.8460482558826
 20
64.59168610650727
 30
0.0
 11
542.5127149225493
 21
64.59168610650727
 31
0.0
 12
541.679381589216
 22
59.59168610650727
 32
0.0
 13
541.679381589216
 23
59.59168610650727
 33
0.0
  0
TEXT
  5
118E
  8
DIMENSIONS
  6
CONTINUOUS
 62
     5
 10
539.2843815892161
 20
117.3091861065074
 30
0.0
 40
5.0
  1
152.6 [6.01]
 50
90.0
  0
POINT
  5
118F
  8
DEFPOINTS
 62
     0
 10
498.9647153659475
 20
212.1916861065075
 30
0.0
  0
POINT
  5
1190
  8
DEFPOINTS
 62
     0
 10
523.9647153659475
 20
59.59168610650727
 30
0.0
  0
POINT
  5
1191
  8
DEFPOINTS
 62
     0
 10
541.679381589216
 20
59.59168610650727
 30
0.0
  0
ENDBLK
  5
1188
  8
0
  0
BLOCK
  8
0
  2
*D204
 70
     1
 10
0.0
 20
0.0
 30
0.0
  3
*D204
  1

  0
LINE
  5
1198
  8
DIMENSIONS
  6
BYBLOCK
 62
     0
 10
327.9647153659475
 20
74.59168610650727
 30
0.0
 11
335.3604410433776
 21
74.59168610650727
 31
0.0
  0
LINE
  5
1199
  8
DIMENSIONS
  6
BYBLOCK
 62
     0
 10
327.9647153659475
 20
59.59168610650727
 30
0.0
 11
335.3604410433776
 21
59.59168610650727
 31
0.0
  0
LINE
  5
119A
  8
DIMENSIONS
  6
BYBLOCK
 62
     0
 10
335.1804410433776
 20
74.59168610650727
 30
0.0
 11
335.1804410433776
 21
107.5366861065073
 31
0.0
  0
LINE
  5
119B
  8
DIMENSIONS
  6
BYBLOCK
 62
     0
 10
335.1804410433776
 20
69.59168610650727
 30
0.0
 11
335.1804410433776
 21
64.59168610650727
 31
0.0
  0
SOLID
  5
119C
  8
DIMENSIONS
 62
     0
 10
336.013774376711
 20
69.59168610650727
 30
0.0
 11
334.3471077100443
 21
69.59168610650727
 31
0.0
 12
335.1804410433776
 22
74.59168610650727
 32
0.0
 13
335.1804410433776
 23
74.59168610650727
 33
0.0
  0
SOLID
  5
119D
  8
DIMENSIONS
 62
     0
 10
334.3471077100443
 20
64.59168610650727
 30
0.0
 11
336.013774376711
 21
64.59168610650727
 31
0.0
 12
335.1804410433776
 22
59.59168610650727
 32
0.0
 13
335.1804410433776
 23
59.59168610650727
 33
0.0
  0
TEXT
  5
119E
  8
DIMENSIONS
  6
CONTINUOUS
 62
     5
 10
332.7854410433777
 20
79.83168610650728
 30
0.0
 40
5.0
  1
15 [0.59]
 50
90.0
  0
POINT
  5
119F
  8
DEFPOINTS
 62
     0
 10
326.4647153659475
 20
74.59168610650727
 30
0.0
  0
POINT
  5
11A0
  8
DEFPOINTS
 62
     0
 10
326.4647153659475
 20
59.59168610650727
 30
0.0
  0
POINT
  5
11A6
  8
DEFPOINTS
 62
     0
 10
335.1804410433776
 20
59.59168610650727
 30
0.0
  0
ENDBLK
  5
1197
  8
0
  0
BLOCK
  8
0
  2
*D205
 70
     1
 10
0.0
 20
0.0
 30
0.0
  3
*D205
  1

  0
LINE
  5
11B2
  8
DIMENSIONS
  6
BYBLOCK
 62
     0
 10
499.9647423275027
 20
464.6130951165565
 30
0.0
 11
459.5598704900483
 21
464.714863475503
 31
0.0
  0
TEXT
  5
11B3
  8
DIMENSIONS
  6
CONTINUOUS
 62
     5
 10
460.286102006231
 20
467.188042155846
 30
0.0
 40
5.0
  1
Ø7 [Ø0.28]
 50
359.8556885627839
  0
SOLID
  5
11B4
  8
DIMENSIONS
 62
     0
 10
499.9626434049489
 20
463.7797644265129
 30
0.0
 11
499.9668412500566
 21
465.4464258066001
 31
0.0
 12
504.9647264677644
 22
464.6005015812333
 32
0.0
 13
504.9647264677644
 23
464.6005015812333
 33
0.0
  0
LINE
  5
11B5
  8
DIMENSIONS
  6
BYBLOCK
 62
     0
 10
505.9647153659475
 20
464.5916861065072
 30
0.0
 11
510.9647153659475
 21
464.5916861065072
 31
0.0
  0
LINE
  5
11B6
  8
DIMENSIONS
  6
BYBLOCK
 62
     0
 10
508.4647153659475
 20
462.0916861065072
 30
0.0
 11
508.4647153659475
 21
467.0916861065072
 31
0.0
  0
POINT
  5
11B7
  8
DEFPOINTS
 62
     0
 10
504.9647264677644
 20
464.6005015812333
 30
0.0
  0
POINT
  5
11B8
  8
DEFPOINTS
 62
     0
 10
511.9647042641307
 20
464.5828706317809
 30
0.0
  0
ENDBLK
  5
11B1
  8
0
  0
BLOCK
  8
0
  2
*D207
 70
     1
 10
0.0
 20
0.0
 30
0.0
  3
*D207
  1

  0
LINE
  5
1276
  8
AM_5
 62
     0
 10
46.77585837383322
 20
792.0312499999999
 30
0.0
 11
46.77585837383322
 21
826.178557410853
 31
0.0
  0
LINE
  5
1277
  8
AM_5
 62
     0
 10
422.775858373833
 20
792.0312499999999
 30
0.0
 11
422.775858373833
 21
826.178557410853
 31
0.0
  0
LINE
  5
1278
  8
AM_5
 62
     0
 10
49.74585837383322
 20
823.208557410853
 30
0.0
 11
228.2923483738331
 21
823.208557410853
 31
0.0
  0
LINE
  5
1279
  8
AM_5
 62
     0
 10
419.805858373833
 20
823.208557410853
 30
0.0
 11
241.2593683738331
 21
823.208557410853
 31
0.0
  0
SOLID
  5
127A
  8
AM_5
 62
     0
 10
49.74585837383322
 20
823.703557410853
 30
0.0
 11
49.74585837383322
 21
822.713557410853
 31
0.0
 12
46.77585837383322
 22
823.208557410853
 32
0.0
 13
46.77585837383322
 23
823.208557410853
 33
0.0
  0
SOLID
  5
127B
  8
AM_5
 62
     0
 10
419.805858373833
 20
822.713557410853
 30
0.0
 11
419.805858373833
 21
823.703557410853
 31
0.0
 12
422.775858373833
 22
823.208557410853
 32
0.0
 13
422.775858373833
 23
823.208557410853
 33
0.0
  0
TEXT
  5
127C
  8
AM_5
  6
CONTINUOUS
 62
     0
 10
229.6021183738331
 20
821.7488024108529
 30
0.0
 40
2.97
  1
376.0
  0
POINT
  5
127D
  8
DEFPOINTS
 62
     0
 10
46.77585837383322
 20
790.9999999999999
 30
0.0
  0
POINT
  5
127E
  8
DEFPOINTS
 62
     0
 10
422.775858373833
 20
790.9999999999999
 30
0.0
  0
POINT
  5
127F
  8
DEFPOINTS
 62
     0
 10
422.775858373833
 20
823.208557410853
 30
0.0
  0
ENDBLK
  5
1280
  8
0
  0
BLOCK
  8
0
  2
*D208
 70
     1
 10
0.0
 20
0.0
 30
0.0
  3
*D208
  1

  0
LINE
  5
1286
  8
AM_5
 62
     0
 10
45.74460837383322
 20
790.9999999999999
 30
0.0
 11
2.018115000000156
 21
790.9999999999999
 31
0.0
  0
LINE
  5
1287
  8
AM_5
 62
     0
 10
45.74460837383322
 20
0.0000000000000001
 30
0.0
 11
2.018115000000107
 21
0.0000000000000027
 31
0.0
  0
LINE
  5
1288
  8
AM_5
 62
     0
 10
4.988115000000156
 20
788.0299999999999
 30
0.0
 11
4.988115000000132
 21
398.5011849999999
 31
0.0
  0
LINE
  5
1289
  8
AM_5
 62
     0
 10
4.988115000000107
 20
2.970000000000002
 30
0.0
 11
4.988115000000131
 21
392.4988149999999
 31
0.0
  0
SOLID
  5
128A
  8
AM_5
 62
     0
 10
5.483115000000156
 20
788.0299999999999
 30
0.0
 11
4.493115000000156
 21
788.0299999999999
 31
0.0
 12
4.988115000000156
 22
790.9999999999999
 32
0.0
 13
4.988115000000156
 23
790.9999999999999
 33
0.0
  0
SOLID
  5
128B
  8
AM_5
 62
     0
 10
4.493115000000107
 20
2.970000000000002
 30
0.0
 11
5.483115000000107
 21
2.970000000000002
 31
0.0
 12
4.988115000000107
 22
0.0000000000000026
 32
0.0
 13
4.988115000000107
 23
0.0000000000000026
 33
0.0
  0
TEXT
  5
128C
  8
AM_5
  6
CONTINUOUS
 62
     0
 10
-0.1960199999998667
 20
394.040245
 30
0.0
 40
2.97
  1
791.0
  0
POINT
  5
128D
  8
DEFPOINTS
 62
     0
 10
46.77585837383322
 20
790.9999999999999
 30
0.0
  0
POINT
  5
128E
  8
DEFPOINTS
 62
     0
 10
46.77585837383322
 20
0.0
 30
0.0
  0
POINT
  5
128F
  8
DEFPOINTS
 62
     0
 10
4.988115000000107
 20
0.0000000000000026
 30
0.0
  0
ENDBLK
  5
1290
  8
0
  0
BLOCK
  8
0
  2
*D209
 70
     1
 10
0.0
 20
0.0
 30
0.0
  3
*D209
  1

  0
LINE
  5
12A1
  8
AM_5
 62
     0
 10
137.6780241443103
 20
837.5949826772189
 30
0.0
 11
137.6780241443103
 21
871.7422900880722
 31
0.0
  0
LINE
  5
12A2
  8
AM_5
 62
     0
 10
513.67802414431
 20
837.5949826772189
 30
0.0
 11
513.67802414431
 21
871.7422900880722
 31
0.0
  0
LINE
  5
12A3
  8
AM_5
 62
     0
 10
140.6480241443103
 20
868.7722900880722
 30
0.0
 11
319.1945141443101
 21
868.7722900880722
 31
0.0
  0
LINE
  5
12A4
  8
AM_5
 62
     0
 10
510.70802414431
 20
868.7722900880722
 30
0.0
 11
332.1615341443102
 21
868.7722900880722
 31
0.0
  0
SOLID
  5
12A5
  8
AM_5
 62
     0
 10
140.6480241443103
 20
869.2672900880722
 30
0.0
 11
140.6480241443103
 21
868.2772900880722
 31
0.0
 12
137.6780241443103
 22
868.7722900880722
 32
0.0
 13
137.6780241443103
 23
868.7722900880722
 33
0.0
  0
SOLID
  5
12A6
  8
AM_5
 62
     0
 10
510.70802414431
 20
868.2772900880722
 30
0.0
 11
510.70802414431
 21
869.2672900880722
 31
0.0
 12
513.67802414431
 22
868.7722900880722
 32
0.0
 13
513.67802414431
 23
868.7722900880722
 33
0.0
  0
TEXT
  5
12A7
  8
AM_5
  6
CONTINUOUS
 62
     0
 10
320.5042841443101
 20
867.3125350880721
 30
0.0
 40
2.97
  1
376.0
  0
POINT
  5
12A8
  8
DEFPOINTS
 62
     0
 10
137.6780241443103
 20
836.5637326772189
 30
0.0
  0
POINT
  5
12A9
  8
DEFPOINTS
 62
     0
 10
513.67802414431
 20
836.5637326772189
 30
0.0
  0
POINT
  5
12AA
  8
DEFPOINTS
 62
     0
 10
513.67802414431
 20
868.7722900880722
 30
0.0
  0
ENDBLK
  5
12A0
  8
0
  0
BLOCK
  8
0
  2
*D210
 70
     1
 10
0.0
 20
0.0
 30
0.0
  3
*D210
  1

  0
LINE
  5
12AE
  8
AM_5
 62
     0
 10
136.6467741443103
 20
836.5637326772189
 30
0.0
 11
92.92028077047719
 21
836.5637326772189
 31
0.0
  0
LINE
  5
12AF
  8
AM_5
 62
     0
 10
136.6467741443103
 20
45.56373267721909
 30
0.0
 11
92.92028077047715
 21
45.56373267721909
 31
0.0
  0
LINE
  5
12B0
  8
AM_5
 62
     0
 10
95.89028077047719
 20
833.5937326772189
 30
0.0
 11
95.89028077047718
 21
444.0649176772191
 31
0.0
  0
LINE
  5
12B1
  8
AM_5
 62
     0
 10
95.89028077047715
 20
48.53373267721909
 30
0.0
 11
95.89028077047716
 21
438.062547677219
 31
0.0
  0
SOLID
  5
12B2
  8
AM_5
 62
     0
 10
96.3852807704772
 20
833.5937326772189
 30
0.0
 11
95.39528077047719
 21
833.5937326772189
 31
0.0
 12
95.89028077047719
 22
836.5637326772189
 32
0.0
 13
95.89028077047719
 23
836.5637326772189
 33
0.0
  0
SOLID
  5
12B3
  8
AM_5
 62
     0
 10
95.39528077047714
 20
48.53373267721909
 30
0.0
 11
96.38528077047715
 21
48.53373267721909
 31
0.0
 12
95.89028077047715
 22
45.56373267721909
 32
0.0
 13
95.89028077047715
 23
45.56373267721909
 33
0.0
  0
TEXT
  5
12B4
  8
AM_5
  6
CONTINUOUS
 62
     0
 10
90.70614577047718
 20
439.6039776772191
 30
0.0
 40
2.97
  1
791.0
  0
POINT
  5
12B5
  8
DEFPOINTS
 62
     0
 10
137.6780241443103
 20
836.5637326772189
 30
0.0
  0
POINT
  5
12B6
  8
DEFPOINTS
 62
     0
 10
137.6780241443103
 20
45.56373267721909
 30
0.0
  0
POINT
  5
12B7
  8
DEFPOINTS
 62
     0
 10
95.89028077047715
 20
45.56373267721909
 30
0.0
  0
ENDBLK
  5
12AD
  8
0
  0
BLOCK
  8
0
  2
*D211
 70
     1
 10
0.0
 20
0.0
 30
0.0
  3
*D211
  1

  0
LINE
  5
12BE
  8
DIMENSIONS
  6
BYBLOCK
 62
     0
 10
137.6780241443103
 20
838.0637326772189
 30
0.0
 11
137.6780241443103
 21
852.1127275299416
 31
0.0
  0
LINE
  5
12BF
  8
DIMENSIONS
  6
BYBLOCK
 62
     0
 10
513.67802414431
 20
838.0637326772189
 30
0.0
 11
513.67802414431
 21
852.1127275299416
 31
0.0
  0
LINE
  5
12C0
  8
DIMENSIONS
  6
BYBLOCK
 62
     0
 10
142.6780241443103
 20
851.9327275299416
 30
0.0
 11
508.67802414431
 21
851.9327275299416
 31
0.0
  0
SOLID
  5
12C1
  8
DIMENSIONS
 62
     0
 10
142.6780241443103
 20
852.766060863275
 30
0.0
 11
142.6780241443103
 21
851.0993941966083
 31
0.0
 12
137.6780241443103
 22
851.9327275299416
 32
0.0
 13
137.6780241443103
 23
851.9327275299416
 33
0.0
  0
SOLID
  5
12C2
  8
DIMENSIONS
 62
     0
 10
508.67802414431
 20
851.0993941966083
 30
0.0
 11
508.67802414431
 21
852.766060863275
 31
0.0
 12
513.67802414431
 22
851.9327275299416
 32
0.0
 13
513.67802414431
 23
851.9327275299416
 33
0.0
  0
TEXT
  5
12C3
  8
DIMENSIONS
  6
CONTINUOUS
 62
     5
 10
308.2980241443101
 20
854.3277275299416
 30
0.0
 40
5.0
  1
376 [14.80]
  0
POINT
  5
12C4
  8
DEFPOINTS
 62
     0
 10
137.6780241443103
 20
836.5637326772189
 30
0.0
  0
POINT
  5
12C5
  8
DEFPOINTS
 62
     0
 10
513.67802414431
 20
836.5637326772189
 30
0.0
  0
POINT
  5
12C6
  8
DEFPOINTS
 62
     0
 10
513.67802414431
 20
851.9327275299416
 30
0.0
  0
ENDBLK
  5
12BD
  8
0
  0
BLOCK
  8
0
  2
*D212
 70
     1
 10
0.0
 20
0.0
 30
0.0
  3
*D212
  1

  0
LINE
  5
12CD
  8
DIMENSIONS
  6
BYBLOCK
 62
     0
 10
136.1780241443103
 20
836.5637326772189
 30
0.0
 11
121.7207014376625
 21
836.5637326772189
 31
0.0
  0
LINE
  5
12CE
  8
DIMENSIONS
  6
BYBLOCK
 62
     0
 10
136.1780241443103
 20
45.56373267721909
 30
0.0
 11
121.7207014376625
 21
45.56373267721909
 31
0.0
  0
LINE
  5
12CF
  8
DIMENSIONS
  6
BYBLOCK
 62
     0
 10
121.9007014376625
 20
831.5637326772189
 30
0.0
 11
121.9007014376625
 21
50.56373267721909
 31
0.0
  0
SOLID
  5
12D0
  8
DIMENSIONS
 62
     0
 10
122.7340347709958
 20
831.5637326772189
 30
0.0
 11
121.0673681043292
 21
831.5637326772189
 31
0.0
 12
121.9007014376625
 22
836.5637326772189
 32
0.0
 13
121.9007014376625
 23
836.5637326772189
 33
0.0
  0
SOLID
  5
12D1
  8
DIMENSIONS
 62
     0
 10
121.0673681043291
 20
50.56373267721909
 30
0.0
 11
122.7340347709958
 21
50.56373267721909
 31
0.0
 12
121.9007014376625
 22
45.56373267721909
 32
0.0
 13
121.9007014376625
 23
45.56373267721909
 33
0.0
  0
TEXT
  5
12D2
  8
DIMENSIONS
  6
CONTINUOUS
 62
     5
 10
119.5057014376625
 20
423.6662326772191
 30
0.0
 40
5.0
  1
791 [31.14]
 50
90.0
  0
POINT
  5
12D3
  8
DEFPOINTS
 62
     0
 10
137.6780241443103
 20
836.5637326772189
 30
0.0
  0
POINT
  5
12D4
  8
DEFPOINTS
 62
     0
 10
137.6780241443103
 20
45.56373267721909
 30
0.0
  0
POINT
  5
12D5
  8
DEFPOINTS
 62
     0
 10
121.9007014376625
 20
45.56373267721909
 30
0.0
  0
ENDBLK
  5
12CC
  8
0
  0
BLOCK
  8
0
  2
*D214
 70
     1
 10
0.0
 20
0.0
 30
0.0
  3
*D214
  1

  0
LINE
  5
1317
  8
DIMENSIONS
  6
BYBLOCK
 62
     0
 10
138.3046053574713
 20
14.40130915259603
 30
0.0
 11
113.8820619094441
 21
14.40130915259601
 31
0.0
  0
LINE
  5
1318
  8
DIMENSIONS
  6
BYBLOCK
 62
     0
 10
138.3046053574713
 20
975.4013091525945
 30
0.0
 11
113.8820619094442
 21
975.4013091525945
 31
0.0
  0
LINE
  5
1319
  8
DIMENSIONS
  6
BYBLOCK
 62
     0
 10
114.0620619094441
 20
19.40130915259601
 30
0.0
 11
114.0620619094442
 21
970.4013091525945
 31
0.0
  0
SOLID
  5
131A
  8
DIMENSIONS
 62
     0
 10
113.2287285761108
 20
19.40130915259601
 30
0.0
 11
114.8953952427775
 21
19.40130915259601
 31
0.0
 12
114.0620619094441
 22
14.40130915259601
 32
0.0
 13
114.0620619094441
 23
14.40130915259601
 33
0.0
  0
SOLID
  5
131B
  8
DIMENSIONS
 62
     0
 10
114.8953952427775
 20
970.4013091525945
 30
0.0
 11
113.2287285761109
 21
970.4013091525945
 31
0.0
 12
114.0620619094442
 22
975.4013091525945
 32
0.0
 13
114.0620619094442
 23
975.4013091525945
 33
0.0
  0
TEXT
  5
131C
  8
DIMENSIONS
  6
CONTINUOUS
 62
     5
 10
111.6670619094442
 20
477.5238091525953
 30
0.0
 40
5.0
  1
961 [37.83]
 50
90.0
  0
POINT
  5
131D
  8
DEFPOINTS
 62
     0
 10
139.8046053574713
 20
14.40130915259603
 30
0.0
  0
POINT
  5
131E
  8
DEFPOINTS
 62
     0
 10
139.8046053574713
 20
975.4013091525945
 30
0.0
  0
POINT
  5
131F
  8
DEFPOINTS
 62
     0
 10
114.0620619094442
 20
975.4013091525945
 30
0.0
  0
ENDBLK
  5
1316
  8
0
  0
BLOCK
  8
0
  2
*D215
 70
     1
 10
0.0
 20
0.0
 30
0.0
  3
*D215
  1

  0
LINE
  5
1326
  8
DIMENSIONS
  6
BYBLOCK
 62
     0
 10
139.8046053574713
 20
976.9013091525945
 30
0.0
 11
139.8046053574713
 21
995.988970918652
 31
0.0
  0
LINE
  5
1327
  8
DIMENSIONS
  6
BYBLOCK
 62
     0
 10
515.8046053574712
 20
976.9013091525945
 30
0.0
 11
515.8046053574712
 21
995.988970918652
 31
0.0
  0
LINE
  5
1328
  8
DIMENSIONS
  6
BYBLOCK
 62
     0
 10
144.8046053574713
 20
995.808970918652
 30
0.0
 11
510.8046053574712
 21
995.808970918652
 31
0.0
  0
SOLID
  5
1329
  8
DIMENSIONS
 62
     0
 10
144.8046053574713
 20
996.6423042519854
 30
0.0
 11
144.8046053574713
 21
994.9756375853186
 31
0.0
 12
139.8046053574713
 22
995.808970918652
 32
0.0
 13
139.8046053574713
 23
995.808970918652
 33
0.0
  0
SOLID
  5
132A
  8
DIMENSIONS
 62
     0
 10
510.8046053574712
 20
994.9756375853186
 30
0.0
 11
510.8046053574712
 21
996.6423042519854
 31
0.0
 12
515.8046053574712
 22
995.808970918652
 32
0.0
 13
515.8046053574712
 23
995.808970918652
 33
0.0
  0
TEXT
  5
132B
  8
DIMENSIONS
  6
CONTINUOUS
 62
     5
 10
310.4246053574713
 20
998.203970918652
 30
0.0
 40
5.0
  1
376 [14.80]
  0
POINT
  5
132C
  8
DEFPOINTS
 62
     0
 10
139.8046053574713
 20
975.4013091525945
 30
0.0
  0
POINT
  5
132D
  8
DEFPOINTS
 62
     0
 10
515.8046053574712
 20
975.4013091525945
 30
0.0
  0
POINT
  5
132E
  8
DEFPOINTS
 62
     0
 10
515.8046053574712
 20
995.808970918652
 30
0.0
  0
ENDBLK
  5
1325
  8
0
  0
BLOCK
  8
0
  2
*D217
 70
     1
 10
0.0
 20
0.0
 30
0.0
  3
*D217
  1

  0
LINE
  5
13A8
  8
DIMENSIONS
  6
BYBLOCK
 62
     0
 10
164.2095794425903
 20
1024.842414526101
 30
0.0
 11
164.2095794425903
 21
1059.234169916399
 31
0.0
  0
LINE
  5
13A9
  8
DIMENSIONS
  6
BYBLOCK
 62
     0
 10
469.2095794425896
 20
1024.842414526101
 30
0.0
 11
469.2095794425896
 21
1059.234169916399
 31
0.0
  0
LINE
  5
13AA
  8
DIMENSIONS
  6
BYBLOCK
 62
     0
 10
169.2095794425903
 20
1059.054169916399
 30
0.0
 11
464.2095794425896
 21
1059.054169916399
 31
0.0
  0
SOLID
  5
13AB
  8
DIMENSIONS
 62
     0
 10
169.2095794425903
 20
1059.887503249733
 30
0.0
 11
169.2095794425903
 21
1058.220836583066
 31
0.0
 12
164.2095794425903
 22
1059.054169916399
 32
0.0
 13
164.2095794425903
 23
1059.054169916399
 33
0.0
  0
SOLID
  5
13AC
  8
DIMENSIONS
 62
     0
 10
464.2095794425896
 20
1058.220836583066
 30
0.0
 11
464.2095794425896
 21
1059.887503249733
 31
0.0
 12
469.2095794425896
 22
1059.054169916399
 32
0.0
 13
469.2095794425896
 23
1059.054169916399
 33
0.0
  0
TEXT
  5
13AD
  8
DIMENSIONS
  6
CONTINUOUS
 62
     5
 10
299.32957944259
 20
1061.4491699164
 30
0.0
 40
5.0
  1
305 [12.01]
  0
POINT
  5
13AE
  8
DEFPOINTS
 62
     0
 10
164.2095794425903
 20
1023.342414526101
 30
0.0
  0
POINT
  5
13AF
  8
DEFPOINTS
 62
     0
 10
469.2095794425896
 20
1023.342414526101
 30
0.0
  0
POINT
  5
13B0
  8
DEFPOINTS
 62
     0
 10
469.2095794425896
 20
1059.054169916399
 30
0.0
  0
ENDBLK
  5
13A7
  8
0
  0
BLOCK
  8
0
  2
*D218
 70
     1
 10
0.0
 20
0.0
 30
0.0
  3
*D218
  1

  0
LINE
  5
13B7
  8
DIMENSIONS
  6
BYBLOCK
 62
     0
 10
144.2095794425902
 20
1014.842414526101
 30
0.0
 11
144.2095794425902
 21
1075.606580801199
 31
0.0
  0
LINE
  5
13B8
  8
DIMENSIONS
  6
BYBLOCK
 62
     0
 10
489.2095794425906
 20
1014.842414526101
 30
0.0
 11
489.2095794425906
 21
1075.606580801199
 31
0.0
  0
LINE
  5
13B9
  8
DIMENSIONS
  6
BYBLOCK
 62
     0
 10
149.2095794425902
 20
1075.426580801198
 30
0.0
 11
484.2095794425906
 21
1075.426580801198
 31
0.0
  0
SOLID
  5
13BA
  8
DIMENSIONS
 62
     0
 10
149.2095794425902
 20
1076.259914134532
 30
0.0
 11
149.2095794425902
 21
1074.593247467865
 31
0.0
 12
144.2095794425902
 22
1075.426580801198
 32
0.0
 13
144.2095794425902
 23
1075.426580801198
 33
0.0
  0
SOLID
  5
13BB
  8
DIMENSIONS
 62
     0
 10
484.2095794425906
 20
1074.593247467865
 30
0.0
 11
484.2095794425906
 21
1076.259914134532
 31
0.0
 12
489.2095794425906
 22
1075.426580801198
 32
0.0
 13
489.2095794425906
 23
1075.426580801198
 33
0.0
  0
TEXT
  5
13BC
  8
DIMENSIONS
  6
CONTINUOUS
 62
     5
 10
299.3295794425904
 20
1077.821580801199
 30
0.0
 40
5.0
  1
345 [13.58]
  0
POINT
  5
13BD
  8
DEFPOINTS
 62
     0
 10
144.2095794425902
 20
1013.342414526101
 30
0.0
  0
POINT
  5
13BE
  8
DEFPOINTS
 62
     0
 10
489.2095794425906
 20
1013.342414526101
 30
0.0
  0
POINT
  5
13BF
  8
DEFPOINTS
 62
     0
 10
489.2095794425906
 20
1075.426580801198
 30
0.0
  0
ENDBLK
  5
13B6
  8
0
  0
BLOCK
  8
0
  2
*D219
 70
     1
 10
0.0
 20
0.0
 30
0.0
  3
*D219
  1

  0
LINE
  5
13C6
  8
DIMENSIONS
  6
BYBLOCK
 62
     0
 10
498.7095794425896
 20
1019.842414526101
 30
0.0
 11
498.7095794425896
 21
1091.108104460666
 31
0.0
  0
LINE
  5
13C7
  8
DIMENSIONS
  6
BYBLOCK
 62
     0
 10
134.7095794425903
 20
1019.842414526101
 30
0.0
 11
134.7095794425903
 21
1091.108104460666
 31
0.0
  0
LINE
  5
13C8
  8
DIMENSIONS
  6
BYBLOCK
 62
     0
 10
493.7095794425896
 20
1090.928104460666
 30
0.0
 11
139.7095794425903
 21
1090.928104460666
 31
0.0
  0
SOLID
  5
13C9
  8
DIMENSIONS
 62
     0
 10
493.7095794425896
 20
1090.094771127333
 30
0.0
 11
493.7095794425896
 21
1091.761437793999
 31
0.0
 12
498.7095794425896
 22
1090.928104460666
 32
0.0
 13
498.7095794425896
 23
1090.928104460666
 33
0.0
  0
SOLID
  5
13CA
  8
DIMENSIONS
 62
     0
 10
139.7095794425903
 20
1091.761437793999
 30
0.0
 11
139.7095794425903
 21
1090.094771127333
 31
0.0
 12
134.7095794425903
 22
1090.928104460666
 32
0.0
 13
134.7095794425903
 23
1090.928104460666
 33
0.0
  0
TEXT
  5
13CB
  8
DIMENSIONS
  6
CONTINUOUS
 62
     5
 10
299.32957944259
 20
1093.323104460666
 30
0.0
 40
5.0
  1
364 [14.33]
  0
POINT
  5
13CC
  8
DEFPOINTS
 62
     0
 10
498.7095794425896
 20
1018.342414526101
 30
0.0
  0
POINT
  5
13CD
  8
DEFPOINTS
 62
     0
 10
134.7095794425903
 20
1018.342414526101
 30
0.0
  0
POINT
  5
13CE
  8
DEFPOINTS
 62
     0
 10
134.7095794425903
 20
1090.928104460666
 30
0.0
  0
ENDBLK
  5
13C5
  8
0
  0
BLOCK
  8
0
  2
*D220
 70
     1
 10
0.0
 20
0.0
 30
0.0
  3
*D220
  1

  0
LINE
  5
13D5
  8
DIMENSIONS
  6
BYBLOCK
 62
     0
 10
119.2095794425902
 20
1044.842414526101
 30
0.0
 11
119.2095794425902
 21
1108.46981095927
 31
0.0
  0
LINE
  5
13D6
  8
DIMENSIONS
  6
BYBLOCK
 62
     0
 10
514.2095794425906
 20
1044.842414526101
 30
0.0
 11
514.2095794425906
 21
1108.46981095927
 31
0.0
  0
LINE
  5
13D7
  8
DIMENSIONS
  6
BYBLOCK
 62
     0
 10
124.2095794425902
 20
1108.28981095927
 30
0.0
 11
509.2095794425906
 21
1108.28981095927
 31
0.0
  0
SOLID
  5
13D8
  8
DIMENSIONS
 62
     0
 10
124.2095794425902
 20
1109.123144292603
 30
0.0
 11
124.2095794425902
 21
1107.456477625937
 31
0.0
 12
119.2095794425902
 22
1108.28981095927
 32
0.0
 13
119.2095794425902
 23
1108.28981095927
 33
0.0
  0
SOLID
  5
13D9
  8
DIMENSIONS
 62
     0
 10
509.2095794425906
 20
1107.456477625937
 30
0.0
 11
509.2095794425906
 21
1109.123144292603
 31
0.0
 12
514.2095794425906
 22
1108.28981095927
 32
0.0
 13
514.2095794425906
 23
1108.28981095927
 33
0.0
  0
TEXT
  5
13DA
  8
DIMENSIONS
  6
CONTINUOUS
 62
     5
 10
299.3295794425904
 20
1110.68481095927
 30
0.0
 40
5.0
  1
395 [15.55]
  0
POINT
  5
13DB
  8
DEFPOINTS
 62
     0
 10
119.2095794425902
 20
1043.342414526101
 30
0.0
  0
POINT
  5
13DC
  8
DEFPOINTS
 62
     0
 10
514.2095794425906
 20
1043.342414526101
 30
0.0
  0
POINT
  5
13DD
  8
DEFPOINTS
 62
     0
 10
514.2095794425906
 20
1108.28981095927
 30
0.0
  0
ENDBLK
  5
13D4
  8
0
  0
BLOCK
  8
0
  2
*D221
 70
     1
 10
0.0
 20
0.0
 30
0.0
  3
*D221
  1

  0
LINE
  5
13E4
  8
DIMENSIONS
  6
BYBLOCK
 62
     0
 10
117.7095794425902
 20
1043.342414526101
 30
0.0
 11
103.7273504747841
 21
1043.342414526101
 31
0.0
  0
LINE
  5
13E5
  8
DIMENSIONS
  6
BYBLOCK
 62
     0
 10
133.2095794425903
 20
1018.342414526101
 30
0.0
 11
103.7273504747841
 21
1018.342414526101
 31
0.0
  0
LINE
  5
13E6
  8
DIMENSIONS
  6
BYBLOCK
 62
     0
 10
103.9073504747841
 20
1043.342414526101
 30
0.0
 11
103.9073504747841
 21
1078.294099848613
 31
0.0
  0
LINE
  5
13E7
  8
DIMENSIONS
  6
BYBLOCK
 62
     0
 10
103.9073504747841
 20
1038.342414526101
 30
0.0
 11
103.9073504747841
 21
1023.342414526101
 31
0.0
  0
SOLID
  5
13E8
  8
DIMENSIONS
 62
     0
 10
104.7406838081174
 20
1038.342414526101
 30
0.0
 11
103.0740171414508
 21
1038.342414526101
 31
0.0
 12
103.9073504747841
 22
1043.342414526101
 32
0.0
 13
103.9073504747841
 23
1043.342414526101
 33
0.0
  0
SOLID
  5
13E9
  8
DIMENSIONS
 62
     0
 10
103.0740171414508
 20
1023.342414526101
 30
0.0
 11
104.7406838081174
 21
1023.342414526101
 31
0.0
 12
103.9073504747841
 22
1018.342414526101
 32
0.0
 13
103.9073504747841
 23
1018.342414526101
 33
0.0
  0
TEXT
  5
13EA
  8
DIMENSIONS
  6
CONTINUOUS
 62
     5
 10
101.5123504747839
 20
1050.589099848613
 30
0.0
 40
5.0
  1
25 [0.98]
 50
90.0
  0
POINT
  5
13EB
  8
DEFPOINTS
 62
     0
 10
119.2095794425902
 20
1043.342414526101
 30
0.0
  0
POINT
  5
13EC
  8
DEFPOINTS
 62
     0
 10
134.7095794425903
 20
1018.342414526101
 30
0.0
  0
POINT
  5
14C0
  8
DEFPOINTS
 62
     0
 10
103.9073504747841
 20
1018.342414526101
 30
0.0
  0
ENDBLK
  5
13E3
  8
0
  0
BLOCK
  8
0
  2
*D222
 70
     1
 10
0.0
 20
0.0
 30
0.0
  3
*D222
  1

  0
LINE
  5
13F3
  8
DIMENSIONS
  6
BYBLOCK
 62
     0
 10
133.2095794425903
 20
1018.342414526101
 30
0.0
 11
106.9448593344922
 21
1018.342414526101
 31
0.0
  0
LINE
  5
13F4
  8
DIMENSIONS
  6
BYBLOCK
 62
     0
 10
133.2095794425903
 20
708.3424145261009
 30
0.0
 11
106.9448593344922
 21
708.3424145261009
 31
0.0
  0
LINE
  5
13F5
  8
DIMENSIONS
  6
BYBLOCK
 62
     0
 10
107.1248593344922
 20
1013.342414526101
 30
0.0
 11
107.1248593344922
 21
713.3424145261009
 31
0.0
  0
SOLID
  5
13F6
  8
DIMENSIONS
 62
     0
 10
107.9581926678255
 20
1013.342414526101
 30
0.0
 11
106.2915260011589
 21
1013.342414526101
 31
0.0
 12
107.1248593344922
 22
1018.342414526101
 32
0.0
 13
107.1248593344922
 23
1018.342414526101
 33
0.0
  0
SOLID
  5
13F7
  8
DIMENSIONS
 62
     0
 10
106.2915260011589
 20
713.3424145261009
 30
0.0
 11
107.9581926678255
 21
713.3424145261009
 31
0.0
 12
107.1248593344922
 22
708.3424145261009
 32
0.0
 13
107.1248593344922
 23
708.3424145261009
 33
0.0
  0
TEXT
  5
13F8
  8
DIMENSIONS
  6
CONTINUOUS
 62
     5
 10
104.7298593344922
 20
845.9624145261009
 30
0.0
 40
5.0
  1
310 [12.20]
 50
90.0
  0
POINT
  5
13F9
  8
DEFPOINTS
 62
     0
 10
134.7095794425903
 20
1018.342414526101
 30
0.0
  0
POINT
  5
13FA
  8
DEFPOINTS
 62
     0
 10
134.7095794425903
 20
708.3424145261009
 30
0.0
  0
POINT
  5
13FB
  8
DEFPOINTS
 62
     0
 10
107.1248593344922
 20
708.3424145261009
 30
0.0
  0
ENDBLK
  5
13F2
  8
0
  0
BLOCK
  8
0
  2
*D223
 70
     1
 10
0.0
 20
0.0
 30
0.0
  3
*D223
  1

  0
LINE
  5
1402
  8
DIMENSIONS
  6
BYBLOCK
 62
     0
 10
133.2095794425903
 20
1018.342414526101
 30
0.0
 11
103.7273504747841
 21
1018.342414526101
 31
0.0
  0
LINE
  5
1403
  8
DIMENSIONS
  6
BYBLOCK
 62
     0
 10
133.2095794425903
 20
708.3424145261009
 30
0.0
 11
103.7273504747841
 21
708.3424145261009
 31
0.0
  0
LINE
  5
1404
  8
DIMENSIONS
  6
BYBLOCK
 62
     0
 10
103.9073504747841
 20
1013.342414526101
 30
0.0
 11
103.9073504747841
 21
713.3424145261009
 31
0.0
  0
SOLID
  5
1405
  8
DIMENSIONS
 62
     0
 10
104.7406838081174
 20
1013.342414526101
 30
0.0
 11
103.0740171414508
 21
1013.342414526101
 31
0.0
 12
103.9073504747841
 22
1018.342414526101
 32
0.0
 13
103.9073504747841
 23
1018.342414526101
 33
0.0
  0
SOLID
  5
1406
  8
DIMENSIONS
 62
     0
 10
103.0740171414508
 20
713.3424145261009
 30
0.0
 11
104.7406838081174
 21
713.3424145261009
 31
0.0
 12
103.9073504747841
 22
708.3424145261009
 32
0.0
 13
103.9073504747841
 23
708.3424145261009
 33
0.0
  0
TEXT
  5
1407
  8
DIMENSIONS
  6
CONTINUOUS
 62
     5
 10
101.5123504747842
 20
845.9624145261009
 30
0.0
 40
5.0
  1
310 [12.20]
 50
90.0
  0
POINT
  5
1408
  8
DEFPOINTS
 62
     0
 10
134.7095794425903
 20
1018.342414526101
 30
0.0
  0
POINT
  5
1409
  8
DEFPOINTS
 62
     0
 10
134.7095794425903
 20
708.3424145261009
 30
0.0
  0
POINT
  5
140A
  8
DEFPOINTS
 62
     0
 10
103.9073504747841
 20
708.3424145261009
 30
0.0
  0
ENDBLK
  5
1401
  8
0
  0
BLOCK
  8
0
  2
*D224
 70
     1
 10
0.0
 20
0.0
 30
0.0
  3
*D224
  1

  0
LINE
  5
1411
  8
DIMENSIONS
  6
BYBLOCK
 62
     0
 10
133.2095794425903
 20
708.3424145261009
 30
0.0
 11
103.7273504747841
 21
708.3424145261009
 31
0.0
  0
LINE
  5
1412
  8
DIMENSIONS
  6
BYBLOCK
 62
     0
 10
162.7095794425903
 20
568.3424145261009
 30
0.0
 11
103.7273504747841
 21
568.3424145261009
 31
0.0
  0
LINE
  5
1413
  8
DIMENSIONS
  6
BYBLOCK
 62
     0
 10
103.9073504747841
 20
703.3424145261009
 30
0.0
 11
103.9073504747841
 21
573.3424145261009
 31
0.0
  0
SOLID
  5
1414
  8
DIMENSIONS
 62
     0
 10
104.7406838081174
 20
703.3424145261009
 30
0.0
 11
103.0740171414508
 21
703.3424145261009
 31
0.0
 12
103.9073504747841
 22
708.3424145261009
 32
0.0
 13
103.9073504747841
 23
708.3424145261009
 33
0.0
  0
SOLID
  5
1415
  8
DIMENSIONS
 62
     0
 10
103.0740171414507
 20
573.3424145261009
 30
0.0
 11
104.7406838081174
 21
573.3424145261009
 31
0.0
 12
103.9073504747841
 22
568.3424145261009
 32
0.0
 13
103.9073504747841
 23
568.3424145261009
 33
0.0
  0
TEXT
  5
1416
  8
DIMENSIONS
  6
CONTINUOUS
 62
     5
 10
101.5123504747841
 20
622.6699145261009
 30
0.0
 40
5.0
  1
140 [5.51]
 50
90.0
  0
POINT
  5
1417
  8
DEFPOINTS
 62
     0
 10
134.7095794425903
 20
708.3424145261009
 30
0.0
  0
POINT
  5
1418
  8
DEFPOINTS
 62
     0
 10
164.2095794425903
 20
568.3424145261009
 30
0.0
  0
POINT
  5
1419
  8
DEFPOINTS
 62
     0
 10
103.9073504747841
 20
568.3424145261009
 30
0.0
  0
ENDBLK
  5
1410
  8
0
  0
BLOCK
  8
0
  2
*D225
 70
     1
 10
0.0
 20
0.0
 30
0.0
  3
*D225
  1

  0
LINE
  5
1420
  8
DIMENSIONS
  6
BYBLOCK
 62
     0
 10
162.7095794425903
 20
568.3424145261009
 30
0.0
 11
103.7273504747841
 21
568.3424145261009
 31
0.0
  0
LINE
  5
1421
  8
DIMENSIONS
  6
BYBLOCK
 62
     0
 10
133.2095794425903
 20
398.2424145261031
 30
0.0
 11
103.727350474784
 21
398.2424145261031
 31
0.0
  0
LINE
  5
1422
  8
DIMENSIONS
  6
BYBLOCK
 62
     0
 10
103.9073504747841
 20
563.3424145261009
 30
0.0
 11
103.9073504747841
 21
403.2424145261031
 31
0.0
  0
SOLID
  5
1423
  8
DIMENSIONS
 62
     0
 10
104.7406838081174
 20
563.3424145261009
 30
0.0
 11
103.0740171414507
 21
563.3424145261009
 31
0.0
 12
103.9073504747841
 22
568.3424145261009
 32
0.0
 13
103.9073504747841
 23
568.3424145261009
 33
0.0
  0
SOLID
  5
1424
  8
DIMENSIONS
 62
     0
 10
103.0740171414507
 20
403.2424145261031
 30
0.0
 11
104.7406838081174
 21
403.2424145261031
 31
0.0
 12
103.9073504747841
 22
398.2424145261031
 32
0.0
 13
103.9073504747841
 23
398.2424145261031
 33
0.0
  0
TEXT
  5
1425
  8
DIMENSIONS
  6
CONTINUOUS
 62
     5
 10
101.5123504747841
 20
464.709914526102
 30
0.0
 40
5.0
  1
170.1 [6.70]
 50
90.0
  0
POINT
  5
1426
  8
DEFPOINTS
 62
     0
 10
164.2095794425903
 20
568.3424145261009
 30
0.0
  0
POINT
  5
1427
  8
DEFPOINTS
 62
     0
 10
134.7095794425903
 20
398.2424145261031
 30
0.0
  0
POINT
  5
1428
  8
DEFPOINTS
 62
     0
 10
103.9073504747841
 20
398.2424145261031
 30
0.0
  0
ENDBLK
  5
141F
  8
0
  0
BLOCK
  8
0
  2
*D226
 70
     1
 10
0.0
 20
0.0
 30
0.0
  3
*D226
  1

  0
LINE
  5
142F
  8
DIMENSIONS
  6
BYBLOCK
 62
     0
 10
133.2095794425903
 20
398.2424145261031
 30
0.0
 11
103.727350474784
 21
398.2424145261031
 31
0.0
  0
LINE
  5
1430
  8
DIMENSIONS
  6
BYBLOCK
 62
     0
 10
133.2095794425903
 20
88.242414526103
 30
0.0
 11
103.727350474784
 21
88.242414526103
 31
0.0
  0
LINE
  5
1431
  8
DIMENSIONS
  6
BYBLOCK
 62
     0
 10
103.9073504747841
 20
393.2424145261031
 30
0.0
 11
103.907350474784
 21
93.242414526103
 31
0.0
  0
SOLID
  5
1432
  8
DIMENSIONS
 62
     0
 10
104.7406838081174
 20
393.2424145261031
 30
0.0
 11
103.0740171414507
 21
393.2424145261031
 31
0.0
 12
103.9073504747841
 22
398.2424145261031
 32
0.0
 13
103.9073504747841
 23
398.2424145261031
 33
0.0
  0
SOLID
  5
1433
  8
DIMENSIONS
 62
     0
 10
103.0740171414507
 20
93.242414526103
 30
0.0
 11
104.7406838081174
 21
93.242414526103
 31
0.0
 12
103.907350474784
 22
88.242414526103
 32
0.0
 13
103.907350474784
 23
88.242414526103
 33
0.0
  0
TEXT
  5
1434
  8
DIMENSIONS
  6
CONTINUOUS
 62
     5
 10
101.5123504747841
 20
225.862414526103
 30
0.0
 40
5.0
  1
310 [12.20]
 50
90.0
  0
POINT
  5
1435
  8
DEFPOINTS
 62
     0
 10
134.7095794425903
 20
398.2424145261031
 30
0.0
  0
POINT
  5
1436
  8
DEFPOINTS
 62
     0
 10
134.7095794425903
 20
88.242414526103
 30
0.0
  0
POINT
  5
1437
  8
DEFPOINTS
 62
     0
 10
103.907350474784
 20
88.242414526103
 30
0.0
  0
ENDBLK
  5
142E
  8
0
  0
BLOCK
  8
0
  2
*D227
 70
     1
 10
0.0
 20
0.0
 30
0.0
  3
*D227
  1

  0
LINE
  5
143E
  8
DIMENSIONS
  6
BYBLOCK
 62
     0
 10
133.2095794425903
 20
88.242414526103
 30
0.0
 11
103.727350474784
 21
88.242414526103
 31
0.0
  0
LINE
  5
143F
  8
DIMENSIONS
  6
BYBLOCK
 62
     0
 10
117.7095794425902
 20
63.34241452610161
 30
0.0
 11
103.727350474784
 21
63.34241452610161
 31
0.0
  0
LINE
  5
1440
  8
DIMENSIONS
  6
BYBLOCK
 62
     0
 10
103.907350474784
 20
63.34241452610161
 30
0.0
 11
103.907350474784
 21
24.02241452610161
 31
0.0
  0
LINE
  5
1441
  8
DIMENSIONS
  6
BYBLOCK
 62
     0
 10
103.907350474784
 20
83.242414526103
 30
0.0
 11
103.907350474784
 21
68.3424145261016
 31
0.0
  0
SOLID
  5
1442
  8
DIMENSIONS
 62
     0
 10
104.7406838081174
 20
83.242414526103
 30
0.0
 11
103.0740171414507
 21
83.242414526103
 31
0.0
 12
103.907350474784
 22
88.242414526103
 32
0.0
 13
103.907350474784
 23
88.242414526103
 33
0.0
  0
SOLID
  5
1443
  8
DIMENSIONS
 62
     0
 10
103.0740171414507
 20
68.3424145261016
 30
0.0
 11
104.7406838081174
 21
68.3424145261016
 31
0.0
 12
103.907350474784
 22
63.34241452610161
 32
0.0
 13
103.907350474784
 23
63.34241452610161
 33
0.0
  0
TEXT
  5
1444
  8
DIMENSIONS
  6
CONTINUOUS
 62
     5
 10
101.512350474784
 20
24.81741452610162
 30
0.0
 40
5.0
  1
24.9 [0.98]
 50
90.0
  0
POINT
  5
1445
  8
DEFPOINTS
 62
     0
 10
134.7095794425903
 20
88.242414526103
 30
0.0
  0
POINT
  5
1446
  8
DEFPOINTS
 62
     0
 10
119.2095794425902
 20
63.34241452610161
 30
0.0
  0
POINT
  5
14C1
  8
DEFPOINTS
 62
     0
 10
103.907350474784
 20
63.34241452610161
 30
0.0
  0
ENDBLK
  5
143D
  8
0
  0
BLOCK
  8
0
  2
*D228
 70
     1
 10
0.0
 20
0.0
 30
0.0
  3
*D228
  1

  0
LINE
  5
144D
  8
DIMENSIONS
  6
BYBLOCK
 62
     0
 10
162.7095794425903
 20
101.3424145261016
 30
0.0
 11
157.7028560371734
 21
101.3424145261016
 31
0.0
  0
LINE
  5
144E
  8
DIMENSIONS
  6
BYBLOCK
 62
     0
 10
162.7095794425903
 20
63.34241452610161
 30
0.0
 11
157.7028560371734
 21
63.34241452610161
 31
0.0
  0
LINE
  5
144F
  8
DIMENSIONS
  6
BYBLOCK
 62
     0
 10
157.8828560371734
 20
96.3424145261016
 30
0.0
 11
157.8828560371734
 21
68.3424145261016
 31
0.0
  0
SOLID
  5
1450
  8
DIMENSIONS
 62
     0
 10
158.7161893705068
 20
96.3424145261016
 30
0.0
 11
157.0495227038401
 21
96.3424145261016
 31
0.0
 12
157.8828560371734
 22
101.3424145261016
 32
0.0
 13
157.8828560371734
 23
101.3424145261016
 33
0.0
  0
SOLID
  5
1451
  8
DIMENSIONS
 62
     0
 10
157.0495227038401
 20
68.3424145261016
 30
0.0
 11
158.7161893705068
 21
68.3424145261016
 31
0.0
 12
157.8828560371734
 22
63.34241452610161
 32
0.0
 13
157.8828560371734
 23
63.34241452610161
 33
0.0
  0
TEXT
  5
1452
  8
DIMENSIONS
  6
CONTINUOUS
 62
     5
 10
155.4878560371735
 20
68.84241452610163
 30
0.0
 40
5.0
  1
38 [1.50]
 50
90.0
  0
POINT
  5
1453
  8
DEFPOINTS
 62
     0
 10
164.2095794425903
 20
101.3424145261016
 30
0.0
  0
POINT
  5
1454
  8
DEFPOINTS
 62
     0
 10
164.2095794425903
 20
63.34241452610161
 30
0.0
  0
POINT
  5
1455
  8
DEFPOINTS
 62
     0
 10
157.8828560371734
 20
63.34241452610161
 30
0.0
  0
ENDBLK
  5
144C
  8
0
  0
BLOCK
  8
0
  2
*D229
 70
     1
 10
0.0
 20
0.0
 30
0.0
  3
*D229
  1

  0
LINE
  5
145C
  8
DIMENSIONS
  6
BYBLOCK
 62
     0
 10
315.2095794425896
 20
78.3424145261016
 30
0.0
 11
309.607180064666
 21
78.3424145261016
 31
0.0
  0
LINE
  5
145D
  8
DIMENSIONS
  6
BYBLOCK
 62
     0
 10
315.2095794425904
 20
63.34241452610161
 30
0.0
 11
309.607180064666
 21
63.34241452610161
 31
0.0
  0
LINE
  5
145E
  8
DIMENSIONS
  6
BYBLOCK
 62
     0
 10
309.787180064666
 20
63.34241452610161
 30
0.0
 11
309.787180064666
 21
30.39741452610156
 31
0.0
  0
LINE
  5
145F
  8
DIMENSIONS
  6
BYBLOCK
 62
     0
 10
309.787180064666
 20
73.3424145261016
 30
0.0
 11
309.787180064666
 21
68.3424145261016
 31
0.0
  0
SOLID
  5
1460
  8
DIMENSIONS
 62
     0
 10
310.6205133979993
 20
73.3424145261016
 30
0.0
 11
308.9538467313327
 21
73.3424145261016
 31
0.0
 12
309.787180064666
 22
78.3424145261016
 32
0.0
 13
309.787180064666
 23
78.3424145261016
 33
0.0
  0
SOLID
  5
1461
  8
DIMENSIONS
 62
     0
 10
308.9538467313327
 20
68.3424145261016
 30
0.0
 11
310.6205133979993
 21
68.3424145261016
 31
0.0
 12
309.787180064666
 22
63.34241452610161
 32
0.0
 13
309.787180064666
 23
63.34241452610161
 33
0.0
  0
TEXT
  5
1462
  8
DIMENSIONS
  6
CONTINUOUS
 62
     5
 10
307.392180064666
 20
30.63741452610157
 30
0.0
 40
5.0
  1
15 [0.59]
 50
90.0
  0
POINT
  5
1463
  8
DEFPOINTS
 62
     0
 10
316.7095794425896
 20
78.3424145261016
 30
0.0
  0
POINT
  5
1464
  8
DEFPOINTS
 62
     0
 10
316.7095794425904
 20
63.34241452610161
 30
0.0
  0
POINT
  5
14C2
  8
DEFPOINTS
 62
     0
 10
309.787180064666
 20
63.34241452610161
 30
0.0
  0
ENDBLK
  5
145B
  8
0
  0
BLOCK
  8
0
  2
*D230
 70
     1
 10
0.0
 20
0.0
 30
0.0
  3
*D230
  1

  0
LINE
  5
146B
  8
DIMENSIONS
  6
BYBLOCK
 62
     0
 10
515.7095794425906
 20
1043.342414526101
 30
0.0
 11
532.6334189289574
 21
1043.342414526101
 31
0.0
  0
LINE
  5
146C
  8
DIMENSIONS
  6
BYBLOCK
 62
     0
 10
490.7095794425906
 20
1013.342414526101
 30
0.0
 11
532.6334189289574
 21
1013.342414526101
 31
0.0
  0
LINE
  5
146D
  8
DIMENSIONS
  6
BYBLOCK
 62
     0
 10
532.4534189289575
 20
1038.342414526101
 30
0.0
 11
532.4534189289575
 21
1018.342414526101
 31
0.0
  0
SOLID
  5
146E
  8
DIMENSIONS
 62
     0
 10
533.2867522622909
 20
1038.342414526101
 30
0.0
 11
531.6200855956241
 21
1038.342414526101
 31
0.0
 12
532.4534189289575
 22
1043.342414526101
 32
0.0
 13
532.4534189289575
 23
1043.342414526101
 33
0.0
  0
SOLID
  5
146F
  8
DIMENSIONS
 62
     0
 10
531.6200855956241
 20
1018.342414526101
 30
0.0
 11
533.2867522622909
 21
1018.342414526101
 31
0.0
 12
532.4534189289575
 22
1013.342414526101
 32
0.0
 13
532.4534189289575
 23
1013.342414526101
 33
0.0
  0
TEXT
  5
1470
  8
DIMENSIONS
  6
CONTINUOUS
 62
     5
 10
530.0584189289573
 20
1014.842414526101
 30
0.0
 40
5.0
  1
30 [1.18]
 50
90.0
  0
POINT
  5
1471
  8
DEFPOINTS
 62
     0
 10
514.2095794425906
 20
1043.342414526101
 30
0.0
  0
POINT
  5
1472
  8
DEFPOINTS
 62
     0
 10
489.2095794425906
 20
1013.342414526101
 30
0.0
  0
POINT
  5
1473
  8
DEFPOINTS
 62
     0
 10
532.4534189289575
 20
1013.342414526101
 30
0.0
  0
ENDBLK
  5
146A
  8
0
  0
BLOCK
  8
0
  2
*D231
 70
     1
 10
0.0
 20
0.0
 30
0.0
  3
*D231
  1

  0
LINE
  5
147A
  8
DIMENSIONS
  6
BYBLOCK
 62
     0
 10
490.7095794425906
 20
1013.342414526101
 30
0.0
 11
532.6334189289574
 21
1013.342414526101
 31
0.0
  0
LINE
  5
147B
  8
DIMENSIONS
  6
BYBLOCK
 62
     0
 10
490.7095794425906
 20
783.3424145261009
 30
0.0
 11
532.6334189289574
 21
783.3424145261009
 31
0.0
  0
LINE
  5
147C
  8
DIMENSIONS
  6
BYBLOCK
 62
     0
 10
532.4534189289575
 20
1008.342414526101
 30
0.0
 11
532.4534189289575
 21
788.3424145261009
 31
0.0
  0
SOLID
  5
147D
  8
DIMENSIONS
 62
     0
 10
533.2867522622909
 20
1008.342414526101
 30
0.0
 11
531.6200855956241
 21
1008.342414526101
 31
0.0
 12
532.4534189289575
 22
1013.342414526101
 32
0.0
 13
532.4534189289575
 23
1013.342414526101
 33
0.0
  0
SOLID
  5
147E
  8
DIMENSIONS
 62
     0
 10
531.6200855956241
 20
788.3424145261009
 30
0.0
 11
533.2867522622909
 21
788.3424145261009
 31
0.0
 12
532.4534189289575
 22
783.3424145261009
 32
0.0
 13
532.4534189289575
 23
783.3424145261009
 33
0.0
  0
TEXT
  5
147F
  8
DIMENSIONS
  6
CONTINUOUS
 62
     5
 10
530.0584189289575
 20
882.9474145261008
 30
0.0
 40
5.0
  1
230 [9.06]
 50
90.0
  0
POINT
  5
1480
  8
DEFPOINTS
 62
     0
 10
489.2095794425906
 20
1013.342414526101
 30
0.0
  0
POINT
  5
1481
  8
DEFPOINTS
 62
     0
 10
489.2095794425906
 20
783.3424145261009
 30
0.0
  0
POINT
  5
1482
  8
DEFPOINTS
 62
     0
 10
532.4534189289575
 20
783.3424145261009
 30
0.0
  0
ENDBLK
  5
1479
  8
0
  0
BLOCK
  8
0
  2
*D232
 70
     1
 10
0.0
 20
0.0
 30
0.0
  3
*D232
  1

  0
LINE
  5
1489
  8
DIMENSIONS
  6
BYBLOCK
 62
     0
 10
490.7095794425906
 20
783.3424145261009
 30
0.0
 11
532.6334189289574
 21
783.3424145261009
 31
0.0
  0
LINE
  5
148A
  8
DIMENSIONS
  6
BYBLOCK
 62
     0
 10
490.7095794425906
 20
518.3424145261015
 30
0.0
 11
532.6334189289574
 21
518.3424145261015
 31
0.0
  0
LINE
  5
148B
  8
DIMENSIONS
  6
BYBLOCK
 62
     0
 10
532.4534189289575
 20
778.3424145261009
 30
0.0
 11
532.4534189289575
 21
523.3424145261015
 31
0.0
  0
SOLID
  5
148C
  8
DIMENSIONS
 62
     0
 10
533.2867522622909
 20
778.3424145261009
 30
0.0
 11
531.6200855956241
 21
778.3424145261009
 31
0.0
 12
532.4534189289575
 22
783.3424145261009
 32
0.0
 13
532.4534189289575
 23
783.3424145261009
 33
0.0
  0
SOLID
  5
148D
  8
DIMENSIONS
 62
     0
 10
531.6200855956241
 20
523.3424145261015
 30
0.0
 11
533.2867522622909
 21
523.3424145261015
 31
0.0
 12
532.4534189289575
 22
518.3424145261015
 32
0.0
 13
532.4534189289575
 23
518.3424145261015
 33
0.0
  0
TEXT
  5
148E
  8
DIMENSIONS
  6
CONTINUOUS
 62
     5
 10
530.0584189289574
 20
633.5074145261012
 30
0.0
 40
5.0
  1
265 [10.43]
 50
90.0
  0
POINT
  5
148F
  8
DEFPOINTS
 62
     0
 10
489.2095794425906
 20
783.3424145261009
 30
0.0
  0
POINT
  5
1490
  8
DEFPOINTS
 62
     0
 10
489.2095794425906
 20
518.3424145261015
 30
0.0
  0
POINT
  5
1491
  8
DEFPOINTS
 62
     0
 10
532.4534189289575
 20
518.3424145261015
 30
0.0
  0
ENDBLK
  5
1488
  8
0
  0
BLOCK
  8
0
  2
*D233
 70
     1
 10
0.0
 20
0.0
 30
0.0
  3
*D233
  1

  0
LINE
  5
1498
  8
DIMENSIONS
  6
BYBLOCK
 62
     0
 10
490.7095794425906
 20
518.3424145261015
 30
0.0
 11
532.6334189289574
 21
518.3424145261015
 31
0.0
  0
LINE
  5
1499
  8
DIMENSIONS
  6
BYBLOCK
 62
     0
 10
490.7095794425906
 20
308.3424145261015
 30
0.0
 11
532.6334189289574
 21
308.3424145261015
 31
0.0
  0
LINE
  5
149A
  8
DIMENSIONS
  6
BYBLOCK
 62
     0
 10
532.4534189289575
 20
513.3424145261015
 30
0.0
 11
532.4534189289575
 21
313.3424145261015
 31
0.0
  0
SOLID
  5
149B
  8
DIMENSIONS
 62
     0
 10
533.2867522622909
 20
513.3424145261015
 30
0.0
 11
531.6200855956241
 21
513.3424145261015
 31
0.0
 12
532.4534189289575
 22
518.3424145261015
 32
0.0
 13
532.4534189289575
 23
518.3424145261015
 33
0.0
  0
SOLID
  5
149C
  8
DIMENSIONS
 62
     0
 10
531.6200855956241
 20
313.3424145261015
 30
0.0
 11
533.2867522622909
 21
313.3424145261015
 31
0.0
 12
532.4534189289575
 22
308.3424145261015
 32
0.0
 13
532.4534189289575
 23
308.3424145261015
 33
0.0
  0
TEXT
  5
149D
  8
DIMENSIONS
  6
CONTINUOUS
 62
     5
 10
530.0584189289575
 20
397.9474145261014
 30
0.0
 40
5.0
  1
210 [8.27]
 50
90.0
  0
POINT
  5
149E
  8
DEFPOINTS
 62
     0
 10
489.2095794425906
 20
518.3424145261015
 30
0.0
  0
POINT
  5
149F
  8
DEFPOINTS
 62
     0
 10
489.2095794425906
 20
308.3424145261015
 30
0.0
  0
POINT
  5
14A0
  8
DEFPOINTS
 62
     0
 10
532.4534189289575
 20
308.3424145261015
 30
0.0
  0
ENDBLK
  5
1497
  8
0
  0
BLOCK
  8
0
  2
*D234
 70
     1
 10
0.0
 20
0.0
 30
0.0
  3
*D234
  1

  0
LINE
  5
14A7
  8
DIMENSIONS
  6
BYBLOCK
 62
     0
 10
490.7095794425906
 20
308.3424145261015
 30
0.0
 11
532.6334189289574
 21
308.3424145261015
 31
0.0
  0
LINE
  5
14A8
  8
DIMENSIONS
  6
BYBLOCK
 62
     0
 10
515.7095794425906
 20
63.34241452610161
 30
0.0
 11
532.6334189289574
 21
63.34241452610161
 31
0.0
  0
LINE
  5
14A9
  8
DIMENSIONS
  6
BYBLOCK
 62
     0
 10
532.4534189289575
 20
303.3424145261015
 30
0.0
 11
532.4534189289575
 21
68.3424145261016
 31
0.0
  0
SOLID
  5
14AA
  8
DIMENSIONS
 62
     0
 10
533.2867522622909
 20
303.3424145261015
 30
0.0
 11
531.6200855956241
 21
303.3424145261015
 31
0.0
 12
532.4534189289575
 22
308.3424145261015
 32
0.0
 13
532.4534189289575
 23
308.3424145261015
 33
0.0
  0
SOLID
  5
14AB
  8
DIMENSIONS
 62
     0
 10
531.6200855956241
 20
68.3424145261016
 30
0.0
 11
533.2867522622909
 21
68.3424145261016
 31
0.0
 12
532.4534189289575
 22
63.34241452610161
 32
0.0
 13
532.4534189289575
 23
63.34241452610161
 33
0.0
  0
TEXT
  5
14AC
  8
DIMENSIONS
  6
CONTINUOUS
 62
     5
 10
530.0584189289576
 20
170.4474145261015
 30
0.0
 40
5.0
  1
245 [9.65]
 50
90.0
  0
POINT
  5
14AD
  8
DEFPOINTS
 62
     0
 10
489.2095794425906
 20
308.3424145261015
 30
0.0
  0
POINT
  5
14AE
  8
DEFPOINTS
 62
     0
 10
514.2095794425906
 20
63.34241452610161
 30
0.0
  0
POINT
  5
14AF
  8
DEFPOINTS
 62
     0
 10
532.4534189289575
 20
63.34241452610161
 30
0.0
  0
ENDBLK
  5
14A6
  8
0
  0
BLOCK
  8
0
  2
*D235
 70
     1
 10
0.0
 20
0.0
 30
0.0
  3
*D235
  1

  0
LINE
  5
14B7
  8
DIMENSIONS
  6
BYBLOCK
 62
     0
 10
460.7095794425896
 20
101.3424145261016
 30
0.0
 11
420.3045794425897
 21
101.3424145261016
 31
0.0
  0
TEXT
  5
14B8
  8
DIMENSIONS
  6
CONTINUOUS
 62
     5
 10
421.0245794425897
 20
103.8174145261016
 30
0.0
 40
5.0
  1
Ø7 [Ø0.28]
  0
SOLID
  5
14B9
  8
DIMENSIONS
 62
     0
 10
460.7095794425896
 20
100.5090811927683
 30
0.0
 11
460.7095794425896
 21
102.1757478594349
 31
0.0
 12
465.7095794425896
 22
101.3424145261016
 32
0.0
 13
465.7095794425896
 23
101.3424145261016
 33
0.0
  0
LINE
  5
14BA
  8
DIMENSIONS
  6
BYBLOCK
 62
     0
 10
466.7095794425896
 20
101.3424145261016
 30
0.0
 11
471.7095794425896
 21
101.3424145261016
 31
0.0
  0
LINE
  5
14BB
  8
DIMENSIONS
  6
BYBLOCK
 62
     0
 10
469.2095794425896
 20
98.8424145261016
 30
0.0
 11
469.2095794425896
 21
103.8424145261016
 31
0.0
  0
POINT
  5
14BC
  8
DEFPOINTS
 62
     0
 10
465.7095794425896
 20
101.3424145261016
 30
0.0
  0
POINT
  5
14BD
  8
DEFPOINTS
 62
     0
 10
472.7095794425896
 20
101.3424145261016
 30
0.0
  0
ENDBLK
  5
14B6
  8
0
  0
BLOCK
  8
0
  2
*D237
 70
     1
 10
0.0
 20
0.0
 30
0.0
  3
*D237
  1

  0
LINE
  5
1546
  8
DIMENSIONS
  6
BYBLOCK
 62
     0
 10
166.2400226336114
 20
1306.373292371862
 30
0.0
 11
166.2400226336114
 21
1340.64866183543
 31
0.0
  0
LINE
  5
1547
  8
DIMENSIONS
  6
BYBLOCK
 62
     0
 10
471.2400226336114
 20
1306.373292371862
 30
0.0
 11
471.2400226336114
 21
1340.64866183543
 31
0.0
  0
LINE
  5
1548
  8
DIMENSIONS
  6
BYBLOCK
 62
     0
 10
171.2400226336114
 20
1340.46866183543
 30
0.0
 11
466.2400226336114
 21
1340.46866183543
 31
0.0
  0
SOLID
  5
1549
  8
DIMENSIONS
 62
     0
 10
171.2400226336114
 20
1341.301995168763
 30
0.0
 11
171.2400226336114
 21
1339.635328502097
 31
0.0
 12
166.2400226336114
 22
1340.46866183543
 32
0.0
 13
166.2400226336114
 23
1340.46866183543
 33
0.0
  0
SOLID
  5
154A
  8
DIMENSIONS
 62
     0
 10
466.2400226336114
 20
1339.635328502097
 30
0.0
 11
466.2400226336114
 21
1341.301995168763
 31
0.0
 12
471.2400226336114
 22
1340.46866183543
 32
0.0
 13
471.2400226336114
 23
1340.46866183543
 33
0.0
  0
TEXT
  5
154B
  8
DIMENSIONS
  6
CONTINUOUS
 62
     5
 10
301.3600226336114
 20
1342.86366183543
 30
0.0
 40
5.0
  1
305 [12.01]
  0
POINT
  5
154C
  8
DEFPOINTS
 62
     0
 10
166.2400226336114
 20
1304.873292371862
 30
0.0
  0
POINT
  5
154D
  8
DEFPOINTS
 62
     0
 10
471.2400226336114
 20
1304.873292371862
 30
0.0
  0
POINT
  5
154E
  8
DEFPOINTS
 62
     0
 10
471.2400226336114
 20
1340.46866183543
 30
0.0
  0
ENDBLK
  5
1545
  8
0
  0
BLOCK
  8
0
  2
*D238
 70
     1
 10
0.0
 20
0.0
 30
0.0
  3
*D238
  1

  0
LINE
  5
1555
  8
DIMENSIONS
  6
BYBLOCK
 62
     0
 10
146.2400226336114
 20
1296.373292371862
 30
0.0
 11
146.2400226336114
 21
1361.681129136596
 31
0.0
  0
LINE
  5
1556
  8
DIMENSIONS
  6
BYBLOCK
 62
     0
 10
491.2400226336173
 20
1296.373292371862
 30
0.0
 11
491.2400226336173
 21
1361.681129136596
 31
0.0
  0
LINE
  5
1557
  8
DIMENSIONS
  6
BYBLOCK
 62
     0
 10
151.2400226336114
 20
1361.501129136596
 30
0.0
 11
486.2400226336173
 21
1361.501129136596
 31
0.0
  0
SOLID
  5
1558
  8
DIMENSIONS
 62
     0
 10
151.2400226336114
 20
1362.334462469929
 30
0.0
 11
151.2400226336114
 21
1360.667795803263
 31
0.0
 12
146.2400226336114
 22
1361.501129136596
 32
0.0
 13
146.2400226336114
 23
1361.501129136596
 33
0.0
  0
SOLID
  5
1559
  8
DIMENSIONS
 62
     0
 10
486.2400226336173
 20
1360.667795803263
 30
0.0
 11
486.2400226336173
 21
1362.334462469929
 31
0.0
 12
491.2400226336173
 22
1361.501129136596
 32
0.0
 13
491.2400226336173
 23
1361.501129136596
 33
0.0
  0
TEXT
  5
155A
  8
DIMENSIONS
  6
CONTINUOUS
 62
     5
 10
301.3600226336143
 20
1363.896129136596
 30
0.0
 40
5.0
  1
345 [13.58]
  0
POINT
  5
155B
  8
DEFPOINTS
 62
     0
 10
146.2400226336114
 20
1294.873292371862
 30
0.0
  0
POINT
  5
155C
  8
DEFPOINTS
 62
     0
 10
491.2400226336173
 20
1294.873292371862
 30
0.0
  0
POINT
  5
155D
  8
DEFPOINTS
 62
     0
 10
491.2400226336173
 20
1361.501129136596
 30
0.0
  0
ENDBLK
  5
1554
  8
0
  0
BLOCK
  8
0
  2
*D239
 70
     1
 10
0.0
 20
0.0
 30
0.0
  3
*D239
  1

  0
LINE
  5
1564
  8
DIMENSIONS
  6
BYBLOCK
 62
     0
 10
136.7400226336114
 20
1291.873292371862
 30
0.0
 11
136.7400226336114
 21
1381.126240415032
 31
0.0
  0
LINE
  5
1565
  8
DIMENSIONS
  6
BYBLOCK
 62
     0
 10
500.7400226336114
 20
1291.873292371862
 30
0.0
 11
500.7400226336114
 21
1381.126240415032
 31
0.0
  0
LINE
  5
1566
  8
DIMENSIONS
  6
BYBLOCK
 62
     0
 10
141.7400226336114
 20
1380.946240415032
 30
0.0
 11
495.7400226336114
 21
1380.946240415032
 31
0.0
  0
SOLID
  5
1567
  8
DIMENSIONS
 62
     0
 10
141.7400226336114
 20
1381.779573748365
 30
0.0
 11
141.7400226336114
 21
1380.112907081699
 31
0.0
 12
136.7400226336114
 22
1380.946240415032
 32
0.0
 13
136.7400226336114
 23
1380.946240415032
 33
0.0
  0
SOLID
  5
1568
  8
DIMENSIONS
 62
     0
 10
495.7400226336114
 20
1380.112907081699
 30
0.0
 11
495.7400226336114
 21
1381.779573748365
 31
0.0
 12
500.7400226336114
 22
1380.946240415032
 32
0.0
 13
500.7400226336114
 23
1380.946240415032
 33
0.0
  0
TEXT
  5
1569
  8
DIMENSIONS
  6
CONTINUOUS
 62
     5
 10
301.3600226336114
 20
1383.341240415032
 30
0.0
 40
5.0
  1
364 [14.33]
  0
POINT
  5
156A
  8
DEFPOINTS
 62
     0
 10
136.7400226336114
 20
1290.373292371862
 30
0.0
  0
POINT
  5
156B
  8
DEFPOINTS
 62
     0
 10
500.7400226336114
 20
1290.373292371862
 30
0.0
  0
POINT
  5
156C
  8
DEFPOINTS
 62
     0
 10
500.7400226336114
 20
1380.946240415032
 30
0.0
  0
ENDBLK
  5
1563
  8
0
  0
BLOCK
  8
0
  2
*D240
 70
     1
 10
0.0
 20
0.0
 30
0.0
  3
*D240
  1

  0
LINE
  5
1573
  8
DIMENSIONS
  6
BYBLOCK
 62
     0
 10
121.2400226336114
 20
1321.373292371862
 30
0.0
 11
121.2400226336114
 21
1399.777673682104
 31
0.0
  0
LINE
  5
1574
  8
DIMENSIONS
  6
BYBLOCK
 62
     0
 10
516.2400226336152
 20
1321.373292371862
 30
0.0
 11
516.2400226336152
 21
1399.777673682104
 31
0.0
  0
LINE
  5
1575
  8
DIMENSIONS
  6
BYBLOCK
 62
     0
 10
126.2400226336114
 20
1399.597673682104
 30
0.0
 11
511.2400226336152
 21
1399.597673682104
 31
0.0
  0
SOLID
  5
1576
  8
DIMENSIONS
 62
     0
 10
126.2400226336114
 20
1400.431007015437
 30
0.0
 11
126.2400226336114
 21
1398.764340348771
 31
0.0
 12
121.2400226336114
 22
1399.597673682104
 32
0.0
 13
121.2400226336114
 23
1399.597673682104
 33
0.0
  0
SOLID
  5
1577
  8
DIMENSIONS
 62
     0
 10
511.2400226336152
 20
1398.764340348771
 30
0.0
 11
511.2400226336152
 21
1400.431007015437
 31
0.0
 12
516.2400226336152
 22
1399.597673682104
 32
0.0
 13
516.2400226336152
 23
1399.597673682104
 33
0.0
  0
TEXT
  5
1578
  8
DIMENSIONS
  6
CONTINUOUS
 62
     5
 10
301.3600226336133
 20
1401.992673682104
 30
0.0
 40
5.0
  1
395 [15.55]
  0
POINT
  5
1579
  8
DEFPOINTS
 62
     0
 10
121.2400226336114
 20
1319.873292371862
 30
0.0
  0
POINT
  5
157A
  8
DEFPOINTS
 62
     0
 10
516.2400226336152
 20
1319.873292371862
 30
0.0
  0
POINT
  5
157B
  8
DEFPOINTS
 62
     0
 10
516.2400226336152
 20
1399.597673682104
 30
0.0
  0
ENDBLK
  5
1572
  8
0
  0
BLOCK
  8
0
  2
*D241
 70
     1
 10
0.0
 20
0.0
 30
0.0
  3
*D241
  1

  0
LINE
  5
1583
  8
DIMENSIONS
  6
BYBLOCK
 62
     0
 10
119.7400226336114
 20
1319.873292371862
 30
0.0
 11
105.4870682867663
 21
1319.873292371862
 31
0.0
  0
LINE
  5
1584
  8
DIMENSIONS
  6
BYBLOCK
 62
     0
 10
135.2400226336114
 20
1290.373292371862
 30
0.0
 11
105.4870682867663
 21
1290.373292371862
 31
0.0
  0
LINE
  5
1585
  8
DIMENSIONS
  6
BYBLOCK
 62
     0
 10
105.6670682867663
 20
1314.873292371862
 30
0.0
 11
105.6670682867663
 21
1295.373292371862
 31
0.0
  0
SOLID
  5
1586
  8
DIMENSIONS
 62
     0
 10
106.5004016200997
 20
1314.873292371862
 30
0.0
 11
104.833734953433
 21
1314.873292371862
 31
0.0
 12
105.6670682867663
 22
1319.873292371862
 32
0.0
 13
105.6670682867663
 23
1319.873292371862
 33
0.0
  0
SOLID
  5
1587
  8
DIMENSIONS
 62
     0
 10
104.833734953433
 20
1295.373292371862
 30
0.0
 11
106.5004016200997
 21
1295.373292371862
 31
0.0
 12
105.6670682867663
 22
1290.373292371862
 32
0.0
 13
105.6670682867663
 23
1290.373292371862
 33
0.0
  0
TEXT
  5
1588
  8
DIMENSIONS
  6
CONTINUOUS
 62
     5
 10
96.1870682867659
 20
1288.758292371862
 30
0.0
 40
5.0
  1
29.5 [1.16]
 50
90.0
  0
POINT
  5
1589
  8
DEFPOINTS
 62
     0
 10
121.2400226336114
 20
1319.873292371862
 30
0.0
  0
POINT
  5
158A
  8
DEFPOINTS
 62
     0
 10
136.7400226336114
 20
1290.373292371862
 30
0.0
  0
POINT
  5
158B
  8
DEFPOINTS
 62
     0
 10
105.6670682867663
 20
1290.373292371862
 30
0.0
  0
ENDBLK
  5
1582
  8
0
  0
BLOCK
  8
0
  2
*D242
 70
     1
 10
0.0
 20
0.0
 30
0.0
  3
*D242
  1

  0
LINE
  5
1592
  8
DIMENSIONS
  6
BYBLOCK
 62
     0
 10
135.2400226336114
 20
1290.373292371862
 30
0.0
 11
105.4870682867663
 21
1290.373292371862
 31
0.0
  0
LINE
  5
1593
  8
DIMENSIONS
  6
BYBLOCK
 62
     0
 10
135.2400226336114
 20
893.3732923718613
 30
0.0
 11
105.4870682867663
 21
893.3732923718613
 31
0.0
  0
LINE
  5
1594
  8
DIMENSIONS
  6
BYBLOCK
 62
     0
 10
105.6670682867663
 20
1285.373292371862
 30
0.0
 11
105.6670682867663
 21
898.3732923718613
 31
0.0
  0
SOLID
  5
1595
  8
DIMENSIONS
 62
     0
 10
106.5004016200997
 20
1285.373292371862
 30
0.0
 11
104.833734953433
 21
1285.373292371862
 31
0.0
 12
105.6670682867663
 22
1290.373292371862
 32
0.0
 13
105.6670682867663
 23
1290.373292371862
 33
0.0
  0
SOLID
  5
1596
  8
DIMENSIONS
 62
     0
 10
104.833734953433
 20
898.3732923718613
 30
0.0
 11
106.5004016200996
 21
898.3732923718613
 31
0.0
 12
105.6670682867663
 22
893.3732923718613
 32
0.0
 13
105.6670682867663
 23
893.3732923718613
 33
0.0
  0
TEXT
  5
1597
  8
DIMENSIONS
  6
CONTINUOUS
 62
     5
 10
103.2720682867662
 20
1074.493292371862
 30
0.0
 40
5.0
  1
397 [15.63]
 50
90.0
  0
POINT
  5
1598
  8
DEFPOINTS
 62
     0
 10
136.7400226336114
 20
1290.373292371862
 30
0.0
  0
POINT
  5
1599
  8
DEFPOINTS
 62
     0
 10
136.7400226336114
 20
893.3732923718613
 30
0.0
  0
POINT
  5
159A
  8
DEFPOINTS
 62
     0
 10
105.6670682867663
 20
893.3732923718613
 30
0.0
  0
ENDBLK
  5
1591
  8
0
  0
BLOCK
  8
0
  2
*D243
 70
     1
 10
0.0
 20
0.0
 30
0.0
  3
*D243
  1

  0
LINE
  5
15A1
  8
DIMENSIONS
  6
BYBLOCK
 62
     0
 10
135.2400226336114
 20
893.3732923718613
 30
0.0
 11
105.4870682867663
 21
893.3732923718613
 31
0.0
  0
LINE
  5
15A2
  8
DIMENSIONS
  6
BYBLOCK
 62
     0
 10
164.7150226336133
 20
734.8732923718612
 30
0.0
 11
105.4870682867663
 21
734.8732923718612
 31
0.0
  0
LINE
  5
15A3
  8
DIMENSIONS
  6
BYBLOCK
 62
     0
 10
105.6670682867663
 20
888.3732923718613
 30
0.0
 11
105.6670682867663
 21
739.8732923718612
 31
0.0
  0
SOLID
  5
15A4
  8
DIMENSIONS
 62
     0
 10
106.5004016200996
 20
888.3732923718613
 30
0.0
 11
104.833734953433
 21
888.3732923718613
 31
0.0
 12
105.6670682867663
 22
893.3732923718613
 32
0.0
 13
105.6670682867663
 23
893.3732923718613
 33
0.0
  0
SOLID
  5
15A5
  8
DIMENSIONS
 62
     0
 10
104.833734953433
 20
739.8732923718612
 30
0.0
 11
106.5004016200996
 21
739.8732923718612
 31
0.0
 12
105.6670682867663
 22
734.8732923718612
 32
0.0
 13
105.6670682867663
 23
734.8732923718612
 33
0.0
  0
TEXT
  5
15A6
  8
DIMENSIONS
  6
CONTINUOUS
 62
     5
 10
103.2720682867663
 20
795.5407923718612
 30
0.0
 40
5.0
  1
158.5 [6.24]
 50
90.0
  0
POINT
  5
15A7
  8
DEFPOINTS
 62
     0
 10
136.7400226336114
 20
893.3732923718613
 30
0.0
  0
POINT
  5
15A8
  8
DEFPOINTS
 62
     0
 10
166.2150226336133
 20
734.8732923718612
 30
0.0
  0
POINT
  5
15A9
  8
DEFPOINTS
 62
     0
 10
105.6670682867663
 20
734.8732923718612
 30
0.0
  0
ENDBLK
  5
15A0
  8
0
  0
BLOCK
  8
0
  2
*D244
 70
     1
 10
0.0
 20
0.0
 30
0.0
  3
*D244
  1

  0
LINE
  5
15B0
  8
DIMENSIONS
  6
BYBLOCK
 62
     0
 10
164.7150226336133
 20
734.8732923718612
 30
0.0
 11
90.2126676265415
 21
734.8732923718612
 31
0.0
  0
LINE
  5
15B1
  8
DIMENSIONS
  6
BYBLOCK
 62
     0
 10
317.2400226336114
 20
712.8732923718621
 30
0.0
 11
90.2126676265415
 21
712.8732923718621
 31
0.0
  0
LINE
  5
15B2
  8
DIMENSIONS
  6
BYBLOCK
 62
     0
 10
90.39266762654151
 20
712.8732923718621
 30
0.0
 11
90.39266762654151
 21
679.3732923718621
 31
0.0
  0
LINE
  5
15B3
  8
DIMENSIONS
  6
BYBLOCK
 62
     0
 10
90.39266762654151
 20
729.8732923718612
 30
0.0
 11
90.39266762654151
 21
717.8732923718621
 31
0.0
  0
SOLID
  5
15B4
  8
DIMENSIONS
 62
     0
 10
91.22600095987484
 20
729.8732923718612
 30
0.0
 11
89.55933429320818
 21
729.8732923718612
 31
0.0
 12
90.39266762654151
 22
734.8732923718612
 32
0.0
 13
90.39266762654151
 23
734.8732923718612
 33
0.0
  0
SOLID
  5
15B5
  8
DIMENSIONS
 62
     0
 10
89.55933429320818
 20
717.8732923718621
 30
0.0
 11
91.22600095987484
 21
717.8732923718621
 31
0.0
 12
90.39266762654151
 22
712.8732923718621
 32
0.0
 13
90.39266762654151
 23
712.8732923718621
 33
0.0
  0
TEXT
  5
15B6
  8
DIMENSIONS
  6
CONTINUOUS
 62
     5
 10
87.99766762654156
 20
680.1682923718621
 30
0.0
 40
5.0
  1
22 [0.87]
 50
90.0
  0
POINT
  5
15B7
  8
DEFPOINTS
 62
     0
 10
166.2150226336133
 20
734.8732923718612
 30
0.0
  0
POINT
  5
15B8
  8
DEFPOINTS
 62
     0
 10
318.7400226336114
 20
712.8732923718621
 30
0.0
  0
POINT
  5
166D
  8
DEFPOINTS
 62
     0
 10
90.39266762654151
 20
712.8732923718621
 30
0.0
  0
ENDBLK
  5
15AF
  8
0
  0
BLOCK
  8
0
  2
*D245
 70
     1
 10
0.0
 20
0.0
 30
0.0
  3
*D245
  1

  0
LINE
  5
15BF
  8
DIMENSIONS
  6
BYBLOCK
 62
     0
 10
317.2400226336114
 20
712.8732923718621
 30
0.0
 11
105.4870682867663
 21
712.8732923718621
 31
0.0
  0
LINE
  5
15C0
  8
DIMENSIONS
  6
BYBLOCK
 62
     0
 10
135.2400226336114
 20
496.3732923718622
 30
0.0
 11
105.4870682867663
 21
496.3732923718622
 31
0.0
  0
LINE
  5
15C1
  8
DIMENSIONS
  6
BYBLOCK
 62
     0
 10
105.6670682867663
 20
707.8732923718621
 30
0.0
 11
105.6670682867663
 21
501.3732923718622
 31
0.0
  0
SOLID
  5
15C2
  8
DIMENSIONS
 62
     0
 10
106.5004016200996
 20
707.8732923718621
 30
0.0
 11
104.833734953433
 21
707.8732923718621
 31
0.0
 12
105.6670682867663
 22
712.8732923718621
 32
0.0
 13
105.6670682867663
 23
712.8732923718621
 33
0.0
  0
SOLID
  5
15C3
  8
DIMENSIONS
 62
     0
 10
104.8337349534329
 20
501.3732923718622
 30
0.0
 11
106.5004016200996
 21
501.3732923718622
 31
0.0
 12
105.6670682867663
 22
496.3732923718622
 32
0.0
 13
105.6670682867663
 23
496.3732923718622
 33
0.0
  0
TEXT
  5
15C4
  8
DIMENSIONS
  6
CONTINUOUS
 62
     5
 10
103.2720682867663
 20
586.3182923718621
 30
0.0
 40
5.0
  1
216.5 [8.52]
 50
90.0
  0
POINT
  5
15C5
  8
DEFPOINTS
 62
     0
 10
318.7400226336114
 20
712.8732923718621
 30
0.0
  0
POINT
  5
15C6
  8
DEFPOINTS
 62
     0
 10
136.7400226336114
 20
496.3732923718622
 30
0.0
  0
POINT
  5
15C7
  8
DEFPOINTS
 62
     0
 10
105.6670682867663
 20
496.3732923718622
 30
0.0
  0
ENDBLK
  5
15BE
  8
0
  0
BLOCK
  8
0
  2
*D246
 70
     1
 10
0.0
 20
0.0
 30
0.0
  3
*D246
  1

  0
LINE
  5
15CE
  8
DIMENSIONS
  6
BYBLOCK
 62
     0
 10
135.2400226336114
 20
496.3732923718622
 30
0.0
 11
105.4870682867663
 21
496.3732923718622
 31
0.0
  0
LINE
  5
15CF
  8
DIMENSIONS
  6
BYBLOCK
 62
     0
 10
135.2400226336114
 20
227.8732923718613
 30
0.0
 11
105.4870682867662
 21
227.8732923718613
 31
0.0
  0
LINE
  5
15D0
  8
DIMENSIONS
  6
BYBLOCK
 62
     0
 10
105.6670682867663
 20
491.3732923718622
 30
0.0
 11
105.6670682867663
 21
232.8732923718613
 31
0.0
  0
SOLID
  5
15D1
  8
DIMENSIONS
 62
     0
 10
106.5004016200996
 20
491.3732923718622
 30
0.0
 11
104.8337349534329
 21
491.3732923718622
 31
0.0
 12
105.6670682867663
 22
496.3732923718622
 32
0.0
 13
105.6670682867663
 23
496.3732923718622
 33
0.0
  0
SOLID
  5
15D2
  8
DIMENSIONS
 62
     0
 10
104.8337349534329
 20
232.8732923718613
 30
0.0
 11
106.5004016200996
 21
232.8732923718613
 31
0.0
 12
105.6670682867663
 22
227.8732923718613
 32
0.0
 13
105.6670682867663
 23
227.8732923718613
 33
0.0
  0
TEXT
  5
15D3
  8
DIMENSIONS
  6
CONTINUOUS
 62
     5
 10
103.2720682867663
 20
341.8782923718618
 30
0.0
 40
5.0
  1
268.5 [10.57]
 50
90.0
  0
POINT
  5
15D4
  8
DEFPOINTS
 62
     0
 10
136.7400226336114
 20
496.3732923718622
 30
0.0
  0
POINT
  5
15D5
  8
DEFPOINTS
 62
     0
 10
136.7400226336114
 20
227.8732923718613
 30
0.0
  0
POINT
  5
15D6
  8
DEFPOINTS
 62
     0
 10
105.6670682867663
 20
227.8732923718613
 30
0.0
  0
ENDBLK
  5
15CD
  8
0
  0
BLOCK
  8
0
  2
*D247
 70
     1
 10
0.0
 20
0.0
 30
0.0
  3
*D247
  1

  0
LINE
  5
15DD
  8
DIMENSIONS
  6
BYBLOCK
 62
     0
 10
135.2400226336114
 20
227.8732923718613
 30
0.0
 11
105.4870682867662
 21
227.8732923718613
 31
0.0
  0
LINE
  5
15DE
  8
DIMENSIONS
  6
BYBLOCK
 62
     0
 10
135.2400226336114
 20
99.37329237186134
 30
0.0
 11
105.4870682867662
 21
99.37329237186134
 31
0.0
  0
LINE
  5
15DF
  8
DIMENSIONS
  6
BYBLOCK
 62
     0
 10
105.6670682867663
 20
222.8732923718613
 30
0.0
 11
105.6670682867662
 21
104.3732923718613
 31
0.0
  0
SOLID
  5
15E0
  8
DIMENSIONS
 62
     0
 10
106.5004016200996
 20
222.8732923718613
 30
0.0
 11
104.8337349534329
 21
222.8732923718613
 31
0.0
 12
105.6670682867663
 22
227.8732923718613
 32
0.0
 13
105.6670682867663
 23
227.8732923718613
 33
0.0
  0
SOLID
  5
15E1
  8
DIMENSIONS
 62
     0
 10
104.8337349534329
 20
104.3732923718613
 30
0.0
 11
106.5004016200996
 21
104.3732923718613
 31
0.0
 12
105.6670682867662
 22
99.37329237186134
 32
0.0
 13
105.6670682867662
 23
99.37329237186134
 33
0.0
  0
TEXT
  5
15E2
  8
DIMENSIONS
  6
CONTINUOUS
 62
     5
 10
103.2720682867663
 20
145.0407923718613
 30
0.0
 40
5.0
  1
128.5 [5.06]
 50
90.0
  0
POINT
  5
15E3
  8
DEFPOINTS
 62
     0
 10
136.7400226336114
 20
227.8732923718613
 30
0.0
  0
POINT
  5
15E4
  8
DEFPOINTS
 62
     0
 10
136.7400226336114
 20
99.37329237186134
 30
0.0
  0
POINT
  5
15E5
  8
DEFPOINTS
 62
     0
 10
105.6670682867662
 20
99.37329237186134
 30
0.0
  0
ENDBLK
  5
15DC
  8
0
  0
BLOCK
  8
0
  2
*D248
 70
     1
 10
0.0
 20
0.0
 30
0.0
  3
*D248
  1

  0
LINE
  5
15EC
  8
DIMENSIONS
  6
BYBLOCK
 62
     0
 10
135.2400226336114
 20
99.37329237186134
 30
0.0
 11
88.78354735780539
 21
99.37329237186134
 31
0.0
  0
LINE
  5
15ED
  8
DIMENSIONS
  6
BYBLOCK
 62
     0
 10
164.7400226336114
 20
84.87329237186134
 30
0.0
 11
88.78354735780539
 21
84.87329237186134
 31
0.0
  0
LINE
  5
15EE
  8
DIMENSIONS
  6
BYBLOCK
 62
     0
 10
88.9635473578054
 20
84.87329237186134
 30
0.0
 11
88.9635473578054
 21
46.10829237186135
 31
0.0
  0
LINE
  5
15EF
  8
DIMENSIONS
  6
BYBLOCK
 62
     0
 10
88.9635473578054
 20
94.37329237186134
 30
0.0
 11
88.9635473578054
 21
89.87329237186134
 31
0.0
  0
SOLID
  5
15F0
  8
DIMENSIONS
 62
     0
 10
89.79688069113872
 20
94.37329237186134
 30
0.0
 11
88.13021402447207
 21
94.37329237186134
 31
0.0
 12
88.9635473578054
 22
99.37329237186134
 32
0.0
 13
88.9635473578054
 23
99.37329237186134
 33
0.0
  0
SOLID
  5
15F1
  8
DIMENSIONS
 62
     0
 10
88.13021402447207
 20
89.87329237186134
 30
0.0
 11
89.79688069113872
 21
89.87329237186134
 31
0.0
 12
88.9635473578054
 22
84.87329237186134
 32
0.0
 13
88.9635473578054
 23
84.87329237186134
 33
0.0
  0
TEXT
  5
15F2
  8
DIMENSIONS
  6
CONTINUOUS
 62
     5
 10
86.56854735780541
 20
46.34829237186135
 30
0.0
 40
5.0
  1
14.5 [0.57]
 50
90.0
  0
POINT
  5
15F3
  8
DEFPOINTS
 62
     0
 10
136.7400226336114
 20
99.37329237186134
 30
0.0
  0
POINT
  5
15F4
  8
DEFPOINTS
 62
     0
 10
166.2400226336114
 20
84.87329237186134
 30
0.0
  0
POINT
  5
166E
  8
DEFPOINTS
 62
     0
 10
88.9635473578054
 20
84.87329237186134
 30
0.0
  0
ENDBLK
  5
15EB
  8
0
  0
BLOCK
  8
0
  2
*D249
 70
     1
 10
0.0
 20
0.0
 30
0.0
  3
*D249
  1

  0
LINE
  5
15FB
  8
DIMENSIONS
  6
BYBLOCK
 62
     0
 10
164.7400226336114
 20
84.87329237186134
 30
0.0
 11
105.4870682867662
 21
84.87329237186134
 31
0.0
  0
LINE
  5
15FC
  8
DIMENSIONS
  6
BYBLOCK
 62
     0
 10
119.7400226336114
 20
69.87329237186225
 30
0.0
 11
105.4870682867662
 21
69.87329237186225
 31
0.0
  0
LINE
  5
15FD
  8
DIMENSIONS
  6
BYBLOCK
 62
     0
 10
105.6670682867662
 20
69.87329237186225
 30
0.0
 11
105.6670682867662
 21
36.92829237186226
 31
0.0
  0
LINE
  5
15FE
  8
DIMENSIONS
  6
BYBLOCK
 62
     0
 10
105.6670682867662
 20
79.87329237186134
 30
0.0
 11
105.6670682867662
 21
74.87329237186225
 31
0.0
  0
SOLID
  5
15FF
  8
DIMENSIONS
 62
     0
 10
106.5004016200996
 20
79.87329237186134
 30
0.0
 11
104.8337349534329
 21
79.87329237186134
 31
0.0
 12
105.6670682867662
 22
84.87329237186134
 32
0.0
 13
105.6670682867662
 23
84.87329237186134
 33
0.0
  0
SOLID
  5
1600
  8
DIMENSIONS
 62
     0
 10
104.8337349534329
 20
74.87329237186225
 30
0.0
 11
106.5004016200996
 21
74.87329237186225
 31
0.0
 12
105.6670682867662
 22
69.87329237186225
 32
0.0
 13
105.6670682867662
 23
69.87329237186225
 33
0.0
  0
TEXT
  5
1601
  8
DIMENSIONS
  6
CONTINUOUS
 62
     5
 10
103.2720682867663
 20
37.16829237186225
 30
0.0
 40
5.0
  1
15 [0.59]
 50
90.0
  0
POINT
  5
1602
  8
DEFPOINTS
 62
     0
 10
166.2400226336114
 20
84.87329237186134
 30
0.0
  0
POINT
  5
1603
  8
DEFPOINTS
 62
     0
 10
121.2400226336114
 20
69.87329237186225
 30
0.0
  0
POINT
  5
166F
  8
DEFPOINTS
 62
     0
 10
105.6670682867662
 20
69.87329237186225
 30
0.0
  0
ENDBLK
  5
15FA
  8
0
  0
BLOCK
  8
0
  2
*D250
 70
     1
 10
0.0
 20
0.0
 30
0.0
  3
*D250
  1

  0
LINE
  5
160A
  8
DIMENSIONS
  6
BYBLOCK
 62
     0
 10
135.2400226336114
 20
1290.373292371862
 30
0.0
 11
87.19007525539072
 21
1290.373292371862
 31
0.0
  0
LINE
  5
160B
  8
DIMENSIONS
  6
BYBLOCK
 62
     0
 10
164.7400226336114
 20
1304.873292371862
 30
0.0
 11
87.19007525539072
 21
1304.873292371862
 31
0.0
  0
LINE
  5
160C
  8
DIMENSIONS
  6
BYBLOCK
 62
     0
 10
87.37007525539073
 20
1304.873292371862
 30
0.0
 11
87.37007525539073
 21
1343.638292371862
 31
0.0
  0
LINE
  5
160D
  8
DIMENSIONS
  6
BYBLOCK
 62
     0
 10
87.37007525539073
 20
1295.373292371862
 30
0.0
 11
87.37007525539073
 21
1299.873292371862
 31
0.0
  0
SOLID
  5
160E
  8
DIMENSIONS
 62
     0
 10
86.5367419220574
 20
1295.373292371862
 30
0.0
 11
88.20340858872406
 21
1295.373292371862
 31
0.0
 12
87.37007525539073
 22
1290.373292371862
 32
0.0
 13
87.37007525539073
 23
1290.373292371862
 33
0.0
  0
SOLID
  5
160F
  8
DIMENSIONS
 62
     0
 10
88.20340858872406
 20
1299.873292371862
 30
0.0
 11
86.5367419220574
 21
1299.873292371862
 31
0.0
 12
87.37007525539073
 22
1304.873292371862
 32
0.0
 13
87.37007525539073
 23
1304.873292371862
 33
0.0
  0
TEXT
  5
1610
  8
DIMENSIONS
  6
CONTINUOUS
 62
     5
 10
84.9750752553905
 20
1310.113292371862
 30
0.0
 40
5.0
  1
14.5 [0.57]
 50
90.0
  0
POINT
  5
1611
  8
DEFPOINTS
 62
     0
 10
136.7400226336114
 20
1290.373292371862
 30
0.0
  0
POINT
  5
1612
  8
DEFPOINTS
 62
     0
 10
166.2400226336114
 20
1304.873292371862
 30
0.0
  0
POINT
  5
1670
  8
DEFPOINTS
 62
     0
 10
87.37007525539073
 20
1304.873292371862
 30
0.0
  0
ENDBLK
  5
1609
  8
0
  0
BLOCK
  8
0
  2
*D251
 70
     1
 10
0.0
 20
0.0
 30
0.0
  3
*D251
  1

  0
LINE
  5
1619
  8
DIMENSIONS
  6
BYBLOCK
 62
     0
 10
164.7400226336114
 20
1304.873292371862
 30
0.0
 11
105.5545650765958
 21
1304.873292371862
 31
0.0
  0
LINE
  5
161A
  8
DIMENSIONS
  6
BYBLOCK
 62
     0
 10
119.7400226336114
 20
1319.873292371862
 30
0.0
 11
105.5545650765958
 21
1319.873292371862
 31
0.0
  0
LINE
  5
161B
  8
DIMENSIONS
  6
BYBLOCK
 62
     0
 10
105.7345650765958
 20
1319.873292371862
 30
0.0
 11
105.7345650765958
 21
1352.818292371862
 31
0.0
  0
LINE
  5
161C
  8
DIMENSIONS
  6
BYBLOCK
 62
     0
 10
105.7345650765958
 20
1309.873292371862
 30
0.0
 11
105.7345650765958
 21
1314.873292371862
 31
0.0
  0
SOLID
  5
161D
  8
DIMENSIONS
 62
     0
 10
104.9012317432625
 20
1309.873292371862
 30
0.0
 11
106.5678984099291
 21
1309.873292371862
 31
0.0
 12
105.7345650765958
 22
1304.873292371862
 32
0.0
 13
105.7345650765958
 23
1304.873292371862
 33
0.0
  0
SOLID
  5
161E
  8
DIMENSIONS
 62
     0
 10
106.5678984099291
 20
1314.873292371862
 30
0.0
 11
104.9012317432625
 21
1314.873292371862
 31
0.0
 12
105.7345650765958
 22
1319.873292371862
 32
0.0
 13
105.7345650765958
 23
1319.873292371862
 33
0.0
  0
TEXT
  5
161F
  8
DIMENSIONS
  6
CONTINUOUS
 62
     5
 10
103.3395650765956
 20
1325.113292371862
 30
0.0
 40
5.0
  1
15 [0.59]
 50
90.0
  0
POINT
  5
1620
  8
DEFPOINTS
 62
     0
 10
166.2400226336114
 20
1304.873292371862
 30
0.0
  0
POINT
  5
1621
  8
DEFPOINTS
 62
     0
 10
121.2400226336114
 20
1319.873292371862
 30
0.0
  0
POINT
  5
1671
  8
DEFPOINTS
 62
     0
 10
105.7345650765958
 20
1319.873292371862
 30
0.0
  0
ENDBLK
  5
1618
  8
0
  0
BLOCK
  8
0
  2
*D252
 70
     1
 10
0.0
 20
0.0
 30
0.0
  3
*D252
  1

  0
LINE
  5
1628
  8
DIMENSIONS
  6
BYBLOCK
 62
     0
 10
517.7400226336152
 20
1319.873292371862
 30
0.0
 11
537.472457915357
 21
1319.873292371862
 31
0.0
  0
LINE
  5
1629
  8
DIMENSIONS
  6
BYBLOCK
 62
     0
 10
492.7400226336173
 20
1294.873292371862
 30
0.0
 11
537.472457915357
 21
1294.873292371862
 31
0.0
  0
LINE
  5
162A
  8
DIMENSIONS
  6
BYBLOCK
 62
     0
 10
537.2924579153571
 20
1294.873292371862
 30
0.0
 11
537.2924579153571
 21
1261.373292371862
 31
0.0
  0
LINE
  5
162B
  8
DIMENSIONS
  6
BYBLOCK
 62
     0
 10
537.2924579153571
 20
1314.873292371862
 30
0.0
 11
537.2924579153571
 21
1299.873292371862
 31
0.0
  0
SOLID
  5
162C
  8
DIMENSIONS
 62
     0
 10
538.1257912486905
 20
1314.873292371862
 30
0.0
 11
536.4591245820237
 21
1314.873292371862
 31
0.0
 12
537.2924579153571
 22
1319.873292371862
 32
0.0
 13
537.2924579153571
 23
1319.873292371862
 33
0.0
  0
SOLID
  5
162D
  8
DIMENSIONS
 62
     0
 10
536.4591245820237
 20
1299.873292371862
 30
0.0
 11
538.1257912486905
 21
1299.873292371862
 31
0.0
 12
537.2924579153571
 22
1294.873292371862
 32
0.0
 13
537.2924579153571
 23
1294.873292371862
 33
0.0
  0
TEXT
  5
162E
  8
DIMENSIONS
  6
CONTINUOUS
 62
     5
 10
534.8974579153569
 20
1262.168292371862
 30
0.0
 40
5.0
  1
25 [0.98]
 50
90.0
  0
POINT
  5
162F
  8
DEFPOINTS
 62
     0
 10
516.2400226336152
 20
1319.873292371862
 30
0.0
  0
POINT
  5
1630
  8
DEFPOINTS
 62
     0
 10
491.2400226336173
 20
1294.873292371862
 30
0.0
  0
POINT
  5
1672
  8
DEFPOINTS
 62
     0
 10
537.2924579153571
 20
1294.873292371862
 30
0.0
  0
ENDBLK
  5
1627
  8
0
  0
BLOCK
  8
0
  2
*D253
 70
     1
 10
0.0
 20
0.0
 30
0.0
  3
*D253
  1

  0
LINE
  5
1637
  8
DIMENSIONS
  6
BYBLOCK
 62
     0
 10
492.7400226336173
 20
1294.873292371862
 30
0.0
 11
537.472457915357
 21
1294.873292371862
 31
0.0
  0
LINE
  5
1638
  8
DIMENSIONS
  6
BYBLOCK
 62
     0
 10
492.7400226336173
 20
1059.873292371862
 30
0.0
 11
537.472457915357
 21
1059.873292371862
 31
0.0
  0
LINE
  5
1639
  8
DIMENSIONS
  6
BYBLOCK
 62
     0
 10
537.2924579153571
 20
1289.873292371862
 30
0.0
 11
537.2924579153571
 21
1064.873292371862
 31
0.0
  0
SOLID
  5
163A
  8
DIMENSIONS
 62
     0
 10
538.1257912486905
 20
1289.873292371862
 30
0.0
 11
536.4591245820237
 21
1289.873292371862
 31
0.0
 12
537.2924579153571
 22
1294.873292371862
 32
0.0
 13
537.2924579153571
 23
1294.873292371862
 33
0.0
  0
SOLID
  5
163B
  8
DIMENSIONS
 62
     0
 10
536.4591245820237
 20
1064.873292371862
 30
0.0
 11
538.1257912486905
 21
1064.873292371862
 31
0.0
 12
537.2924579153571
 22
1059.873292371862
 32
0.0
 13
537.2924579153571
 23
1059.873292371862
 33
0.0
  0
TEXT
  5
163C
  8
DIMENSIONS
  6
CONTINUOUS
 62
     5
 10
534.8974579153569
 20
1161.978292371862
 30
0.0
 40
5.0
  1
235 [9.25]
 50
90.0
  0
POINT
  5
163D
  8
DEFPOINTS
 62
     0
 10
491.2400226336173
 20
1294.873292371862
 30
0.0
  0
POINT
  5
163E
  8
DEFPOINTS
 62
     0
 10
491.2400226336173
 20
1059.873292371862
 30
0.0
  0
POINT
  5
163F
  8
DEFPOINTS
 62
     0
 10
537.2924579153571
 20
1059.873292371862
 30
0.0
  0
ENDBLK
  5
1636
  8
0
  0
BLOCK
  8
0
  2
*D254
 70
     1
 10
0.0
 20
0.0
 30
0.0
  3
*D254
  1

  0
LINE
  5
1646
  8
DIMENSIONS
  6
BYBLOCK
 62
     0
 10
492.7400226336173
 20
1059.873292371862
 30
0.0
 11
537.472457915357
 21
1059.873292371862
 31
0.0
  0
LINE
  5
1647
  8
DIMENSIONS
  6
BYBLOCK
 62
     0
 10
492.7400226336173
 20
694.8732923718621
 30
0.0
 11
537.472457915357
 21
694.8732923718621
 31
0.0
  0
LINE
  5
1648
  8
DIMENSIONS
  6
BYBLOCK
 62
     0
 10
537.2924579153571
 20
1054.873292371862
 30
0.0
 11
537.2924579153571
 21
699.8732923718621
 31
0.0
  0
SOLID
  5
1649
  8
DIMENSIONS
 62
     0
 10
538.1257912486905
 20
1054.873292371862
 30
0.0
 11
536.4591245820237
 21
1054.873292371862
 31
0.0
 12
537.2924579153571
 22
1059.873292371862
 32
0.0
 13
537.2924579153571
 23
1059.873292371862
 33
0.0
  0
SOLID
  5
164A
  8
DIMENSIONS
 62
     0
 10
536.4591245820237
 20
699.8732923718621
 30
0.0
 11
538.1257912486905
 21
699.8732923718621
 31
0.0
 12
537.2924579153571
 22
694.8732923718621
 32
0.0
 13
537.2924579153571
 23
694.8732923718621
 33
0.0
  0
TEXT
  5
164B
  8
DIMENSIONS
  6
CONTINUOUS
 62
     5
 10
534.8974579153571
 20
859.9932923718623
 30
0.0
 40
5.0
  1
365 [14.37]
 50
90.0
  0
POINT
  5
164C
  8
DEFPOINTS
 62
     0
 10
491.2400226336173
 20
1059.873292371862
 30
0.0
  0
POINT
  5
164D
  8
DEFPOINTS
 62
     0
 10
491.2400226336173
 20
694.8732923718621
 30
0.0
  0
POINT
  5
164E
  8
DEFPOINTS
 62
     0
 10
537.2924579153571
 20
694.8732923718621
 30
0.0
  0
ENDBLK
  5
1645
  8
0
  0
BLOCK
  8
0
  2
*D255
 70
     1
 10
0.0
 20
0.0
 30
0.0
  3
*D255
  1

  0
LINE
  5
1655
  8
DIMENSIONS
  6
BYBLOCK
 62
     0
 10
492.7400226336173
 20
694.8732923718621
 30
0.0
 11
537.472457915357
 21
694.8732923718621
 31
0.0
  0
LINE
  5
1656
  8
DIMENSIONS
  6
BYBLOCK
 62
     0
 10
492.7400226336173
 20
434.8732923718621
 30
0.0
 11
537.472457915357
 21
434.8732923718621
 31
0.0
  0
LINE
  5
1657
  8
DIMENSIONS
  6
BYBLOCK
 62
     0
 10
537.2924579153571
 20
689.8732923718621
 30
0.0
 11
537.2924579153571
 21
439.8732923718621
 31
0.0
  0
SOLID
  5
1658
  8
DIMENSIONS
 62
     0
 10
538.1257912486905
 20
689.8732923718621
 30
0.0
 11
536.4591245820237
 21
689.8732923718621
 31
0.0
 12
537.2924579153571
 22
694.8732923718621
 32
0.0
 13
537.2924579153571
 23
694.8732923718621
 33
0.0
  0
SOLID
  5
1659
  8
DIMENSIONS
 62
     0
 10
536.4591245820237
 20
439.8732923718621
 30
0.0
 11
538.1257912486905
 21
439.8732923718621
 31
0.0
 12
537.2924579153571
 22
434.8732923718621
 32
0.0
 13
537.2924579153571
 23
434.8732923718621
 33
0.0
  0
TEXT
  5
165A
  8
DIMENSIONS
  6
CONTINUOUS
 62
     5
 10
534.897457915357
 20
547.5382923718621
 30
0.0
 40
5.0
  1
260 [10.24]
 50
90.0
  0
POINT
  5
165B
  8
DEFPOINTS
 62
     0
 10
491.2400226336173
 20
694.8732923718621
 30
0.0
  0
POINT
  5
165C
  8
DEFPOINTS
 62
     0
 10
491.2400226336173
 20
434.8732923718621
 30
0.0
  0
POINT
  5
165D
  8
DEFPOINTS
 62
     0
 10
537.2924579153571
 20
434.8732923718621
 30
0.0
  0
ENDBLK
  5
1654
  8
0
  0
BLOCK
  8
0
  2
*D256
 70
     1
 10
0.0
 20
0.0
 30
0.0
  3
*D256
  1

  0
LINE
  5
1664
  8
DIMENSIONS
  6
BYBLOCK
 62
     0
 10
492.7400226336173
 20
434.8732923718621
 30
0.0
 11
537.472457915357
 21
434.8732923718621
 31
0.0
  0
LINE
  5
1665
  8
DIMENSIONS
  6
BYBLOCK
 62
     0
 10
517.7400226336152
 20
69.87329237186225
 30
0.0
 11
537.472457915357
 21
69.87329237186225
 31
0.0
  0
LINE
  5
1666
  8
DIMENSIONS
  6
BYBLOCK
 62
     0
 10
537.2924579153571
 20
429.8732923718621
 30
0.0
 11
537.2924579153571
 21
74.87329237186225
 31
0.0
  0
SOLID
  5
1667
  8
DIMENSIONS
 62
     0
 10
538.1257912486905
 20
429.8732923718621
 30
0.0
 11
536.4591245820237
 21
429.8732923718621
 31
0.0
 12
537.2924579153571
 22
434.8732923718621
 32
0.0
 13
537.2924579153571
 23
434.8732923718621
 33
0.0
  0
SOLID
  5
1668
  8
DIMENSIONS
 62
     0
 10
536.4591245820237
 20
74.87329237186225
 30
0.0
 11
538.1257912486905
 21
74.87329237186225
 31
0.0
 12
537.2924579153571
 22
69.87329237186225
 32
0.0
 13
537.2924579153571
 23
69.87329237186225
 33
0.0
  0
TEXT
  5
1669
  8
DIMENSIONS
  6
CONTINUOUS
 62
     5
 10
534.8974579153572
 20
234.9932923718622
 30
0.0
 40
5.0
  1
365 [14.37]
 50
90.0
  0
POINT
  5
166A
  8
DEFPOINTS
 62
     0
 10
491.2400226336173
 20
434.8732923718621
 30
0.0
  0
POINT
  5
166B
  8
DEFPOINTS
 62
     0
 10
516.2400226336152
 20
69.87329237186225
 30
0.0
  0
POINT
  5
166C
  8
DEFPOINTS
 62
     0
 10
537.2924579153571
 20
69.87329237186225
 30
0.0
  0
ENDBLK
  5
1663
  8
0
  0
BLOCK
  8
0
  2
*D257
 70
     1
 10
0.0
 20
0.0
 30
0.0
  3
*D257
  1

  0
LINE
  5
1679
  8
DIMENSIONS
  6
BYBLOCK
 62
     0
 10
492.240057328405
 20
99.39757838200214
 30
0.0
 11
447.227673661928
 21
99.52618728414855
 31
0.0
  0
TEXT
  5
167A
  8
DIMENSIONS
  6
CONTINUOUS
 62
     5
 10
447.9547422377923
 20
101.9991200139232
 30
0.0
 40
5.0
  1
Ø7 [Ø0.28]
 50
359.8362955558223
  0
SOLID
  5
167B
  8
DIMENSIONS
 62
     0
 10
492.2376763470186
 20
98.56424845011917
 30
0.0
 11
492.2424383097913
 21
100.2309083138851
 31
0.0
 12
497.2400369197028
 22
99.38329249368402
 32
0.0
 13
497.2400369197028
 23
99.38329249368402
 33
0.0
  0
LINE
  5
167C
  8
DIMENSIONS
  6
BYBLOCK
 62
     0
 10
498.2400226336114
 20
99.37329237186134
 30
0.0
 11
503.2400226336114
 21
99.37329237186134
 31
0.0
  0
LINE
  5
167D
  8
DIMENSIONS
  6
BYBLOCK
 62
     0
 10
500.7400226336114
 20
96.87329237186134
 30
0.0
 11
500.7400226336114
 21
101.8732923718613
 31
0.0
  0
POINT
  5
167E
  8
DEFPOINTS
 62
     0
 10
497.2400369197028
 20
99.38329249368402
 30
0.0
  0
POINT
  5
167F
  8
DEFPOINTS
 62
     0
 10
504.2400083475198
 20
99.36329225003867
 30
0.0
  0
ENDBLK
  5
1678
  8
0
  0
BLOCK
  8
0
  2
*D259
 70
     1
 10
0.0
 20
0.0
 30
0.0
  3
*D259
  1

  0
LINE
  5
16C5
  8
DIMENSIONS
  6
BYBLOCK
 62
     0
 10
125.8521565501022
 20
1318.344270285717
 30
0.0
 11
125.8521565501022
 21
1332.759691100365
 31
0.0
  0
LINE
  5
16C6
  8
DIMENSIONS
  6
BYBLOCK
 62
     0
 10
501.8521565501013
 20
1318.344270285717
 30
0.0
 11
501.8521565501013
 21
1332.759691100365
 31
0.0
  0
LINE
  5
16C7
  8
DIMENSIONS
  6
BYBLOCK
 62
     0
 10
130.8521565501022
 20
1332.579691100364
 30
0.0
 11
496.8521565501013
 21
1332.579691100364
 31
0.0
  0
SOLID
  5
16C8
  8
DIMENSIONS
 62
     0
 10
130.8521565501022
 20
1333.413024433698
 30
0.0
 11
130.8521565501022
 21
1331.746357767031
 31
0.0
 12
125.8521565501022
 22
1332.579691100364
 32
0.0
 13
125.8521565501022
 23
1332.579691100364
 33
0.0
  0
SOLID
  5
16C9
  8
DIMENSIONS
 62
     0
 10
496.8521565501013
 20
1331.746357767031
 30
0.0
 11
496.8521565501013
 21
1333.413024433698
 31
0.0
 12
501.8521565501013
 22
1332.579691100364
 32
0.0
 13
501.8521565501013
 23
1332.579691100364
 33
0.0
  0
TEXT
  5
16CA
  8
DIMENSIONS
  6
CONTINUOUS
 62
     5
 10
296.4721565501018
 20
1334.974691100365
 30
0.0
 40
5.0
  1
376 [14.80]
  0
POINT
  5
16CB
  8
DEFPOINTS
 62
     0
 10
125.8521565501022
 20
1316.844270285717
 30
0.0
  0
POINT
  5
16CC
  8
DEFPOINTS
 62
     0
 10
501.8521565501013
 20
1316.844270285717
 30
0.0
  0
POINT
  5
16CD
  8
DEFPOINTS
 62
     0
 10
501.8521565501013
 20
1332.579691100364
 30
0.0
  0
ENDBLK
  5
16C4
  8
0
  0
BLOCK
  8
0
  2
*D260
 70
     1
 10
0.0
 20
0.0
 30
0.0
  3
*D260
  1

  0
LINE
  5
16D4
  8
DIMENSIONS
  6
BYBLOCK
 62
     0
 10
124.3521565501022
 20
1316.844270285717
 30
0.0
 11
107.0907384451235
 21
1316.844270285717
 31
0.0
  0
LINE
  5
16D5
  8
DIMENSIONS
  6
BYBLOCK
 62
     0
 10
124.3521565501022
 20
85.84427028571662
 30
0.0
 11
107.0907384451234
 21
85.84427028571662
 31
0.0
  0
LINE
  5
16D6
  8
DIMENSIONS
  6
BYBLOCK
 62
     0
 10
107.2707384451235
 20
1311.844270285717
 30
0.0
 11
107.2707384451235
 21
90.84427028571662
 31
0.0
  0
SOLID
  5
16D7
  8
DIMENSIONS
 62
     0
 10
108.1040717784569
 20
1311.844270285717
 30
0.0
 11
106.4374051117902
 21
1311.844270285717
 31
0.0
 12
107.2707384451235
 22
1316.844270285717
 32
0.0
 13
107.2707384451235
 23
1316.844270285717
 33
0.0
  0
SOLID
  5
16D8
  8
DIMENSIONS
 62
     0
 10
106.4374051117901
 20
90.84427028571662
 30
0.0
 11
108.1040717784568
 21
90.84427028571662
 31
0.0
 12
107.2707384451235
 22
85.84427028571662
 32
0.0
 13
107.2707384451235
 23
85.84427028571662
 33
0.0
  0
TEXT
  5
16D9
  8
DIMENSIONS
  6
CONTINUOUS
 62
     5
 10
104.8757384451235
 20
681.7917702857169
 30
0.0
 40
5.0
  1
1231 [48.46]
 50
90.0
  0
POINT
  5
16DA
  8
DEFPOINTS
 62
     0
 10
125.8521565501022
 20
1316.844270285717
 30
0.0
  0
POINT
  5
16DB
  8
DEFPOINTS
 62
     0
 10
125.8521565501022
 20
85.84427028571662
 30
0.0
  0
POINT
  5
16DC
  8
DEFPOINTS
 62
     0
 10
107.2707384451235
 20
85.84427028571662
 30
0.0
  0
ENDBLK
  5
16D3
  8
0
  0
ENDSEC
  0
SECTION
  2
ENTITIES
  0
TEXT
  5
698
  8
DIMENSIONS
  6
BYBLOCK
 10
129.0816778181092
 20
52.29859126967554
 30
0.0
 40
5.0
  1
Note:
  0
TEXT
  5
699
  8
DIMENSIONS
  6
BYBLOCK
 10
129.2156038583947
 20
41.76962342168248
 30
0.0
 40
5.0
  1
Primary dimensions in millimeters.
  0
TEXT
  5
69A
  8
DIMENSIONS
  6
BYBLOCK
 10
129.4370177947848
 20
31.19759781289841
 30
0.0
 40
5.0
  1
Secondary dimensions in inches.
  0
LINE
  5
16BB
  8
0
 10
125.8521565501022
 20
1316.844270285717
 30
0.0
 11
501.8521565501013
 21
1316.844270285717
 31
0.0
  0
LINE
  5
16BC
  8
0
 10
501.8521565501013
 20
1316.844270285717
 30
0.0
 11
501.8521565501013
 21
85.84427028571662
 31
0.0
  0
LINE
  5
16BD
  8
0
 10
501.8521565501013
 20
85.84427028571662
 30
0.0
 11
125.8521565501022
 21
85.84427028571662
 31
0.0
  0
LINE
  5
16BE
  8
0
 10
125.8521565501022
 20
85.84427028571662
 30
0.0
 11
125.8521565501022
 21
1316.844270285717
 31
0.0
  0
DIMENSION
  5
16BF
  8
DIMENSIONS
  6
BYBLOCK
  2
*D259
 10
501.8521565501013
 20
1332.579691100364
 30
0.0
 11
313.8521565501018
 21
1336.782191100365
 31
0.0
 70
    32
  3
DUAL-DIM
 13
125.8521565501022
 23
1316.844270285717
 33
0.0
 14
501.8521565501013
 24
1316.844270285717
 34
0.0
1001
ACAD
1000
DSTYLE
1002
{
1070
   287
1070
     5
1070
   279
1070
     2
1002
}
  0
DIMENSION
  5
16CE
  8
DIMENSIONS
  6
BYBLOCK
  2
*D260
 10
107.2707384451235
 20
85.84427028571662
 30
0.0
 11
103.0682384451235
 21
701.3442702857169
 31
0.0
 70
    32
  3
DUAL-DIM
 13
125.8521565501022
 23
1316.844270285717
 33
0.0
 14
125.8521565501022
 24
85.84427028571662
 34
0.0
 50
90.0
1001
ACAD
1000
DSTYLE
1002
{
1070
   287
1070
     5
1070
   279
1070
     2
1002
}
  0
POLYLINE
  5
16DD
  8
0
  6
BYBLOCK
 66
     1
 10
0.0
 20
0.0
 30
0.0
 70
     1
  0
VERTEX
  5
16DE
  8
0
  6
BYBLOCK
 10
71.68948320637162
 20
16.42373109062379
 30
0.0
  0
VERTEX
  5
16DF
  8
0
  6
BYBLOCK
 10
71.68948320637162
 20
1369.602553535627
 30
0.0
  0
VERTEX
  5
16E0
  8
0
  6
BYBLOCK
 10
542.0947623407524
 20
1369.602553535627
 30
0.0
  0
VERTEX
  5
16E1
  8
0
  6
BYBLOCK
 10
542.0947623407524
 20
16.42373109062379
 30
0.0
  0
SEQEND
  5
16E2
  8
0
  6
BYBLOCK
  0
ENDSEC
  0
EOF
