  0
SECTION
  2
HEADER
  9
$ACADVER
  1
AC1009
  9
$DWGCODEPAGE
  3
ansi_1252
  9
$INSBASE
 10
0.0
 20
0.0
 30
0.0
  9
$EXTMIN
 10
-32.95941055779554
 20
13.4919107503917
 30
0.0
  9
$EXTMAX
 10
677.9385471281586
 20
1429.929298803059
 30
0.0
  9
$LIMMIN
 10
0.0
 20
0.0
  9
$LIMMAX
 10
594.0
 20
420.0
  9
$ORTHOMODE
 70
     0
  9
$REGENMODE
 70
     1
  9
$FILLMODE
 70
     1
  9
$QTEXTMODE
 70
     0
  9
$MIRRTEXT
 70
     1
  9
$DRAGMODE
 70
     2
  9
$LTSCALE
 40
32.67
  9
$OSMODE
 70
   511
  9
$ATTMODE
 70
     1
  9
$TEXTSIZE
 40
0.2
  9
$TRACEWID
 40
0.05
  9
$TEXTSTYLE
  7
STANDARD
  9
$CLAYER
  8
0
  9
$CELTYPE
  6
BYBLOCK
  9
$CECOLOR
 62
   256
  9
$DIMSCALE
 40
1.0
  9
$DIMASZ
 40
5.0
  9
$DIMEXO
 40
1.5
  9
$DIMDLI
 40
1.0
  9
$DIMRND
 40
0.0
  9
$DIMDLE
 40
0.0
  9
$DIMEXE
 40
0.18
  9
$DIMTP
 40
0.0
  9
$DIMTM
 40
0.0
  9
$DIMTXT
 40
5.0
  9
$DIMCEN
 40
2.5
  9
$DIMTSZ
 40
0.0
  9
$DIMTOL
 70
     0
  9
$DIMLIM
 70
     0
  9
$DIMTIH
 70
     0
  9
$DIMTOH
 70
     0
  9
$DIMSE1
 70
     0
  9
$DIMSE2
 70
     0
  9
$DIMTAD
 70
     1
  9
$DIMZIN
 70
     8
  9
$DIMBLK
  1

  9
$DIMASO
 70
     1
  9
$DIMSHO
 70
     1
  9
$DIMPOST
  1

  9
$DIMAPOST
  1

  9
$DIMALT
 70
     1
  9
$DIMALTD
 70
     2
  9
$DIMALTF
 40
0.03937
  9
$DIMLFAC
 40
1.0
  9
$DIMTOFL
 70
     0
  9
$DIMTVP
 40
0.0
  9
$DIMTIX
 70
     0
  9
$DIMSOXD
 70
     0
  9
$DIMSAH
 70
     0
  9
$DIMBLK1
  1

  9
$DIMBLK2
  1

  9
$DIMSTYLE
  2
DUAL-DIM
  9
$DIMCLRD
 70
     0
  9
$DIMCLRE
 70
     0
  9
$DIMCLRT
 70
     5
  9
$DIMTFAC
 40
1.0
  9
$DIMGAP
 40
1.0
  9
$LUNITS
 70
     2
  9
$LUPREC
 70
     4
  9
$SKETCHINC
 40
0.1
  9
$FILLETRAD
 40
15.0
  9
$AUNITS
 70
     0
  9
$AUPREC
 70
     0
  9
$MENU
  1
.
  9
$ELEVATION
 40
0.0
  9
$PELEVATION
 40
0.0
  9
$THICKNESS
 40
0.0
  9
$LIMCHECK
 70
     0
  9
$CHAMFERA
 40
0.0
  9
$CHAMFERB
 40
0.0
  9
$SKPOLY
 70
     0
  9
$TDCREATE
 40
2457428.354677859
  9
$TDUPDATE
 40
2457438.485941783
  9
$TDINDWG
 40
0.0642316551
  9
$TDUSRTIMER
 40
2457438.43987522
  9
$USRTIMER
 70
     1
  9
$ANGBASE
 50
0.0
  9
$ANGDIR
 70
     0
  9
$PDMODE
 70
     3
  9
$PDSIZE
 40
0.3125
  9
$PLINEWID
 40
0.0
  9
$COORDS
 70
     2
  9
$SPLFRAME
 70
     0
  9
$SPLINETYPE
 70
     6
  9
$SPLINESEGS
 70
     8
  9
$ATTDIA
 70
     0
  9
$ATTREQ
 70
     1
  9
$HANDLING
 70
     1
  9
$HANDSEED
  5
16AE
  9
$SURFTAB1
 70
     6
  9
$SURFTAB2
 70
     6
  9
$SURFTYPE
 70
     6
  9
$SURFU
 70
     6
  9
$SURFV
 70
     6
  9
$UCSNAME
  2

  9
$UCSORG
 10
0.0
 20
0.0
 30
0.0
  9
$UCSXDIR
 10
1.0
 20
0.0
 30
0.0
  9
$UCSYDIR
 10
0.0
 20
1.0
 30
0.0
  9
$PUCSNAME
  2

  9
$PUCSORG
 10
0.0
 20
0.0
 30
0.0
  9
$PUCSXDIR
 10
1.0
 20
0.0
 30
0.0
  9
$PUCSYDIR
 10
0.0
 20
1.0
 30
0.0
  9
$USERI1
 70
     0
  9
$USERI2
 70
     0
  9
$USERI3
 70
     0
  9
$USERI4
 70
     0
  9
$USERI5
 70
     0
  9
$USERR1
 40
0.0
  9
$USERR2
 40
0.0
  9
$USERR3
 40
0.0
  9
$USERR4
 40
0.0
  9
$USERR5
 40
0.0
  9
$WORLDVIEW
 70
     1
  9
$SHADEDGE
 70
     3
  9
$SHADEDIF
 70
    70
  9
$TILEMODE
 70
     1
  9
$MAXACTVP
 70
    64
  9
$PLIMCHECK
 70
     0
  9
$PEXTMIN
 10
1.000000000000000E+20
 20
1.000000000000000E+20
 30
1.000000000000000E+20
  9
$PEXTMAX
 10
-1.000000000000000E+20
 20
-1.000000000000000E+20
 30
-1.000000000000000E+20
  9
$PLIMMIN
 10
0.0
 20
0.0
  9
$PLIMMAX
 10
0.0
 20
0.0
  9
$UNITMODE
 70
     0
  9
$VISRETAIN
 70
     1
  9
$PLINEGEN
 70
     0
  9
$PSLTSCALE
 70
     1
  0
ENDSEC
  0
SECTION
  2
TABLES
  0
TABLE
  2
VPORT
 70
     1
  0
VPORT
  2
*ACTIVE
 70
     0
 10
0.0
 20
0.0
 11
1.0
 21
1.0
 12
1469.230113413231
 22
757.0713032844251
 13
0.0
 23
0.0
 14
0.5
 24
0.5
 15
0.5
 25
0.5
 16
0.0
 26
0.0
 36
1.0
 17
0.0
 27
0.0
 37
0.0
 40
1587.324173342832
 41
2.450549450549451
 42
50.0
 43
0.0
 44
0.0
 50
0.0
 51
0.0
 71
    16
 72
   100
 73
     1
 74
     3
 75
     0
 76
     0
 77
     0
 78
     2
  0
ENDTAB
  0
TABLE
  2
LTYPE
 70
     6
  0
LTYPE
  2
CONTINUOUS
 70
     0
  3
Solid line
 72
    65
 73
     0
 40
0.0
  0
LTYPE
  2
CENTER
 70
     0
  3
____ _ ____ _ ____ _ ____ _ ____ _ ____ _ ____
 72
    65
 73
     4
 40
0.6
 49
0.375
 49
-0.075
 49
0.075
 49
-0.075
  0
LTYPE
  2
HIDDEN
 70
     0
  3
- - - - - - - - - - - - - - - - - - - -
 72
    65
 73
     2
 40
0.2
 49
0.1
 49
-0.1
  0
LTYPE
  2
PHANTOM
 70
     0
  3
_____ _ _ _____ _ _ _____ _ _ _____
 72
    65
 73
     6
 40
0.8
 49
0.45
 49
-0.05
 49
0.1
 49
-0.05
 49
0.1
 49
-0.05
  0
LTYPE
  2
DOT
 70
     0
  3
. . . . . . . . . . . . . . . . . . . .
 72
    65
 73
     2
 40
0.2
 49
0.1
 49
-0.1
  0
LTYPE
  2
DASHED
 70
     0
  3
- - - - - - - - - - - - - - - - - - - -
 72
    65
 73
     2
 40
0.2
 49
0.1
 49
-0.1
  0
ENDTAB
  0
TABLE
  2
LAYER
 70
    15
  0
LAYER
  2
0
 70
     0
 62
     7
  6
CONTINUOUS
  0
LAYER
  2
DEFAULT_1
 70
     0
 62
     7
  6
CENTER
  0
LAYER
  2
DEFAULT_2
 70
     0
 62
     8
  6
HIDDEN
  0
LAYER
  2
DEFAULT_3
 70
     0
 62
     7
  6
PHANTOM
  0
LAYER
  2
01___PRT_ALL_DTM_PLN
 70
     0
 62
     7
  6
CONTINUOUS
  0
LAYER
  2
01___PRT_DEF_DTM_PLN
 70
     0
 62
     7
  6
CONTINUOUS
  0
LAYER
  2
02___PRT_ALL_AXES
 70
     0
 62
     7
  6
CONTINUOUS
  0
LAYER
  2
03___PRT_ALL_CURVES
 70
     0
 62
     7
  6
CONTINUOUS
  0
LAYER
  2
04___PRT_ALL_DTM_PNT
 70
     0
 62
     7
  6
CONTINUOUS
  0
LAYER
  2
05___PRT_ALL_DTM_CSYS
 70
     0
 62
     7
  6
CONTINUOUS
  0
LAYER
  2
05___PRT_DEF_DTM_CSYS
 70
     0
 62
     7
  6
CONTINUOUS
  0
LAYER
  2
06___PRT_ALL_SURFS
 70
     0
 62
     7
  6
CONTINUOUS
  0
LAYER
  2
DEFPOINTS
 70
     0
 62
     7
  6
CONTINUOUS
  0
LAYER
  2
DIMENSIONS
 70
     0
 62
     2
  6
CONTINUOUS
  0
LAYER
  2
AM_5
 70
     0
 62
     3
  6
CONTINUOUS
  0
ENDTAB
  0
TABLE
  2
STYLE
 70
     2
  0
STYLE
  2
STANDARD
 70
     0
 40
0.0
 41
1.0
 50
0.0
 71
     0
 42
0.2
  3
arial.ttf
  4

  0
STYLE
  2
TEXTSTYLE_1
 70
     0
 40
0.0
 41
0.8
 50
0.0
 71
     0
 42
0.2
  3
gdt
  4

  0
ENDTAB
  0
TABLE
  2
VIEW
 70
     0
  0
ENDTAB
  0
TABLE
  2
UCS
 70
     0
  0
ENDTAB
  0
TABLE
  2
APPID
 70
    11
  0
APPID
  2
ACAD
 70
     0
  0
APPID
  2
ACAECLAYERSTANDARD
 70
     0
  0
APPID
  2
ACAD_DSTYLE_DIMRADIAL_EXTE
 70
     0
  0
APPID
  2
ACAD_DSTYLE_DIMJOGGED_JOGA
 70
     0
  0
APPID
  2
ACAD_DSTYLE_DIMJAG
 70
     0
  0
APPID
  2
ACAD_DSTYLE_DIMBREAK
 70
     0
  0
APPID
  2
ACAD_PSEXT
 70
     0
  0
APPID
  2
ACAD_DSTYLE_DIMINSPECT
 70
     0
  0
APPID
  2
ACAD_DSTYLE_DIMRADIAL_EXT0
 70
     0
  0
APPID
  2
ACAD_DSTYLE_DIMJOGGED_JOG0
 70
     0
  0
APPID
  2
ACAD_DSTYLE_DIMTALN
 70
     0
  0
ENDTAB
  0
TABLE
  2
DIMSTYLE
 70
     6
  0
DIMSTYLE
  2
STANDARD
 70
     0
  3

  4

  5

  6

  7

 40
1.0
 41
0.18
 42
0.0625
 43
0.38
 44
0.18
 45
0.0
 46
0.0
 47
0.0
 48
0.0
140
0.18
141
0.09
142
0.0
143
25.4
144
1.0
145
0.0
146
1.0
147
0.09
 71
     0
 72
     0
 73
     1
 74
     1
 75
     0
 76
     0
 77
     0
 78
     0
170
     0
171
     2
172
     0
173
     0
174
     0
175
     0
176
     0
177
     0
178
     0
  0
DIMSTYLE
  2
DUAL-DIM
 70
     0
  3

  4

  5

  6

  7

 40
1.0
 41
5.0
 42
1.5
 43
1.0
 44
0.18
 45
0.0
 46
0.0
 47
0.0
 48
0.0
140
5.0
141
2.5
142
0.0
143
0.03937
144
1.0
145
0.0
146
1.0
147
1.0
 71
     0
 72
     0
 73
     0
 74
     0
 75
     0
 76
     0
 77
     1
 78
     8
170
     1
171
     2
172
     0
173
     0
174
     0
175
     0
176
     0
177
     0
178
     5
  0
DIMSTYLE
  2
AM_ISO
 70
     0
  3

  4
"
  5

  6

  7

 40
1.0
 41
3.5
 42
1.0
 43
10.0
 44
1.0
 45
0.0
 46
0.0
 47
0.1
 48
0.1
140
3.5
141
0.0
142
0.0
143
0.0393701
144
1.0
145
0.0
146
0.71
147
1.5
 71
     0
 72
     0
 73
     0
 74
     0
 75
     0
 76
     0
 77
     1
 78
     8
170
     0
171
     2
172
     1
173
     0
174
     0
175
     0
176
   256
177
   256
178
     2
  0
DIMSTYLE
  2
AM_ISO$3
 70
     0
  3

  4
"
  5

  6

  7

 40
1.0
 41
3.5
 42
1.0
 43
10.0
 44
1.0
 45
0.0
 46
0.0
 47
0.1
 48
0.1
140
3.5
141
0.0
142
0.0
143
0.0393701
144
1.0
145
0.0
146
0.71
147
1.5
 71
     0
 72
     0
 73
     0
 74
     1
 75
     0
 76
     0
 77
     1
 78
     8
170
     0
171
     2
172
     0
173
     0
174
     0
175
     0
176
   256
177
   256
178
     2
  0
DIMSTYLE
  2
AM_ISO$0
 70
     0
  3

  4
"
  5

  6

  7

 40
1.0
 41
3.5
 42
1.0
 43
10.0
 44
1.0
 45
0.0
 46
0.0
 47
0.1
 48
0.1
140
3.5
141
0.0
142
0.0
143
0.0393701
144
1.0
145
0.0
146
0.71
147
1.5
 71
     0
 72
     0
 73
     0
 74
     0
 75
     0
 76
     0
 77
     1
 78
     8
170
     0
171
     2
172
     1
173
     0
174
     0
175
     0
176
   256
177
   256
178
     2
  0
DIMSTYLE
  2
STANDARD$0
 70
     0
  3

  4

  5

  6

  7

 40
16.5
 41
0.18
 42
0.0625
 43
0.38
 44
0.18
 45
0.0
 46
0.0
 47
0.0
 48
0.0
140
0.18
141
0.09
142
0.0
143
25.4
144
1.0
145
0.0
146
1.0
147
0.09
 71
     0
 72
     0
 73
     1
 74
     1
 75
     0
 76
     0
 77
     0
 78
     0
170
     0
171
     2
172
     0
173
     0
174
     0
175
     0
176
     0
177
     0
178
     0
  0
ENDTAB
  0
ENDSEC
  0
SECTION
  2
BLOCKS
  0
BLOCK
  8
0
  2
$MODEL_SPACE
 70
     0
 10
0.0
 20
0.0
 30
0.0
  3
$MODEL_SPACE
  1

  0
ENDBLK
  5
110
  8
0
  0
BLOCK
 67
     1
  8
0
  2
$PAPER_SPACE
 70
     0
 10
0.0
 20
0.0
 30
0.0
  3
$PAPER_SPACE
  1

  0
ENDBLK
  5
112
 67
     1
  8
0
  0
BLOCK
  8
0
  2
_FILLED
 70
     0
 10
0.0
 20
0.0
 30
0.0
  3
_FILLED
  1

  0
SOLID
  5
3D
  8
0
  6
BYBLOCK
 62
     0
 10
0.0
 20
0.0
 30
0.0
 11
-1.0
 21
0.2
 31
0.0
 12
-1.0
 22
-0.2
 32
0.0
 13
-1.0
 23
-0.2
 33
0.0
  0
ENDBLK
  5
3E
  8
0
  6
BYBLOCK
 62
     0
  0
BLOCK
  8
0
  2
*D237
 70
     1
 10
0.0
 20
0.0
 30
0.0
  3
*D237
  1

  0
LINE
  5
1546
  8
DIMENSIONS
  6
BYBLOCK
 62
     0
 10
166.2400226336114
 20
1306.373292371862
 30
0.0
 11
166.2400226336114
 21
1340.64866183543
 31
0.0
  0
LINE
  5
1547
  8
DIMENSIONS
  6
BYBLOCK
 62
     0
 10
471.2400226336114
 20
1306.373292371862
 30
0.0
 11
471.2400226336114
 21
1340.64866183543
 31
0.0
  0
LINE
  5
1548
  8
DIMENSIONS
  6
BYBLOCK
 62
     0
 10
171.2400226336114
 20
1340.46866183543
 30
0.0
 11
466.2400226336114
 21
1340.46866183543
 31
0.0
  0
SOLID
  5
1549
  8
DIMENSIONS
 62
     0
 10
171.2400226336114
 20
1341.301995168763
 30
0.0
 11
171.2400226336114
 21
1339.635328502097
 31
0.0
 12
166.2400226336114
 22
1340.46866183543
 32
0.0
 13
166.2400226336114
 23
1340.46866183543
 33
0.0
  0
SOLID
  5
154A
  8
DIMENSIONS
 62
     0
 10
466.2400226336114
 20
1339.635328502097
 30
0.0
 11
466.2400226336114
 21
1341.301995168763
 31
0.0
 12
471.2400226336114
 22
1340.46866183543
 32
0.0
 13
471.2400226336114
 23
1340.46866183543
 33
0.0
  0
TEXT
  5
154B
  8
DIMENSIONS
  6
CONTINUOUS
 62
     5
 10
301.3600226336114
 20
1342.86366183543
 30
0.0
 40
5.0
  1
305 [12.01]
  0
POINT
  5
154C
  8
DEFPOINTS
 62
     0
 10
166.2400226336114
 20
1304.873292371862
 30
0.0
  0
POINT
  5
154D
  8
DEFPOINTS
 62
     0
 10
471.2400226336114
 20
1304.873292371862
 30
0.0
  0
POINT
  5
154E
  8
DEFPOINTS
 62
     0
 10
471.2400226336114
 20
1340.46866183543
 30
0.0
  0
ENDBLK
  5
1545
  8
0
  0
BLOCK
  8
0
  2
*D238
 70
     1
 10
0.0
 20
0.0
 30
0.0
  3
*D238
  1

  0
LINE
  5
1555
  8
DIMENSIONS
  6
BYBLOCK
 62
     0
 10
146.2400226336114
 20
1296.373292371862
 30
0.0
 11
146.2400226336114
 21
1361.681129136596
 31
0.0
  0
LINE
  5
1556
  8
DIMENSIONS
  6
BYBLOCK
 62
     0
 10
491.2400226336173
 20
1296.373292371862
 30
0.0
 11
491.2400226336173
 21
1361.681129136596
 31
0.0
  0
LINE
  5
1557
  8
DIMENSIONS
  6
BYBLOCK
 62
     0
 10
151.2400226336114
 20
1361.501129136596
 30
0.0
 11
486.2400226336173
 21
1361.501129136596
 31
0.0
  0
SOLID
  5
1558
  8
DIMENSIONS
 62
     0
 10
151.2400226336114
 20
1362.334462469929
 30
0.0
 11
151.2400226336114
 21
1360.667795803263
 31
0.0
 12
146.2400226336114
 22
1361.501129136596
 32
0.0
 13
146.2400226336114
 23
1361.501129136596
 33
0.0
  0
SOLID
  5
1559
  8
DIMENSIONS
 62
     0
 10
486.2400226336173
 20
1360.667795803263
 30
0.0
 11
486.2400226336173
 21
1362.334462469929
 31
0.0
 12
491.2400226336173
 22
1361.501129136596
 32
0.0
 13
491.2400226336173
 23
1361.501129136596
 33
0.0
  0
TEXT
  5
155A
  8
DIMENSIONS
  6
CONTINUOUS
 62
     5
 10
301.3600226336143
 20
1363.896129136596
 30
0.0
 40
5.0
  1
345 [13.58]
  0
POINT
  5
155B
  8
DEFPOINTS
 62
     0
 10
146.2400226336114
 20
1294.873292371862
 30
0.0
  0
POINT
  5
155C
  8
DEFPOINTS
 62
     0
 10
491.2400226336173
 20
1294.873292371862
 30
0.0
  0
POINT
  5
155D
  8
DEFPOINTS
 62
     0
 10
491.2400226336173
 20
1361.501129136596
 30
0.0
  0
ENDBLK
  5
1554
  8
0
  0
BLOCK
  8
0
  2
*D239
 70
     1
 10
0.0
 20
0.0
 30
0.0
  3
*D239
  1

  0
LINE
  5
1564
  8
DIMENSIONS
  6
BYBLOCK
 62
     0
 10
136.7400226336114
 20
1291.873292371862
 30
0.0
 11
136.7400226336114
 21
1381.126240415032
 31
0.0
  0
LINE
  5
1565
  8
DIMENSIONS
  6
BYBLOCK
 62
     0
 10
500.7400226336114
 20
1291.873292371862
 30
0.0
 11
500.7400226336114
 21
1381.126240415032
 31
0.0
  0
LINE
  5
1566
  8
DIMENSIONS
  6
BYBLOCK
 62
     0
 10
141.7400226336114
 20
1380.946240415032
 30
0.0
 11
495.7400226336114
 21
1380.946240415032
 31
0.0
  0
SOLID
  5
1567
  8
DIMENSIONS
 62
     0
 10
141.7400226336114
 20
1381.779573748365
 30
0.0
 11
141.7400226336114
 21
1380.112907081699
 31
0.0
 12
136.7400226336114
 22
1380.946240415032
 32
0.0
 13
136.7400226336114
 23
1380.946240415032
 33
0.0
  0
SOLID
  5
1568
  8
DIMENSIONS
 62
     0
 10
495.7400226336114
 20
1380.112907081699
 30
0.0
 11
495.7400226336114
 21
1381.779573748365
 31
0.0
 12
500.7400226336114
 22
1380.946240415032
 32
0.0
 13
500.7400226336114
 23
1380.946240415032
 33
0.0
  0
TEXT
  5
1569
  8
DIMENSIONS
  6
CONTINUOUS
 62
     5
 10
301.3600226336114
 20
1383.341240415032
 30
0.0
 40
5.0
  1
364 [14.33]
  0
POINT
  5
156A
  8
DEFPOINTS
 62
     0
 10
136.7400226336114
 20
1290.373292371862
 30
0.0
  0
POINT
  5
156B
  8
DEFPOINTS
 62
     0
 10
500.7400226336114
 20
1290.373292371862
 30
0.0
  0
POINT
  5
156C
  8
DEFPOINTS
 62
     0
 10
500.7400226336114
 20
1380.946240415032
 30
0.0
  0
ENDBLK
  5
1563
  8
0
  0
BLOCK
  8
0
  2
*D240
 70
     1
 10
0.0
 20
0.0
 30
0.0
  3
*D240
  1

  0
LINE
  5
1573
  8
DIMENSIONS
  6
BYBLOCK
 62
     0
 10
121.2400226336114
 20
1321.373292371862
 30
0.0
 11
121.2400226336114
 21
1399.777673682104
 31
0.0
  0
LINE
  5
1574
  8
DIMENSIONS
  6
BYBLOCK
 62
     0
 10
516.2400226336152
 20
1321.373292371862
 30
0.0
 11
516.2400226336152
 21
1399.777673682104
 31
0.0
  0
LINE
  5
1575
  8
DIMENSIONS
  6
BYBLOCK
 62
     0
 10
126.2400226336114
 20
1399.597673682104
 30
0.0
 11
511.2400226336152
 21
1399.597673682104
 31
0.0
  0
SOLID
  5
1576
  8
DIMENSIONS
 62
     0
 10
126.2400226336114
 20
1400.431007015437
 30
0.0
 11
126.2400226336114
 21
1398.764340348771
 31
0.0
 12
121.2400226336114
 22
1399.597673682104
 32
0.0
 13
121.2400226336114
 23
1399.597673682104
 33
0.0
  0
SOLID
  5
1577
  8
DIMENSIONS
 62
     0
 10
511.2400226336152
 20
1398.764340348771
 30
0.0
 11
511.2400226336152
 21
1400.431007015437
 31
0.0
 12
516.2400226336152
 22
1399.597673682104
 32
0.0
 13
516.2400226336152
 23
1399.597673682104
 33
0.0
  0
TEXT
  5
1578
  8
DIMENSIONS
  6
CONTINUOUS
 62
     5
 10
301.3600226336133
 20
1401.992673682104
 30
0.0
 40
5.0
  1
395 [15.55]
  0
POINT
  5
1579
  8
DEFPOINTS
 62
     0
 10
121.2400226336114
 20
1319.873292371862
 30
0.0
  0
POINT
  5
157A
  8
DEFPOINTS
 62
     0
 10
516.2400226336152
 20
1319.873292371862
 30
0.0
  0
POINT
  5
157B
  8
DEFPOINTS
 62
     0
 10
516.2400226336152
 20
1399.597673682104
 30
0.0
  0
ENDBLK
  5
1572
  8
0
  0
BLOCK
  8
0
  2
*D242
 70
     1
 10
0.0
 20
0.0
 30
0.0
  3
*D242
  1

  0
LINE
  5
1592
  8
DIMENSIONS
  6
BYBLOCK
 62
     0
 10
135.2400226336114
 20
1290.373292371862
 30
0.0
 11
105.4870682867663
 21
1290.373292371862
 31
0.0
  0
LINE
  5
1593
  8
DIMENSIONS
  6
BYBLOCK
 62
     0
 10
135.2400226336114
 20
893.3732923718613
 30
0.0
 11
105.4870682867663
 21
893.3732923718613
 31
0.0
  0
LINE
  5
1594
  8
DIMENSIONS
  6
BYBLOCK
 62
     0
 10
105.6670682867663
 20
1285.373292371862
 30
0.0
 11
105.6670682867663
 21
898.3732923718613
 31
0.0
  0
SOLID
  5
1595
  8
DIMENSIONS
 62
     0
 10
106.5004016200997
 20
1285.373292371862
 30
0.0
 11
104.833734953433
 21
1285.373292371862
 31
0.0
 12
105.6670682867663
 22
1290.373292371862
 32
0.0
 13
105.6670682867663
 23
1290.373292371862
 33
0.0
  0
SOLID
  5
1596
  8
DIMENSIONS
 62
     0
 10
104.833734953433
 20
898.3732923718613
 30
0.0
 11
106.5004016200996
 21
898.3732923718613
 31
0.0
 12
105.6670682867663
 22
893.3732923718613
 32
0.0
 13
105.6670682867663
 23
893.3732923718613
 33
0.0
  0
TEXT
  5
1597
  8
DIMENSIONS
  6
CONTINUOUS
 62
     5
 10
103.2720682867662
 20
1074.493292371862
 30
0.0
 40
5.0
  1
397 [15.63]
 50
90.0
  0
POINT
  5
1598
  8
DEFPOINTS
 62
     0
 10
136.7400226336114
 20
1290.373292371862
 30
0.0
  0
POINT
  5
1599
  8
DEFPOINTS
 62
     0
 10
136.7400226336114
 20
893.3732923718613
 30
0.0
  0
POINT
  5
159A
  8
DEFPOINTS
 62
     0
 10
105.6670682867663
 20
893.3732923718613
 30
0.0
  0
ENDBLK
  5
1591
  8
0
  0
BLOCK
  8
0
  2
*D243
 70
     1
 10
0.0
 20
0.0
 30
0.0
  3
*D243
  1

  0
LINE
  5
15A1
  8
DIMENSIONS
  6
BYBLOCK
 62
     0
 10
135.2400226336114
 20
893.3732923718613
 30
0.0
 11
105.4870682867663
 21
893.3732923718613
 31
0.0
  0
LINE
  5
15A2
  8
DIMENSIONS
  6
BYBLOCK
 62
     0
 10
164.7150226336133
 20
734.8732923718612
 30
0.0
 11
105.4870682867663
 21
734.8732923718612
 31
0.0
  0
LINE
  5
15A3
  8
DIMENSIONS
  6
BYBLOCK
 62
     0
 10
105.6670682867663
 20
888.3732923718613
 30
0.0
 11
105.6670682867663
 21
739.8732923718612
 31
0.0
  0
SOLID
  5
15A4
  8
DIMENSIONS
 62
     0
 10
106.5004016200996
 20
888.3732923718613
 30
0.0
 11
104.833734953433
 21
888.3732923718613
 31
0.0
 12
105.6670682867663
 22
893.3732923718613
 32
0.0
 13
105.6670682867663
 23
893.3732923718613
 33
0.0
  0
SOLID
  5
15A5
  8
DIMENSIONS
 62
     0
 10
104.833734953433
 20
739.8732923718612
 30
0.0
 11
106.5004016200996
 21
739.8732923718612
 31
0.0
 12
105.6670682867663
 22
734.8732923718612
 32
0.0
 13
105.6670682867663
 23
734.8732923718612
 33
0.0
  0
TEXT
  5
15A6
  8
DIMENSIONS
  6
CONTINUOUS
 62
     5
 10
103.2720682867663
 20
795.5407923718612
 30
0.0
 40
5.0
  1
158.5 [6.24]
 50
90.0
  0
POINT
  5
15A7
  8
DEFPOINTS
 62
     0
 10
136.7400226336114
 20
893.3732923718613
 30
0.0
  0
POINT
  5
15A8
  8
DEFPOINTS
 62
     0
 10
166.2150226336133
 20
734.8732923718612
 30
0.0
  0
POINT
  5
15A9
  8
DEFPOINTS
 62
     0
 10
105.6670682867663
 20
734.8732923718612
 30
0.0
  0
ENDBLK
  5
15A0
  8
0
  0
BLOCK
  8
0
  2
*D244
 70
     1
 10
0.0
 20
0.0
 30
0.0
  3
*D244
  1

  0
LINE
  5
15B0
  8
DIMENSIONS
  6
BYBLOCK
 62
     0
 10
164.7150226336133
 20
734.8732923718612
 30
0.0
 11
90.2126676265415
 21
734.8732923718612
 31
0.0
  0
LINE
  5
15B1
  8
DIMENSIONS
  6
BYBLOCK
 62
     0
 10
317.2400226336114
 20
712.8732923718621
 30
0.0
 11
90.2126676265415
 21
712.8732923718621
 31
0.0
  0
LINE
  5
15B2
  8
DIMENSIONS
  6
BYBLOCK
 62
     0
 10
90.39266762654151
 20
712.8732923718621
 30
0.0
 11
90.39266762654151
 21
679.3732923718621
 31
0.0
  0
LINE
  5
15B3
  8
DIMENSIONS
  6
BYBLOCK
 62
     0
 10
90.39266762654151
 20
729.8732923718612
 30
0.0
 11
90.39266762654151
 21
717.8732923718621
 31
0.0
  0
SOLID
  5
15B4
  8
DIMENSIONS
 62
     0
 10
91.22600095987484
 20
729.8732923718612
 30
0.0
 11
89.55933429320818
 21
729.8732923718612
 31
0.0
 12
90.39266762654151
 22
734.8732923718612
 32
0.0
 13
90.39266762654151
 23
734.8732923718612
 33
0.0
  0
SOLID
  5
15B5
  8
DIMENSIONS
 62
     0
 10
89.55933429320818
 20
717.8732923718621
 30
0.0
 11
91.22600095987484
 21
717.8732923718621
 31
0.0
 12
90.39266762654151
 22
712.8732923718621
 32
0.0
 13
90.39266762654151
 23
712.8732923718621
 33
0.0
  0
TEXT
  5
15B6
  8
DIMENSIONS
  6
CONTINUOUS
 62
     5
 10
87.99766762654156
 20
680.1682923718621
 30
0.0
 40
5.0
  1
22 [0.87]
 50
90.0
  0
POINT
  5
15B7
  8
DEFPOINTS
 62
     0
 10
166.2150226336133
 20
734.8732923718612
 30
0.0
  0
POINT
  5
15B8
  8
DEFPOINTS
 62
     0
 10
318.7400226336114
 20
712.8732923718621
 30
0.0
  0
POINT
  5
166D
  8
DEFPOINTS
 62
     0
 10
90.39266762654151
 20
712.8732923718621
 30
0.0
  0
ENDBLK
  5
15AF
  8
0
  0
BLOCK
  8
0
  2
*D245
 70
     1
 10
0.0
 20
0.0
 30
0.0
  3
*D245
  1

  0
LINE
  5
15BF
  8
DIMENSIONS
  6
BYBLOCK
 62
     0
 10
317.2400226336114
 20
712.8732923718621
 30
0.0
 11
105.4870682867663
 21
712.8732923718621
 31
0.0
  0
LINE
  5
15C0
  8
DIMENSIONS
  6
BYBLOCK
 62
     0
 10
135.2400226336114
 20
496.3732923718622
 30
0.0
 11
105.4870682867663
 21
496.3732923718622
 31
0.0
  0
LINE
  5
15C1
  8
DIMENSIONS
  6
BYBLOCK
 62
     0
 10
105.6670682867663
 20
707.8732923718621
 30
0.0
 11
105.6670682867663
 21
501.3732923718622
 31
0.0
  0
SOLID
  5
15C2
  8
DIMENSIONS
 62
     0
 10
106.5004016200996
 20
707.8732923718621
 30
0.0
 11
104.833734953433
 21
707.8732923718621
 31
0.0
 12
105.6670682867663
 22
712.8732923718621
 32
0.0
 13
105.6670682867663
 23
712.8732923718621
 33
0.0
  0
SOLID
  5
15C3
  8
DIMENSIONS
 62
     0
 10
104.8337349534329
 20
501.3732923718622
 30
0.0
 11
106.5004016200996
 21
501.3732923718622
 31
0.0
 12
105.6670682867663
 22
496.3732923718622
 32
0.0
 13
105.6670682867663
 23
496.3732923718622
 33
0.0
  0
TEXT
  5
15C4
  8
DIMENSIONS
  6
CONTINUOUS
 62
     5
 10
103.2720682867663
 20
586.3182923718621
 30
0.0
 40
5.0
  1
216.5 [8.52]
 50
90.0
  0
POINT
  5
15C5
  8
DEFPOINTS
 62
     0
 10
318.7400226336114
 20
712.8732923718621
 30
0.0
  0
POINT
  5
15C6
  8
DEFPOINTS
 62
     0
 10
136.7400226336114
 20
496.3732923718622
 30
0.0
  0
POINT
  5
15C7
  8
DEFPOINTS
 62
     0
 10
105.6670682867663
 20
496.3732923718622
 30
0.0
  0
ENDBLK
  5
15BE
  8
0
  0
BLOCK
  8
0
  2
*D246
 70
     1
 10
0.0
 20
0.0
 30
0.0
  3
*D246
  1

  0
LINE
  5
15CE
  8
DIMENSIONS
  6
BYBLOCK
 62
     0
 10
135.2400226336114
 20
496.3732923718622
 30
0.0
 11
105.4870682867663
 21
496.3732923718622
 31
0.0
  0
LINE
  5
15CF
  8
DIMENSIONS
  6
BYBLOCK
 62
     0
 10
135.2400226336114
 20
227.8732923718613
 30
0.0
 11
105.4870682867662
 21
227.8732923718613
 31
0.0
  0
LINE
  5
15D0
  8
DIMENSIONS
  6
BYBLOCK
 62
     0
 10
105.6670682867663
 20
491.3732923718622
 30
0.0
 11
105.6670682867663
 21
232.8732923718613
 31
0.0
  0
SOLID
  5
15D1
  8
DIMENSIONS
 62
     0
 10
106.5004016200996
 20
491.3732923718622
 30
0.0
 11
104.8337349534329
 21
491.3732923718622
 31
0.0
 12
105.6670682867663
 22
496.3732923718622
 32
0.0
 13
105.6670682867663
 23
496.3732923718622
 33
0.0
  0
SOLID
  5
15D2
  8
DIMENSIONS
 62
     0
 10
104.8337349534329
 20
232.8732923718613
 30
0.0
 11
106.5004016200996
 21
232.8732923718613
 31
0.0
 12
105.6670682867663
 22
227.8732923718613
 32
0.0
 13
105.6670682867663
 23
227.8732923718613
 33
0.0
  0
TEXT
  5
15D3
  8
DIMENSIONS
  6
CONTINUOUS
 62
     5
 10
103.2720682867663
 20
341.8782923718618
 30
0.0
 40
5.0
  1
268.5 [10.57]
 50
90.0
  0
POINT
  5
15D4
  8
DEFPOINTS
 62
     0
 10
136.7400226336114
 20
496.3732923718622
 30
0.0
  0
POINT
  5
15D5
  8
DEFPOINTS
 62
     0
 10
136.7400226336114
 20
227.8732923718613
 30
0.0
  0
POINT
  5
15D6
  8
DEFPOINTS
 62
     0
 10
105.6670682867663
 20
227.8732923718613
 30
0.0
  0
ENDBLK
  5
15CD
  8
0
  0
BLOCK
  8
0
  2
*D247
 70
     1
 10
0.0
 20
0.0
 30
0.0
  3
*D247
  1

  0
LINE
  5
15DD
  8
DIMENSIONS
  6
BYBLOCK
 62
     0
 10
135.2400226336114
 20
227.8732923718613
 30
0.0
 11
105.4870682867662
 21
227.8732923718613
 31
0.0
  0
LINE
  5
15DE
  8
DIMENSIONS
  6
BYBLOCK
 62
     0
 10
135.2400226336114
 20
99.37329237186134
 30
0.0
 11
105.4870682867662
 21
99.37329237186134
 31
0.0
  0
LINE
  5
15DF
  8
DIMENSIONS
  6
BYBLOCK
 62
     0
 10
105.6670682867663
 20
222.8732923718613
 30
0.0
 11
105.6670682867662
 21
104.3732923718613
 31
0.0
  0
SOLID
  5
15E0
  8
DIMENSIONS
 62
     0
 10
106.5004016200996
 20
222.8732923718613
 30
0.0
 11
104.8337349534329
 21
222.8732923718613
 31
0.0
 12
105.6670682867663
 22
227.8732923718613
 32
0.0
 13
105.6670682867663
 23
227.8732923718613
 33
0.0
  0
SOLID
  5
15E1
  8
DIMENSIONS
 62
     0
 10
104.8337349534329
 20
104.3732923718613
 30
0.0
 11
106.5004016200996
 21
104.3732923718613
 31
0.0
 12
105.6670682867662
 22
99.37329237186134
 32
0.0
 13
105.6670682867662
 23
99.37329237186134
 33
0.0
  0
TEXT
  5
15E2
  8
DIMENSIONS
  6
CONTINUOUS
 62
     5
 10
103.2720682867663
 20
145.0407923718613
 30
0.0
 40
5.0
  1
128.5 [5.06]
 50
90.0
  0
POINT
  5
15E3
  8
DEFPOINTS
 62
     0
 10
136.7400226336114
 20
227.8732923718613
 30
0.0
  0
POINT
  5
15E4
  8
DEFPOINTS
 62
     0
 10
136.7400226336114
 20
99.37329237186134
 30
0.0
  0
POINT
  5
15E5
  8
DEFPOINTS
 62
     0
 10
105.6670682867662
 20
99.37329237186134
 30
0.0
  0
ENDBLK
  5
15DC
  8
0
  0
BLOCK
  8
0
  2
*D248
 70
     1
 10
0.0
 20
0.0
 30
0.0
  3
*D248
  1

  0
LINE
  5
15EC
  8
DIMENSIONS
  6
BYBLOCK
 62
     0
 10
135.2400226336114
 20
99.37329237186134
 30
0.0
 11
89.39037944681249
 21
99.37329237186134
 31
0.0
  0
LINE
  5
15ED
  8
DIMENSIONS
  6
BYBLOCK
 62
     0
 10
164.7400226336114
 20
84.87329237186134
 30
0.0
 11
89.39037944681249
 21
84.87329237186134
 31
0.0
  0
LINE
  5
15EE
  8
DIMENSIONS
  6
BYBLOCK
 62
     0
 10
89.5703794468125
 20
99.37329237186134
 30
0.0
 11
89.5703794468125
 21
138.1382923718613
 31
0.0
  0
LINE
  5
15EF
  8
DIMENSIONS
  6
BYBLOCK
 62
     0
 10
89.5703794468125
 20
94.37329237186134
 30
0.0
 11
89.5703794468125
 21
89.87329237186134
 31
0.0
  0
SOLID
  5
15F0
  8
DIMENSIONS
 62
     0
 10
90.40371278014582
 20
94.37329237186134
 30
0.0
 11
88.73704611347917
 21
94.37329237186134
 31
0.0
 12
89.5703794468125
 22
99.37329237186134
 32
0.0
 13
89.5703794468125
 23
99.37329237186134
 33
0.0
  0
SOLID
  5
15F1
  8
DIMENSIONS
 62
     0
 10
88.73704611347917
 20
89.87329237186134
 30
0.0
 11
90.40371278014582
 21
89.87329237186134
 31
0.0
 12
89.5703794468125
 22
84.87329237186134
 32
0.0
 13
89.5703794468125
 23
84.87329237186134
 33
0.0
  0
TEXT
  5
15F2
  8
DIMENSIONS
  6
CONTINUOUS
 62
     5
 10
87.17537944681247
 20
104.6132923718613
 30
0.0
 40
5.0
  1
14.5 [0.57]
 50
90.0
  0
POINT
  5
15F3
  8
DEFPOINTS
 62
     0
 10
136.7400226336114
 20
99.37329237186134
 30
0.0
  0
POINT
  5
15F4
  8
DEFPOINTS
 62
     0
 10
166.2400226336114
 20
84.87329237186134
 30
0.0
  0
POINT
  5
166E
  8
DEFPOINTS
 62
     0
 10
89.5703794468125
 20
84.87329237186134
 30
0.0
  0
ENDBLK
  5
15EB
  8
0
  0
BLOCK
  8
0
  2
*D249
 70
     1
 10
0.0
 20
0.0
 30
0.0
  3
*D249
  1

  0
LINE
  5
15FB
  8
DIMENSIONS
  6
BYBLOCK
 62
     0
 10
164.7400226336114
 20
84.87329237186134
 30
0.0
 11
72.6088276618089
 21
84.87329237186134
 31
0.0
  0
LINE
  5
15FC
  8
DIMENSIONS
  6
BYBLOCK
 62
     0
 10
119.7400226336114
 20
69.87329237186225
 30
0.0
 11
72.6088276618089
 21
69.87329237186225
 31
0.0
  0
LINE
  5
15FD
  8
DIMENSIONS
  6
BYBLOCK
 62
     0
 10
72.78882766180891
 20
84.87329237186134
 30
0.0
 11
72.78882766180891
 21
139.0469042303948
 31
0.0
  0
LINE
  5
15FE
  8
DIMENSIONS
  6
BYBLOCK
 62
     0
 10
72.78882766180891
 20
79.87329237186134
 30
0.0
 11
72.78882766180891
 21
74.87329237186225
 31
0.0
  0
SOLID
  5
15FF
  8
DIMENSIONS
 62
     0
 10
73.62216099514224
 20
79.87329237186134
 30
0.0
 11
71.95549432847558
 21
79.87329237186134
 31
0.0
 12
72.78882766180891
 22
84.87329237186134
 32
0.0
 13
72.78882766180891
 23
84.87329237186134
 33
0.0
  0
SOLID
  5
1600
  8
DIMENSIONS
 62
     0
 10
71.95549432847558
 20
74.87329237186225
 30
0.0
 11
73.62216099514224
 21
74.87329237186225
 31
0.0
 12
72.78882766180891
 22
69.87329237186225
 32
0.0
 13
72.78882766180891
 23
69.87329237186225
 33
0.0
  0
TEXT
  5
1601
  8
DIMENSIONS
  6
CONTINUOUS
 62
     5
 10
70.39382766180893
 20
111.3419042303948
 30
0.0
 40
5.0
  1
15 [0.59]
 50
90.0
  0
POINT
  5
1602
  8
DEFPOINTS
 62
     0
 10
166.2400226336114
 20
84.87329237186134
 30
0.0
  0
POINT
  5
1603
  8
DEFPOINTS
 62
     0
 10
121.2400226336114
 20
69.87329237186225
 30
0.0
  0
POINT
  5
166F
  8
DEFPOINTS
 62
     0
 10
72.78882766180891
 20
69.87329237186225
 30
0.0
  0
ENDBLK
  5
15FA
  8
0
  0
BLOCK
  8
0
  2
*D250
 70
     1
 10
0.0
 20
0.0
 30
0.0
  3
*D250
  1

  0
LINE
  5
160A
  8
DIMENSIONS
  6
BYBLOCK
 62
     0
 10
135.2400226336114
 20
1290.373292371862
 30
0.0
 11
86.73036418889902
 21
1290.373292371862
 31
0.0
  0
LINE
  5
160B
  8
DIMENSIONS
  6
BYBLOCK
 62
     0
 10
164.7400226336114
 20
1304.873292371862
 30
0.0
 11
86.73036418889902
 21
1304.873292371862
 31
0.0
  0
LINE
  5
160C
  8
DIMENSIONS
  6
BYBLOCK
 62
     0
 10
86.91036418889902
 20
1290.373292371862
 30
0.0
 11
86.91036418889902
 21
1251.608292371862
 31
0.0
  0
LINE
  5
160D
  8
DIMENSIONS
  6
BYBLOCK
 62
     0
 10
86.91036418889902
 20
1295.373292371862
 30
0.0
 11
86.91036418889902
 21
1299.873292371862
 31
0.0
  0
SOLID
  5
160E
  8
DIMENSIONS
 62
     0
 10
86.0770308555657
 20
1295.373292371862
 30
0.0
 11
87.74369752223235
 21
1295.373292371862
 31
0.0
 12
86.91036418889902
 22
1290.373292371862
 32
0.0
 13
86.91036418889902
 23
1290.373292371862
 33
0.0
  0
SOLID
  5
160F
  8
DIMENSIONS
 62
     0
 10
87.74369752223235
 20
1299.873292371862
 30
0.0
 11
86.0770308555657
 21
1299.873292371862
 31
0.0
 12
86.91036418889902
 22
1304.873292371862
 32
0.0
 13
86.91036418889902
 23
1304.873292371862
 33
0.0
  0
TEXT
  5
1610
  8
DIMENSIONS
  6
CONTINUOUS
 62
     5
 10
84.51536418889873
 20
1251.848292371862
 30
0.0
 40
5.0
  1
14.5 [0.57]
 50
90.0
  0
POINT
  5
1611
  8
DEFPOINTS
 62
     0
 10
136.7400226336114
 20
1290.373292371862
 30
0.0
  0
POINT
  5
1612
  8
DEFPOINTS
 62
     0
 10
166.2400226336114
 20
1304.873292371862
 30
0.0
  0
POINT
  5
1670
  8
DEFPOINTS
 62
     0
 10
86.91036418889902
 20
1304.873292371862
 30
0.0
  0
ENDBLK
  5
1609
  8
0
  0
BLOCK
  8
0
  2
*D251
 70
     1
 10
0.0
 20
0.0
 30
0.0
  3
*D251
  1

  0
LINE
  5
1619
  8
DIMENSIONS
  6
BYBLOCK
 62
     0
 10
164.7400226336114
 20
1304.873292371862
 30
0.0
 11
69.34947126871673
 21
1304.873292371862
 31
0.0
  0
LINE
  5
161A
  8
DIMENSIONS
  6
BYBLOCK
 62
     0
 10
119.7400226336114
 20
1319.873292371862
 30
0.0
 11
69.34947126871673
 21
1319.873292371862
 31
0.0
  0
LINE
  5
161B
  8
DIMENSIONS
  6
BYBLOCK
 62
     0
 10
69.52947126871673
 20
1304.873292371862
 30
0.0
 11
69.52947126871673
 21
1265.307458166744
 31
0.0
  0
LINE
  5
161C
  8
DIMENSIONS
  6
BYBLOCK
 62
     0
 10
69.52947126871673
 20
1309.873292371862
 30
0.0
 11
69.52947126871673
 21
1314.873292371862
 31
0.0
  0
SOLID
  5
161D
  8
DIMENSIONS
 62
     0
 10
68.6961379353834
 20
1309.873292371862
 30
0.0
 11
70.36280460205006
 21
1309.873292371862
 31
0.0
 12
69.52947126871673
 22
1304.873292371862
 32
0.0
 13
69.52947126871673
 23
1304.873292371862
 33
0.0
  0
SOLID
  5
161E
  8
DIMENSIONS
 62
     0
 10
70.36280460205006
 20
1314.873292371862
 30
0.0
 11
68.6961379353834
 21
1314.873292371862
 31
0.0
 12
69.52947126871673
 22
1319.873292371862
 32
0.0
 13
69.52947126871673
 23
1319.873292371862
 33
0.0
  0
TEXT
  5
161F
  8
DIMENSIONS
  6
CONTINUOUS
 62
     5
 10
67.13447126871642
 20
1265.547458166744
 30
0.0
 40
5.0
  1
15 [0.59]
 50
90.0
  0
POINT
  5
1620
  8
DEFPOINTS
 62
     0
 10
166.2400226336114
 20
1304.873292371862
 30
0.0
  0
POINT
  5
1621
  8
DEFPOINTS
 62
     0
 10
121.2400226336114
 20
1319.873292371862
 30
0.0
  0
POINT
  5
1671
  8
DEFPOINTS
 62
     0
 10
69.52947126871673
 20
1319.873292371862
 30
0.0
  0
ENDBLK
  5
1618
  8
0
  0
BLOCK
  8
0
  2
*D252
 70
     1
 10
0.0
 20
0.0
 30
0.0
  3
*D252
  1

  0
LINE
  5
1628
  8
DIMENSIONS
  6
BYBLOCK
 62
     0
 10
517.7400226336152
 20
1319.873292371862
 30
0.0
 11
537.472457915357
 21
1319.873292371862
 31
0.0
  0
LINE
  5
1629
  8
DIMENSIONS
  6
BYBLOCK
 62
     0
 10
492.7400226336173
 20
1294.873292371862
 30
0.0
 11
537.472457915357
 21
1294.873292371862
 31
0.0
  0
LINE
  5
162A
  8
DIMENSIONS
  6
BYBLOCK
 62
     0
 10
537.2924579153571
 20
1294.873292371862
 30
0.0
 11
537.2924579153571
 21
1261.373292371862
 31
0.0
  0
LINE
  5
162B
  8
DIMENSIONS
  6
BYBLOCK
 62
     0
 10
537.2924579153571
 20
1314.873292371862
 30
0.0
 11
537.2924579153571
 21
1299.873292371862
 31
0.0
  0
SOLID
  5
162C
  8
DIMENSIONS
 62
     0
 10
538.1257912486905
 20
1314.873292371862
 30
0.0
 11
536.4591245820237
 21
1314.873292371862
 31
0.0
 12
537.2924579153571
 22
1319.873292371862
 32
0.0
 13
537.2924579153571
 23
1319.873292371862
 33
0.0
  0
SOLID
  5
162D
  8
DIMENSIONS
 62
     0
 10
536.4591245820237
 20
1299.873292371862
 30
0.0
 11
538.1257912486905
 21
1299.873292371862
 31
0.0
 12
537.2924579153571
 22
1294.873292371862
 32
0.0
 13
537.2924579153571
 23
1294.873292371862
 33
0.0
  0
TEXT
  5
162E
  8
DIMENSIONS
  6
CONTINUOUS
 62
     5
 10
534.8974579153569
 20
1262.168292371862
 30
0.0
 40
5.0
  1
25 [0.98]
 50
90.0
  0
POINT
  5
162F
  8
DEFPOINTS
 62
     0
 10
516.2400226336152
 20
1319.873292371862
 30
0.0
  0
POINT
  5
1630
  8
DEFPOINTS
 62
     0
 10
491.2400226336173
 20
1294.873292371862
 30
0.0
  0
POINT
  5
1672
  8
DEFPOINTS
 62
     0
 10
537.2924579153571
 20
1294.873292371862
 30
0.0
  0
ENDBLK
  5
1627
  8
0
  0
BLOCK
  8
0
  2
*D253
 70
     1
 10
0.0
 20
0.0
 30
0.0
  3
*D253
  1

  0
LINE
  5
1637
  8
DIMENSIONS
  6
BYBLOCK
 62
     0
 10
492.7400226336173
 20
1294.873292371862
 30
0.0
 11
537.472457915357
 21
1294.873292371862
 31
0.0
  0
LINE
  5
1638
  8
DIMENSIONS
  6
BYBLOCK
 62
     0
 10
492.7400226336173
 20
1059.873292371862
 30
0.0
 11
537.472457915357
 21
1059.873292371862
 31
0.0
  0
LINE
  5
1639
  8
DIMENSIONS
  6
BYBLOCK
 62
     0
 10
537.2924579153571
 20
1289.873292371862
 30
0.0
 11
537.2924579153571
 21
1064.873292371862
 31
0.0
  0
SOLID
  5
163A
  8
DIMENSIONS
 62
     0
 10
538.1257912486905
 20
1289.873292371862
 30
0.0
 11
536.4591245820237
 21
1289.873292371862
 31
0.0
 12
537.2924579153571
 22
1294.873292371862
 32
0.0
 13
537.2924579153571
 23
1294.873292371862
 33
0.0
  0
SOLID
  5
163B
  8
DIMENSIONS
 62
     0
 10
536.4591245820237
 20
1064.873292371862
 30
0.0
 11
538.1257912486905
 21
1064.873292371862
 31
0.0
 12
537.2924579153571
 22
1059.873292371862
 32
0.0
 13
537.2924579153571
 23
1059.873292371862
 33
0.0
  0
TEXT
  5
163C
  8
DIMENSIONS
  6
CONTINUOUS
 62
     5
 10
534.8974579153569
 20
1161.978292371862
 30
0.0
 40
5.0
  1
235 [9.25]
 50
90.0
  0
POINT
  5
163D
  8
DEFPOINTS
 62
     0
 10
491.2400226336173
 20
1294.873292371862
 30
0.0
  0
POINT
  5
163E
  8
DEFPOINTS
 62
     0
 10
491.2400226336173
 20
1059.873292371862
 30
0.0
  0
POINT
  5
163F
  8
DEFPOINTS
 62
     0
 10
537.2924579153571
 20
1059.873292371862
 30
0.0
  0
ENDBLK
  5
1636
  8
0
  0
BLOCK
  8
0
  2
*D254
 70
     1
 10
0.0
 20
0.0
 30
0.0
  3
*D254
  1

  0
LINE
  5
1646
  8
DIMENSIONS
  6
BYBLOCK
 62
     0
 10
492.7400226336173
 20
1059.873292371862
 30
0.0
 11
537.472457915357
 21
1059.873292371862
 31
0.0
  0
LINE
  5
1647
  8
DIMENSIONS
  6
BYBLOCK
 62
     0
 10
492.7400226336173
 20
694.8732923718621
 30
0.0
 11
537.472457915357
 21
694.8732923718621
 31
0.0
  0
LINE
  5
1648
  8
DIMENSIONS
  6
BYBLOCK
 62
     0
 10
537.2924579153571
 20
1054.873292371862
 30
0.0
 11
537.2924579153571
 21
699.8732923718621
 31
0.0
  0
SOLID
  5
1649
  8
DIMENSIONS
 62
     0
 10
538.1257912486905
 20
1054.873292371862
 30
0.0
 11
536.4591245820237
 21
1054.873292371862
 31
0.0
 12
537.2924579153571
 22
1059.873292371862
 32
0.0
 13
537.2924579153571
 23
1059.873292371862
 33
0.0
  0
SOLID
  5
164A
  8
DIMENSIONS
 62
     0
 10
536.4591245820237
 20
699.8732923718621
 30
0.0
 11
538.1257912486905
 21
699.8732923718621
 31
0.0
 12
537.2924579153571
 22
694.8732923718621
 32
0.0
 13
537.2924579153571
 23
694.8732923718621
 33
0.0
  0
TEXT
  5
164B
  8
DIMENSIONS
  6
CONTINUOUS
 62
     5
 10
534.8974579153571
 20
859.9932923718623
 30
0.0
 40
5.0
  1
365 [14.37]
 50
90.0
  0
POINT
  5
164C
  8
DEFPOINTS
 62
     0
 10
491.2400226336173
 20
1059.873292371862
 30
0.0
  0
POINT
  5
164D
  8
DEFPOINTS
 62
     0
 10
491.2400226336173
 20
694.8732923718621
 30
0.0
  0
POINT
  5
164E
  8
DEFPOINTS
 62
     0
 10
537.2924579153571
 20
694.8732923718621
 30
0.0
  0
ENDBLK
  5
1645
  8
0
  0
BLOCK
  8
0
  2
*D255
 70
     1
 10
0.0
 20
0.0
 30
0.0
  3
*D255
  1

  0
LINE
  5
1655
  8
DIMENSIONS
  6
BYBLOCK
 62
     0
 10
492.7400226336173
 20
694.8732923718621
 30
0.0
 11
537.472457915357
 21
694.8732923718621
 31
0.0
  0
LINE
  5
1656
  8
DIMENSIONS
  6
BYBLOCK
 62
     0
 10
492.7400226336173
 20
434.8732923718621
 30
0.0
 11
537.472457915357
 21
434.8732923718621
 31
0.0
  0
LINE
  5
1657
  8
DIMENSIONS
  6
BYBLOCK
 62
     0
 10
537.2924579153571
 20
689.8732923718621
 30
0.0
 11
537.2924579153571
 21
439.8732923718621
 31
0.0
  0
SOLID
  5
1658
  8
DIMENSIONS
 62
     0
 10
538.1257912486905
 20
689.8732923718621
 30
0.0
 11
536.4591245820237
 21
689.8732923718621
 31
0.0
 12
537.2924579153571
 22
694.8732923718621
 32
0.0
 13
537.2924579153571
 23
694.8732923718621
 33
0.0
  0
SOLID
  5
1659
  8
DIMENSIONS
 62
     0
 10
536.4591245820237
 20
439.8732923718621
 30
0.0
 11
538.1257912486905
 21
439.8732923718621
 31
0.0
 12
537.2924579153571
 22
434.8732923718621
 32
0.0
 13
537.2924579153571
 23
434.8732923718621
 33
0.0
  0
TEXT
  5
165A
  8
DIMENSIONS
  6
CONTINUOUS
 62
     5
 10
534.897457915357
 20
547.5382923718621
 30
0.0
 40
5.0
  1
260 [10.24]
 50
90.0
  0
POINT
  5
165B
  8
DEFPOINTS
 62
     0
 10
491.2400226336173
 20
694.8732923718621
 30
0.0
  0
POINT
  5
165C
  8
DEFPOINTS
 62
     0
 10
491.2400226336173
 20
434.8732923718621
 30
0.0
  0
POINT
  5
165D
  8
DEFPOINTS
 62
     0
 10
537.2924579153571
 20
434.8732923718621
 30
0.0
  0
ENDBLK
  5
1654
  8
0
  0
BLOCK
  8
0
  2
*D256
 70
     1
 10
0.0
 20
0.0
 30
0.0
  3
*D256
  1

  0
LINE
  5
1664
  8
DIMENSIONS
  6
BYBLOCK
 62
     0
 10
492.7400226336173
 20
434.8732923718621
 30
0.0
 11
537.472457915357
 21
434.8732923718621
 31
0.0
  0
LINE
  5
1665
  8
DIMENSIONS
  6
BYBLOCK
 62
     0
 10
517.7400226336152
 20
69.87329237186225
 30
0.0
 11
537.472457915357
 21
69.87329237186225
 31
0.0
  0
LINE
  5
1666
  8
DIMENSIONS
  6
BYBLOCK
 62
     0
 10
537.2924579153571
 20
429.8732923718621
 30
0.0
 11
537.2924579153571
 21
74.87329237186225
 31
0.0
  0
SOLID
  5
1667
  8
DIMENSIONS
 62
     0
 10
538.1257912486905
 20
429.8732923718621
 30
0.0
 11
536.4591245820237
 21
429.8732923718621
 31
0.0
 12
537.2924579153571
 22
434.8732923718621
 32
0.0
 13
537.2924579153571
 23
434.8732923718621
 33
0.0
  0
SOLID
  5
1668
  8
DIMENSIONS
 62
     0
 10
536.4591245820237
 20
74.87329237186225
 30
0.0
 11
538.1257912486905
 21
74.87329237186225
 31
0.0
 12
537.2924579153571
 22
69.87329237186225
 32
0.0
 13
537.2924579153571
 23
69.87329237186225
 33
0.0
  0
TEXT
  5
1669
  8
DIMENSIONS
  6
CONTINUOUS
 62
     5
 10
534.8974579153572
 20
234.9932923718622
 30
0.0
 40
5.0
  1
365 [14.37]
 50
90.0
  0
POINT
  5
166A
  8
DEFPOINTS
 62
     0
 10
491.2400226336173
 20
434.8732923718621
 30
0.0
  0
POINT
  5
166B
  8
DEFPOINTS
 62
     0
 10
516.2400226336152
 20
69.87329237186225
 30
0.0
  0
POINT
  5
166C
  8
DEFPOINTS
 62
     0
 10
537.2924579153571
 20
69.87329237186225
 30
0.0
  0
ENDBLK
  5
1663
  8
0
  0
BLOCK
  8
0
  2
*D257
 70
     1
 10
0.0
 20
0.0
 30
0.0
  3
*D257
  1

  0
LINE
  5
1679
  8
DIMENSIONS
  6
BYBLOCK
 62
     0
 10
492.240057328405
 20
99.39757838200214
 30
0.0
 11
447.227673661928
 21
99.52618728414855
 31
0.0
  0
TEXT
  5
167A
  8
DIMENSIONS
  6
CONTINUOUS
 62
     5
 10
447.9547422377923
 20
101.9991200139232
 30
0.0
 40
5.0
  1
Ø7 [Ø0.28]
 50
359.8362955558223
  0
SOLID
  5
167B
  8
DIMENSIONS
 62
     0
 10
492.2376763470186
 20
98.56424845011917
 30
0.0
 11
492.2424383097913
 21
100.2309083138851
 31
0.0
 12
497.2400369197028
 22
99.38329249368402
 32
0.0
 13
497.2400369197028
 23
99.38329249368402
 33
0.0
  0
LINE
  5
167C
  8
DIMENSIONS
  6
BYBLOCK
 62
     0
 10
498.2400226336114
 20
99.37329237186134
 30
0.0
 11
503.2400226336114
 21
99.37329237186134
 31
0.0
  0
LINE
  5
167D
  8
DIMENSIONS
  6
BYBLOCK
 62
     0
 10
500.7400226336114
 20
96.87329237186134
 30
0.0
 11
500.7400226336114
 21
101.8732923718613
 31
0.0
  0
POINT
  5
167E
  8
DEFPOINTS
 62
     0
 10
497.2400369197028
 20
99.38329249368402
 30
0.0
  0
POINT
  5
167F
  8
DEFPOINTS
 62
     0
 10
504.2400083475198
 20
99.36329225003867
 30
0.0
  0
ENDBLK
  5
1678
  8
0
  0
BLOCK
  8
0
  2
*D258
 70
     1
 10
0.0
 20
0.0
 30
0.0
  3
*D258
  1

  0
LINE
  5
1689
  8
DIMENSIONS
  6
BYBLOCK
 62
     0
 10
517.7400226336152
 20
1319.873292371862
 30
0.0
 11
557.8490255654312
 21
1319.873292371862
 31
0.0
  0
LINE
  5
168A
  8
DIMENSIONS
  6
BYBLOCK
 62
     0
 10
517.7400226336152
 20
69.87329237186225
 30
0.0
 11
557.8490255654311
 21
69.87329237186225
 31
0.0
  0
LINE
  5
168B
  8
DIMENSIONS
  6
BYBLOCK
 62
     0
 10
557.6690255654313
 20
1314.873292371862
 30
0.0
 11
557.6690255654312
 21
74.87329237186225
 31
0.0
  0
SOLID
  5
168C
  8
DIMENSIONS
 62
     0
 10
558.5023588987647
 20
1314.873292371862
 30
0.0
 11
556.8356922320979
 21
1314.873292371862
 31
0.0
 12
557.6690255654313
 22
1319.873292371862
 32
0.0
 13
557.6690255654313
 23
1319.873292371862
 33
0.0
  0
SOLID
  5
168D
  8
DIMENSIONS
 62
     0
 10
556.8356922320978
 20
74.87329237186225
 30
0.0
 11
558.5023588987646
 21
74.87329237186225
 31
0.0
 12
557.6690255654312
 22
69.87329237186225
 32
0.0
 13
557.6690255654312
 23
69.87329237186225
 33
0.0
  0
TEXT
  5
168E
  8
DIMENSIONS
  6
CONTINUOUS
 62
     5
 10
555.2740255654311
 20
675.3207923718619
 30
0.0
 40
5.0
  1
1250 [49.21]
 50
90.0
  0
POINT
  5
168F
  8
DEFPOINTS
 62
     0
 10
516.2400226336152
 20
1319.873292371862
 30
0.0
  0
POINT
  5
1690
  8
DEFPOINTS
 62
     0
 10
516.2400226336152
 20
69.87329237186225
 30
0.0
  0
POINT
  5
1691
  8
DEFPOINTS
 62
     0
 10
557.6690255654312
 20
69.87329237186225
 30
0.0
  0
ENDBLK
  5
1688
  8
0
  0
BLOCK
  8
0
  2
*D259
 70
     1
 10
0.0
 20
0.0
 30
0.0
  3
*D259
  1

  0
LINE
  5
1698
  8
DIMENSIONS
  6
BYBLOCK
 62
     0
 10
348.7400226336173
 20
736.3732923718612
 30
0.0
 11
348.7400226336173
 21
746.4275014450969
 31
0.0
  0
LINE
  5
1699
  8
DIMENSIONS
  6
BYBLOCK
 62
     0
 10
516.2400226336152
 20
736.3732923718611
 30
0.0
 11
516.2400226336152
 21
746.4275014450969
 31
0.0
  0
LINE
  5
169A
  8
DIMENSIONS
  6
BYBLOCK
 62
     0
 10
353.7400226336173
 20
746.247501445097
 30
0.0
 11
511.2400226336152
 21
746.247501445097
 31
0.0
  0
SOLID
  5
169B
  8
DIMENSIONS
 62
     0
 10
353.7400226336173
 20
747.0808347784304
 30
0.0
 11
353.7400226336173
 21
745.4141681117636
 31
0.0
 12
348.7400226336173
 22
746.247501445097
 32
0.0
 13
348.7400226336173
 23
746.247501445097
 33
0.0
  0
SOLID
  5
169C
  8
DIMENSIONS
 62
     0
 10
511.2400226336152
 20
745.4141681117636
 30
0.0
 11
511.2400226336152
 21
747.0808347784304
 31
0.0
 12
516.2400226336152
 22
746.247501445097
 32
0.0
 13
516.2400226336152
 23
746.247501445097
 33
0.0
  0
TEXT
  5
169D
  8
DIMENSIONS
  6
CONTINUOUS
 62
     5
 10
413.9075226336163
 20
748.642501445097
 30
0.0
 40
5.0
  1
167.5 [6.59]
  0
POINT
  5
169E
  8
DEFPOINTS
 62
     0
 10
348.7400226336173
 20
734.8732923718612
 30
0.0
  0
POINT
  5
169F
  8
DEFPOINTS
 62
     0
 10
516.2400226336152
 20
734.8732923718611
 30
0.0
  0
POINT
  5
16A0
  8
DEFPOINTS
 62
     0
 10
516.2400226336152
 20
746.247501445097
 30
0.0
  0
ENDBLK
  5
1697
  8
0
  0
ENDSEC
  0
SECTION
  2
ENTITIES
  0
TEXT
  5
698
  8
DIMENSIONS
  6
BYBLOCK
 10
126.4389154318895
 20
49.7184133096968
 30
0.0
 40
5.0
  1
Note:
  0
TEXT
  5
699
  8
DIMENSIONS
  6
BYBLOCK
 10
126.572841472175
 20
39.18944546170374
 30
0.0
 40
5.0
  1
Primary dimensions in millimeters.
  0
TEXT
  5
69A
  8
DIMENSIONS
  6
BYBLOCK
 10
126.794255408565
 20
28.61741985291967
 30
0.0
 40
5.0
  1
Secondary dimensions in inches.
  0
POLYLINE
  5
151C
  8
0
 66
     1
 10
0.0
 20
0.0
 30
0.0
 70
     1
  0
VERTEX
  5
151D
  8
0
 10
146.2400226336114
 20
1059.873292371862
 30
0.0
  0
VERTEX
  5
151E
  8
0
 10
491.2400226336173
 20
1059.873292371862
 30
0.0
  0
VERTEX
  5
151F
  8
0
 10
491.2400226336173
 20
1294.873292371862
 30
0.0
  0
VERTEX
  5
1520
  8
0
 10
146.2400226336114
 20
1294.873292371862
 30
0.0
  0
SEQEND
  5
1521
  8
0
  0
CIRCLE
  5
1522
  8
0
 10
136.7400226336114
 20
1290.373292371862
 30
0.0
 40
3.5
  0
CIRCLE
  5
1523
  8
0
  6
CONTINUOUS
 10
318.7400226336114
 20
1304.873292371862
 30
0.0
 40
3.5
  0
CIRCLE
  5
1524
  8
0
 10
500.7400226336114
 20
1290.373292371862
 30
0.0
 40
3.5
  0
POLYLINE
  5
1525
  8
0
 66
     1
 10
0.0
 20
0.0
 30
0.0
 70
     1
  0
VERTEX
  5
1526
  8
0
 10
146.2400226336114
 20
434.8732923718621
 30
0.0
  0
VERTEX
  5
1527
  8
0
 10
491.2400226336173
 20
434.8732923718621
 30
0.0
  0
VERTEX
  5
1528
  8
0
 10
491.2400226336173
 20
694.8732923718621
 30
0.0
  0
VERTEX
  5
1529
  8
0
 10
146.2400226336114
 20
694.8732923718621
 30
0.0
  0
SEQEND
  5
152A
  8
0
  0
CIRCLE
  5
152B
  8
0
 10
136.7400226336114
 20
893.3732923718613
 30
0.0
 40
3.5
  0
CIRCLE
  5
152C
  8
0
 10
136.7400226336114
 20
496.3732923718622
 30
0.0
 40
3.5
  0
CIRCLE
  5
152D
  8
0
 10
500.7400226336114
 20
893.3732923718613
 30
0.0
 40
3.5
  0
CIRCLE
  5
152E
  8
0
  6
CONTINUOUS
 10
318.7400226336114
 20
712.8732923718621
 30
0.0
 40
3.5
  0
CIRCLE
  5
152F
  8
0
 10
500.7400226336114
 20
496.3732923718622
 30
0.0
 40
3.5
  0
CIRCLE
  5
1530
  8
0
 10
136.7400226336114
 20
99.37329237186134
 30
0.0
 40
3.5
  0
CIRCLE
  5
1531
  8
0
  6
CONTINUOUS
 10
318.7400226336114
 20
84.87329237186134
 30
0.0
 40
3.5
  0
CIRCLE
  5
1532
  8
0
 10
500.7400226336114
 20
99.37329237186134
 30
0.0
 40
3.5
  0
CIRCLE
  5
1533
  8
0
  6
CONTINUOUS
 10
471.2400226336114
 20
84.87329237186134
 30
0.0
 40
3.5
  0
CIRCLE
  5
1534
  8
0
  6
CONTINUOUS
 10
166.2400226336114
 20
84.87329237186134
 30
0.0
 40
3.5
  0
CIRCLE
  5
1535
  8
0
  6
CONTINUOUS
 10
166.2150226336133
 20
734.8732923718612
 30
0.0
 40
3.5
  0
CIRCLE
  5
1536
  8
0
  6
CONTINUOUS
 10
348.7400226336173
 20
734.8732923718612
 30
0.0
 40
3.5
  0
CIRCLE
  5
1537
  8
0
  6
CONTINUOUS
 10
318.7400226336114
 20
712.8732923718621
 30
0.0
 40
3.5
  0
CIRCLE
  5
1538
  8
0
  6
CONTINUOUS
 10
166.2400226336114
 20
1304.873292371862
 30
0.0
 40
3.5
  0
CIRCLE
  5
1539
  8
0
  6
CONTINUOUS
 10
471.2400226336114
 20
1304.873292371862
 30
0.0
 40
3.5
  0
CIRCLE
  5
153A
  8
0
  6
CONTINUOUS
 10
136.7400226336114
 20
227.8732923718613
 30
0.0
 40
3.5
  0
CIRCLE
  5
153B
  8
0
  6
CONTINUOUS
 10
500.7400226336114
 20
227.8732923718613
 30
0.0
 40
3.5
  0
LINE
  5
153C
  8
0
 10
121.2400226336114
 20
1319.873292371862
 30
0.0
 11
516.2400226336152
 21
1319.873292371862
 31
0.0
  0
LINE
  5
153D
  8
0
 10
516.2400226336152
 20
1319.873292371862
 30
0.0
 11
516.2400226336152
 21
69.87329237186225
 31
0.0
  0
LINE
  5
153E
  8
0
 10
516.2400226336152
 20
69.87329237186225
 30
0.0
 11
121.2400226336114
 21
69.87329237186225
 31
0.0
  0
LINE
  5
153F
  8
0
 10
121.2400226336114
 20
69.87329237186225
 30
0.0
 11
121.2400226336114
 21
1319.873292371862
 31
0.0
  0
DIMENSION
  5
1540
  8
DIMENSIONS
  6
BYBLOCK
  2
*D237
 10
471.2400226336114
 20
1340.46866183543
 30
0.0
 11
318.7400226336114
 21
1344.67116183543
 31
0.0
 70
    32
  3
DUAL-DIM
 13
166.2400226336114
 23
1304.873292371862
 33
0.0
 14
471.2400226336114
 24
1304.873292371862
 34
0.0
1001
ACAD
1000
DSTYLE
1002
{
1070
   287
1070
     5
1070
   279
1070
     2
1002
}
  0
DIMENSION
  5
154F
  8
DIMENSIONS
  6
BYBLOCK
  2
*D238
 10
491.2400226336173
 20
1361.501129136596
 30
0.0
 11
318.7400226336143
 21
1365.703629136596
 31
0.0
 70
    32
  3
DUAL-DIM
 13
146.2400226336114
 23
1294.873292371862
 33
0.0
 14
491.2400226336173
 24
1294.873292371862
 34
0.0
1001
ACAD
1000
DSTYLE
1002
{
1070
   287
1070
     5
1070
   279
1070
     2
1002
}
  0
DIMENSION
  5
155E
  8
DIMENSIONS
  6
BYBLOCK
  2
*D239
 10
500.7400226336114
 20
1380.946240415032
 30
0.0
 11
318.7400226336114
 21
1385.148740415032
 31
0.0
 70
    32
  3
DUAL-DIM
 13
136.7400226336114
 23
1290.373292371862
 33
0.0
 14
500.7400226336114
 24
1290.373292371862
 34
0.0
1001
ACAD
1000
DSTYLE
1002
{
1070
   287
1070
     5
1070
   279
1070
     2
1002
}
  0
DIMENSION
  5
156D
  8
DIMENSIONS
  6
BYBLOCK
  2
*D240
 10
516.2400226336152
 20
1399.597673682104
 30
0.0
 11
318.7400226336133
 21
1403.800173682104
 31
0.0
 70
    32
  3
DUAL-DIM
 13
121.2400226336114
 23
1319.873292371862
 33
0.0
 14
516.2400226336152
 24
1319.873292371862
 34
0.0
1001
ACAD
1000
DSTYLE
1002
{
1070
   287
1070
     5
1070
   279
1070
     2
1002
}
  0
DIMENSION
  5
158C
  8
DIMENSIONS
  6
BYBLOCK
  2
*D242
 10
105.6670682867663
 20
893.3732923718613
 30
0.0
 11
101.4645682867662
 21
1091.873292371861
 31
0.0
 70
    32
  3
DUAL-DIM
 13
136.7400226336114
 23
1290.373292371862
 33
0.0
 14
136.7400226336114
 24
893.3732923718613
 34
0.0
 50
90.0
1001
ACAD
1000
DSTYLE
1002
{
1070
   287
1070
     5
1070
   279
1070
     2
1002
}
  0
DIMENSION
  5
159B
  8
DIMENSIONS
  6
BYBLOCK
  2
*D243
 10
105.6670682867663
 20
734.8732923718612
 30
0.0
 11
101.4645682867663
 21
814.1232923718612
 31
0.0
 70
    32
  3
DUAL-DIM
 13
136.7400226336114
 23
893.3732923718613
 33
0.0
 14
166.2150226336133
 24
734.8732923718612
 34
0.0
 50
90.0
1001
ACAD
1000
DSTYLE
1002
{
1070
   287
1070
     5
1070
   279
1070
     2
1002
}
  0
DIMENSION
  5
15AA
  8
DIMENSIONS
  6
BYBLOCK
  2
*D244
 10
90.39266762654151
 20
712.8732923718621
 30
0.0
 11
86.19016762654152
 21
693.6232923718621
 31
0.0
 70
    32
  3
DUAL-DIM
 13
166.2150226336133
 23
734.8732923718612
 33
0.0
 14
318.7400226336114
 24
712.8732923718621
 34
0.0
 50
90.0
1001
ACAD
1000
DSTYLE
1002
{
1070
   287
1070
     3
1070
   279
1070
     0
1002
}
  0
DIMENSION
  5
15B9
  8
DIMENSIONS
  6
BYBLOCK
  2
*D245
 10
105.6670682867663
 20
496.3732923718622
 30
0.0
 11
101.4645682867663
 21
604.6232923718621
 31
0.0
 70
    32
  3
DUAL-DIM
 13
318.7400226336114
 23
712.8732923718621
 33
0.0
 14
136.7400226336114
 24
496.3732923718622
 34
0.0
 50
90.0
1001
ACAD
1000
DSTYLE
1002
{
1070
   287
1070
     5
1070
   279
1070
     2
1002
}
  0
DIMENSION
  5
15C8
  8
DIMENSIONS
  6
BYBLOCK
  2
*D246
 10
105.6670682867663
 20
227.8732923718613
 30
0.0
 11
101.4645682867663
 21
362.1232923718617
 31
0.0
 70
    32
  3
DUAL-DIM
 13
136.7400226336114
 23
496.3732923718622
 33
0.0
 14
136.7400226336114
 24
227.8732923718613
 34
0.0
 50
90.0
1001
ACAD
1000
DSTYLE
1002
{
1070
   287
1070
     5
1070
   279
1070
     2
1002
}
  0
DIMENSION
  5
15D7
  8
DIMENSIONS
  6
BYBLOCK
  2
*D247
 10
105.6670682867662
 20
99.37329237186134
 30
0.0
 11
101.4645682867663
 21
163.6232923718613
 31
0.0
 70
    32
  3
DUAL-DIM
 13
136.7400226336114
 23
227.8732923718613
 33
0.0
 14
136.7400226336114
 24
99.37329237186134
 34
0.0
 50
90.0
1001
ACAD
1000
DSTYLE
1002
{
1070
   287
1070
     5
1070
   279
1070
     2
1002
}
  0
DIMENSION
  5
15E6
  8
DIMENSIONS
  6
BYBLOCK
  2
*D248
 10
89.5703794468125
 20
84.87329237186134
 30
0.0
 11
89.5703794468125
 21
121.2557923718613
 31
0.0
 70
   160
  3
DUAL-DIM
 13
136.7400226336114
 23
99.37329237186134
 33
0.0
 14
166.2400226336114
 24
84.87329237186134
 34
0.0
 50
90.0
1001
ACAD
1000
DSTYLE
1002
{
1070
   287
1070
     3
1070
   279
1070
     0
1002
}
  0
DIMENSION
  5
15F5
  8
DIMENSIONS
  6
BYBLOCK
  2
*D249
 10
72.78882766180891
 20
69.87329237186225
 30
0.0
 11
72.78882766180891
 21
125.0744042303948
 31
0.0
 70
   160
  3
DUAL-DIM
 13
166.2400226336114
 23
84.87329237186134
 33
0.0
 14
121.2400226336114
 24
69.87329237186225
 34
0.0
 50
90.0
1001
ACAD
1000
DSTYLE
1002
{
1070
   287
1070
     3
1070
   279
1070
     0
1002
}
  0
DIMENSION
  5
1604
  8
DIMENSIONS
  6
BYBLOCK
  2
*D250
 10
86.91036418889902
 20
1304.873292371862
 30
0.0
 11
86.91036418889902
 21
1268.490792371862
 31
0.0
 70
   160
  3
DUAL-DIM
 13
136.7400226336114
 23
1290.373292371862
 33
0.0
 14
166.2400226336114
 24
1304.873292371862
 34
0.0
 50
90.0
1001
ACAD
1000
DSTYLE
1002
{
1070
   287
1070
     3
1070
   279
1070
     0
1002
}
  0
DIMENSION
  5
1613
  8
DIMENSIONS
  6
BYBLOCK
  2
*D251
 10
69.52947126871673
 20
1319.873292371862
 30
0.0
 11
69.52947126871673
 21
1279.279958166744
 31
0.0
 70
   160
  3
DUAL-DIM
 13
166.2400226336114
 23
1304.873292371862
 33
0.0
 14
121.2400226336114
 24
1319.873292371862
 34
0.0
 50
90.0
1001
ACAD
1000
DSTYLE
1002
{
1070
   287
1070
     3
1070
   279
1070
     0
1002
}
  0
DIMENSION
  5
1622
  8
DIMENSIONS
  6
BYBLOCK
  2
*D252
 10
537.2924579153571
 20
1294.873292371862
 30
0.0
 11
533.089957915357
 21
1275.623292371862
 31
0.0
 70
    32
  3
DUAL-DIM
 13
516.2400226336152
 23
1319.873292371862
 33
0.0
 14
491.2400226336173
 24
1294.873292371862
 34
0.0
 50
90.0
1001
ACAD
1000
DSTYLE
1002
{
1070
   287
1070
     3
1070
   279
1070
     0
1002
}
  0
DIMENSION
  5
1631
  8
DIMENSIONS
  6
BYBLOCK
  2
*D253
 10
537.2924579153571
 20
1059.873292371862
 30
0.0
 11
533.089957915357
 21
1177.373292371862
 31
0.0
 70
    32
  3
DUAL-DIM
 13
491.2400226336173
 23
1294.873292371862
 33
0.0
 14
491.2400226336173
 24
1059.873292371862
 34
0.0
 50
90.0
1001
ACAD
1000
DSTYLE
1002
{
1070
   287
1070
     5
1070
   279
1070
     2
1002
}
  0
DIMENSION
  5
1640
  8
DIMENSIONS
  6
BYBLOCK
  2
*D254
 10
537.2924579153571
 20
694.8732923718621
 30
0.0
 11
533.0899579153571
 21
877.3732923718622
 31
0.0
 70
    32
  3
DUAL-DIM
 13
491.2400226336173
 23
1059.873292371862
 33
0.0
 14
491.2400226336173
 24
694.8732923718621
 34
0.0
 50
90.0
1001
ACAD
1000
DSTYLE
1002
{
1070
   287
1070
     5
1070
   279
1070
     2
1002
}
  0
DIMENSION
  5
164F
  8
DIMENSIONS
  6
BYBLOCK
  2
*D255
 10
537.2924579153571
 20
434.8732923718621
 30
0.0
 11
533.0899579153571
 21
564.8732923718621
 31
0.0
 70
    32
  3
DUAL-DIM
 13
491.2400226336173
 23
694.8732923718621
 33
0.0
 14
491.2400226336173
 24
434.8732923718621
 34
0.0
 50
90.0
1001
ACAD
1000
DSTYLE
1002
{
1070
   287
1070
     5
1070
   279
1070
     2
1002
}
  0
DIMENSION
  5
165E
  8
DIMENSIONS
  6
BYBLOCK
  2
*D256
 10
537.2924579153571
 20
69.87329237186225
 30
0.0
 11
533.0899579153571
 21
252.3732923718622
 31
0.0
 70
    32
  3
DUAL-DIM
 13
491.2400226336173
 23
434.8732923718621
 33
0.0
 14
516.2400226336152
 24
69.87329237186225
 34
0.0
 50
90.0
1001
ACAD
1000
DSTYLE
1002
{
1070
   287
1070
     5
1070
   279
1070
     2
1002
}
  0
DIMENSION
  5
1673
  8
DIMENSIONS
  6
BYBLOCK
  2
*D257
 10
504.2400083475198
 20
99.36329225003867
 30
0.0
 11
464.9301014049179
 21
99.47560809655828
 31
0.0
 70
   163
  1
<>
  3
DUAL-DIM
 15
497.2400369197028
 25
99.38329249368402
 35
0.0
 40
0.0
1001
ACAD
1000
DSTYLE
1002
{
1070
   287
1070
     3
1070
   279
1070
     0
1002
}
1001
ACAD_DSTYLE_DIMRADIAL_EXT0
1070
   387
1070
     1
1070
   388
1040
0.0
1070
   390
1040
6.283185307179586
  0
DIMENSION
  5
1683
  8
DIMENSIONS
  6
BYBLOCK
  2
*D258
 10
557.6690255654312
 20
69.87329237186225
 30
0.0
 11
553.4665255654312
 21
694.8732923718619
 31
0.0
 70
    32
  3
DUAL-DIM
 13
516.2400226336152
 23
1319.873292371862
 33
0.0
 14
516.2400226336152
 24
69.87329237186225
 34
0.0
 50
90.0
1001
ACAD
1000
DSTYLE
1002
{
1070
   287
1070
     5
1070
   279
1070
     2
1002
}
  0
DIMENSION
  5
1692
  8
DIMENSIONS
  6
BYBLOCK
  2
*D259
 10
516.2400226336152
 20
746.247501445097
 30
0.0
 11
432.4900226336163
 21
750.450001445097
 31
0.0
 70
    32
  3
DUAL-DIM
 13
348.7400226336173
 23
734.8732923718612
 33
0.0
 14
516.2400226336152
 24
734.8732923718611
 34
0.0
1001
ACAD
1000
DSTYLE
1002
{
1070
   287
1070
     5
1070
   279
1070
     2
1002
}
  0
POLYLINE
  5
16A2
  8
0
  6
BYBLOCK
 66
     1
 10
0.0
 20
0.0
 30
0.0
 70
     1
  0
VERTEX
  5
16A9
  8
0
  6
BYBLOCK
 10
-32.95941055779554
 20
13.4919107503917
 30
0.0
  0
VERTEX
  5
16AA
  8
0
  6
BYBLOCK
 10
-32.95941055779554
 20
1429.929298803059
 30
0.0
  0
VERTEX
  5
16AB
  8
0
  6
BYBLOCK
 10
677.9385471281586
 20
1429.929298803059
 30
0.0
  0
VERTEX
  5
16AC
  8
0
  6
BYBLOCK
 10
677.9385471281586
 20
13.4919107503917
 30
0.0
  0
SEQEND
  5
16AD
  8
0
  6
BYBLOCK
  0
ENDSEC
  0
EOF
