  0
SECTION
  2
HEADER
  9
$ACADVER
  1
AC1009
  9
$DWGCODEPAGE
  3
ansi_1252
  9
$INSBASE
 10
0.0
 20
0.0
 30
0.0
  9
$EXTMIN
 10
2.313298369533129
 20
-54.52617924001089
 30
0.0
  9
$EXTMAX
 10
548.6400503560515
 20
592.6108662678291
 30
0.0
  9
$LIMMIN
 10
0.0
 20
0.0
  9
$LIMMAX
 10
594.0
 20
420.0
  9
$ORTHOMODE
 70
     0
  9
$REGENMODE
 70
     1
  9
$FILLMODE
 70
     1
  9
$QTEXTMODE
 70
     0
  9
$MIRRTEXT
 70
     1
  9
$DRAGMODE
 70
     2
  9
$LTSCALE
 40
32.67
  9
$OSMODE
 70
   511
  9
$ATTMODE
 70
     1
  9
$TEXTSIZE
 40
0.2
  9
$TRACEWID
 40
0.05
  9
$TEXTSTYLE
  7
STANDARD
  9
$CLAYER
  8
0
  9
$CELTYPE
  6
BYBLOCK
  9
$CECOLOR
 62
   256
  9
$DIMSCALE
 40
1.0
  9
$DIMASZ
 40
5.0
  9
$DIMEXO
 40
1.5
  9
$DIMDLI
 40
1.0
  9
$DIMRND
 40
0.0
  9
$DIMDLE
 40
0.0
  9
$DIMEXE
 40
0.18
  9
$DIMTP
 40
0.0
  9
$DIMTM
 40
0.0
  9
$DIMTXT
 40
5.0
  9
$DIMCEN
 40
2.5
  9
$DIMTSZ
 40
0.0
  9
$DIMTOL
 70
     0
  9
$DIMLIM
 70
     0
  9
$DIMTIH
 70
     0
  9
$DIMTOH
 70
     0
  9
$DIMSE1
 70
     0
  9
$DIMSE2
 70
     0
  9
$DIMTAD
 70
     1
  9
$DIMZIN
 70
     8
  9
$DIMBLK
  1

  9
$DIMASO
 70
     1
  9
$DIMSHO
 70
     1
  9
$DIMPOST
  1

  9
$DIMAPOST
  1

  9
$DIMALT
 70
     1
  9
$DIMALTD
 70
     2
  9
$DIMALTF
 40
0.03937
  9
$DIMLFAC
 40
1.0
  9
$DIMTOFL
 70
     0
  9
$DIMTVP
 40
0.0
  9
$DIMTIX
 70
     0
  9
$DIMSOXD
 70
     0
  9
$DIMSAH
 70
     0
  9
$DIMBLK1
  1

  9
$DIMBLK2
  1

  9
$DIMSTYLE
  2
DUAL-DIM
  9
$DIMCLRD
 70
     0
  9
$DIMCLRE
 70
     0
  9
$DIMCLRT
 70
     5
  9
$DIMTFAC
 40
1.0
  9
$DIMGAP
 40
1.0
  9
$LUNITS
 70
     2
  9
$LUPREC
 70
     4
  9
$SKETCHINC
 40
0.1
  9
$FILLETRAD
 40
15.0
  9
$AUNITS
 70
     0
  9
$AUPREC
 70
     0
  9
$MENU
  1
.
  9
$ELEVATION
 40
0.0
  9
$PELEVATION
 40
0.0
  9
$THICKNESS
 40
0.0
  9
$LIMCHECK
 70
     0
  9
$CHAMFERA
 40
0.0
  9
$CHAMFERB
 40
0.0
  9
$SKPOLY
 70
     0
  9
$TDCREATE
 40
2457428.354677859
  9
$TDUPDATE
 40
2457438.457698032
  9
$TDINDWG
 40
0.0407927546
  9
$TDUSRTIMER
 40
2457438.413811828
  9
$USRTIMER
 70
     1
  9
$ANGBASE
 50
0.0
  9
$ANGDIR
 70
     0
  9
$PDMODE
 70
     3
  9
$PDSIZE
 40
0.3125
  9
$PLINEWID
 40
0.0
  9
$COORDS
 70
     2
  9
$SPLFRAME
 70
     0
  9
$SPLINETYPE
 70
     6
  9
$SPLINESEGS
 70
     8
  9
$ATTDIA
 70
     0
  9
$ATTREQ
 70
     1
  9
$HANDLING
 70
     1
  9
$HANDSEED
  5
DDA
  9
$SURFTAB1
 70
     6
  9
$SURFTAB2
 70
     6
  9
$SURFTYPE
 70
     6
  9
$SURFU
 70
     6
  9
$SURFV
 70
     6
  9
$UCSNAME
  2

  9
$UCSORG
 10
0.0
 20
0.0
 30
0.0
  9
$UCSXDIR
 10
1.0
 20
0.0
 30
0.0
  9
$UCSYDIR
 10
0.0
 20
1.0
 30
0.0
  9
$PUCSNAME
  2

  9
$PUCSORG
 10
0.0
 20
0.0
 30
0.0
  9
$PUCSXDIR
 10
1.0
 20
0.0
 30
0.0
  9
$PUCSYDIR
 10
0.0
 20
1.0
 30
0.0
  9
$USERI1
 70
     0
  9
$USERI2
 70
     0
  9
$USERI3
 70
     0
  9
$USERI4
 70
     0
  9
$USERI5
 70
     0
  9
$USERR1
 40
0.0
  9
$USERR2
 40
0.0
  9
$USERR3
 40
0.0
  9
$USERR4
 40
0.0
  9
$USERR5
 40
0.0
  9
$WORLDVIEW
 70
     1
  9
$SHADEDGE
 70
     3
  9
$SHADEDIF
 70
    70
  9
$TILEMODE
 70
     1
  9
$MAXACTVP
 70
    64
  9
$PLIMCHECK
 70
     0
  9
$PEXTMIN
 10
1.000000000000000E+20
 20
1.000000000000000E+20
 30
1.000000000000000E+20
  9
$PEXTMAX
 10
-1.000000000000000E+20
 20
-1.000000000000000E+20
 30
-1.000000000000000E+20
  9
$PLIMMIN
 10
0.0
 20
0.0
  9
$PLIMMAX
 10
0.0
 20
0.0
  9
$UNITMODE
 70
     0
  9
$VISRETAIN
 70
     1
  9
$PLINEGEN
 70
     0
  9
$PSLTSCALE
 70
     1
  0
ENDSEC
  0
SECTION
  2
TABLES
  0
TABLE
  2
VPORT
 70
     1
  0
VPORT
  2
*ACTIVE
 70
     0
 10
0.0
 20
0.0
 11
1.0
 21
1.0
 12
679.3275881266358
 22
289.6041204518936
 13
0.0
 23
0.0
 14
0.5
 24
0.5
 15
0.5
 25
0.5
 16
0.0
 26
0.0
 36
1.0
 17
0.0
 27
0.0
 37
0.0
 40
770.643204842094
 41
2.450549450549451
 42
50.0
 43
0.0
 44
0.0
 50
0.0
 51
0.0
 71
    16
 72
   100
 73
     1
 74
     3
 75
     0
 76
     0
 77
     0
 78
     0
  0
ENDTAB
  0
TABLE
  2
LTYPE
 70
     6
  0
LTYPE
  2
CONTINUOUS
 70
     0
  3
Solid line
 72
    65
 73
     0
 40
0.0
  0
LTYPE
  2
CENTER
 70
     0
  3
____ _ ____ _ ____ _ ____ _ ____ _ ____ _ ____
 72
    65
 73
     4
 40
0.6
 49
0.375
 49
-0.075
 49
0.075
 49
-0.075
  0
LTYPE
  2
HIDDEN
 70
     0
  3
- - - - - - - - - - - - - - - - - - - -
 72
    65
 73
     2
 40
0.2
 49
0.1
 49
-0.1
  0
LTYPE
  2
PHANTOM
 70
     0
  3
_____ _ _ _____ _ _ _____ _ _ _____
 72
    65
 73
     6
 40
0.8
 49
0.45
 49
-0.05
 49
0.1
 49
-0.05
 49
0.1
 49
-0.05
  0
LTYPE
  2
DOT
 70
     0
  3
. . . . . . . . . . . . . . . . . . . .
 72
    65
 73
     2
 40
0.2
 49
0.1
 49
-0.1
  0
LTYPE
  2
DASHED
 70
     0
  3
- - - - - - - - - - - - - - - - - - - -
 72
    65
 73
     2
 40
0.2
 49
0.1
 49
-0.1
  0
ENDTAB
  0
TABLE
  2
LAYER
 70
    15
  0
LAYER
  2
0
 70
     0
 62
     7
  6
CONTINUOUS
  0
LAYER
  2
DEFAULT_1
 70
     0
 62
     7
  6
CENTER
  0
LAYER
  2
DEFAULT_2
 70
     0
 62
     8
  6
HIDDEN
  0
LAYER
  2
DEFAULT_3
 70
     0
 62
     7
  6
PHANTOM
  0
LAYER
  2
01___PRT_ALL_DTM_PLN
 70
     0
 62
     7
  6
CONTINUOUS
  0
LAYER
  2
01___PRT_DEF_DTM_PLN
 70
     0
 62
     7
  6
CONTINUOUS
  0
LAYER
  2
02___PRT_ALL_AXES
 70
     0
 62
     7
  6
CONTINUOUS
  0
LAYER
  2
03___PRT_ALL_CURVES
 70
     0
 62
     7
  6
CONTINUOUS
  0
LAYER
  2
04___PRT_ALL_DTM_PNT
 70
     0
 62
     7
  6
CONTINUOUS
  0
LAYER
  2
05___PRT_ALL_DTM_CSYS
 70
     0
 62
     7
  6
CONTINUOUS
  0
LAYER
  2
05___PRT_DEF_DTM_CSYS
 70
     0
 62
     7
  6
CONTINUOUS
  0
LAYER
  2
06___PRT_ALL_SURFS
 70
     0
 62
     7
  6
CONTINUOUS
  0
LAYER
  2
DEFPOINTS
 70
     0
 62
     7
  6
CONTINUOUS
  0
LAYER
  2
DIMENSIONS
 70
     0
 62
     2
  6
CONTINUOUS
  0
LAYER
  2
AM_5
 70
     0
 62
     3
  6
CONTINUOUS
  0
ENDTAB
  0
TABLE
  2
STYLE
 70
     2
  0
STYLE
  2
STANDARD
 70
     0
 40
0.0
 41
1.0
 50
0.0
 71
     0
 42
0.2
  3
arial.ttf
  4

  0
STYLE
  2
TEXTSTYLE_1
 70
     0
 40
0.0
 41
0.8
 50
0.0
 71
     0
 42
0.2
  3
gdt
  4

  0
ENDTAB
  0
TABLE
  2
VIEW
 70
     0
  0
ENDTAB
  0
TABLE
  2
UCS
 70
     0
  0
ENDTAB
  0
TABLE
  2
APPID
 70
    10
  0
APPID
  2
ACAD
 70
     0
  0
APPID
  2
ACAECLAYERSTANDARD
 70
     0
  0
APPID
  2
ACAD_DSTYLE_DIMRADIAL_EXTE
 70
     0
  0
APPID
  2
ACAD_DSTYLE_DIMJOGGED_JOGA
 70
     0
  0
APPID
  2
ACAD_DSTYLE_DIMJAG
 70
     0
  0
APPID
  2
ACAD_DSTYLE_DIMBREAK
 70
     0
  0
APPID
  2
ACAD_PSEXT
 70
     0
  0
APPID
  2
ACAD_DSTYLE_DIMINSPECT
 70
     0
  0
APPID
  2
ACAD_DSTYLE_DIMRADIAL_EXT0
 70
     0
  0
APPID
  2
ACAD_DSTYLE_DIMJOGGED_JOG0
 70
     0
  0
ENDTAB
  0
TABLE
  2
DIMSTYLE
 70
     5
  0
DIMSTYLE
  2
STANDARD
 70
     0
  3

  4

  5

  6

  7

 40
1.0
 41
0.18
 42
0.0625
 43
0.38
 44
0.18
 45
0.0
 46
0.0
 47
0.0
 48
0.0
140
0.18
141
0.09
142
0.0
143
25.4
144
1.0
145
0.0
146
1.0
147
0.09
 71
     0
 72
     0
 73
     1
 74
     1
 75
     0
 76
     0
 77
     0
 78
     0
170
     0
171
     2
172
     0
173
     0
174
     0
175
     0
176
     0
177
     0
178
     0
  0
DIMSTYLE
  2
DUAL-DIM
 70
     0
  3

  4

  5

  6

  7

 40
1.0
 41
5.0
 42
1.5
 43
1.0
 44
0.18
 45
0.0
 46
0.0
 47
0.0
 48
0.0
140
5.0
141
2.5
142
0.0
143
0.03937
144
1.0
145
0.0
146
1.0
147
1.0
 71
     0
 72
     0
 73
     0
 74
     0
 75
     0
 76
     0
 77
     1
 78
     8
170
     1
171
     2
172
     0
173
     0
174
     0
175
     0
176
     0
177
     0
178
     5
  0
DIMSTYLE
  2
AM_ISO
 70
     0
  3

  4
"
  5

  6

  7

 40
1.0
 41
3.5
 42
1.0
 43
10.0
 44
1.0
 45
0.0
 46
0.0
 47
0.1
 48
0.1
140
3.5
141
0.0
142
0.0
143
0.0393701
144
1.0
145
0.0
146
0.71
147
1.5
 71
     0
 72
     0
 73
     0
 74
     0
 75
     0
 76
     0
 77
     1
 78
     8
170
     0
171
     2
172
     1
173
     0
174
     0
175
     0
176
   256
177
   256
178
     2
  0
DIMSTYLE
  2
AM_ISO$3
 70
     0
  3

  4
"
  5

  6

  7

 40
1.0
 41
3.5
 42
1.0
 43
10.0
 44
1.0
 45
0.0
 46
0.0
 47
0.1
 48
0.1
140
3.5
141
0.0
142
0.0
143
0.0393701
144
1.0
145
0.0
146
0.71
147
1.5
 71
     0
 72
     0
 73
     0
 74
     1
 75
     0
 76
     0
 77
     1
 78
     8
170
     0
171
     2
172
     0
173
     0
174
     0
175
     0
176
   256
177
   256
178
     2
  0
DIMSTYLE
  2
AM_ISO$0
 70
     0
  3

  4
"
  5

  6

  7

 40
1.0
 41
3.5
 42
1.0
 43
10.0
 44
1.0
 45
0.0
 46
0.0
 47
0.1
 48
0.1
140
3.5
141
0.0
142
0.0
143
0.0393701
144
1.0
145
0.0
146
0.71
147
1.5
 71
     0
 72
     0
 73
     0
 74
     0
 75
     0
 76
     0
 77
     1
 78
     8
170
     0
171
     2
172
     1
173
     0
174
     0
175
     0
176
   256
177
   256
178
     2
  0
ENDTAB
  0
ENDSEC
  0
SECTION
  2
BLOCKS
  0
BLOCK
  8
0
  2
$MODEL_SPACE
 70
     0
 10
0.0
 20
0.0
 30
0.0
  3
$MODEL_SPACE
  1

  0
ENDBLK
  5
110
  8
0
  0
BLOCK
 67
     1
  8
0
  2
$PAPER_SPACE
 70
     0
 10
0.0
 20
0.0
 30
0.0
  3
$PAPER_SPACE
  1

  0
ENDBLK
  5
112
 67
     1
  8
0
  0
BLOCK
  8
0
  2
_FILLED
 70
     0
 10
0.0
 20
0.0
 30
0.0
  3
_FILLED
  1

  0
SOLID
  5
3D
  8
0
  6
BYBLOCK
 62
     0
 10
0.0
 20
0.0
 30
0.0
 11
-1.0
 21
0.2
 31
0.0
 12
-1.0
 22
-0.2
 32
0.0
 13
-1.0
 23
-0.2
 33
0.0
  0
ENDBLK
  5
3E
  8
0
  6
BYBLOCK
 62
     0
  0
BLOCK
  8
0
  2
*D140
 70
     1
 10
0.0
 20
0.0
 30
0.0
  3
*D140
  1

  0
LINE
  5
CA1
  8
DIMENSIONS
  6
BYBLOCK
 62
     0
 10
148.0921972893064
 20
503.2707082651301
 30
0.0
 11
148.0921972893064
 21
535.2793406800054
 31
0.0
  0
LINE
  5
CA2
  8
DIMENSIONS
  6
BYBLOCK
 62
     0
 10
430.3002993355803
 20
503.2707082651301
 30
0.0
 11
430.3002993355803
 21
535.2793406800054
 31
0.0
  0
LINE
  5
CA3
  8
DIMENSIONS
  6
BYBLOCK
 62
     0
 10
153.0921972893064
 20
535.0993406800054
 30
0.0
 11
425.3002993355803
 21
535.0993406800054
 31
0.0
  0
SOLID
  5
CA4
  8
DIMENSIONS
 62
     0
 10
153.0921972893064
 20
535.9326740133388
 30
0.0
 11
153.0921972893064
 21
534.266007346672
 31
0.0
 12
148.0921972893064
 22
535.0993406800054
 32
0.0
 13
148.0921972893064
 23
535.0993406800054
 33
0.0
  0
SOLID
  5
CA5
  8
DIMENSIONS
 62
     0
 10
425.3002993355803
 20
534.266007346672
 30
0.0
 11
425.3002993355803
 21
535.9326740133388
 31
0.0
 12
430.3002993355803
 22
535.0993406800054
 32
0.0
 13
430.3002993355803
 23
535.0993406800054
 33
0.0
  0
TEXT
  5
CA6
  8
DIMENSIONS
  6
CONTINUOUS
 62
     5
 10
263.1312483124433
 20
537.4943406800054
 30
0.0
 40
5.0
  1
282.2081 [11.11]
  0
POINT
  5
CA7
  8
DEFPOINTS
 62
     0
 10
148.0921972893064
 20
501.7707082651301
 30
0.0
  0
POINT
  5
CA8
  8
DEFPOINTS
 62
     0
 10
430.3002993355803
 20
501.7707082651301
 30
0.0
  0
POINT
  5
CA9
  8
DEFPOINTS
 62
     0
 10
430.3002993355803
 20
535.0993406800054
 30
0.0
  0
ENDBLK
  5
CA0
  8
0
  0
BLOCK
  8
0
  2
*D141
 70
     1
 10
0.0
 20
0.0
 30
0.0
  3
*D141
  1

  0
LINE
  5
CB0
  8
DIMENSIONS
  6
BYBLOCK
 62
     0
 10
128.9002993355805
 20
518.2707082651301
 30
0.0
 11
128.9002993355805
 21
553.3125392244937
 31
0.0
  0
LINE
  5
CB1
  8
DIMENSIONS
  6
BYBLOCK
 62
     0
 10
448.9002993355805
 20
518.2707082651301
 30
0.0
 11
448.9002993355805
 21
553.3125392244937
 31
0.0
  0
LINE
  5
CB2
  8
DIMENSIONS
  6
BYBLOCK
 62
     0
 10
133.9002993355805
 20
553.1325392244937
 30
0.0
 11
443.9002993355805
 21
553.1325392244937
 31
0.0
  0
SOLID
  5
CB3
  8
DIMENSIONS
 62
     0
 10
133.9002993355805
 20
553.9658725578271
 30
0.0
 11
133.9002993355805
 21
552.2992058911603
 31
0.0
 12
128.9002993355805
 22
553.1325392244937
 32
0.0
 13
128.9002993355805
 23
553.1325392244937
 33
0.0
  0
SOLID
  5
CB4
  8
DIMENSIONS
 62
     0
 10
443.9002993355805
 20
552.2992058911603
 30
0.0
 11
443.9002993355805
 21
553.9658725578271
 31
0.0
 12
448.9002993355805
 22
553.1325392244937
 32
0.0
 13
448.9002993355805
 23
553.1325392244937
 33
0.0
  0
TEXT
  5
CB5
  8
DIMENSIONS
  6
CONTINUOUS
 62
     5
 10
271.5202993355805
 20
555.5275392244937
 30
0.0
 40
5.0
  1
320 [12.60]
  0
POINT
  5
CB6
  8
DEFPOINTS
 62
     0
 10
128.9002993355805
 20
516.7707082651301
 30
0.0
  0
POINT
  5
CB7
  8
DEFPOINTS
 62
     0
 10
448.9002993355805
 20
516.7707082651301
 30
0.0
  0
POINT
  5
CB8
  8
DEFPOINTS
 62
     0
 10
448.9002993355805
 20
553.1325392244937
 30
0.0
  0
ENDBLK
  5
CAF
  8
0
  0
BLOCK
  8
0
  2
*D142
 70
     1
 10
0.0
 20
0.0
 30
0.0
  3
*D142
  1

  0
LINE
  5
CBF
  8
DIMENSIONS
  6
BYBLOCK
 62
     0
 10
127.4002993355805
 20
516.7707082651301
 30
0.0
 11
87.53597383160985
 21
516.7707082651301
 31
0.0
  0
LINE
  5
CC0
  8
DIMENSIONS
  6
BYBLOCK
 62
     0
 10
142.5002993355805
 20
498.2707082651301
 30
0.0
 11
87.53597383160985
 21
498.2707082651301
 31
0.0
  0
LINE
  5
CC1
  8
DIMENSIONS
  6
BYBLOCK
 62
     0
 10
87.71597383160986
 20
498.2707082651301
 30
0.0
 11
87.71597383160986
 21
459.5057082651301
 31
0.0
  0
LINE
  5
CC2
  8
DIMENSIONS
  6
BYBLOCK
 62
     0
 10
87.71597383160986
 20
511.7707082651301
 30
0.0
 11
87.71597383160986
 21
503.2707082651301
 31
0.0
  0
SOLID
  5
CC3
  8
DIMENSIONS
 62
     0
 10
88.54930716494319
 20
511.7707082651301
 30
0.0
 11
86.88264049827653
 21
511.7707082651301
 31
0.0
 12
87.71597383160986
 22
516.7707082651301
 32
0.0
 13
87.71597383160986
 23
516.7707082651301
 33
0.0
  0
SOLID
  5
CC4
  8
DIMENSIONS
 62
     0
 10
86.88264049827653
 20
503.2707082651301
 30
0.0
 11
88.54930716494319
 21
503.2707082651301
 31
0.0
 12
87.71597383160986
 22
498.2707082651301
 32
0.0
 13
87.71597383160986
 23
498.2707082651301
 33
0.0
  0
TEXT
  5
CC5
  8
DIMENSIONS
  6
CONTINUOUS
 62
     5
 10
85.32097383160982
 20
459.7457082651301
 30
0.0
 40
5.0
  1
18.5 [0.73]
 50
90.0
  0
POINT
  5
CC6
  8
DEFPOINTS
 62
     0
 10
128.9002993355805
 20
516.7707082651301
 30
0.0
  0
POINT
  5
CC7
  8
DEFPOINTS
 62
     0
 10
144.0002993355805
 20
498.2707082651301
 30
0.0
  0
POINT
  5
DAB
  8
DEFPOINTS
 62
     0
 10
87.71597383160986
 20
498.2707082651301
 30
0.0
  0
ENDBLK
  5
CBE
  8
0
  0
BLOCK
  8
0
  2
*D143
 70
     1
 10
0.0
 20
0.0
 30
0.0
  3
*D143
  1

  0
LINE
  5
CCE
  8
DIMENSIONS
  6
BYBLOCK
 62
     0
 10
142.5002993355805
 20
498.2707082651301
 30
0.0
 11
107.8893455090714
 21
498.2707082651301
 31
0.0
  0
LINE
  5
CCF
  8
DIMENSIONS
  6
BYBLOCK
 62
     0
 10
142.5002993355805
 20
389.7707082651301
 30
0.0
 11
107.8893455090714
 21
389.7707082651301
 31
0.0
  0
LINE
  5
CD0
  8
DIMENSIONS
  6
BYBLOCK
 62
     0
 10
108.0693455090714
 20
493.2707082651301
 30
0.0
 11
108.0693455090714
 21
394.7707082651301
 31
0.0
  0
SOLID
  5
CD1
  8
DIMENSIONS
 62
     0
 10
108.9026788424048
 20
493.2707082651301
 30
0.0
 11
107.2360121757381
 21
493.2707082651301
 31
0.0
 12
108.0693455090714
 22
498.2707082651301
 32
0.0
 13
108.0693455090714
 23
498.2707082651301
 33
0.0
  0
SOLID
  5
CD2
  8
DIMENSIONS
 62
     0
 10
107.2360121757381
 20
394.7707082651301
 30
0.0
 11
108.9026788424048
 21
394.7707082651301
 31
0.0
 12
108.0693455090714
 22
389.7707082651301
 32
0.0
 13
108.0693455090714
 23
389.7707082651301
 33
0.0
  0
TEXT
  5
CD3
  8
DIMENSIONS
  6
CONTINUOUS
 62
     5
 10
105.6743455090715
 20
425.4382082651301
 30
0.0
 40
5.0
  1
108.5 [4.27]
 50
90.0
  0
POINT
  5
CD4
  8
DEFPOINTS
 62
     0
 10
144.0002993355805
 20
498.2707082651301
 30
0.0
  0
POINT
  5
CD5
  8
DEFPOINTS
 62
     0
 10
144.0002993355805
 20
389.7707082651301
 30
0.0
  0
POINT
  5
CD6
  8
DEFPOINTS
 62
     0
 10
108.0693455090714
 20
389.7707082651301
 30
0.0
  0
ENDBLK
  5
CCD
  8
0
  0
BLOCK
  8
0
  2
*D144
 70
     1
 10
0.0
 20
0.0
 30
0.0
  3
*D144
  1

  0
LINE
  5
CDD
  8
DIMENSIONS
  6
BYBLOCK
 62
     0
 10
142.5002993355805
 20
389.7707082651301
 30
0.0
 11
107.8893455090714
 21
389.7707082651301
 31
0.0
  0
LINE
  5
CDE
  8
DIMENSIONS
  6
BYBLOCK
 62
     0
 10
133.0002993355805
 20
189.7707082651301
 30
0.0
 11
107.8893455090714
 21
189.7707082651301
 31
0.0
  0
LINE
  5
CDF
  8
DIMENSIONS
  6
BYBLOCK
 62
     0
 10
108.0693455090714
 20
384.7707082651301
 30
0.0
 11
108.0693455090714
 21
194.7707082651301
 31
0.0
  0
SOLID
  5
CE0
  8
DIMENSIONS
 62
     0
 10
108.9026788424048
 20
384.7707082651301
 30
0.0
 11
107.2360121757381
 21
384.7707082651301
 31
0.0
 12
108.0693455090714
 22
389.7707082651301
 32
0.0
 13
108.0693455090714
 23
389.7707082651301
 33
0.0
  0
SOLID
  5
CE1
  8
DIMENSIONS
 62
     0
 10
107.2360121757381
 20
194.7707082651301
 30
0.0
 11
108.9026788424047
 21
194.7707082651301
 31
0.0
 12
108.0693455090714
 22
189.7707082651301
 32
0.0
 13
108.0693455090714
 23
189.7707082651301
 33
0.0
  0
TEXT
  5
CE2
  8
DIMENSIONS
  6
CONTINUOUS
 62
     5
 10
105.6743455090714
 20
274.3757082651301
 30
0.0
 40
5.0
  1
200 [7.87]
 50
90.0
  0
POINT
  5
CE3
  8
DEFPOINTS
 62
     0
 10
144.0002993355805
 20
389.7707082651301
 30
0.0
  0
POINT
  5
CE4
  8
DEFPOINTS
 62
     0
 10
134.5002993355805
 20
189.7707082651301
 30
0.0
  0
POINT
  5
CE5
  8
DEFPOINTS
 62
     0
 10
108.0693455090714
 20
189.7707082651301
 30
0.0
  0
ENDBLK
  5
CDC
  8
0
  0
BLOCK
  8
0
  2
*D145
 70
     1
 10
0.0
 20
0.0
 30
0.0
  3
*D145
  1

  0
LINE
  5
CEC
  8
DIMENSIONS
  6
BYBLOCK
 62
     0
 10
133.0002993355805
 20
189.7707082651301
 30
0.0
 11
107.8893455090714
 21
189.7707082651301
 31
0.0
  0
LINE
  5
CED
  8
DIMENSIONS
  6
BYBLOCK
 62
     0
 10
133.0002993355805
 20
139.7707082651301
 30
0.0
 11
107.8893455090714
 21
139.7707082651301
 31
0.0
  0
LINE
  5
CEE
  8
DIMENSIONS
  6
BYBLOCK
 62
     0
 10
108.0693455090714
 20
184.7707082651301
 30
0.0
 11
108.0693455090714
 21
144.7707082651301
 31
0.0
  0
SOLID
  5
CEF
  8
DIMENSIONS
 62
     0
 10
108.9026788424047
 20
184.7707082651301
 30
0.0
 11
107.2360121757381
 21
184.7707082651301
 31
0.0
 12
108.0693455090714
 22
189.7707082651301
 32
0.0
 13
108.0693455090714
 23
189.7707082651301
 33
0.0
  0
SOLID
  5
CF0
  8
DIMENSIONS
 62
     0
 10
107.2360121757381
 20
144.7707082651301
 30
0.0
 11
108.9026788424047
 21
144.7707082651301
 31
0.0
 12
108.0693455090714
 22
139.7707082651301
 32
0.0
 13
108.0693455090714
 23
139.7707082651301
 33
0.0
  0
TEXT
  5
CF1
  8
DIMENSIONS
  6
CONTINUOUS
 62
     5
 10
105.6743455090714
 20
151.2732082651301
 30
0.0
 40
5.0
  1
50 [1.97]
 50
90.0
  0
POINT
  5
CF2
  8
DEFPOINTS
 62
     0
 10
134.5002993355805
 20
189.7707082651301
 30
0.0
  0
POINT
  5
CF3
  8
DEFPOINTS
 62
     0
 10
134.5002993355805
 20
139.7707082651301
 30
0.0
  0
POINT
  5
CF4
  8
DEFPOINTS
 62
     0
 10
108.0693455090714
 20
139.7707082651301
 30
0.0
  0
ENDBLK
  5
CEB
  8
0
  0
BLOCK
  8
0
  2
*D146
 70
     1
 10
0.0
 20
0.0
 30
0.0
  3
*D146
  1

  0
LINE
  5
CFB
  8
DIMENSIONS
  6
BYBLOCK
 62
     0
 10
133.0002993355805
 20
139.7707082651301
 30
0.0
 11
107.8893455090714
 21
139.7707082651301
 31
0.0
  0
LINE
  5
CFC
  8
DIMENSIONS
  6
BYBLOCK
 62
     0
 10
127.4002993355805
 20
-3.229291734869889
 30
0.0
 11
107.8893455090714
 21
-3.229291734869888
 31
0.0
  0
LINE
  5
CFD
  8
DIMENSIONS
  6
BYBLOCK
 62
     0
 10
108.0693455090714
 20
134.7707082651301
 30
0.0
 11
108.0693455090714
 21
1.770708265130112
 31
0.0
  0
SOLID
  5
CFE
  8
DIMENSIONS
 62
     0
 10
108.9026788424047
 20
134.7707082651301
 30
0.0
 11
107.2360121757381
 21
134.7707082651301
 31
0.0
 12
108.0693455090714
 22
139.7707082651301
 32
0.0
 13
108.0693455090714
 23
139.7707082651301
 33
0.0
  0
SOLID
  5
CFF
  8
DIMENSIONS
 62
     0
 10
107.2360121757381
 20
1.770708265130112
 30
0.0
 11
108.9026788424047
 21
1.770708265130112
 31
0.0
 12
108.0693455090714
 22
-3.229291734869888
 32
0.0
 13
108.0693455090714
 23
-3.229291734869888
 33
0.0
  0
TEXT
  5
D00
  8
DIMENSIONS
  6
CONTINUOUS
 62
     5
 10
105.6743455090714
 20
52.5982082651301
 30
0.0
 40
5.0
  1
143 [5.63]
 50
90.0
  0
POINT
  5
D01
  8
DEFPOINTS
 62
     0
 10
134.5002993355805
 20
139.7707082651301
 30
0.0
  0
POINT
  5
D02
  8
DEFPOINTS
 62
     0
 10
128.9002993355805
 20
-3.229291734869889
 30
0.0
  0
POINT
  5
D03
  8
DEFPOINTS
 62
     0
 10
108.0693455090714
 20
-3.229291734869888
 30
0.0
  0
ENDBLK
  5
CFA
  8
0
  0
BLOCK
  8
0
  2
*D147
 70
     1
 10
0.0
 20
0.0
 30
0.0
  3
*D147
  1

  0
LINE
  5
D0B
  8
DIMENSIONS
  6
BYBLOCK
 62
     0
 10
450.4002993355805
 20
516.7707082651301
 30
0.0
 11
490.5146129189353
 21
516.7707082651301
 31
0.0
  0
LINE
  5
D0C
  8
DIMENSIONS
  6
BYBLOCK
 62
     0
 10
431.8002993355803
 20
501.7707082651301
 30
0.0
 11
490.5146129189353
 21
501.7707082651301
 31
0.0
  0
LINE
  5
D0D
  8
DIMENSIONS
  6
BYBLOCK
 62
     0
 10
490.3346129189352
 20
501.7707082651301
 30
0.0
 11
490.3346129189352
 21
468.8257082651301
 31
0.0
  0
LINE
  5
D0E
  8
DIMENSIONS
  6
BYBLOCK
 62
     0
 10
490.3346129189352
 20
511.7707082651301
 30
0.0
 11
490.3346129189352
 21
506.7707082651301
 31
0.0
  0
SOLID
  5
D0F
  8
DIMENSIONS
 62
     0
 10
491.1679462522686
 20
511.7707082651301
 30
0.0
 11
489.5012795856019
 21
511.7707082651301
 31
0.0
 12
490.3346129189352
 22
516.7707082651301
 32
0.0
 13
490.3346129189352
 23
516.7707082651301
 33
0.0
  0
SOLID
  5
D10
  8
DIMENSIONS
 62
     0
 10
489.5012795856019
 20
506.7707082651301
 30
0.0
 11
491.1679462522686
 21
506.7707082651301
 31
0.0
 12
490.3346129189352
 22
501.7707082651301
 32
0.0
 13
490.3346129189352
 23
501.7707082651301
 33
0.0
  0
TEXT
  5
D11
  8
DIMENSIONS
  6
CONTINUOUS
 62
     5
 10
487.9396129189353
 20
469.0657082651301
 30
0.0
 40
5.0
  1
15 [0.59]
 50
90.0
  0
POINT
  5
D12
  8
DEFPOINTS
 62
     0
 10
448.9002993355805
 20
516.7707082651301
 30
0.0
  0
POINT
  5
D13
  8
DEFPOINTS
 62
     0
 10
430.3002993355803
 20
501.7707082651301
 30
0.0
  0
POINT
  5
DAC
  8
DEFPOINTS
 62
     0
 10
490.3346129189352
 20
501.7707082651301
 30
0.0
  0
ENDBLK
  5
D0A
  8
0
  0
BLOCK
  8
0
  2
*D148
 70
     1
 10
0.0
 20
0.0
 30
0.0
  3
*D148
  1

  0
LINE
  5
D1A
  8
DIMENSIONS
  6
BYBLOCK
 62
     0
 10
431.8002993355803
 20
501.7707082651301
 30
0.0
 11
468.8871032133379
 21
501.7707082651301
 31
0.0
  0
LINE
  5
D1B
  8
DIMENSIONS
  6
BYBLOCK
 62
     0
 10
431.8002993355803
 20
231.7707082651301
 30
0.0
 11
468.8871032133379
 21
231.7707082651301
 31
0.0
  0
LINE
  5
D1C
  8
DIMENSIONS
  6
BYBLOCK
 62
     0
 10
468.7071032133379
 20
496.7707082651301
 30
0.0
 11
468.7071032133379
 21
236.7707082651301
 31
0.0
  0
SOLID
  5
D1D
  8
DIMENSIONS
 62
     0
 10
469.5404365466712
 20
496.7707082651301
 30
0.0
 11
467.8737698800045
 21
496.7707082651301
 31
0.0
 12
468.7071032133379
 22
501.7707082651301
 32
0.0
 13
468.7071032133379
 23
501.7707082651301
 33
0.0
  0
SOLID
  5
D1E
  8
DIMENSIONS
 62
     0
 10
467.8737698800045
 20
236.7707082651301
 30
0.0
 11
469.5404365466712
 21
236.7707082651301
 31
0.0
 12
468.7071032133379
 22
231.7707082651301
 32
0.0
 13
468.7071032133379
 23
231.7707082651301
 33
0.0
  0
TEXT
  5
D1F
  8
DIMENSIONS
  6
CONTINUOUS
 62
     5
 10
466.3121032133379
 20
349.4357082651301
 30
0.0
 40
5.0
  1
270 [10.63]
 50
90.0
  0
POINT
  5
D20
  8
DEFPOINTS
 62
     0
 10
430.3002993355803
 20
501.7707082651301
 30
0.0
  0
POINT
  5
D21
  8
DEFPOINTS
 62
     0
 10
430.3002993355803
 20
231.7707082651301
 30
0.0
  0
POINT
  5
D22
  8
DEFPOINTS
 62
     0
 10
468.7071032133379
 20
231.7707082651301
 30
0.0
  0
ENDBLK
  5
D19
  8
0
  0
BLOCK
  8
0
  2
*D149
 70
     1
 10
0.0
 20
0.0
 30
0.0
  3
*D149
  1

  0
LINE
  5
D29
  8
DIMENSIONS
  6
BYBLOCK
 62
     0
 10
431.8002993355803
 20
231.7707082651301
 30
0.0
 11
468.8871032133379
 21
231.7707082651301
 31
0.0
  0
LINE
  5
D2A
  8
DIMENSIONS
  6
BYBLOCK
 62
     0
 10
431.8002993355803
 20
11.77070826513011
 30
0.0
 11
468.8871032133379
 21
11.77070826513011
 31
0.0
  0
LINE
  5
D2B
  8
DIMENSIONS
  6
BYBLOCK
 62
     0
 10
468.7071032133379
 20
226.7707082651301
 30
0.0
 11
468.7071032133379
 21
16.7707082651301
 31
0.0
  0
SOLID
  5
D2C
  8
DIMENSIONS
 62
     0
 10
469.5404365466712
 20
226.7707082651301
 30
0.0
 11
467.8737698800045
 21
226.7707082651301
 31
0.0
 12
468.7071032133379
 22
231.7707082651301
 32
0.0
 13
468.7071032133379
 23
231.7707082651301
 33
0.0
  0
SOLID
  5
D2D
  8
DIMENSIONS
 62
     0
 10
467.8737698800045
 20
16.7707082651301
 30
0.0
 11
469.5404365466712
 21
16.7707082651301
 31
0.0
 12
468.7071032133379
 22
11.77070826513011
 32
0.0
 13
468.7071032133379
 23
11.77070826513011
 33
0.0
  0
TEXT
  5
D2E
  8
DIMENSIONS
  6
CONTINUOUS
 62
     5
 10
466.3121032133379
 20
106.3757082651301
 30
0.0
 40
5.0
  1
220 [8.66]
 50
90.0
  0
POINT
  5
D2F
  8
DEFPOINTS
 62
     0
 10
430.3002993355803
 20
231.7707082651301
 30
0.0
  0
POINT
  5
D30
  8
DEFPOINTS
 62
     0
 10
430.3002993355803
 20
11.77070826513011
 30
0.0
  0
POINT
  5
D31
  8
DEFPOINTS
 62
     0
 10
468.7071032133379
 20
11.77070826513011
 30
0.0
  0
ENDBLK
  5
D28
  8
0
  0
BLOCK
  8
0
  2
*D150
 70
     1
 10
0.0
 20
0.0
 30
0.0
  3
*D150
  1

  0
LINE
  5
D38
  8
DIMENSIONS
  6
BYBLOCK
 62
     0
 10
431.8002993355803
 20
11.77070826513011
 30
0.0
 11
487.919716940357
 21
11.7707082651301
 31
0.0
  0
LINE
  5
D39
  8
DIMENSIONS
  6
BYBLOCK
 62
     0
 10
450.4002993355805
 20
-3.229291734869889
 30
0.0
 11
487.919716940357
 21
-3.229291734869889
 31
0.0
  0
LINE
  5
D3A
  8
DIMENSIONS
  6
BYBLOCK
 62
     0
 10
487.739716940357
 20
11.7707082651301
 30
0.0
 11
487.739716940357
 21
44.71570826513015
 31
0.0
  0
LINE
  5
D3B
  8
DIMENSIONS
  6
BYBLOCK
 62
     0
 10
487.739716940357
 20
6.770708265130104
 30
0.0
 11
487.739716940357
 21
1.770708265130111
 31
0.0
  0
SOLID
  5
D3C
  8
DIMENSIONS
 62
     0
 10
488.5730502736903
 20
6.770708265130104
 30
0.0
 11
486.9063836070237
 21
6.770708265130104
 31
0.0
 12
487.739716940357
 22
11.7707082651301
 32
0.0
 13
487.739716940357
 23
11.7707082651301
 33
0.0
  0
SOLID
  5
D3D
  8
DIMENSIONS
 62
     0
 10
486.9063836070237
 20
1.770708265130111
 30
0.0
 11
488.5730502736903
 21
1.770708265130111
 31
0.0
 12
487.739716940357
 22
-3.229291734869889
 32
0.0
 13
487.739716940357
 23
-3.229291734869889
 33
0.0
  0
TEXT
  5
D3E
  8
DIMENSIONS
  6
CONTINUOUS
 62
     5
 10
485.344716940357
 20
17.01070826513012
 30
0.0
 40
5.0
  1
15 [0.59]
 50
90.0
  0
POINT
  5
D3F
  8
DEFPOINTS
 62
     0
 10
430.3002993355803
 20
11.77070826513011
 30
0.0
  0
POINT
  5
D40
  8
DEFPOINTS
 62
     0
 10
448.9002993355805
 20
-3.229291734869889
 30
0.0
  0
POINT
  5
DAD
  8
DEFPOINTS
 62
     0
 10
487.739716940357
 20
-3.229291734869892
 30
0.0
  0
ENDBLK
  5
D37
  8
0
  0
BLOCK
  8
0
  2
*D151
 70
     1
 10
0.0
 20
0.0
 30
0.0
  3
*D151
  1

  0
LINE
  5
D47
  8
DIMENSIONS
  6
BYBLOCK
 62
     0
 10
144.0002993355805
 20
388.2707082651301
 30
0.0
 11
144.0002993355805
 21
362.5328721538182
 31
0.0
  0
LINE
  5
D48
  8
DIMENSIONS
  6
BYBLOCK
 62
     0
 10
128.9002993355805
 20
388.2707082651301
 30
0.0
 11
128.9002993355805
 21
362.5328721538182
 31
0.0
  0
LINE
  5
D49
  8
DIMENSIONS
  6
BYBLOCK
 62
     0
 10
144.0002993355805
 20
362.7128721538182
 30
0.0
 11
182.7652993355805
 21
362.7128721538182
 31
0.0
  0
LINE
  5
D4A
  8
DIMENSIONS
  6
BYBLOCK
 62
     0
 10
139.0002993355805
 20
362.7128721538182
 30
0.0
 11
133.9002993355805
 21
362.7128721538182
 31
0.0
  0
SOLID
  5
D4B
  8
DIMENSIONS
 62
     0
 10
139.0002993355805
 20
361.8795388204849
 30
0.0
 11
139.0002993355805
 21
363.5462054871516
 31
0.0
 12
144.0002993355805
 22
362.7128721538182
 32
0.0
 13
144.0002993355805
 23
362.7128721538182
 33
0.0
  0
SOLID
  5
D4C
  8
DIMENSIONS
 62
     0
 10
133.9002993355805
 20
363.5462054871516
 30
0.0
 11
133.9002993355805
 21
361.8795388204849
 31
0.0
 12
128.9002993355805
 22
362.7128721538182
 32
0.0
 13
128.9002993355805
 23
362.7128721538182
 33
0.0
  0
TEXT
  5
D4D
  8
DIMENSIONS
  6
CONTINUOUS
 62
     5
 10
149.2402993355805
 20
365.1078721538182
 30
0.0
 40
5.0
  1
15.1 [0.59]
  0
POINT
  5
D4E
  8
DEFPOINTS
 62
     0
 10
144.0002993355805
 20
389.7707082651301
 30
0.0
  0
POINT
  5
D4F
  8
DEFPOINTS
 62
     0
 10
128.9002993355805
 20
389.7707082651301
 30
0.0
  0
POINT
  5
DAE
  8
DEFPOINTS
 62
     0
 10
128.9002993355805
 20
362.7128721538182
 30
0.0
  0
ENDBLK
  5
D46
  8
0
  0
BLOCK
  8
0
  2
*D153
 70
     1
 10
0.0
 20
0.0
 30
0.0
  3
*D153
  1

  0
LINE
  5
D65
  8
DIMENSIONS
  6
BYBLOCK
 62
     0
 10
302.5002993355805
 20
388.2707082651301
 30
0.0
 11
302.5002993355805
 21
376.2755179202895
 31
0.0
  0
LINE
  5
D66
  8
DIMENSIONS
  6
BYBLOCK
 62
     0
 10
448.9002993355805
 20
258.2707082651301
 30
0.0
 11
448.9002993355805
 21
376.6355179202895
 31
0.0
  0
LINE
  5
D67
  8
DIMENSIONS
  6
BYBLOCK
 62
     0
 10
307.5002993355805
 20
376.4555179202895
 30
0.0
 11
443.9002993355805
 21
376.4555179202895
 31
0.0
  0
SOLID
  5
D68
  8
DIMENSIONS
 62
     0
 10
307.5002993355805
 20
377.2888512536229
 30
0.0
 11
307.5002993355805
 21
375.6221845869562
 31
0.0
 12
302.5002993355805
 22
376.4555179202895
 32
0.0
 13
302.5002993355805
 23
376.4555179202895
 33
0.0
  0
SOLID
  5
D69
  8
DIMENSIONS
 62
     0
 10
443.9002993355805
 20
375.6221845869562
 30
0.0
 11
443.9002993355805
 21
377.2888512536229
 31
0.0
 12
448.9002993355805
 22
376.4555179202895
 32
0.0
 13
448.9002993355805
 23
376.4555179202895
 33
0.0
  0
TEXT
  5
D6A
  8
DIMENSIONS
  6
CONTINUOUS
 62
     5
 10
357.1177993355805
 20
378.8505179202895
 30
0.0
 40
5.0
  1
146.4 [5.76]
  0
POINT
  5
D6B
  8
DEFPOINTS
 62
     0
 10
302.5002993355805
 20
389.7707082651301
 30
0.0
  0
POINT
  5
D6C
  8
DEFPOINTS
 62
     0
 10
448.9002993355805
 20
256.7707082651301
 30
0.0
  0
POINT
  5
D6D
  8
DEFPOINTS
 62
     0
 10
448.9002993355805
 20
376.4555179202895
 30
0.0
  0
ENDBLK
  5
D64
  8
0
  0
BLOCK
  8
0
  2
*D154
 70
     1
 10
0.0
 20
0.0
 30
0.0
  3
*D154
  1

  0
LINE
  5
D74
  8
DIMENSIONS
  6
BYBLOCK
 62
     0
 10
128.9002993355805
 20
138.2707082651301
 30
0.0
 11
128.9002993355805
 21
114.3806370513251
 31
0.0
  0
LINE
  5
D75
  8
DIMENSIONS
  6
BYBLOCK
 62
     0
 10
134.5002993355805
 20
138.2707082651301
 30
0.0
 11
134.5002993355805
 21
114.3806370513251
 31
0.0
  0
LINE
  5
D76
  8
DIMENSIONS
  6
BYBLOCK
 62
     0
 10
134.5002993355805
 20
114.5606370513251
 30
0.0
 11
178.3717140206588
 21
114.5606370513251
 31
0.0
  0
LINE
  5
D77
  8
DIMENSIONS
  6
BYBLOCK
 62
     0
 10
123.9002993355805
 20
114.5606370513251
 30
0.0
 11
118.9002993355805
 21
114.5606370513251
 31
0.0
  0
LINE
  5
D78
  8
DIMENSIONS
  6
BYBLOCK
 62
     0
 10
139.5002993355805
 20
114.5606370513251
 30
0.0
 11
144.5002993355805
 21
114.5606370513251
 31
0.0
  0
SOLID
  5
D79
  8
DIMENSIONS
 62
     0
 10
123.9002993355805
 20
113.7273037179918
 30
0.0
 11
123.9002993355805
 21
115.3939703846585
 31
0.0
 12
128.9002993355805
 22
114.5606370513251
 32
0.0
 13
128.9002993355805
 23
114.5606370513251
 33
0.0
  0
SOLID
  5
D7A
  8
DIMENSIONS
 62
     0
 10
139.5002993355805
 20
115.3939703846585
 30
0.0
 11
139.5002993355805
 21
113.7273037179918
 31
0.0
 12
134.5002993355805
 22
114.5606370513251
 32
0.0
 13
134.5002993355805
 23
114.5606370513251
 33
0.0
  0
TEXT
  5
D7B
  8
DIMENSIONS
  6
CONTINUOUS
 62
     5
 10
148.7267140206588
 20
116.9556370513251
 30
0.0
 40
5.0
  1
5.6 [0.22]
  0
POINT
  5
D7C
  8
DEFPOINTS
 62
     0
 10
128.9002993355805
 20
139.7707082651301
 30
0.0
  0
POINT
  5
D7D
  8
DEFPOINTS
 62
     0
 10
134.5002993355805
 20
139.7707082651301
 30
0.0
  0
POINT
  5
DAF
  8
DEFPOINTS
 62
     0
 10
134.5002993355805
 20
114.5606370513251
 30
0.0
  0
ENDBLK
  5
D73
  8
0
  0
BLOCK
  8
0
  2
*D155
 70
     1
 10
0.0
 20
0.0
 30
0.0
  3
*D155
  1

  0
LINE
  5
D84
  8
DIMENSIONS
  6
BYBLOCK
 62
     0
 10
134.5002993355805
 20
138.2707082651301
 30
0.0
 11
134.5002993355805
 21
127.9369825684796
 31
0.0
  0
LINE
  5
D85
  8
DIMENSIONS
  6
BYBLOCK
 62
     0
 10
266.5002993355805
 20
138.2707082651301
 30
0.0
 11
266.5002993355805
 21
127.9369825684796
 31
0.0
  0
LINE
  5
D86
  8
DIMENSIONS
  6
BYBLOCK
 62
     0
 10
139.5002993355805
 20
128.1169825684796
 30
0.0
 11
261.5002993355805
 21
128.1169825684796
 31
0.0
  0
SOLID
  5
D87
  8
DIMENSIONS
 62
     0
 10
139.5002993355805
 20
128.950315901813
 30
0.0
 11
139.5002993355805
 21
127.2836492351463
 31
0.0
 12
134.5002993355805
 22
128.1169825684796
 32
0.0
 13
134.5002993355805
 23
128.1169825684796
 33
0.0
  0
SOLID
  5
D88
  8
DIMENSIONS
 62
     0
 10
261.5002993355805
 20
127.2836492351463
 30
0.0
 11
261.5002993355805
 21
128.950315901813
 31
0.0
 12
266.5002993355805
 22
128.1169825684796
 32
0.0
 13
266.5002993355805
 23
128.1169825684796
 33
0.0
  0
TEXT
  5
D89
  8
DIMENSIONS
  6
CONTINUOUS
 62
     5
 10
184.8277993355805
 20
130.5119825684796
 30
0.0
 40
5.0
  1
132 [5.20]
  0
POINT
  5
D8A
  8
DEFPOINTS
 62
     0
 10
134.5002993355805
 20
139.7707082651301
 30
0.0
  0
POINT
  5
D8B
  8
DEFPOINTS
 62
     0
 10
266.5002993355805
 20
139.7707082651301
 30
0.0
  0
POINT
  5
D8C
  8
DEFPOINTS
 62
     0
 10
266.5002993355805
 20
128.1169825684796
 30
0.0
  0
ENDBLK
  5
D83
  8
0
  0
BLOCK
  8
0
  2
*D156
 70
     1
 10
0.0
 20
0.0
 30
0.0
  3
*D156
  1

  0
LINE
  5
D93
  8
DIMENSIONS
  6
BYBLOCK
 62
     0
 10
266.5002993355805
 20
138.2707082651301
 30
0.0
 11
266.5002993355805
 21
127.9369825684796
 31
0.0
  0
LINE
  5
D94
  8
DIMENSIONS
  6
BYBLOCK
 62
     0
 10
448.9002993355805
 20
255.2707082651301
 30
0.0
 11
448.9002993355805
 21
127.9369825684796
 31
0.0
  0
LINE
  5
D95
  8
DIMENSIONS
  6
BYBLOCK
 62
     0
 10
271.5002993355805
 20
128.1169825684796
 30
0.0
 11
443.9002993355805
 21
128.1169825684796
 31
0.0
  0
SOLID
  5
D96
  8
DIMENSIONS
 62
     0
 10
271.5002993355805
 20
128.950315901813
 30
0.0
 11
271.5002993355805
 21
127.2836492351463
 31
0.0
 12
266.5002993355805
 22
128.1169825684796
 32
0.0
 13
266.5002993355805
 23
128.1169825684796
 33
0.0
  0
SOLID
  5
D97
  8
DIMENSIONS
 62
     0
 10
443.9002993355805
 20
127.2836492351463
 30
0.0
 11
443.9002993355805
 21
128.950315901813
 31
0.0
 12
448.9002993355805
 22
128.1169825684796
 32
0.0
 13
448.9002993355805
 23
128.1169825684796
 33
0.0
  0
TEXT
  5
D98
  8
DIMENSIONS
  6
CONTINUOUS
 62
     5
 10
339.1177993355805
 20
130.5119825684796
 30
0.0
 40
5.0
  1
182.4 [7.18]
  0
POINT
  5
D99
  8
DEFPOINTS
 62
     0
 10
266.5002993355805
 20
139.7707082651301
 30
0.0
  0
POINT
  5
D9A
  8
DEFPOINTS
 62
     0
 10
448.9002993355805
 20
256.7707082651301
 30
0.0
  0
POINT
  5
D9B
  8
DEFPOINTS
 62
     0
 10
448.9002993355805
 20
128.1169825684796
 30
0.0
  0
ENDBLK
  5
D92
  8
0
  0
BLOCK
  8
0
  2
*D157
 70
     1
 10
0.0
 20
0.0
 30
0.0
  3
*D157
  1

  0
LINE
  5
DA2
  8
DIMENSIONS
  6
BYBLOCK
 62
     0
 10
156.0002812895708
 20
11.75319307637042
 30
0.0
 11
197.2037620723885
 21
11.66828857335224
 31
0.0
  0
TEXT
  5
DA3
  8
DIMENSIONS
  6
CONTINUOUS
 62
     5
 10
162.5239357215677
 20
14.21475559197058
 30
0.0
 40
5.0
  1
Ø7 [Ø0.28]
 50
359.8819356348821
  0
SOLID
  5
DA4
  8
DIMENSIONS
 62
     0
 10
156.0019984649394
 20
12.58652464048713
 30
0.0
 11
155.9985641142023
 21
10.91986151225371
 31
0.0
 12
151.0002919048706
 22
11.763496128582
 32
0.0
 13
151.0002919048706
 23
11.763496128582
 33
0.0
  0
LINE
  5
DA5
  8
DIMENSIONS
  6
BYBLOCK
 62
     0
 10
145.0002993355804
 20
11.77070826513011
 30
0.0
 11
150.0002993355804
 21
11.77070826513011
 31
0.0
  0
LINE
  5
DA6
  8
DIMENSIONS
  6
BYBLOCK
 62
     0
 10
147.5002993355804
 20
9.270708265130105
 30
0.0
 11
147.5002993355804
 21
14.27070826513011
 31
0.0
  0
POINT
  5
DA7
  8
DEFPOINTS
 62
     0
 10
151.0002919048706
 20
11.763496128582
 30
0.0
  0
POINT
  5
DA8
  8
DEFPOINTS
 62
     0
 10
144.0003067662902
 20
11.77792040167821
 30
0.0
  0
ENDBLK
  5
DA1
  8
0
  0
BLOCK
  8
0
  2
*D158
 70
     1
 10
0.0
 20
0.0
 30
0.0
  3
*D158
  1

  0
LINE
  5
DB8
  8
DIMENSIONS
  6
BYBLOCK
 62
     0
 10
144.0002993355805
 20
388.2707082651301
 30
0.0
 11
144.0002993355805
 21
376.2755179202895
 31
0.0
  0
LINE
  5
DB9
  8
DIMENSIONS
  6
BYBLOCK
 62
     0
 10
302.5002993355805
 20
388.2707082651301
 30
0.0
 11
302.5002993355805
 21
376.2755179202895
 31
0.0
  0
LINE
  5
DBA
  8
DIMENSIONS
  6
BYBLOCK
 62
     0
 10
149.0002993355805
 20
376.4555179202895
 30
0.0
 11
297.5002993355805
 21
376.4555179202895
 31
0.0
  0
SOLID
  5
DBB
  8
DIMENSIONS
 62
     0
 10
149.0002993355805
 20
377.2888512536229
 30
0.0
 11
149.0002993355805
 21
375.6221845869562
 31
0.0
 12
144.0002993355805
 22
376.4555179202895
 32
0.0
 13
144.0002993355805
 23
376.4555179202895
 33
0.0
  0
SOLID
  5
DBC
  8
DIMENSIONS
 62
     0
 10
297.5002993355805
 20
375.6221845869562
 30
0.0
 11
297.5002993355805
 21
377.2888512536229
 31
0.0
 12
302.5002993355805
 22
376.4555179202895
 32
0.0
 13
302.5002993355805
 23
376.4555179202895
 33
0.0
  0
TEXT
  5
DBD
  8
DIMENSIONS
  6
CONTINUOUS
 62
     5
 10
204.6677993355805
 20
378.8505179202895
 30
0.0
 40
5.0
  1
158.5 [6.24]
  0
POINT
  5
DBE
  8
DEFPOINTS
 62
     0
 10
144.0002993355805
 20
389.7707082651301
 30
0.0
  0
POINT
  5
DBF
  8
DEFPOINTS
 62
     0
 10
302.5002993355805
 20
389.7707082651301
 30
0.0
  0
POINT
  5
DC0
  8
DEFPOINTS
 62
     0
 10
302.5002993355805
 20
376.4555179202895
 30
0.0
  0
ENDBLK
  5
DB7
  8
0
  0
BLOCK
  8
0
  2
*D159
 70
     1
 10
0.0
 20
0.0
 30
0.0
  3
*D159
  1

  0
LINE
  5
DCB
  8
DIMENSIONS
  6
BYBLOCK
 62
     0
 10
127.4002993355805
 20
516.7707082651301
 30
0.0
 11
66.66110006721044
 21
516.7707082651301
 31
0.0
  0
LINE
  5
DCC
  8
DIMENSIONS
  6
BYBLOCK
 62
     0
 10
127.4002993355805
 20
-3.229291734869889
 30
0.0
 11
66.66110006721041
 21
-3.229291734869885
 31
0.0
  0
LINE
  5
DCD
  8
DIMENSIONS
  6
BYBLOCK
 62
     0
 10
66.84110006721045
 20
511.7707082651301
 30
0.0
 11
66.84110006721042
 21
1.770708265130115
 31
0.0
  0
SOLID
  5
DCE
  8
DIMENSIONS
 62
     0
 10
67.67443340054378
 20
511.7707082651301
 30
0.0
 11
66.00776673387712
 21
511.7707082651301
 31
0.0
 12
66.84110006721045
 22
516.7707082651301
 32
0.0
 13
66.84110006721045
 23
516.7707082651301
 33
0.0
  0
SOLID
  5
DCF
  8
DIMENSIONS
 62
     0
 10
66.00776673387709
 20
1.770708265130115
 30
0.0
 11
67.67443340054375
 21
1.770708265130115
 31
0.0
 12
66.84110006721042
 22
-3.229291734869885
 32
0.0
 13
66.84110006721042
 23
-3.229291734869885
 33
0.0
  0
TEXT
  5
DD0
  8
DIMENSIONS
  6
CONTINUOUS
 62
     5
 10
64.4461000672105
 20
239.3932082651301
 30
0.0
 40
5.0
  1
520 [20.47]
 50
90.0
  0
POINT
  5
DD1
  8
DEFPOINTS
 62
     0
 10
128.9002993355805
 20
516.7707082651301
 30
0.0
  0
POINT
  5
DD2
  8
DEFPOINTS
 62
     0
 10
128.9002993355805
 20
-3.229291734869889
 30
0.0
  0
POINT
  5
DD3
  8
DEFPOINTS
 62
     0
 10
66.84110006721042
 20
-3.229291734869885
 30
0.0
  0
ENDBLK
  5
DCA
  8
0
  0
ENDSEC
  0
SECTION
  2
ENTITIES
  0
TEXT
  5
698
  8
DIMENSIONS
  6
BYBLOCK
 10
131.2203962787331
 20
-22.94328986326644
 30
0.0
 40
5.0
  1
Note:
  0
TEXT
  5
699
  8
DIMENSIONS
  6
BYBLOCK
 10
131.3543223190186
 20
-33.4722577112595
 30
0.0
 40
5.0
  1
Primary dimensions in millimeters.
  0
TEXT
  5
69A
  8
DIMENSIONS
  6
BYBLOCK
 10
131.5757362554086
 20
-44.04428332004358
 30
0.0
 40
5.0
  1
Secondary dimensions in inches.
  0
LINE
  5
C89
  8
0
 10
128.9002993355805
 20
516.7707082651301
 30
0.0
 11
128.9002993355805
 21
-3.229291734869889
 31
0.0
  0
LINE
  5
C8A
  8
0
 10
128.9002993355805
 20
-3.229291734869889
 30
0.0
 11
448.9002993355805
 21
-3.229291734869889
 31
0.0
  0
LINE
  5
C8B
  8
0
 10
448.9002993355805
 20
-3.229291734869889
 30
0.0
 11
448.9002993355805
 21
516.7707082651301
 31
0.0
  0
LINE
  5
C8C
  8
0
 10
448.9002993355805
 20
516.7707082651301
 30
0.0
 11
128.9002993355805
 21
516.7707082651301
 31
0.0
  0
LINE
  5
C8D
  8
0
 10
144.0002993355805
 20
389.7707082651301
 30
0.0
 11
302.5002993355805
 21
389.7707082651301
 31
0.0
  0
LINE
  5
C8E
  8
0
 10
302.5002993355805
 20
498.2707082651301
 30
0.0
 11
144.0002993355805
 21
498.2707082651301
 31
0.0
  0
LINE
  5
C8F
  8
0
 10
134.5002993355805
 20
139.7707082651301
 30
0.0
 11
266.5002993355805
 21
139.7707082651301
 31
0.0
  0
LINE
  5
C90
  8
0
 10
266.5002993355805
 20
139.7707082651301
 30
0.0
 11
266.5002993355805
 21
189.7707082651301
 31
0.0
  0
LINE
  5
C91
  8
0
 10
266.5002993355805
 20
189.7707082651301
 30
0.0
 11
134.5002993355805
 21
189.7707082651301
 31
0.0
  0
LINE
  5
C92
  8
0
 10
134.5002993355805
 20
189.7707082651301
 30
0.0
 11
134.5002993355805
 21
139.7707082651301
 31
0.0
  0
CIRCLE
  5
C93
  8
0
 10
430.3002993355803
 20
11.77070826513011
 30
0.0
 40
0.0
  0
CIRCLE
  5
C94
  8
0
 10
430.3002993355803
 20
501.7707082651301
 30
0.0
 40
3.5
  0
CIRCLE
  5
C95
  8
0
 10
430.3002993355803
 20
231.7707082651301
 30
0.0
 40
3.5
  0
CIRCLE
  5
C96
  8
0
 10
430.3002993355803
 20
11.77070826513011
 30
0.0
 40
3.5
  0
CIRCLE
  5
C97
  8
0
 10
147.5002993355804
 20
11.77070826513011
 30
0.0
 40
3.5
  0
CIRCLE
  5
C98
  8
0
 10
147.5002993355804
 20
231.7707082651301
 30
0.0
 40
3.5
  0
CIRCLE
  5
C99
  8
0
 10
147.5002993355804
 20
501.7707082651301
 30
0.0
 40
3.5
  0
LINE
  5
C9A
  8
0
 10
302.5002993355805
 20
498.2707082651301
 30
0.0
 11
302.5002993355805
 21
389.7707082651301
 31
0.0
  0
LINE
  5
C9B
  8
0
 10
144.0002993355805
 20
389.7707082651301
 30
0.0
 11
144.0002993355805
 21
498.2707082651301
 31
0.0
  0
DIMENSION
  5
C9D
  8
DIMENSIONS
  6
BYBLOCK
  2
*D140
 10
430.3002993355803
 20
535.0993406800054
 30
0.0
 11
289.1962483124433
 21
539.3018406800054
 31
0.0
 70
    32
  3
DUAL-DIM
 13
148.0921972893064
 23
501.7707082651301
 33
0.0
 14
430.3002993355803
 24
501.7707082651301
 34
0.0
1001
ACAD
1000
DSTYLE
1002
{
1070
   287
1070
     5
1070
   279
1070
     2
1002
}
  0
DIMENSION
  5
CAA
  8
DIMENSIONS
  6
BYBLOCK
  2
*D141
 10
448.9002993355805
 20
553.1325392244937
 30
0.0
 11
288.9002993355805
 21
557.3350392244937
 31
0.0
 70
    32
  3
DUAL-DIM
 13
128.9002993355805
 23
516.7707082651301
 33
0.0
 14
448.9002993355805
 24
516.7707082651301
 34
0.0
1001
ACAD
1000
DSTYLE
1002
{
1070
   287
1070
     5
1070
   279
1070
     2
1002
}
  0
DIMENSION
  5
CB9
  8
DIMENSIONS
  6
BYBLOCK
  2
*D142
 10
87.71597383160986
 20
498.2707082651301
 30
0.0
 11
87.71597383160986
 21
476.3882082651301
 31
0.0
 70
   160
  3
DUAL-DIM
 13
128.9002993355805
 23
516.7707082651301
 33
0.0
 14
144.0002993355805
 24
498.2707082651301
 34
0.0
 50
90.0
1001
ACAD
1000
DSTYLE
1002
{
1070
   287
1070
     3
1070
   279
1070
     0
1002
}
  0
DIMENSION
  5
CC8
  8
DIMENSIONS
  6
BYBLOCK
  2
*D143
 10
108.0693455090714
 20
389.7707082651301
 30
0.0
 11
103.8668455090714
 21
444.0207082651301
 31
0.0
 70
    32
  3
DUAL-DIM
 13
144.0002993355805
 23
498.2707082651301
 33
0.0
 14
144.0002993355805
 24
389.7707082651301
 34
0.0
 50
90.0
1001
ACAD
1000
DSTYLE
1002
{
1070
   287
1070
     5
1070
   279
1070
     2
1002
}
  0
DIMENSION
  5
CD7
  8
DIMENSIONS
  6
BYBLOCK
  2
*D144
 10
108.0693455090714
 20
189.7707082651301
 30
0.0
 11
103.8668455090714
 21
289.7707082651301
 31
0.0
 70
    32
  3
DUAL-DIM
 13
144.0002993355805
 23
389.7707082651301
 33
0.0
 14
134.5002993355805
 24
189.7707082651301
 34
0.0
 50
90.0
1001
ACAD
1000
DSTYLE
1002
{
1070
   287
1070
     5
1070
   279
1070
     2
1002
}
  0
DIMENSION
  5
CE6
  8
DIMENSIONS
  6
BYBLOCK
  2
*D145
 10
108.0693455090714
 20
139.7707082651301
 30
0.0
 11
103.8668455090714
 21
164.7707082651301
 31
0.0
 70
    32
  3
DUAL-DIM
 13
134.5002993355805
 23
189.7707082651301
 33
0.0
 14
134.5002993355805
 24
139.7707082651301
 34
0.0
 50
90.0
1001
ACAD
1000
DSTYLE
1002
{
1070
   287
1070
     5
1070
   279
1070
     2
1002
}
  0
DIMENSION
  5
CF5
  8
DIMENSIONS
  6
BYBLOCK
  2
*D146
 10
108.0693455090714
 20
-3.229291734869888
 30
0.0
 11
103.8668455090714
 21
68.2707082651301
 31
0.0
 70
    32
  3
DUAL-DIM
 13
134.5002993355805
 23
139.7707082651301
 33
0.0
 14
128.9002993355805
 24
-3.229291734869889
 34
0.0
 50
90.0
1001
ACAD
1000
DSTYLE
1002
{
1070
   287
1070
     5
1070
   279
1070
     2
1002
}
  0
DIMENSION
  5
D05
  8
DIMENSIONS
  6
BYBLOCK
  2
*D147
 10
490.3346129189352
 20
501.7707082651301
 30
0.0
 11
490.3346129189352
 21
482.7982082651301
 31
0.0
 70
   160
  3
DUAL-DIM
 13
448.9002993355805
 23
516.7707082651301
 33
0.0
 14
430.3002993355803
 24
501.7707082651301
 34
0.0
 50
90.0
1001
ACAD
1000
DSTYLE
1002
{
1070
   287
1070
     3
1070
   279
1070
     0
1002
}
  0
DIMENSION
  5
D14
  8
DIMENSIONS
  6
BYBLOCK
  2
*D148
 10
468.7071032133379
 20
231.7707082651301
 30
0.0
 11
464.5046032133379
 21
366.7707082651301
 31
0.0
 70
    32
  3
DUAL-DIM
 13
430.3002993355803
 23
501.7707082651301
 33
0.0
 14
430.3002993355803
 24
231.7707082651301
 34
0.0
 50
90.0
1001
ACAD
1000
DSTYLE
1002
{
1070
   287
1070
     5
1070
   279
1070
     2
1002
}
  0
DIMENSION
  5
D23
  8
DIMENSIONS
  6
BYBLOCK
  2
*D149
 10
468.7071032133379
 20
11.77070826513011
 30
0.0
 11
464.5046032133379
 21
121.7707082651301
 31
0.0
 70
    32
  3
DUAL-DIM
 13
430.3002993355803
 23
231.7707082651301
 33
0.0
 14
430.3002993355803
 24
11.77070826513011
 34
0.0
 50
90.0
1001
ACAD
1000
DSTYLE
1002
{
1070
   287
1070
     5
1070
   279
1070
     2
1002
}
  0
DIMENSION
  5
D32
  8
DIMENSIONS
  6
BYBLOCK
  2
*D150
 10
487.739716940357
 20
-3.229291734869889
 30
0.0
 11
487.739716940357
 21
30.74320826513013
 31
0.0
 70
   160
  3
DUAL-DIM
 13
430.3002993355803
 23
11.77070826513011
 33
0.0
 14
448.9002993355805
 24
-3.229291734869889
 34
0.0
 50
90.0
1001
ACAD
1000
DSTYLE
1002
{
1070
   287
1070
     3
1070
   279
1070
     0
1002
}
  0
DIMENSION
  5
D41
  8
DIMENSIONS
  6
BYBLOCK
  2
*D151
 10
128.9002993355805
 20
362.7128721538182
 30
0.0
 11
165.8827993355805
 21
362.7128721538182
 31
0.0
 70
   160
  3
DUAL-DIM
 13
144.0002993355805
 23
389.7707082651301
 33
0.0
 14
128.9002993355805
 24
389.7707082651301
 34
0.0
1001
ACAD
1000
DSTYLE
1002
{
1070
   287
1070
     3
1070
   279
1070
     0
1002
}
  0
DIMENSION
  5
D5F
  8
DIMENSIONS
  6
BYBLOCK
  2
*D153
 10
448.9002993355805
 20
376.4555179202895
 30
0.0
 11
375.7002993355805
 21
380.6580179202895
 31
0.0
 70
    32
  3
DUAL-DIM
 13
302.5002993355805
 23
389.7707082651301
 33
0.0
 14
448.9002993355805
 24
256.7707082651301
 34
0.0
1001
ACAD
1000
DSTYLE
1002
{
1070
   287
1070
     5
1070
   279
1070
     2
1002
}
  0
DIMENSION
  5
D6E
  8
DIMENSIONS
  6
BYBLOCK
  2
*D154
 10
134.5002993355805
 20
114.5606370513251
 30
0.0
 11
163.1942140206588
 21
114.5606370513251
 31
0.0
 70
   160
  3
DUAL-DIM
 13
128.9002993355805
 23
139.7707082651301
 33
0.0
 14
134.5002993355805
 24
139.7707082651301
 34
0.0
1001
ACAD
1000
DSTYLE
1002
{
1070
   287
1070
     3
1070
   279
1070
     0
1002
}
  0
DIMENSION
  5
D7E
  8
DIMENSIONS
  6
BYBLOCK
  2
*D155
 10
266.5002993355805
 20
128.1169825684796
 30
0.0
 11
200.5002993355805
 21
132.3194825684796
 31
0.0
 70
    32
  3
DUAL-DIM
 13
134.5002993355805
 23
139.7707082651301
 33
0.0
 14
266.5002993355805
 24
139.7707082651301
 34
0.0
1001
ACAD
1000
DSTYLE
1002
{
1070
   287
1070
     5
1070
   279
1070
     2
1002
}
  0
DIMENSION
  5
D8D
  8
DIMENSIONS
  6
BYBLOCK
  2
*D156
 10
448.9002993355805
 20
128.1169825684796
 30
0.0
 11
357.7002993355805
 21
132.3194825684796
 31
0.0
 70
    32
  3
DUAL-DIM
 13
266.5002993355805
 23
139.7707082651301
 33
0.0
 14
448.9002993355805
 24
256.7707082651301
 34
0.0
1001
ACAD
1000
DSTYLE
1002
{
1070
   287
1070
     5
1070
   279
1070
     2
1002
}
  0
DIMENSION
  5
D9C
  8
DIMENSIONS
  6
BYBLOCK
  2
*D157
 10
144.0003067662902
 20
11.77792040167821
 30
0.0
 11
179.5012996558573
 21
11.70476652970734
 31
0.0
 70
   163
  1
<>
  3
DUAL-DIM
 15
151.0002919048706
 25
11.763496128582
 35
0.0
 40
0.0
1001
ACAD
1000
DSTYLE
1002
{
1070
   287
1070
     3
1070
   279
1070
     0
1002
}
1001
ACAD_DSTYLE_DIMRADIAL_EXT0
1070
   387
1070
     1
1070
   388
1040
0.0
1070
   390
1040
6.283185307179586
  0
DIMENSION
  5
DB2
  8
DIMENSIONS
  6
BYBLOCK
  2
*D158
 10
302.5002993355805
 20
376.4555179202895
 30
0.0
 11
223.2502993355805
 21
380.6580179202895
 31
0.0
 70
    32
  3
DUAL-DIM
 13
144.0002993355805
 23
389.7707082651301
 33
0.0
 14
302.5002993355805
 24
389.7707082651301
 34
0.0
1001
ACAD
1000
DSTYLE
1002
{
1070
   287
1070
     5
1070
   279
1070
     2
1002
}
  0
DIMENSION
  5
DC5
  8
DIMENSIONS
  6
BYBLOCK
  2
*D159
 10
66.84110006721042
 20
-3.229291734869885
 30
0.0
 11
62.63860006721045
 21
256.7707082651301
 31
0.0
 70
    32
  3
DUAL-DIM
 13
128.9002993355805
 23
516.7707082651301
 33
0.0
 14
128.9002993355805
 24
-3.229291734869889
 34
0.0
 50
90.0
1001
ACAD
1000
DSTYLE
1002
{
1070
   287
1070
     5
1070
   279
1070
     2
1002
}
  0
POLYLINE
  5
DD4
  8
0
  6
BYBLOCK
 66
     1
 10
0.0
 20
0.0
 30
0.0
 70
     1
  0
VERTEX
  5
DD5
  8
0
  6
BYBLOCK
 10
2.313298369533129
 20
-54.52617924001089
 30
0.0
  0
VERTEX
  5
DD6
  8
0
  6
BYBLOCK
 10
2.313298369533129
 20
592.6108662678291
 30
0.0
  0
VERTEX
  5
DD7
  8
0
  6
BYBLOCK
 10
548.6400503560515
 20
592.6108662678291
 30
0.0
  0
VERTEX
  5
DD8
  8
0
  6
BYBLOCK
 10
548.6400503560515
 20
-54.52617924001089
 30
0.0
  0
SEQEND
  5
DD9
  8
0
  6
BYBLOCK
  0
ENDSEC
  0
EOF
