  0
SECTION
  2
HEADER
  9
$ACADVER
  1
AC1009
  9
$DWGCODEPAGE
  3
ansi_1252
  9
$INSBASE
 10
0.0
 20
0.0
 30
0.0
  9
$EXTMIN
 10
1.000000000000000E+20
 20
1.000000000000000E+20
 30
1.000000000000000E+20
  9
$EXTMAX
 10
-1.000000000000000E+20
 20
-1.000000000000000E+20
 30
-1.000000000000000E+20
  9
$LIMMIN
 10
0.0
 20
0.0
  9
$LIMMAX
 10
594.0
 20
420.0
  9
$ORTHOMODE
 70
     0
  9
$REGENMODE
 70
     1
  9
$FILLMODE
 70
     1
  9
$QTEXTMODE
 70
     0
  9
$MIRRTEXT
 70
     1
  9
$DRAGMODE
 70
     2
  9
$LTSCALE
 40
32.67
  9
$OSMODE
 70
   511
  9
$ATTMODE
 70
     1
  9
$TEXTSIZE
 40
0.2
  9
$TRACEWID
 40
0.05
  9
$TEXTSTYLE
  7
STANDARD
  9
$CLAYER
  8
0
  9
$CELTYPE
  6
BYBLOCK
  9
$CECOLOR
 62
   256
  9
$DIMSCALE
 40
1.0
  9
$DIMASZ
 40
5.0
  9
$DIMEXO
 40
1.5
  9
$DIMDLI
 40
1.0
  9
$DIMRND
 40
0.0
  9
$DIMDLE
 40
0.0
  9
$DIMEXE
 40
0.18
  9
$DIMTP
 40
0.0
  9
$DIMTM
 40
0.0
  9
$DIMTXT
 40
5.0
  9
$DIMCEN
 40
2.5
  9
$DIMTSZ
 40
0.0
  9
$DIMTOL
 70
     0
  9
$DIMLIM
 70
     0
  9
$DIMTIH
 70
     0
  9
$DIMTOH
 70
     0
  9
$DIMSE1
 70
     0
  9
$DIMSE2
 70
     0
  9
$DIMTAD
 70
     1
  9
$DIMZIN
 70
     8
  9
$DIMBLK
  1

  9
$DIMASO
 70
     1
  9
$DIMSHO
 70
     1
  9
$DIMPOST
  1

  9
$DIMAPOST
  1

  9
$DIMALT
 70
     1
  9
$DIMALTD
 70
     2
  9
$DIMALTF
 40
0.03937
  9
$DIMLFAC
 40
1.0
  9
$DIMTOFL
 70
     0
  9
$DIMTVP
 40
0.0
  9
$DIMTIX
 70
     0
  9
$DIMSOXD
 70
     0
  9
$DIMSAH
 70
     0
  9
$DIMBLK1
  1

  9
$DIMBLK2
  1

  9
$DIMSTYLE
  2
DUAL-DIM
  9
$DIMCLRD
 70
     0
  9
$DIMCLRE
 70
     0
  9
$DIMCLRT
 70
     5
  9
$DIMTFAC
 40
1.0
  9
$DIMGAP
 40
1.0
  9
$LUNITS
 70
     2
  9
$LUPREC
 70
     4
  9
$SKETCHINC
 40
0.1
  9
$FILLETRAD
 40
15.0
  9
$AUNITS
 70
     0
  9
$AUPREC
 70
     0
  9
$MENU
  1
.
  9
$ELEVATION
 40
0.0
  9
$PELEVATION
 40
0.0
  9
$THICKNESS
 40
0.0
  9
$LIMCHECK
 70
     0
  9
$CHAMFERA
 40
0.0
  9
$CHAMFERB
 40
0.0
  9
$SKPOLY
 70
     0
  9
$TDCREATE
 40
2457428.354677859
  9
$TDUPDATE
 40
2457430.404159572
  9
$TDINDWG
 40
0.0369206019
  9
$TDUSRTIMER
 40
2457430.360372083
  9
$USRTIMER
 70
     1
  9
$ANGBASE
 50
0.0
  9
$ANGDIR
 70
     0
  9
$PDMODE
 70
     3
  9
$PDSIZE
 40
0.3125
  9
$PLINEWID
 40
0.0
  9
$COORDS
 70
     1
  9
$SPLFRAME
 70
     0
  9
$SPLINETYPE
 70
     6
  9
$SPLINESEGS
 70
     8
  9
$ATTDIA
 70
     0
  9
$ATTREQ
 70
     1
  9
$HANDLING
 70
     1
  9
$HANDSEED
  5
C42
  9
$SURFTAB1
 70
     6
  9
$SURFTAB2
 70
     6
  9
$SURFTYPE
 70
     6
  9
$SURFU
 70
     6
  9
$SURFV
 70
     6
  9
$UCSNAME
  2

  9
$UCSORG
 10
0.0
 20
0.0
 30
0.0
  9
$UCSXDIR
 10
1.0
 20
0.0
 30
0.0
  9
$UCSYDIR
 10
0.0
 20
1.0
 30
0.0
  9
$PUCSNAME
  2

  9
$PUCSORG
 10
0.0
 20
0.0
 30
0.0
  9
$PUCSXDIR
 10
1.0
 20
0.0
 30
0.0
  9
$PUCSYDIR
 10
0.0
 20
1.0
 30
0.0
  9
$USERI1
 70
     0
  9
$USERI2
 70
     0
  9
$USERI3
 70
     0
  9
$USERI4
 70
     0
  9
$USERI5
 70
     0
  9
$USERR1
 40
0.0
  9
$USERR2
 40
0.0
  9
$USERR3
 40
0.0
  9
$USERR4
 40
0.0
  9
$USERR5
 40
0.0
  9
$WORLDVIEW
 70
     1
  9
$SHADEDGE
 70
     3
  9
$SHADEDIF
 70
    70
  9
$TILEMODE
 70
     1
  9
$MAXACTVP
 70
    64
  9
$PLIMCHECK
 70
     0
  9
$PEXTMIN
 10
1.000000000000000E+20
 20
1.000000000000000E+20
 30
1.000000000000000E+20
  9
$PEXTMAX
 10
-1.000000000000000E+20
 20
-1.000000000000000E+20
 30
-1.000000000000000E+20
  9
$PLIMMIN
 10
0.0
 20
0.0
  9
$PLIMMAX
 10
0.0
 20
0.0
  9
$UNITMODE
 70
     0
  9
$VISRETAIN
 70
     1
  9
$PLINEGEN
 70
     0
  9
$PSLTSCALE
 70
     1
  0
ENDSEC
  0
SECTION
  2
TABLES
  0
TABLE
  2
VPORT
 70
     1
  0
VPORT
  2
*ACTIVE
 70
     0
 10
0.0
 20
0.0
 11
1.0
 21
1.0
 12
565.8882699877181
 22
182.6993917645227
 13
0.0
 23
0.0
 14
0.5
 24
0.5
 15
0.5
 25
0.5
 16
0.0
 26
0.0
 36
1.0
 17
0.0
 27
0.0
 37
0.0
 40
670.3615147616686
 41
2.792291220556745
 42
50.0
 43
0.0
 44
0.0
 50
0.0
 51
0.0
 71
    16
 72
   100
 73
     1
 74
     3
 75
     0
 76
     0
 77
     0
 78
     0
  0
ENDTAB
  0
TABLE
  2
LTYPE
 70
     6
  0
LTYPE
  2
CONTINUOUS
 70
     0
  3
Solid line
 72
    65
 73
     0
 40
0.0
  0
LTYPE
  2
CENTER
 70
     0
  3
____ _ ____ _ ____ _ ____ _ ____ _ ____ _ ____
 72
    65
 73
     4
 40
0.6
 49
0.375
 49
-0.075
 49
0.075
 49
-0.075
  0
LTYPE
  2
HIDDEN
 70
     0
  3
- - - - - - - - - - - - - - - - - - - -
 72
    65
 73
     2
 40
0.2
 49
0.1
 49
-0.1
  0
LTYPE
  2
PHANTOM
 70
     0
  3
_____ _ _ _____ _ _ _____ _ _ _____
 72
    65
 73
     6
 40
0.8
 49
0.45
 49
-0.05
 49
0.1
 49
-0.05
 49
0.1
 49
-0.05
  0
LTYPE
  2
DOT
 70
     0
  3
. . . . . . . . . . . . . . . . . . . .
 72
    65
 73
     2
 40
0.2
 49
0.1
 49
-0.1
  0
LTYPE
  2
DASHED
 70
     0
  3
- - - - - - - - - - - - - - - - - - - -
 72
    65
 73
     2
 40
0.2
 49
0.1
 49
-0.1
  0
ENDTAB
  0
TABLE
  2
LAYER
 70
    15
  0
LAYER
  2
0
 70
     0
 62
     7
  6
CONTINUOUS
  0
LAYER
  2
DEFAULT_1
 70
     0
 62
     7
  6
CENTER
  0
LAYER
  2
DEFAULT_2
 70
     0
 62
     8
  6
HIDDEN
  0
LAYER
  2
DEFAULT_3
 70
     0
 62
     7
  6
PHANTOM
  0
LAYER
  2
01___PRT_ALL_DTM_PLN
 70
     0
 62
     7
  6
CONTINUOUS
  0
LAYER
  2
01___PRT_DEF_DTM_PLN
 70
     0
 62
     7
  6
CONTINUOUS
  0
LAYER
  2
02___PRT_ALL_AXES
 70
     0
 62
     7
  6
CONTINUOUS
  0
LAYER
  2
03___PRT_ALL_CURVES
 70
     0
 62
     7
  6
CONTINUOUS
  0
LAYER
  2
04___PRT_ALL_DTM_PNT
 70
     0
 62
     7
  6
CONTINUOUS
  0
LAYER
  2
05___PRT_ALL_DTM_CSYS
 70
     0
 62
     7
  6
CONTINUOUS
  0
LAYER
  2
05___PRT_DEF_DTM_CSYS
 70
     0
 62
     7
  6
CONTINUOUS
  0
LAYER
  2
06___PRT_ALL_SURFS
 70
     0
 62
     7
  6
CONTINUOUS
  0
LAYER
  2
DEFPOINTS
 70
     0
 62
     7
  6
CONTINUOUS
  0
LAYER
  2
DIMENSIONS
 70
     0
 62
     2
  6
CONTINUOUS
  0
LAYER
  2
AM_5
 70
     0
 62
     3
  6
CONTINUOUS
  0
ENDTAB
  0
TABLE
  2
STYLE
 70
     2
  0
STYLE
  2
STANDARD
 70
     0
 40
0.0
 41
1.0
 50
0.0
 71
     0
 42
0.2
  3
arial.ttf
  4

  0
STYLE
  2
TEXTSTYLE_1
 70
     0
 40
0.0
 41
0.8
 50
0.0
 71
     0
 42
0.2
  3
gdt
  4

  0
ENDTAB
  0
TABLE
  2
VIEW
 70
     0
  0
ENDTAB
  0
TABLE
  2
UCS
 70
     0
  0
ENDTAB
  0
TABLE
  2
APPID
 70
    10
  0
APPID
  2
ACAD
 70
     0
  0
APPID
  2
ACAECLAYERSTANDARD
 70
     0
  0
APPID
  2
ACAD_DSTYLE_DIMRADIAL_EXTE
 70
     0
  0
APPID
  2
ACAD_DSTYLE_DIMJOGGED_JOGA
 70
     0
  0
APPID
  2
ACAD_DSTYLE_DIMJAG
 70
     0
  0
APPID
  2
ACAD_DSTYLE_DIMBREAK
 70
     0
  0
APPID
  2
ACAD_PSEXT
 70
     0
  0
APPID
  2
ACAD_DSTYLE_DIMINSPECT
 70
     0
  0
APPID
  2
ACAD_DSTYLE_DIMRADIAL_EXT0
 70
     0
  0
APPID
  2
ACAD_DSTYLE_DIMJOGGED_JOG0
 70
     0
  0
ENDTAB
  0
TABLE
  2
DIMSTYLE
 70
     5
  0
DIMSTYLE
  2
STANDARD
 70
     0
  3

  4

  5

  6

  7

 40
1.0
 41
0.18
 42
0.0625
 43
0.38
 44
0.18
 45
0.0
 46
0.0
 47
0.0
 48
0.0
140
0.18
141
0.09
142
0.0
143
25.4
144
1.0
145
0.0
146
1.0
147
0.09
 71
     0
 72
     0
 73
     1
 74
     1
 75
     0
 76
     0
 77
     0
 78
     0
170
     0
171
     2
172
     0
173
     0
174
     0
175
     0
176
     0
177
     0
178
     0
  0
DIMSTYLE
  2
DUAL-DIM
 70
     0
  3

  4

  5

  6

  7

 40
1.0
 41
5.0
 42
1.5
 43
1.0
 44
0.18
 45
0.0
 46
0.0
 47
0.0
 48
0.0
140
5.0
141
2.5
142
0.0
143
0.03937
144
1.0
145
0.0
146
1.0
147
1.0
 71
     0
 72
     0
 73
     0
 74
     0
 75
     0
 76
     0
 77
     1
 78
     8
170
     1
171
     2
172
     0
173
     0
174
     0
175
     0
176
     0
177
     0
178
     5
  0
DIMSTYLE
  2
AM_ISO
 70
     0
  3

  4
"
  5

  6

  7

 40
1.0
 41
3.5
 42
1.0
 43
10.0
 44
1.0
 45
0.0
 46
0.0
 47
0.1
 48
0.1
140
3.5
141
0.0
142
0.0
143
0.0393701
144
1.0
145
0.0
146
0.71
147
1.5
 71
     0
 72
     0
 73
     0
 74
     0
 75
     0
 76
     0
 77
     1
 78
     8
170
     0
171
     2
172
     1
173
     0
174
     0
175
     0
176
   256
177
   256
178
     2
  0
DIMSTYLE
  2
AM_ISO$3
 70
     0
  3

  4
"
  5

  6

  7

 40
1.0
 41
3.5
 42
1.0
 43
10.0
 44
1.0
 45
0.0
 46
0.0
 47
0.1
 48
0.1
140
3.5
141
0.0
142
0.0
143
0.0393701
144
1.0
145
0.0
146
0.71
147
1.5
 71
     0
 72
     0
 73
     0
 74
     1
 75
     0
 76
     0
 77
     1
 78
     8
170
     0
171
     2
172
     0
173
     0
174
     0
175
     0
176
   256
177
   256
178
     2
  0
DIMSTYLE
  2
AM_ISO$0
 70
     0
  3

  4
"
  5

  6

  7

 40
1.0
 41
3.5
 42
1.0
 43
10.0
 44
1.0
 45
0.0
 46
0.0
 47
0.1
 48
0.1
140
3.5
141
0.0
142
0.0
143
0.0393701
144
1.0
145
0.0
146
0.71
147
1.5
 71
     0
 72
     0
 73
     0
 74
     0
 75
     0
 76
     0
 77
     1
 78
     8
170
     0
171
     2
172
     1
173
     0
174
     0
175
     0
176
   256
177
   256
178
     2
  0
ENDTAB
  0
ENDSEC
  0
SECTION
  2
BLOCKS
  0
BLOCK
  8
0
  2
$MODEL_SPACE
 70
     0
 10
0.0
 20
0.0
 30
0.0
  3
$MODEL_SPACE
  1

  0
ENDBLK
  5
110
  8
0
  0
BLOCK
 67
     1
  8
0
  2
$PAPER_SPACE
 70
     0
 10
0.0
 20
0.0
 30
0.0
  3
$PAPER_SPACE
  1

  0
ENDBLK
  5
112
 67
     1
  8
0
  0
BLOCK
  8
0
  2
_FILLED
 70
     0
 10
0.0
 20
0.0
 30
0.0
  3
_FILLED
  1

  0
SOLID
  5
3D
  8
0
  6
BYBLOCK
 62
     0
 10
0.0
 20
0.0
 30
0.0
 11
-1.0
 21
0.2
 31
0.0
 12
-1.0
 22
-0.2
 32
0.0
 13
-1.0
 23
-0.2
 33
0.0
  0
ENDBLK
  5
3E
  8
0
  6
BYBLOCK
 62
     0
  0
BLOCK
  8
0
  2
*D94
 70
     1
 10
0.0
 20
0.0
 30
0.0
  3
*D94
  1

  0
LINE
  5
8DC
  8
DIMENSIONS
  6
BYBLOCK
 62
     0
 10
135.6799154923127
 20
474.2960833044353
 30
0.0
 11
135.6799154923127
 21
500.4900572660845
 31
0.0
  0
LINE
  5
8DD
  8
DIMENSIONS
  6
BYBLOCK
 62
     0
 10
379.6799154923128
 20
474.2960833044353
 30
0.0
 11
379.6799154923128
 21
500.4900572660845
 31
0.0
  0
LINE
  5
8DE
  8
DIMENSIONS
  6
BYBLOCK
 62
     0
 10
140.6799154923127
 20
500.3100572660845
 30
0.0
 11
374.6799154923128
 21
500.3100572660845
 31
0.0
  0
SOLID
  5
8DF
  8
DIMENSIONS
 62
     0
 10
140.6799154923127
 20
501.1433905994178
 30
0.0
 11
140.6799154923127
 21
499.4767239327512
 31
0.0
 12
135.6799154923127
 22
500.3100572660845
 32
0.0
 13
135.6799154923127
 23
500.3100572660845
 33
0.0
  0
SOLID
  5
8E0
  8
DIMENSIONS
 62
     0
 10
374.6799154923128
 20
499.4767239327512
 30
0.0
 11
374.6799154923128
 21
501.1433905994178
 31
0.0
 12
379.6799154923128
 22
500.3100572660845
 32
0.0
 13
379.6799154923128
 23
500.3100572660845
 33
0.0
  0
TEXT
  5
8E1
  8
DIMENSIONS
  6
CONTINUOUS
 62
     5
 10
242.2849154923128
 20
502.7050572660845
 30
0.0
 40
5.0
  1
244 [9.61]
  0
POINT
  5
8E2
  8
DEFPOINTS
 62
     0
 10
135.6799154923127
 20
472.7960833044353
 30
0.0
  0
POINT
  5
8E3
  8
DEFPOINTS
 62
     0
 10
379.6799154923128
 20
472.7960833044353
 30
0.0
  0
POINT
  5
8E4
  8
DEFPOINTS
 62
     0
 10
379.6799154923128
 20
500.3100572660845
 30
0.0
  0
ENDBLK
  5
8DB
  8
0
  0
BLOCK
  8
0
  2
*D95
 70
     1
 10
0.0
 20
0.0
 30
0.0
  3
*D95
  1

  0
LINE
  5
8EB
  8
DIMENSIONS
  6
BYBLOCK
 62
     0
 10
392.6799154923128
 20
487.2960833044353
 30
0.0
 11
392.6799154923128
 21
514.2311814289316
 31
0.0
  0
LINE
  5
8EC
  8
DIMENSIONS
  6
BYBLOCK
 62
     0
 10
122.6799154923127
 20
487.2960833044353
 30
0.0
 11
122.6799154923127
 21
514.2311814289316
 31
0.0
  0
LINE
  5
8ED
  8
DIMENSIONS
  6
BYBLOCK
 62
     0
 10
387.6799154923128
 20
514.0511814289316
 30
0.0
 11
127.6799154923127
 21
514.0511814289316
 31
0.0
  0
SOLID
  5
8EE
  8
DIMENSIONS
 62
     0
 10
387.6799154923128
 20
513.2178480955982
 30
0.0
 11
387.6799154923128
 21
514.884514762265
 31
0.0
 12
392.6799154923128
 22
514.0511814289316
 32
0.0
 13
392.6799154923128
 23
514.0511814289316
 33
0.0
  0
SOLID
  5
8EF
  8
DIMENSIONS
 62
     0
 10
127.6799154923127
 20
514.884514762265
 30
0.0
 11
127.6799154923127
 21
513.2178480955982
 31
0.0
 12
122.6799154923127
 22
514.0511814289316
 32
0.0
 13
122.6799154923127
 23
514.0511814289316
 33
0.0
  0
TEXT
  5
8F0
  8
DIMENSIONS
  6
CONTINUOUS
 62
     5
 10
240.3449154923128
 20
516.4461814289316
 30
0.0
 40
5.0
  1
270 [10.63]
  0
POINT
  5
8F1
  8
DEFPOINTS
 62
     0
 10
392.6799154923128
 20
485.7960833044353
 30
0.0
  0
POINT
  5
8F2
  8
DEFPOINTS
 62
     0
 10
122.6799154923127
 20
485.7960833044353
 30
0.0
  0
POINT
  5
8F3
  8
DEFPOINTS
 62
     0
 10
122.6799154923127
 20
514.0511814289316
 30
0.0
  0
ENDBLK
  5
8EA
  8
0
  0
BLOCK
  8
0
  2
*D96
 70
     1
 10
0.0
 20
0.0
 30
0.0
  3
*D96
  1

  0
LINE
  5
8FA
  8
DIMENSIONS
  6
BYBLOCK
 62
     0
 10
394.1799154923128
 20
485.7960833044353
 30
0.0
 11
434.3389207465762
 21
485.7960833044353
 31
0.0
  0
LINE
  5
8FB
  8
DIMENSIONS
  6
BYBLOCK
 62
     0
 10
376.1799154923128
 20
465.7960833044353
 30
0.0
 11
434.3389207465762
 21
465.7960833044353
 31
0.0
  0
LINE
  5
8FC
  8
DIMENSIONS
  6
BYBLOCK
 62
     0
 10
434.1589207465761
 20
485.7960833044353
 30
0.0
 11
434.1589207465761
 21
519.5556023237428
 31
0.0
  0
LINE
  5
8FD
  8
DIMENSIONS
  6
BYBLOCK
 62
     0
 10
434.1589207465761
 20
480.7960833044353
 30
0.0
 11
434.1589207465761
 21
470.7960833044353
 31
0.0
  0
SOLID
  5
8FE
  8
DIMENSIONS
 62
     0
 10
434.9922540799095
 20
480.7960833044353
 30
0.0
 11
433.3255874132428
 21
480.7960833044353
 31
0.0
 12
434.1589207465761
 22
485.7960833044353
 32
0.0
 13
434.1589207465761
 23
485.7960833044353
 33
0.0
  0
SOLID
  5
8FF
  8
DIMENSIONS
 62
     0
 10
433.3255874132428
 20
470.7960833044353
 30
0.0
 11
434.9922540799095
 21
470.7960833044353
 31
0.0
 12
434.1589207465761
 22
465.7960833044353
 32
0.0
 13
434.1589207465761
 23
465.7960833044353
 33
0.0
  0
TEXT
  5
900
  8
DIMENSIONS
  6
CONTINUOUS
 62
     5
 10
431.7639207465761
 20
491.8506023237429
 30
0.0
 40
5.0
  1
20 [0.79]
 50
90.0
  0
POINT
  5
901
  8
DEFPOINTS
 62
     0
 10
392.6799154923128
 20
485.7960833044353
 30
0.0
  0
POINT
  5
902
  8
DEFPOINTS
 62
     0
 10
374.6799154923128
 20
465.7960833044353
 30
0.0
  0
POINT
  5
9EC
  8
DEFPOINTS
 62
     0
 10
434.1589207465761
 20
465.7960833044353
 30
0.0
  0
ENDBLK
  5
8F9
  8
0
  0
BLOCK
  8
0
  2
*D97
 70
     1
 10
0.0
 20
0.0
 30
0.0
  3
*D97
  1

  0
LINE
  5
909
  8
DIMENSIONS
  6
BYBLOCK
 62
     0
 10
376.1799154923128
 20
465.7960833044353
 30
0.0
 11
434.3299112105187
 21
465.7960833044353
 31
0.0
  0
LINE
  5
90A
  8
DIMENSIONS
  6
BYBLOCK
 62
     0
 10
376.1799154923128
 20
312.7960833044353
 30
0.0
 11
434.3299112105187
 21
312.7960833044353
 31
0.0
  0
LINE
  5
90B
  8
DIMENSIONS
  6
BYBLOCK
 62
     0
 10
434.1499112105187
 20
460.7960833044353
 30
0.0
 11
434.1499112105187
 21
317.7960833044353
 31
0.0
  0
SOLID
  5
90C
  8
DIMENSIONS
 62
     0
 10
434.983244543852
 20
460.7960833044353
 30
0.0
 11
433.3165778771854
 21
460.7960833044353
 31
0.0
 12
434.1499112105187
 22
465.7960833044353
 32
0.0
 13
434.1499112105187
 23
465.7960833044353
 33
0.0
  0
SOLID
  5
90D
  8
DIMENSIONS
 62
     0
 10
433.3165778771854
 20
317.7960833044353
 30
0.0
 11
434.983244543852
 21
317.7960833044353
 31
0.0
 12
434.1499112105187
 22
312.7960833044353
 32
0.0
 13
434.1499112105187
 23
312.7960833044353
 33
0.0
  0
TEXT
  5
90E
  8
DIMENSIONS
  6
CONTINUOUS
 62
     5
 10
431.7549112105188
 20
373.6235833044353
 30
0.0
 40
5.0
  1
153 [6.02]
 50
90.0
  0
POINT
  5
90F
  8
DEFPOINTS
 62
     0
 10
374.6799154923128
 20
465.7960833044353
 30
0.0
  0
POINT
  5
910
  8
DEFPOINTS
 62
     0
 10
374.6799154923128
 20
312.7960833044353
 30
0.0
  0
POINT
  5
911
  8
DEFPOINTS
 62
     0
 10
434.1499112105187
 20
312.7960833044353
 30
0.0
  0
ENDBLK
  5
908
  8
0
  0
BLOCK
  8
0
  2
*D98
 70
     1
 10
0.0
 20
0.0
 30
0.0
  3
*D98
  1

  0
LINE
  5
918
  8
DIMENSIONS
  6
BYBLOCK
 62
     0
 10
376.1799154923128
 20
312.7960833044353
 30
0.0
 11
434.3299112105187
 21
312.7960833044353
 31
0.0
  0
LINE
  5
919
  8
DIMENSIONS
  6
BYBLOCK
 62
     0
 10
384.1799154923128
 20
182.7960833044349
 30
0.0
 11
434.3299112105187
 21
182.7960833044349
 31
0.0
  0
LINE
  5
91A
  8
DIMENSIONS
  6
BYBLOCK
 62
     0
 10
434.1499112105187
 20
307.7960833044353
 30
0.0
 11
434.1499112105187
 21
187.7960833044349
 31
0.0
  0
SOLID
  5
91B
  8
DIMENSIONS
 62
     0
 10
434.983244543852
 20
307.7960833044353
 30
0.0
 11
433.3165778771854
 21
307.7960833044353
 31
0.0
 12
434.1499112105187
 22
312.7960833044353
 32
0.0
 13
434.1499112105187
 23
312.7960833044353
 33
0.0
  0
SOLID
  5
91C
  8
DIMENSIONS
 62
     0
 10
433.3165778771854
 20
187.7960833044349
 30
0.0
 11
434.983244543852
 21
187.7960833044349
 31
0.0
 12
434.1499112105187
 22
182.7960833044349
 32
0.0
 13
434.1499112105187
 23
182.7960833044349
 33
0.0
  0
TEXT
  5
91D
  8
DIMENSIONS
  6
CONTINUOUS
 62
     5
 10
431.7549112105188
 20
232.1235833044351
 30
0.0
 40
5.0
  1
130 [5.12]
 50
90.0
  0
POINT
  5
91E
  8
DEFPOINTS
 62
     0
 10
374.6799154923128
 20
312.7960833044353
 30
0.0
  0
POINT
  5
91F
  8
DEFPOINTS
 62
     0
 10
382.6799154923128
 20
182.7960833044349
 30
0.0
  0
POINT
  5
920
  8
DEFPOINTS
 62
     0
 10
434.1499112105187
 20
182.7960833044349
 30
0.0
  0
ENDBLK
  5
917
  8
0
  0
BLOCK
  8
0
  2
*D99
 70
     1
 10
0.0
 20
0.0
 30
0.0
  3
*D99
  1

  0
LINE
  5
927
  8
DIMENSIONS
  6
BYBLOCK
 62
     0
 10
384.1799154923128
 20
182.7960833044349
 30
0.0
 11
434.3299112105187
 21
182.7960833044349
 31
0.0
  0
LINE
  5
928
  8
DIMENSIONS
  6
BYBLOCK
 62
     0
 10
384.1799154923128
 20
122.7960833044352
 30
0.0
 11
434.3299112105187
 21
122.7960833044352
 31
0.0
  0
LINE
  5
929
  8
DIMENSIONS
  6
BYBLOCK
 62
     0
 10
434.1499112105187
 20
177.7960833044349
 30
0.0
 11
434.1499112105187
 21
127.7960833044352
 31
0.0
  0
SOLID
  5
92A
  8
DIMENSIONS
 62
     0
 10
434.983244543852
 20
177.7960833044349
 30
0.0
 11
433.3165778771854
 21
177.7960833044349
 31
0.0
 12
434.1499112105187
 22
182.7960833044349
 32
0.0
 13
434.1499112105187
 23
182.7960833044349
 33
0.0
  0
SOLID
  5
92B
  8
DIMENSIONS
 62
     0
 10
433.3165778771854
 20
127.7960833044352
 30
0.0
 11
434.983244543852
 21
127.7960833044352
 31
0.0
 12
434.1499112105187
 22
122.7960833044352
 32
0.0
 13
434.1499112105187
 23
122.7960833044352
 33
0.0
  0
TEXT
  5
92C
  8
DIMENSIONS
  6
CONTINUOUS
 62
     5
 10
431.7549112105188
 20
139.313583304435
 30
0.0
 40
5.0
  1
60 [2.36]
 50
90.0
  0
POINT
  5
92D
  8
DEFPOINTS
 62
     0
 10
382.6799154923128
 20
182.7960833044349
 30
0.0
  0
POINT
  5
92E
  8
DEFPOINTS
 62
     0
 10
382.6799154923128
 20
122.7960833044352
 30
0.0
  0
POINT
  5
92F
  8
DEFPOINTS
 62
     0
 10
434.1499112105187
 20
122.7960833044352
 30
0.0
  0
ENDBLK
  5
926
  8
0
  0
BLOCK
  8
0
  2
*D100
 70
     1
 10
0.0
 20
0.0
 30
0.0
  3
*D100
  1

  0
LINE
  5
936
  8
DIMENSIONS
  6
BYBLOCK
 62
     0
 10
384.1799154923128
 20
122.7960833044352
 30
0.0
 11
434.3299112105187
 21
122.7960833044352
 31
0.0
  0
LINE
  5
937
  8
DIMENSIONS
  6
BYBLOCK
 62
     0
 10
394.1799154923128
 20
-34.203916695565
 30
0.0
 11
434.3299112105187
 21
-34.203916695565
 31
0.0
  0
LINE
  5
938
  8
DIMENSIONS
  6
BYBLOCK
 62
     0
 10
434.1499112105187
 20
117.7960833044352
 30
0.0
 11
434.1499112105187
 21
-29.203916695565
 31
0.0
  0
SOLID
  5
939
  8
DIMENSIONS
 62
     0
 10
434.983244543852
 20
117.7960833044352
 30
0.0
 11
433.3165778771854
 21
117.7960833044352
 31
0.0
 12
434.1499112105187
 22
122.7960833044352
 32
0.0
 13
434.1499112105187
 23
122.7960833044352
 33
0.0
  0
SOLID
  5
93A
  8
DIMENSIONS
 62
     0
 10
433.3165778771854
 20
-29.203916695565
 30
0.0
 11
434.983244543852
 21
-29.203916695565
 31
0.0
 12
434.1499112105187
 22
-34.203916695565
 32
0.0
 13
434.1499112105187
 23
-34.203916695565
 33
0.0
  0
TEXT
  5
93B
  8
DIMENSIONS
  6
CONTINUOUS
 62
     5
 10
431.7549112105187
 20
28.6235833044351
 30
0.0
 40
5.0
  1
157 [6.18]
 50
90.0
  0
POINT
  5
93C
  8
DEFPOINTS
 62
     0
 10
382.6799154923128
 20
122.7960833044352
 30
0.0
  0
POINT
  5
93D
  8
DEFPOINTS
 62
     0
 10
392.6799154923128
 20
-34.203916695565
 30
0.0
  0
POINT
  5
93E
  8
DEFPOINTS
 62
     0
 10
434.1499112105187
 20
-34.203916695565
 30
0.0
  0
ENDBLK
  5
935
  8
0
  0
BLOCK
  8
0
  2
*D101
 70
     1
 10
0.0
 20
0.0
 30
0.0
  3
*D101
  1

  0
LINE
  5
945
  8
DIMENSIONS
  6
BYBLOCK
 62
     0
 10
121.1799154923127
 20
485.7960833044353
 30
0.0
 11
106.4366296411317
 21
485.7960833044353
 31
0.0
  0
LINE
  5
946
  8
DIMENSIONS
  6
BYBLOCK
 62
     0
 10
134.1799154923127
 20
472.7960833044353
 30
0.0
 11
106.4366296411317
 21
472.7960833044353
 31
0.0
  0
LINE
  5
947
  8
DIMENSIONS
  6
BYBLOCK
 62
     0
 10
106.6166296411317
 20
485.7960833044353
 30
0.0
 11
106.6166296411317
 21
518.7410833044353
 31
0.0
  0
LINE
  5
948
  8
DIMENSIONS
  6
BYBLOCK
 62
     0
 10
106.6166296411317
 20
480.7960833044353
 30
0.0
 11
106.6166296411317
 21
477.7960833044353
 31
0.0
  0
SOLID
  5
949
  8
DIMENSIONS
 62
     0
 10
107.449962974465
 20
480.7960833044353
 30
0.0
 11
105.7832963077984
 21
480.7960833044353
 31
0.0
 12
106.6166296411317
 22
485.7960833044353
 32
0.0
 13
106.6166296411317
 23
485.7960833044353
 33
0.0
  0
SOLID
  5
94A
  8
DIMENSIONS
 62
     0
 10
105.7832963077984
 20
477.7960833044353
 30
0.0
 11
107.449962974465
 21
477.7960833044353
 31
0.0
 12
106.6166296411317
 22
472.7960833044353
 32
0.0
 13
106.6166296411317
 23
472.7960833044353
 33
0.0
  0
TEXT
  5
94B
  8
DIMENSIONS
  6
CONTINUOUS
 62
     5
 10
104.2216296411317
 20
491.0360833044353
 30
0.0
 40
5.0
  1
13 [0.51]
 50
90.0
  0
POINT
  5
94C
  8
DEFPOINTS
 62
     0
 10
122.6799154923127
 20
485.7960833044353
 30
0.0
  0
POINT
  5
94D
  8
DEFPOINTS
 62
     0
 10
135.6799154923127
 20
472.7960833044353
 30
0.0
  0
POINT
  5
9ED
  8
DEFPOINTS
 62
     0
 10
106.6166296411317
 20
472.7960833044353
 30
0.0
  0
ENDBLK
  5
944
  8
0
  0
BLOCK
  8
0
  2
*D102
 70
     1
 10
0.0
 20
0.0
 30
0.0
  3
*D102
  1

  0
LINE
  5
954
  8
DIMENSIONS
  6
BYBLOCK
 62
     0
 10
134.1799154923127
 20
472.7960833044353
 30
0.0
 11
106.4671143199791
 21
472.7960833044353
 31
0.0
  0
LINE
  5
955
  8
DIMENSIONS
  6
BYBLOCK
 62
     0
 10
134.1799154923127
 20
225.7960833044353
 30
0.0
 11
106.467114319979
 21
225.7960833044353
 31
0.0
  0
LINE
  5
956
  8
DIMENSIONS
  6
BYBLOCK
 62
     0
 10
106.6471143199791
 20
467.7960833044353
 30
0.0
 11
106.6471143199791
 21
230.7960833044353
 31
0.0
  0
SOLID
  5
957
  8
DIMENSIONS
 62
     0
 10
107.4804476533124
 20
467.7960833044353
 30
0.0
 11
105.8137809866457
 21
467.7960833044353
 31
0.0
 12
106.6471143199791
 22
472.7960833044353
 32
0.0
 13
106.6471143199791
 23
472.7960833044353
 33
0.0
  0
SOLID
  5
958
  8
DIMENSIONS
 62
     0
 10
105.8137809866457
 20
230.7960833044353
 30
0.0
 11
107.4804476533124
 21
230.7960833044353
 31
0.0
 12
106.6471143199791
 22
225.7960833044353
 32
0.0
 13
106.6471143199791
 23
225.7960833044353
 33
0.0
  0
TEXT
  5
959
  8
DIMENSIONS
  6
CONTINUOUS
 62
     5
 10
104.2521143199791
 20
333.9010833044354
 30
0.0
 40
5.0
  1
247 [9.72]
 50
90.0
  0
POINT
  5
95A
  8
DEFPOINTS
 62
     0
 10
135.6799154923127
 20
472.7960833044353
 30
0.0
  0
POINT
  5
95B
  8
DEFPOINTS
 62
     0
 10
135.6799154923127
 20
225.7960833044353
 30
0.0
  0
POINT
  5
95C
  8
DEFPOINTS
 62
     0
 10
106.6471143199791
 20
225.7960833044353
 30
0.0
  0
ENDBLK
  5
953
  8
0
  0
BLOCK
  8
0
  2
*D103
 70
     1
 10
0.0
 20
0.0
 30
0.0
  3
*D103
  1

  0
LINE
  5
963
  8
DIMENSIONS
  6
BYBLOCK
 62
     0
 10
134.1799154923127
 20
225.7960833044353
 30
0.0
 11
106.467114319979
 21
225.7960833044353
 31
0.0
  0
LINE
  5
964
  8
DIMENSIONS
  6
BYBLOCK
 62
     0
 10
134.1799154923127
 20
-21.20391669556511
 30
0.0
 11
106.467114319979
 21
-21.20391669556511
 31
0.0
  0
LINE
  5
965
  8
DIMENSIONS
  6
BYBLOCK
 62
     0
 10
106.6471143199791
 20
220.7960833044353
 30
0.0
 11
106.647114319979
 21
-16.20391669556511
 31
0.0
  0
SOLID
  5
966
  8
DIMENSIONS
 62
     0
 10
107.4804476533124
 20
220.7960833044353
 30
0.0
 11
105.8137809866457
 21
220.7960833044353
 31
0.0
 12
106.6471143199791
 22
225.7960833044353
 32
0.0
 13
106.6471143199791
 23
225.7960833044353
 33
0.0
  0
SOLID
  5
967
  8
DIMENSIONS
 62
     0
 10
105.8137809866457
 20
-16.20391669556511
 30
0.0
 11
107.4804476533124
 21
-16.20391669556511
 31
0.0
 12
106.647114319979
 22
-21.20391669556511
 32
0.0
 13
106.647114319979
 23
-21.20391669556511
 33
0.0
  0
TEXT
  5
968
  8
DIMENSIONS
  6
CONTINUOUS
 62
     5
 10
104.252114319979
 20
86.90108330443512
 30
0.0
 40
5.0
  1
247 [9.72]
 50
90.0
  0
POINT
  5
969
  8
DEFPOINTS
 62
     0
 10
135.6799154923127
 20
225.7960833044353
 30
0.0
  0
POINT
  5
96A
  8
DEFPOINTS
 62
     0
 10
135.6799154923127
 20
-21.20391669556511
 30
0.0
  0
POINT
  5
96B
  8
DEFPOINTS
 62
     0
 10
106.647114319979
 20
-21.20391669556511
 30
0.0
  0
ENDBLK
  5
962
  8
0
  0
BLOCK
  8
0
  2
*D104
 70
     1
 10
0.0
 20
0.0
 30
0.0
  3
*D104
  1

  0
LINE
  5
972
  8
DIMENSIONS
  6
BYBLOCK
 62
     0
 10
134.1799154923127
 20
-21.20391669556511
 30
0.0
 11
106.467114319979
 21
-21.20391669556511
 31
0.0
  0
LINE
  5
973
  8
DIMENSIONS
  6
BYBLOCK
 62
     0
 10
121.1799154923127
 20
-34.203916695565
 30
0.0
 11
106.467114319979
 21
-34.203916695565
 31
0.0
  0
LINE
  5
974
  8
DIMENSIONS
  6
BYBLOCK
 62
     0
 10
106.647114319979
 20
-34.203916695565
 30
0.0
 11
106.647114319979
 21
-67.14891669556499
 31
0.0
  0
LINE
  5
975
  8
DIMENSIONS
  6
BYBLOCK
 62
     0
 10
106.647114319979
 20
-26.20391669556511
 30
0.0
 11
106.647114319979
 21
-29.203916695565
 31
0.0
  0
SOLID
  5
976
  8
DIMENSIONS
 62
     0
 10
107.4804476533124
 20
-26.20391669556511
 30
0.0
 11
105.8137809866457
 21
-26.20391669556511
 31
0.0
 12
106.647114319979
 22
-21.20391669556511
 32
0.0
 13
106.647114319979
 23
-21.20391669556511
 33
0.0
  0
SOLID
  5
977
  8
DIMENSIONS
 62
     0
 10
105.8137809866457
 20
-29.203916695565
 30
0.0
 11
107.4804476533124
 21
-29.203916695565
 31
0.0
 12
106.647114319979
 22
-34.203916695565
 32
0.0
 13
106.647114319979
 23
-34.203916695565
 33
0.0
  0
TEXT
  5
978
  8
DIMENSIONS
  6
CONTINUOUS
 62
     5
 10
104.252114319979
 20
-66.90891669556498
 30
0.0
 40
5.0
  1
13 [0.51]
 50
90.0
  0
POINT
  5
979
  8
DEFPOINTS
 62
     0
 10
135.6799154923127
 20
-21.20391669556511
 30
0.0
  0
POINT
  5
97A
  8
DEFPOINTS
 62
     0
 10
122.6799154923127
 20
-34.203916695565
 30
0.0
  0
POINT
  5
9EE
  8
DEFPOINTS
 62
     0
 10
106.647114319979
 20
-34.203916695565
 30
0.0
  0
ENDBLK
  5
971
  8
0
  0
BLOCK
  8
0
  2
*D105
 70
     1
 10
0.0
 20
0.0
 30
0.0
  3
*D105
  1

  0
LINE
  5
982
  8
DIMENSIONS
  6
BYBLOCK
 62
     0
 10
371.1799233796664
 20
-21.21549620110578
 30
0.0
 11
328.471814796364
 21
-21.27367728803121
 31
0.0
  0
TEXT
  5
983
  8
DIMENSIONS
  6
CONTINUOUS
 62
     5
 10
329.1884424487043
 20
-18.79769873240895
 30
0.0
 40
5.0
  1
Ø7 [Ø0.28]
 50
0.0780537648871281
  0
SOLID
  5
984
  8
DIMENSIONS
 62
     0
 10
371.1810586253077
 20
-22.04882876116915
 30
0.0
 11
371.1787881340252
 21
-20.3821636410424
 31
0.0
 12
376.1799187400467
 22
-21.20868472725833
 32
0.0
 13
376.1799187400467
 23
-21.20868472725833
 33
0.0
  0
LINE
  5
985
  8
DIMENSIONS
  6
BYBLOCK
 62
     0
 10
377.1799154923128
 20
-21.20391669556512
 30
0.0
 11
382.1799154923128
 21
-21.20391669556512
 31
0.0
  0
LINE
  5
986
  8
DIMENSIONS
  6
BYBLOCK
 62
     0
 10
379.6799154923128
 20
-23.70391669556512
 30
0.0
 11
379.6799154923128
 21
-18.70391669556512
 31
0.0
  0
POINT
  5
987
  8
DEFPOINTS
 62
     0
 10
376.1799187400467
 20
-21.20868472725833
 30
0.0
  0
POINT
  5
988
  8
DEFPOINTS
 62
     0
 10
383.179912244579
 20
-21.19914866387191
 30
0.0
  0
ENDBLK
  5
981
  8
0
  0
BLOCK
  8
0
  2
*D106
 70
     1
 10
0.0
 20
0.0
 30
0.0
  3
*D106
  1

  0
LINE
  5
991
  8
DIMENSIONS
  6
BYBLOCK
 62
     0
 10
382.6799154923128
 20
121.2960833044352
 30
0.0
 11
382.6799154923128
 21
107.7665839959851
 31
0.0
  0
LINE
  5
992
  8
DIMENSIONS
  6
BYBLOCK
 62
     0
 10
392.6799154923128
 20
121.2960833044352
 30
0.0
 11
392.6799154923128
 21
107.7665839959851
 31
0.0
  0
LINE
  5
993
  8
DIMENSIONS
  6
BYBLOCK
 62
     0
 10
392.6799154923128
 20
107.9465839959851
 30
0.0
 11
430.6249154923129
 21
107.9465839959851
 31
0.0
  0
LINE
  5
994
  8
DIMENSIONS
  6
BYBLOCK
 62
     0
 10
377.6799154923128
 20
107.9465839959851
 30
0.0
 11
372.6799154923128
 21
107.9465839959851
 31
0.0
  0
LINE
  5
995
  8
DIMENSIONS
  6
BYBLOCK
 62
     0
 10
397.6799154923128
 20
107.9465839959851
 30
0.0
 11
402.6799154923128
 21
107.9465839959851
 31
0.0
  0
SOLID
  5
996
  8
DIMENSIONS
 62
     0
 10
377.6799154923128
 20
107.1132506626518
 30
0.0
 11
377.6799154923128
 21
108.7799173293185
 31
0.0
 12
382.6799154923128
 22
107.9465839959851
 32
0.0
 13
382.6799154923128
 23
107.9465839959851
 33
0.0
  0
SOLID
  5
997
  8
DIMENSIONS
 62
     0
 10
397.6799154923128
 20
108.7799173293185
 30
0.0
 11
397.6799154923128
 21
107.1132506626518
 31
0.0
 12
392.6799154923128
 22
107.9465839959851
 32
0.0
 13
392.6799154923128
 23
107.9465839959851
 33
0.0
  0
TEXT
  5
998
  8
DIMENSIONS
  6
CONTINUOUS
 62
     5
 10
402.9199154923128
 20
110.3415839959851
 30
0.0
 40
5.0
  1
10 [0.39]
  0
POINT
  5
999
  8
DEFPOINTS
 62
     0
 10
382.6799154923128
 20
122.7960833044352
 30
0.0
  0
POINT
  5
99A
  8
DEFPOINTS
 62
     0
 10
392.6799154923128
 20
122.7960833044352
 30
0.0
  0
POINT
  5
9F0
  8
DEFPOINTS
 62
     0
 10
392.6799154923128
 20
107.9465839959851
 30
0.0
  0
ENDBLK
  5
990
  8
0
  0
BLOCK
  8
0
  2
*D107
 70
     1
 10
0.0
 20
0.0
 30
0.0
  3
*D107
  1

  0
LINE
  5
9A7
  8
DIMENSIONS
  6
BYBLOCK
 62
     0
 10
382.6799154923128
 20
121.2960833044352
 30
0.0
 11
382.6799154923128
 21
107.7665839959851
 31
0.0
  0
LINE
  5
9A8
  8
DIMENSIONS
  6
BYBLOCK
 62
     0
 10
239.6799154923128
 20
121.2960833044352
 30
0.0
 11
239.6799154923128
 21
107.7665839959851
 31
0.0
  0
LINE
  5
9A9
  8
DIMENSIONS
  6
BYBLOCK
 62
     0
 10
377.6799154923128
 20
107.9465839959851
 30
0.0
 11
244.6799154923128
 21
107.9465839959851
 31
0.0
  0
SOLID
  5
9AA
  8
DIMENSIONS
 62
     0
 10
377.6799154923128
 20
107.1132506626518
 30
0.0
 11
377.6799154923128
 21
108.7799173293185
 31
0.0
 12
382.6799154923128
 22
107.9465839959851
 32
0.0
 13
382.6799154923128
 23
107.9465839959851
 33
0.0
  0
SOLID
  5
9AB
  8
DIMENSIONS
 62
     0
 10
244.6799154923128
 20
108.7799173293185
 30
0.0
 11
244.6799154923128
 21
107.1132506626518
 31
0.0
 12
239.6799154923128
 22
107.9465839959851
 32
0.0
 13
239.6799154923128
 23
107.9465839959851
 33
0.0
  0
TEXT
  5
9AC
  8
DIMENSIONS
  6
CONTINUOUS
 62
     5
 10
295.5074154923128
 20
110.3415839959851
 30
0.0
 40
5.0
  1
143 [5.63]
  0
POINT
  5
9AD
  8
DEFPOINTS
 62
     0
 10
382.6799154923128
 20
122.7960833044352
 30
0.0
  0
POINT
  5
9AE
  8
DEFPOINTS
 62
     0
 10
239.6799154923128
 20
122.7960833044352
 30
0.0
  0
POINT
  5
9AF
  8
DEFPOINTS
 62
     0
 10
239.6799154923128
 20
107.9465839959851
 30
0.0
  0
ENDBLK
  5
9A6
  8
0
  0
BLOCK
  8
0
  2
*D108
 70
     1
 10
0.0
 20
0.0
 30
0.0
  3
*D108
  1

  0
LINE
  5
9B6
  8
DIMENSIONS
  6
BYBLOCK
 62
     0
 10
239.6799154923128
 20
121.2960833044352
 30
0.0
 11
239.6799154923128
 21
107.7665839959851
 31
0.0
  0
LINE
  5
9B7
  8
DIMENSIONS
  6
BYBLOCK
 62
     0
 10
122.6799154923127
 20
121.2960833044352
 30
0.0
 11
122.6799154923127
 21
107.7665839959851
 31
0.0
  0
LINE
  5
9B8
  8
DIMENSIONS
  6
BYBLOCK
 62
     0
 10
234.6799154923128
 20
107.9465839959851
 30
0.0
 11
127.6799154923127
 21
107.9465839959851
 31
0.0
  0
SOLID
  5
9B9
  8
DIMENSIONS
 62
     0
 10
234.6799154923128
 20
107.1132506626518
 30
0.0
 11
234.6799154923128
 21
108.7799173293185
 31
0.0
 12
239.6799154923128
 22
107.9465839959851
 32
0.0
 13
239.6799154923128
 23
107.9465839959851
 33
0.0
  0
SOLID
  5
9BA
  8
DIMENSIONS
 62
     0
 10
127.6799154923127
 20
108.7799173293185
 30
0.0
 11
127.6799154923127
 21
107.1132506626518
 31
0.0
 12
122.6799154923127
 22
107.9465839959851
 32
0.0
 13
122.6799154923127
 23
107.9465839959851
 33
0.0
  0
TEXT
  5
9BB
  8
DIMENSIONS
  6
CONTINUOUS
 62
     5
 10
165.5074154923128
 20
110.3415839959851
 30
0.0
 40
5.0
  1
117 [4.61]
  0
POINT
  5
9BC
  8
DEFPOINTS
 62
     0
 10
239.6799154923128
 20
122.7960833044352
 30
0.0
  0
POINT
  5
9BD
  8
DEFPOINTS
 62
     0
 10
122.6799154923127
 20
122.7960833044352
 30
0.0
  0
POINT
  5
9BE
  8
DEFPOINTS
 62
     0
 10
122.6799154923127
 20
107.9465839959851
 30
0.0
  0
ENDBLK
  5
9B5
  8
0
  0
BLOCK
  8
0
  2
*D109
 70
     1
 10
0.0
 20
0.0
 30
0.0
  3
*D109
  1

  0
LINE
  5
9C5
  8
DIMENSIONS
  6
BYBLOCK
 62
     0
 10
374.6799154923128
 20
311.2960833044353
 30
0.0
 11
374.6799154923128
 21
297.3109191353582
 31
0.0
  0
LINE
  5
9C6
  8
DIMENSIONS
  6
BYBLOCK
 62
     0
 10
392.6799154923128
 20
311.2960833044353
 30
0.0
 11
392.6799154923128
 21
297.3109191353582
 31
0.0
  0
LINE
  5
9C7
  8
DIMENSIONS
  6
BYBLOCK
 62
     0
 10
392.6799154923128
 20
297.4909191353582
 30
0.0
 11
425.6249154923129
 21
297.4909191353582
 31
0.0
  0
LINE
  5
9C8
  8
DIMENSIONS
  6
BYBLOCK
 62
     0
 10
379.6799154923128
 20
297.4909191353582
 30
0.0
 11
387.6799154923128
 21
297.4909191353582
 31
0.0
  0
SOLID
  5
9C9
  8
DIMENSIONS
 62
     0
 10
379.6799154923128
 20
298.3242524686916
 30
0.0
 11
379.6799154923128
 21
296.6575858020249
 31
0.0
 12
374.6799154923128
 22
297.4909191353582
 32
0.0
 13
374.6799154923128
 23
297.4909191353582
 33
0.0
  0
SOLID
  5
9CA
  8
DIMENSIONS
 62
     0
 10
387.6799154923128
 20
296.6575858020249
 30
0.0
 11
387.6799154923128
 21
298.3242524686916
 31
0.0
 12
392.6799154923128
 22
297.4909191353582
 32
0.0
 13
392.6799154923128
 23
297.4909191353582
 33
0.0
  0
TEXT
  5
9CB
  8
DIMENSIONS
  6
CONTINUOUS
 62
     5
 10
397.9199154923128
 20
299.8859191353582
 30
0.0
 40
5.0
  1
18 [0.71]
  0
POINT
  5
9CC
  8
DEFPOINTS
 62
     0
 10
374.6799154923128
 20
312.7960833044353
 30
0.0
  0
POINT
  5
9CD
  8
DEFPOINTS
 62
     0
 10
392.6799154923128
 20
312.7960833044353
 30
0.0
  0
POINT
  5
9EF
  8
DEFPOINTS
 62
     0
 10
392.6799154923128
 20
297.4909191353582
 30
0.0
  0
ENDBLK
  5
9C4
  8
0
  0
BLOCK
  8
0
  2
*D110
 70
     1
 10
0.0
 20
0.0
 30
0.0
  3
*D110
  1

  0
LINE
  5
9D4
  8
DIMENSIONS
  6
BYBLOCK
 62
     0
 10
374.6799154923128
 20
311.2960833044353
 30
0.0
 11
374.6799154923128
 21
297.3109191353582
 31
0.0
  0
LINE
  5
9D5
  8
DIMENSIONS
  6
BYBLOCK
 62
     0
 10
195.6799154923128
 20
311.2960833044353
 30
0.0
 11
195.6799154923128
 21
297.3109191353582
 31
0.0
  0
LINE
  5
9D6
  8
DIMENSIONS
  6
BYBLOCK
 62
     0
 10
369.6799154923128
 20
297.4909191353582
 30
0.0
 11
200.6799154923128
 21
297.4909191353582
 31
0.0
  0
SOLID
  5
9D7
  8
DIMENSIONS
 62
     0
 10
369.6799154923128
 20
296.6575858020249
 30
0.0
 11
369.6799154923128
 21
298.3242524686916
 31
0.0
 12
374.6799154923128
 22
297.4909191353582
 32
0.0
 13
374.6799154923128
 23
297.4909191353582
 33
0.0
  0
SOLID
  5
9D8
  8
DIMENSIONS
 62
     0
 10
200.6799154923128
 20
298.3242524686916
 30
0.0
 11
200.6799154923128
 21
296.6575858020249
 31
0.0
 12
195.6799154923128
 22
297.4909191353582
 32
0.0
 13
195.6799154923128
 23
297.4909191353582
 33
0.0
  0
TEXT
  5
9D9
  8
DIMENSIONS
  6
CONTINUOUS
 62
     5
 10
269.5074154923128
 20
299.8859191353582
 30
0.0
 40
5.0
  1
179 [7.05]
  0
POINT
  5
9DA
  8
DEFPOINTS
 62
     0
 10
374.6799154923128
 20
312.7960833044353
 30
0.0
  0
POINT
  5
9DB
  8
DEFPOINTS
 62
     0
 10
195.6799154923128
 20
312.7960833044353
 30
0.0
  0
POINT
  5
9DC
  8
DEFPOINTS
 62
     0
 10
195.6799154923128
 20
297.4909191353582
 30
0.0
  0
ENDBLK
  5
9D3
  8
0
  0
BLOCK
  8
0
  2
*D111
 70
     1
 10
0.0
 20
0.0
 30
0.0
  3
*D111
  1

  0
LINE
  5
9E3
  8
DIMENSIONS
  6
BYBLOCK
 62
     0
 10
195.6799154923128
 20
311.2960833044353
 30
0.0
 11
195.6799154923128
 21
297.3109191353582
 31
0.0
  0
LINE
  5
9E4
  8
DIMENSIONS
  6
BYBLOCK
 62
     0
 10
122.6799154923127
 20
311.2960833044353
 30
0.0
 11
122.6799154923127
 21
297.3109191353582
 31
0.0
  0
LINE
  5
9E5
  8
DIMENSIONS
  6
BYBLOCK
 62
     0
 10
190.6799154923128
 20
297.4909191353582
 30
0.0
 11
127.6799154923127
 21
297.4909191353582
 31
0.0
  0
SOLID
  5
9E6
  8
DIMENSIONS
 62
     0
 10
190.6799154923128
 20
296.6575858020249
 30
0.0
 11
190.6799154923128
 21
298.3242524686916
 31
0.0
 12
195.6799154923128
 22
297.4909191353582
 32
0.0
 13
195.6799154923128
 23
297.4909191353582
 33
0.0
  0
SOLID
  5
9E7
  8
DIMENSIONS
 62
     0
 10
127.6799154923127
 20
298.3242524686916
 30
0.0
 11
127.6799154923127
 21
296.6575858020249
 31
0.0
 12
122.6799154923127
 22
297.4909191353582
 32
0.0
 13
122.6799154923127
 23
297.4909191353582
 33
0.0
  0
TEXT
  5
9E8
  8
DIMENSIONS
  6
CONTINUOUS
 62
     5
 10
145.6624154923128
 20
299.8859191353582
 30
0.0
 40
5.0
  1
73 [2.87]
  0
POINT
  5
9E9
  8
DEFPOINTS
 62
     0
 10
195.6799154923128
 20
312.7960833044353
 30
0.0
  0
POINT
  5
9EA
  8
DEFPOINTS
 62
     0
 10
122.6799154923127
 20
312.7960833044353
 30
0.0
  0
POINT
  5
9EB
  8
DEFPOINTS
 62
     0
 10
122.6799154923127
 20
297.4909191353582
 30
0.0
  0
ENDBLK
  5
9E2
  8
0
  0
BLOCK
  8
0
  2
*D112
 70
     1
 10
0.0
 20
0.0
 30
0.0
  3
*D112
  1

  0
LINE
  5
A08
  8
0
  6
BYBLOCK
 62
     0
 10
70.34684447919727
 20
551.6340453173323
 30
0.0
 11
70.34684447919727
 21
581.6598682138172
 31
0.0
  0
LINE
  5
A09
  8
0
  6
BYBLOCK
 62
     0
 10
470.577642590043
 20
551.6340453173323
 30
0.0
 11
470.577642590043
 21
581.6598682138172
 31
0.0
  0
LINE
  5
A0A
  8
0
  6
BYBLOCK
 62
     0
 10
75.34684447919727
 20
581.4798682138172
 30
0.0
 11
465.577642590043
 21
581.4798682138172
 31
0.0
  0
SOLID
  5
A0B
  8
0
 62
     0
 10
75.34684447919727
 20
582.3132015471506
 30
0.0
 11
75.34684447919727
 21
580.6465348804838
 31
0.0
 12
70.34684447919727
 22
581.4798682138172
 32
0.0
 13
70.34684447919727
 23
581.4798682138172
 33
0.0
  0
SOLID
  5
A0C
  8
0
 62
     0
 10
465.577642590043
 20
580.6465348804838
 30
0.0
 11
465.577642590043
 21
582.3132015471506
 31
0.0
 12
470.577642590043
 22
581.4798682138172
 32
0.0
 13
470.577642590043
 23
581.4798682138172
 33
0.0
  0
TEXT
  5
A0D
  8
0
  6
CONTINUOUS
 62
     5
 10
244.4547435346201
 20
583.8748682138172
 30
0.0
 40
5.0
  1
400.2308 [15.76]
  0
POINT
  5
A0E
  8
DEFPOINTS
 62
     0
 10
70.34684447919727
 20
550.1340453173323
 30
0.0
  0
POINT
  5
A0F
  8
DEFPOINTS
 62
     0
 10
470.577642590043
 20
550.1340453173323
 30
0.0
  0
POINT
  5
A10
  8
DEFPOINTS
 62
     0
 10
470.577642590043
 20
581.4798682138172
 30
0.0
  0
ENDBLK
  5
A07
  8
0
  0
BLOCK
  8
0
  2
*D114
 70
     1
 10
0.0
 20
0.0
 30
0.0
  3
*D114
  1

  0
LINE
  5
A49
  8
DIMENSIONS
  6
BYBLOCK
 62
     0
 10
391.5645066172513
 20
468.3587515279283
 30
0.0
 11
415.5578278376732
 21
468.3587515279283
 31
0.0
  0
LINE
  5
A4A
  8
DIMENSIONS
  6
BYBLOCK
 62
     0
 10
391.5645066172513
 20
-32.64124847207097
 30
0.0
 11
415.5578278376731
 21
-32.64124847207097
 31
0.0
  0
LINE
  5
A4B
  8
DIMENSIONS
  6
BYBLOCK
 62
     0
 10
415.3778278376732
 20
463.3587515279283
 30
0.0
 11
415.3778278376731
 21
-27.64124847207097
 31
0.0
  0
SOLID
  5
A4C
  8
DIMENSIONS
 62
     0
 10
416.2111611710065
 20
463.3587515279283
 30
0.0
 11
414.5444945043399
 21
463.3587515279283
 31
0.0
 12
415.3778278376732
 22
468.3587515279283
 32
0.0
 13
415.3778278376732
 23
468.3587515279283
 33
0.0
  0
SOLID
  5
A4D
  8
DIMENSIONS
 62
     0
 10
414.5444945043398
 20
-27.64124847207097
 30
0.0
 11
416.2111611710064
 21
-27.64124847207097
 31
0.0
 12
415.3778278376731
 22
-32.64124847207097
 32
0.0
 13
415.3778278376731
 23
-32.64124847207097
 33
0.0
  0
TEXT
  5
A4E
  8
DIMENSIONS
  6
CONTINUOUS
 62
     5
 10
412.9828278376733
 20
200.4812515279287
 30
0.0
 40
5.0
  1
501 [19.72]
 50
90.0
  0
POINT
  5
A4F
  8
DEFPOINTS
 62
     0
 10
390.0645066172513
 20
468.3587515279283
 30
0.0
  0
POINT
  5
A50
  8
DEFPOINTS
 62
     0
 10
390.0645066172513
 20
-32.64124847207097
 30
0.0
  0
POINT
  5
A51
  8
DEFPOINTS
 62
     0
 10
415.3778278376731
 20
-32.64124847207097
 30
0.0
  0
ENDBLK
  5
A48
  8
0
  0
BLOCK
  8
0
  2
*D115
 70
     1
 10
0.0
 20
0.0
 30
0.0
  3
*D115
  1

  0
LINE
  5
A58
  8
DIMENSIONS
  6
BYBLOCK
 62
     0
 10
139.0645066172517
 20
469.8587515279283
 30
0.0
 11
139.0645066172517
 21
490.5741578591525
 31
0.0
  0
LINE
  5
A59
  8
DIMENSIONS
  6
BYBLOCK
 62
     0
 10
390.0645066172513
 20
469.8587515279283
 30
0.0
 11
390.0645066172513
 21
490.5741578591525
 31
0.0
  0
LINE
  5
A5A
  8
DIMENSIONS
  6
BYBLOCK
 62
     0
 10
144.0645066172517
 20
490.3941578591525
 30
0.0
 11
385.0645066172513
 21
490.3941578591525
 31
0.0
  0
SOLID
  5
A5B
  8
DIMENSIONS
 62
     0
 10
144.0645066172517
 20
491.2274911924858
 30
0.0
 11
144.0645066172517
 21
489.5608245258192
 31
0.0
 12
139.0645066172517
 22
490.3941578591525
 32
0.0
 13
139.0645066172517
 23
490.3941578591525
 33
0.0
  0
SOLID
  5
A5C
  8
DIMENSIONS
 62
     0
 10
385.0645066172513
 20
489.5608245258192
 30
0.0
 11
385.0645066172513
 21
491.2274911924858
 31
0.0
 12
390.0645066172513
 22
490.3941578591525
 32
0.0
 13
390.0645066172513
 23
490.3941578591525
 33
0.0
  0
TEXT
  5
A5D
  8
DIMENSIONS
  6
CONTINUOUS
 62
     5
 10
249.1695066172515
 20
492.7891578591525
 30
0.0
 40
5.0
  1
251 [9.88]
  0
POINT
  5
A5E
  8
DEFPOINTS
 62
     0
 10
139.0645066172517
 20
468.3587515279283
 30
0.0
  0
POINT
  5
A5F
  8
DEFPOINTS
 62
     0
 10
390.0645066172513
 20
468.3587515279283
 30
0.0
  0
POINT
  5
A60
  8
DEFPOINTS
 62
     0
 10
390.0645066172513
 20
490.3941578591525
 30
0.0
  0
ENDBLK
  5
A57
  8
0
  0
BLOCK
  8
0
  2
*D117
 70
     1
 10
0.0
 20
0.0
 30
0.0
  3
*D117
  1

  0
LINE
  5
ABD
  8
DIMENSIONS
  6
BYBLOCK
 62
     0
 10
129.6109226017614
 20
327.7408522494085
 30
0.0
 11
129.6109226017614
 21
366.6136743089129
 31
0.0
  0
LINE
  5
ABE
  8
DIMENSIONS
  6
BYBLOCK
 62
     0
 10
234.6109226017614
 20
317.7408522494086
 30
0.0
 11
234.6109226017614
 21
366.6136743089129
 31
0.0
  0
LINE
  5
ABF
  8
DIMENSIONS
  6
BYBLOCK
 62
     0
 10
134.6109226017614
 20
366.4336743089129
 30
0.0
 11
229.6109226017614
 21
366.4336743089129
 31
0.0
  0
SOLID
  5
AC0
  8
DIMENSIONS
 62
     0
 10
134.6109226017614
 20
367.2670076422463
 30
0.0
 11
134.6109226017614
 21
365.6003409755796
 31
0.0
 12
129.6109226017614
 22
366.4336743089129
 32
0.0
 13
129.6109226017614
 23
366.4336743089129
 33
0.0
  0
SOLID
  5
AC1
  8
DIMENSIONS
 62
     0
 10
229.6109226017614
 20
365.6003409755796
 30
0.0
 11
229.6109226017614
 21
367.2670076422463
 31
0.0
 12
234.6109226017614
 22
366.4336743089129
 32
0.0
 13
234.6109226017614
 23
366.4336743089129
 33
0.0
  0
TEXT
  5
AC2
  8
DIMENSIONS
  6
CONTINUOUS
 62
     5
 10
166.4384226017615
 20
368.8286743089129
 30
0.0
 40
5.0
  1
105 [4.13]
  0
POINT
  5
AC3
  8
DEFPOINTS
 62
     0
 10
129.6109226017614
 20
326.2408522494085
 30
0.0
  0
POINT
  5
AC4
  8
DEFPOINTS
 62
     0
 10
234.6109226017614
 20
316.2408522494086
 30
0.0
  0
POINT
  5
AC5
  8
DEFPOINTS
 62
     0
 10
234.6109226017614
 20
366.4336743089129
 30
0.0
  0
ENDBLK
  5
ABC
  8
0
  0
BLOCK
  8
0
  2
*D118
 70
     1
 10
0.0
 20
0.0
 30
0.0
  3
*D118
  1

  0
LINE
  5
ACC
  8
DIMENSIONS
  6
BYBLOCK
 62
     0
 10
234.6109226017614
 20
317.7408522494086
 30
0.0
 11
234.6109226017614
 21
366.6136743089129
 31
0.0
  0
LINE
  5
ACD
  8
DIMENSIONS
  6
BYBLOCK
 62
     0
 10
304.6109226017614
 20
317.7408522494086
 30
0.0
 11
304.6109226017614
 21
366.6136743089129
 31
0.0
  0
LINE
  5
ACE
  8
DIMENSIONS
  6
BYBLOCK
 62
     0
 10
239.6109226017614
 20
366.4336743089129
 30
0.0
 11
299.6109226017614
 21
366.4336743089129
 31
0.0
  0
SOLID
  5
ACF
  8
DIMENSIONS
 62
     0
 10
239.6109226017614
 20
367.2670076422463
 30
0.0
 11
239.6109226017614
 21
365.6003409755796
 31
0.0
 12
234.6109226017614
 22
366.4336743089129
 32
0.0
 13
234.6109226017614
 23
366.4336743089129
 33
0.0
  0
SOLID
  5
AD0
  8
DIMENSIONS
 62
     0
 10
299.6109226017614
 20
365.6003409755796
 30
0.0
 11
299.6109226017614
 21
367.2670076422463
 31
0.0
 12
304.6109226017614
 22
366.4336743089129
 32
0.0
 13
304.6109226017614
 23
366.4336743089129
 33
0.0
  0
TEXT
  5
AD1
  8
DIMENSIONS
  6
CONTINUOUS
 62
     5
 10
256.0934226017615
 20
368.8286743089129
 30
0.0
 40
5.0
  1
70 [2.76]
  0
POINT
  5
AD2
  8
DEFPOINTS
 62
     0
 10
234.6109226017614
 20
316.2408522494086
 30
0.0
  0
POINT
  5
AD3
  8
DEFPOINTS
 62
     0
 10
304.6109226017614
 20
316.2408522494086
 30
0.0
  0
POINT
  5
AD4
  8
DEFPOINTS
 62
     0
 10
304.6109226017614
 20
366.4336743089129
 30
0.0
  0
ENDBLK
  5
ACB
  8
0
  0
BLOCK
  8
0
  2
*D119
 70
     1
 10
0.0
 20
0.0
 30
0.0
  3
*D119
  1

  0
LINE
  5
ADB
  8
DIMENSIONS
  6
BYBLOCK
 62
     0
 10
304.6109226017614
 20
317.7408522494086
 30
0.0
 11
304.6109226017614
 21
366.6136743089129
 31
0.0
  0
LINE
  5
ADC
  8
DIMENSIONS
  6
BYBLOCK
 62
     0
 10
446.6109226017614
 20
314.7408522494085
 30
0.0
 11
446.6109226017614
 21
366.6136743089129
 31
0.0
  0
LINE
  5
ADD
  8
DIMENSIONS
  6
BYBLOCK
 62
     0
 10
309.6109226017614
 20
366.4336743089129
 30
0.0
 11
441.6109226017614
 21
366.4336743089129
 31
0.0
  0
SOLID
  5
ADE
  8
DIMENSIONS
 62
     0
 10
309.6109226017614
 20
367.2670076422463
 30
0.0
 11
309.6109226017614
 21
365.6003409755796
 31
0.0
 12
304.6109226017614
 22
366.4336743089129
 32
0.0
 13
304.6109226017614
 23
366.4336743089129
 33
0.0
  0
SOLID
  5
ADF
  8
DIMENSIONS
 62
     0
 10
441.6109226017614
 20
365.6003409755796
 30
0.0
 11
441.6109226017614
 21
367.2670076422463
 31
0.0
 12
446.6109226017614
 22
366.4336743089129
 32
0.0
 13
446.6109226017614
 23
366.4336743089129
 33
0.0
  0
TEXT
  5
AE0
  8
DIMENSIONS
  6
CONTINUOUS
 62
     5
 10
359.9384226017614
 20
368.8286743089129
 30
0.0
 40
5.0
  1
142 [5.59]
  0
POINT
  5
AE1
  8
DEFPOINTS
 62
     0
 10
304.6109226017614
 20
316.2408522494086
 30
0.0
  0
POINT
  5
AE2
  8
DEFPOINTS
 62
     0
 10
446.6109226017614
 20
313.2408522494085
 30
0.0
  0
POINT
  5
AE3
  8
DEFPOINTS
 62
     0
 10
446.6109226017614
 20
366.4336743089129
 30
0.0
  0
ENDBLK
  5
ADA
  8
0
  0
BLOCK
  8
0
  2
*D120
 70
     1
 10
0.0
 20
0.0
 30
0.0
  3
*D120
  1

  0
LINE
  5
AEA
  8
DIMENSIONS
  6
BYBLOCK
 62
     0
 10
446.6109226017614
 20
314.7408522494085
 30
0.0
 11
446.6109226017614
 21
366.6136743089129
 31
0.0
  0
LINE
  5
AEB
  8
DIMENSIONS
  6
BYBLOCK
 62
     0
 10
631.6109226017614
 20
314.7408522494085
 30
0.0
 11
631.6109226017614
 21
366.6136743089129
 31
0.0
  0
LINE
  5
AEC
  8
DIMENSIONS
  6
BYBLOCK
 62
     0
 10
451.6109226017614
 20
366.4336743089129
 30
0.0
 11
626.6109226017614
 21
366.4336743089129
 31
0.0
  0
SOLID
  5
AED
  8
DIMENSIONS
 62
     0
 10
451.6109226017614
 20
367.2670076422463
 30
0.0
 11
451.6109226017614
 21
365.6003409755796
 31
0.0
 12
446.6109226017614
 22
366.4336743089129
 32
0.0
 13
446.6109226017614
 23
366.4336743089129
 33
0.0
  0
SOLID
  5
AEE
  8
DIMENSIONS
 62
     0
 10
626.6109226017614
 20
365.6003409755796
 30
0.0
 11
626.6109226017614
 21
367.2670076422463
 31
0.0
 12
631.6109226017614
 22
366.4336743089129
 32
0.0
 13
631.6109226017614
 23
366.4336743089129
 33
0.0
  0
TEXT
  5
AEF
  8
DIMENSIONS
  6
CONTINUOUS
 62
     5
 10
523.4384226017614
 20
368.8286743089129
 30
0.0
 40
5.0
  1
185 [7.28]
  0
POINT
  5
AF0
  8
DEFPOINTS
 62
     0
 10
446.6109226017614
 20
313.2408522494085
 30
0.0
  0
POINT
  5
AF1
  8
DEFPOINTS
 62
     0
 10
631.6109226017614
 20
313.2408522494085
 30
0.0
  0
POINT
  5
AF2
  8
DEFPOINTS
 62
     0
 10
631.6109226017614
 20
366.4336743089129
 30
0.0
  0
ENDBLK
  5
AE9
  8
0
  0
BLOCK
  8
0
  2
*D121
 70
     1
 10
0.0
 20
0.0
 30
0.0
  3
*D121
  1

  0
LINE
  5
AF9
  8
DIMENSIONS
  6
BYBLOCK
 62
     0
 10
631.6109226017614
 20
314.7408522494085
 30
0.0
 11
631.6109226017614
 21
366.6136743089129
 31
0.0
  0
LINE
  5
AFA
  8
DIMENSIONS
  6
BYBLOCK
 62
     0
 10
649.6109226017614
 20
327.7408522494085
 30
0.0
 11
649.6109226017614
 21
366.6136743089129
 31
0.0
  0
LINE
  5
AFB
  8
DIMENSIONS
  6
BYBLOCK
 62
     0
 10
649.6109226017614
 20
366.4336743089129
 30
0.0
 11
682.5559226017614
 21
366.4336743089129
 31
0.0
  0
LINE
  5
AFC
  8
DIMENSIONS
  6
BYBLOCK
 62
     0
 10
636.6109226017614
 20
366.4336743089129
 30
0.0
 11
644.6109226017614
 21
366.4336743089129
 31
0.0
  0
SOLID
  5
AFD
  8
DIMENSIONS
 62
     0
 10
636.6109226017614
 20
367.2670076422463
 30
0.0
 11
636.6109226017614
 21
365.6003409755796
 31
0.0
 12
631.6109226017614
 22
366.4336743089129
 32
0.0
 13
631.6109226017614
 23
366.4336743089129
 33
0.0
  0
SOLID
  5
AFE
  8
DIMENSIONS
 62
     0
 10
644.6109226017614
 20
365.6003409755796
 30
0.0
 11
644.6109226017614
 21
367.2670076422463
 31
0.0
 12
649.6109226017614
 22
366.4336743089129
 32
0.0
 13
649.6109226017614
 23
366.4336743089129
 33
0.0
  0
TEXT
  5
AFF
  8
DIMENSIONS
  6
CONTINUOUS
 62
     5
 10
654.8509226017615
 20
368.8286743089129
 30
0.0
 40
5.0
  1
18 [0.71]
  0
POINT
  5
B00
  8
DEFPOINTS
 62
     0
 10
631.6109226017614
 20
313.2408522494085
 30
0.0
  0
POINT
  5
B01
  8
DEFPOINTS
 62
     0
 10
649.6109226017614
 20
326.2408522494085
 30
0.0
  0
POINT
  5
BCC
  8
DEFPOINTS
 62
     0
 10
649.6109226017614
 20
366.4336743089129
 30
0.0
  0
ENDBLK
  5
AF8
  8
0
  0
BLOCK
  8
0
  2
*D122
 70
     1
 10
0.0
 20
0.0
 30
0.0
  3
*D122
  1

  0
LINE
  5
B08
  8
DIMENSIONS
  6
BYBLOCK
 62
     0
 10
129.6109226017614
 20
-15.25914775059135
 30
0.0
 11
129.6109226017614
 21
-29.43798462626206
 31
0.0
  0
LINE
  5
B09
  8
DIMENSIONS
  6
BYBLOCK
 62
     0
 10
142.6109226017614
 20
-2.259147750591358
 30
0.0
 11
142.6109226017614
 21
-29.43798462626206
 31
0.0
  0
LINE
  5
B0A
  8
DIMENSIONS
  6
BYBLOCK
 62
     0
 10
129.6109226017614
 20
-29.25798462626206
 30
0.0
 11
96.66182442391855
 21
-29.25798462626206
 31
0.0
  0
LINE
  5
B0B
  8
DIMENSIONS
  6
BYBLOCK
 62
     0
 10
134.6109226017614
 20
-29.25798462626206
 30
0.0
 11
137.6109226017614
 21
-29.25798462626206
 31
0.0
  0
SOLID
  5
B0C
  8
DIMENSIONS
 62
     0
 10
134.6109226017614
 20
-28.42465129292873
 30
0.0
 11
134.6109226017614
 21
-30.09131795959539
 31
0.0
 12
129.6109226017614
 22
-29.25798462626206
 32
0.0
 13
129.6109226017614
 23
-29.25798462626206
 33
0.0
  0
SOLID
  5
B0D
  8
DIMENSIONS
 62
     0
 10
137.6109226017614
 20
-30.09131795959539
 30
0.0
 11
137.6109226017614
 21
-28.42465129292873
 31
0.0
 12
142.6109226017614
 22
-29.25798462626206
 32
0.0
 13
142.6109226017614
 23
-29.25798462626206
 33
0.0
  0
TEXT
  5
B0E
  8
DIMENSIONS
  6
CONTINUOUS
 62
     5
 10
96.90182442391854
 20
-26.86298462626205
 30
0.0
 40
5.0
  1
13 [0.51]
  0
POINT
  5
B0F
  8
DEFPOINTS
 62
     0
 10
129.6109226017614
 20
-13.75914775059135
 30
0.0
  0
POINT
  5
B10
  8
DEFPOINTS
 62
     0
 10
142.6109226017614
 20
-0.7591477505913584
 30
0.0
  0
POINT
  5
BCB
  8
DEFPOINTS
 62
     0
 10
142.6109226017614
 20
-29.25798462626206
 30
0.0
  0
ENDBLK
  5
B07
  8
0
  0
BLOCK
  8
0
  2
*D123
 70
     1
 10
0.0
 20
0.0
 30
0.0
  3
*D123
  1

  0
LINE
  5
B17
  8
DIMENSIONS
  6
BYBLOCK
 62
     0
 10
142.6109226017614
 20
-2.259147750591358
 30
0.0
 11
142.6109226017614
 21
-29.43798462626206
 31
0.0
  0
LINE
  5
B18
  8
DIMENSIONS
  6
BYBLOCK
 62
     0
 10
389.6109226017614
 20
-2.259147750591358
 30
0.0
 11
389.6109226017614
 21
-29.43798462626206
 31
0.0
  0
LINE
  5
B19
  8
DIMENSIONS
  6
BYBLOCK
 62
     0
 10
147.6109226017614
 20
-29.25798462626206
 30
0.0
 11
384.6109226017614
 21
-29.25798462626206
 31
0.0
  0
SOLID
  5
B1A
  8
DIMENSIONS
 62
     0
 10
147.6109226017614
 20
-28.42465129292873
 30
0.0
 11
147.6109226017614
 21
-30.09131795959539
 31
0.0
 12
142.6109226017614
 22
-29.25798462626206
 32
0.0
 13
142.6109226017614
 23
-29.25798462626206
 33
0.0
  0
SOLID
  5
B1B
  8
DIMENSIONS
 62
     0
 10
384.6109226017614
 20
-30.09131795959539
 30
0.0
 11
384.6109226017614
 21
-28.42465129292873
 31
0.0
 12
389.6109226017614
 22
-29.25798462626206
 32
0.0
 13
389.6109226017614
 23
-29.25798462626206
 33
0.0
  0
TEXT
  5
B1C
  8
DIMENSIONS
  6
CONTINUOUS
 62
     5
 10
250.7159226017614
 20
-26.86298462626205
 30
0.0
 40
5.0
  1
247 [9.72]
  0
POINT
  5
B1D
  8
DEFPOINTS
 62
     0
 10
142.6109226017614
 20
-0.7591477505913584
 30
0.0
  0
POINT
  5
B1E
  8
DEFPOINTS
 62
     0
 10
389.6109226017614
 20
-0.7591477505913584
 30
0.0
  0
POINT
  5
B1F
  8
DEFPOINTS
 62
     0
 10
389.6109226017614
 20
-29.25798462626206
 30
0.0
  0
ENDBLK
  5
B16
  8
0
  0
BLOCK
  8
0
  2
*D124
 70
     1
 10
0.0
 20
0.0
 30
0.0
  3
*D124
  1

  0
LINE
  5
B27
  8
DIMENSIONS
  6
BYBLOCK
 62
     0
 10
389.6109226017614
 20
-2.259147750591358
 30
0.0
 11
389.6109226017614
 21
-29.43798462626206
 31
0.0
  0
LINE
  5
B28
  8
DIMENSIONS
  6
BYBLOCK
 62
     0
 10
636.6109226017614
 20
-2.259147750591358
 30
0.0
 11
636.6109226017614
 21
-29.43798462626206
 31
0.0
  0
LINE
  5
B29
  8
DIMENSIONS
  6
BYBLOCK
 62
     0
 10
394.6109226017614
 20
-29.25798462626206
 30
0.0
 11
631.6109226017614
 21
-29.25798462626206
 31
0.0
  0
SOLID
  5
B2A
  8
DIMENSIONS
 62
     0
 10
394.6109226017614
 20
-28.42465129292873
 30
0.0
 11
394.6109226017614
 21
-30.09131795959539
 31
0.0
 12
389.6109226017614
 22
-29.25798462626206
 32
0.0
 13
389.6109226017614
 23
-29.25798462626206
 33
0.0
  0
SOLID
  5
B2B
  8
DIMENSIONS
 62
     0
 10
631.6109226017614
 20
-30.09131795959539
 30
0.0
 11
631.6109226017614
 21
-28.42465129292873
 31
0.0
 12
636.6109226017614
 22
-29.25798462626206
 32
0.0
 13
636.6109226017614
 23
-29.25798462626206
 33
0.0
  0
TEXT
  5
B2C
  8
DIMENSIONS
  6
CONTINUOUS
 62
     5
 10
497.7159226017615
 20
-26.86298462626205
 30
0.0
 40
5.0
  1
247 [9.72]
  0
POINT
  5
B2D
  8
DEFPOINTS
 62
     0
 10
389.6109226017614
 20
-0.7591477505913584
 30
0.0
  0
POINT
  5
B2E
  8
DEFPOINTS
 62
     0
 10
636.6109226017614
 20
-0.7591477505913584
 30
0.0
  0
POINT
  5
B2F
  8
DEFPOINTS
 62
     0
 10
636.6109226017614
 20
-29.25798462626206
 30
0.0
  0
ENDBLK
  5
B26
  8
0
  0
BLOCK
  8
0
  2
*D125
 70
     1
 10
0.0
 20
0.0
 30
0.0
  3
*D125
  1

  0
LINE
  5
B36
  8
DIMENSIONS
  6
BYBLOCK
 62
     0
 10
636.6109226017614
 20
-2.259147750591358
 30
0.0
 11
636.6109226017614
 21
-29.43798462626206
 31
0.0
  0
LINE
  5
B37
  8
DIMENSIONS
  6
BYBLOCK
 62
     0
 10
649.6109226017614
 20
-15.25914775059135
 30
0.0
 11
649.6109226017614
 21
-29.43798462626206
 31
0.0
  0
LINE
  5
B38
  8
DIMENSIONS
  6
BYBLOCK
 62
     0
 10
649.6109226017614
 20
-29.25798462626206
 30
0.0
 11
682.5559226017614
 21
-29.25798462626206
 31
0.0
  0
LINE
  5
B39
  8
DIMENSIONS
  6
BYBLOCK
 62
     0
 10
641.6109226017614
 20
-29.25798462626206
 30
0.0
 11
644.6109226017614
 21
-29.25798462626206
 31
0.0
  0
SOLID
  5
B3A
  8
DIMENSIONS
 62
     0
 10
641.6109226017614
 20
-28.42465129292873
 30
0.0
 11
641.6109226017614
 21
-30.09131795959539
 31
0.0
 12
636.6109226017614
 22
-29.25798462626206
 32
0.0
 13
636.6109226017614
 23
-29.25798462626206
 33
0.0
  0
SOLID
  5
B3B
  8
DIMENSIONS
 62
     0
 10
644.6109226017614
 20
-30.09131795959539
 30
0.0
 11
644.6109226017614
 21
-28.42465129292873
 31
0.0
 12
649.6109226017614
 22
-29.25798462626206
 32
0.0
 13
649.6109226017614
 23
-29.25798462626206
 33
0.0
  0
TEXT
  5
B3C
  8
DIMENSIONS
  6
CONTINUOUS
 62
     5
 10
654.8509226017615
 20
-26.86298462626205
 30
0.0
 40
5.0
  1
13 [0.51]
  0
POINT
  5
B3D
  8
DEFPOINTS
 62
     0
 10
636.6109226017614
 20
-0.7591477505913584
 30
0.0
  0
POINT
  5
B3E
  8
DEFPOINTS
 62
     0
 10
649.6109226017614
 20
-13.75914775059135
 30
0.0
  0
POINT
  5
BCD
  8
DEFPOINTS
 62
     0
 10
649.6109226017614
 20
-29.25798462626206
 30
0.0
  0
ENDBLK
  5
B35
  8
0
  0
BLOCK
  8
0
  2
*D126
 70
     1
 10
0.0
 20
0.0
 30
0.0
  3
*D126
  1

  0
LINE
  5
B45
  8
DIMENSIONS
  6
BYBLOCK
 62
     0
 10
128.1109226017614
 20
326.2408522494085
 30
0.0
 11
95.45133588049242
 21
326.2408522494085
 31
0.0
  0
LINE
  5
B46
  8
DIMENSIONS
  6
BYBLOCK
 62
     0
 10
128.1109226017614
 20
-13.75914775059135
 30
0.0
 11
95.45133588049241
 21
-13.75914775059135
 31
0.0
  0
LINE
  5
B47
  8
DIMENSIONS
  6
BYBLOCK
 62
     0
 10
95.63133588049243
 20
321.2408522494085
 30
0.0
 11
95.63133588049241
 21
-8.759147750591351
 31
0.0
  0
SOLID
  5
B48
  8
DIMENSIONS
 62
     0
 10
96.46466921382576
 20
321.2408522494085
 30
0.0
 11
94.7980025471591
 21
321.2408522494085
 31
0.0
 12
95.63133588049243
 22
326.2408522494085
 32
0.0
 13
95.63133588049243
 23
326.2408522494085
 33
0.0
  0
SOLID
  5
B49
  8
DIMENSIONS
 62
     0
 10
94.79800254715909
 20
-8.759147750591351
 30
0.0
 11
96.46466921382574
 21
-8.759147750591351
 31
0.0
 12
95.63133588049241
 22
-13.75914775059135
 32
0.0
 13
95.63133588049241
 23
-13.75914775059135
 33
0.0
  0
TEXT
  5
B4A
  8
DIMENSIONS
  6
CONTINUOUS
 62
     5
 10
93.23633588049248
 20
138.8608522494086
 30
0.0
 40
5.0
  1
340 [13.39]
 50
90.0
  0
POINT
  5
B4B
  8
DEFPOINTS
 62
     0
 10
129.6109226017614
 20
326.2408522494085
 30
0.0
  0
POINT
  5
B4C
  8
DEFPOINTS
 62
     0
 10
129.6109226017614
 20
-13.75914775059135
 30
0.0
  0
POINT
  5
B4D
  8
DEFPOINTS
 62
     0
 10
95.63133588049241
 20
-13.75914775059135
 30
0.0
  0
ENDBLK
  5
B44
  8
0
  0
BLOCK
  8
0
  2
*D127
 70
     1
 10
0.0
 20
0.0
 30
0.0
  3
*D127
  1

  0
LINE
  5
B54
  8
DIMENSIONS
  6
BYBLOCK
 62
     0
 10
141.1109226017614
 20
-0.7591477505913582
 30
0.0
 11
112.8551265931537
 21
-0.7591477505913531
 31
0.0
  0
LINE
  5
B55
  8
DIMENSIONS
  6
BYBLOCK
 62
     0
 10
141.1109226017614
 20
313.2408522494085
 30
0.0
 11
112.8551265931538
 21
313.2408522494085
 31
0.0
  0
LINE
  5
B56
  8
DIMENSIONS
  6
BYBLOCK
 62
     0
 10
113.0351265931537
 20
4.240852249408647
 30
0.0
 11
113.0351265931538
 21
308.2408522494085
 31
0.0
  0
SOLID
  5
B57
  8
DIMENSIONS
 62
     0
 10
112.2017932598204
 20
4.240852249408647
 30
0.0
 11
113.8684599264871
 21
4.240852249408647
 31
0.0
 12
113.0351265931537
 22
-0.7591477505913531
 32
0.0
 13
113.0351265931537
 23
-0.7591477505913531
 33
0.0
  0
SOLID
  5
B58
  8
DIMENSIONS
 62
     0
 10
113.8684599264871
 20
308.2408522494085
 30
0.0
 11
112.2017932598204
 21
308.2408522494085
 31
0.0
 12
113.0351265931538
 22
313.2408522494085
 32
0.0
 13
113.0351265931538
 23
313.2408522494085
 33
0.0
  0
TEXT
  5
B59
  8
DIMENSIONS
  6
CONTINUOUS
 62
     5
 10
110.6401265931538
 20
138.8608522494086
 30
0.0
 40
5.0
  1
314 [12.36]
 50
90.0
  0
POINT
  5
B5A
  8
DEFPOINTS
 62
     0
 10
142.6109226017614
 20
-0.7591477505913584
 30
0.0
  0
POINT
  5
B5B
  8
DEFPOINTS
 62
     0
 10
142.6109226017614
 20
313.2408522494085
 30
0.0
  0
POINT
  5
B5C
  8
DEFPOINTS
 62
     0
 10
113.0351265931538
 20
313.2408522494085
 30
0.0
  0
ENDBLK
  5
B53
  8
0
  0
BLOCK
  8
0
  2
*D128
 70
     1
 10
0.0
 20
0.0
 30
0.0
  3
*D128
  1

  0
LINE
  5
B63
  8
DIMENSIONS
  6
BYBLOCK
 62
     0
 10
233.1109226017614
 20
316.2408522494086
 30
0.0
 11
223.5307127298132
 21
316.2408522494086
 31
0.0
  0
LINE
  5
B64
  8
DIMENSIONS
  6
BYBLOCK
 62
     0
 10
233.1109226017614
 20
326.2408522494085
 30
0.0
 11
223.5307127298132
 21
326.2408522494085
 31
0.0
  0
LINE
  5
B65
  8
DIMENSIONS
  6
BYBLOCK
 62
     0
 10
223.7107127298132
 20
331.2408522494085
 30
0.0
 11
223.7107127298132
 21
364.1858522494085
 31
0.0
  0
LINE
  5
B66
  8
DIMENSIONS
  6
BYBLOCK
 62
     0
 10
223.7107127298132
 20
311.2408522494086
 30
0.0
 11
223.7107127298132
 21
306.2408522494086
 31
0.0
  0
SOLID
  5
B67
  8
DIMENSIONS
 62
     0
 10
224.5440460631466
 20
311.2408522494086
 30
0.0
 11
222.8773793964799
 21
311.2408522494086
 31
0.0
 12
223.7107127298132
 22
316.2408522494086
 32
0.0
 13
223.7107127298132
 23
316.2408522494086
 33
0.0
  0
SOLID
  5
B68
  8
DIMENSIONS
 62
     0
 10
222.8773793964799
 20
331.2408522494085
 30
0.0
 11
224.5440460631466
 21
331.2408522494085
 31
0.0
 12
223.7107127298132
 22
326.2408522494085
 32
0.0
 13
223.7107127298132
 23
326.2408522494085
 33
0.0
  0
TEXT
  5
B69
  8
DIMENSIONS
  6
CONTINUOUS
 62
     5
 10
221.3157127298132
 20
336.4808522494086
 30
0.0
 40
5.0
  1
10 [0.39]
 50
90.0
  0
POINT
  5
B6A
  8
DEFPOINTS
 62
     0
 10
234.6109226017614
 20
316.2408522494086
 30
0.0
  0
POINT
  5
B6B
  8
DEFPOINTS
 62
     0
 10
234.6109226017614
 20
326.2408522494085
 30
0.0
  0
POINT
  5
B6C
  8
DEFPOINTS
 62
     0
 10
223.7107127298132
 20
326.2408522494085
 30
0.0
  0
ENDBLK
  5
B62
  8
0
  0
BLOCK
  8
0
  2
*D129
 70
     1
 10
0.0
 20
0.0
 30
0.0
  3
*D129
  1

  0
LINE
  5
B73
  8
DIMENSIONS
  6
BYBLOCK
 62
     0
 10
233.1109226017614
 20
316.2408522494086
 30
0.0
 11
223.5307127298132
 21
316.2408522494086
 31
0.0
  0
LINE
  5
B74
  8
DIMENSIONS
  6
BYBLOCK
 62
     0
 10
233.1109226017614
 20
136.2408522494086
 30
0.0
 11
223.5307127298132
 21
136.2408522494086
 31
0.0
  0
LINE
  5
B75
  8
DIMENSIONS
  6
BYBLOCK
 62
     0
 10
223.7107127298132
 20
311.2408522494086
 30
0.0
 11
223.7107127298132
 21
141.2408522494086
 31
0.0
  0
SOLID
  5
B76
  8
DIMENSIONS
 62
     0
 10
224.5440460631466
 20
311.2408522494086
 30
0.0
 11
222.8773793964799
 21
311.2408522494086
 31
0.0
 12
223.7107127298132
 22
316.2408522494086
 32
0.0
 13
223.7107127298132
 23
316.2408522494086
 33
0.0
  0
SOLID
  5
B77
  8
DIMENSIONS
 62
     0
 10
222.8773793964799
 20
141.2408522494086
 30
0.0
 11
224.5440460631466
 21
141.2408522494086
 31
0.0
 12
223.7107127298132
 22
136.2408522494086
 32
0.0
 13
223.7107127298132
 23
136.2408522494086
 33
0.0
  0
TEXT
  5
B78
  8
DIMENSIONS
  6
CONTINUOUS
 62
     5
 10
221.3157127298133
 20
210.5683522494087
 30
0.0
 40
5.0
  1
180 [7.09]
 50
90.0
  0
POINT
  5
B79
  8
DEFPOINTS
 62
     0
 10
234.6109226017614
 20
316.2408522494086
 30
0.0
  0
POINT
  5
B7A
  8
DEFPOINTS
 62
     0
 10
234.6109226017614
 20
136.2408522494086
 30
0.0
  0
POINT
  5
B7B
  8
DEFPOINTS
 62
     0
 10
223.7107127298132
 20
136.2408522494086
 30
0.0
  0
ENDBLK
  5
B72
  8
0
  0
BLOCK
  8
0
  2
*D130
 70
     1
 10
0.0
 20
0.0
 30
0.0
  3
*D130
  1

  0
LINE
  5
B82
  8
DIMENSIONS
  6
BYBLOCK
 62
     0
 10
233.1109226017614
 20
136.2408522494086
 30
0.0
 11
223.5307127298132
 21
136.2408522494086
 31
0.0
  0
LINE
  5
B83
  8
DIMENSIONS
  6
BYBLOCK
 62
     0
 10
233.1109226017614
 20
-13.75914775059135
 30
0.0
 11
223.5307127298132
 21
-13.75914775059135
 31
0.0
  0
LINE
  5
B84
  8
DIMENSIONS
  6
BYBLOCK
 62
     0
 10
223.7107127298132
 20
131.2408522494086
 30
0.0
 11
223.7107127298132
 21
-8.759147750591353
 31
0.0
  0
SOLID
  5
B85
  8
DIMENSIONS
 62
     0
 10
224.5440460631466
 20
131.2408522494086
 30
0.0
 11
222.8773793964799
 21
131.2408522494086
 31
0.0
 12
223.7107127298132
 22
136.2408522494086
 32
0.0
 13
223.7107127298132
 23
136.2408522494086
 33
0.0
  0
SOLID
  5
B86
  8
DIMENSIONS
 62
     0
 10
222.8773793964799
 20
-8.759147750591353
 30
0.0
 11
224.5440460631466
 21
-8.759147750591353
 31
0.0
 12
223.7107127298132
 22
-13.75914775059135
 32
0.0
 13
223.7107127298132
 23
-13.75914775059135
 33
0.0
  0
TEXT
  5
B87
  8
DIMENSIONS
  6
CONTINUOUS
 62
     5
 10
221.3157127298132
 20
45.56835224940866
 30
0.0
 40
5.0
  1
150 [5.91]
 50
90.0
  0
POINT
  5
B88
  8
DEFPOINTS
 62
     0
 10
234.6109226017614
 20
136.2408522494086
 30
0.0
  0
POINT
  5
B89
  8
DEFPOINTS
 62
     0
 10
234.6109226017614
 20
-13.75914775059135
 30
0.0
  0
POINT
  5
B8A
  8
DEFPOINTS
 62
     0
 10
223.7107127298132
 20
-13.75914775059135
 30
0.0
  0
ENDBLK
  5
B81
  8
0
  0
BLOCK
  8
0
  2
*D131
 70
     1
 10
0.0
 20
0.0
 30
0.0
  3
*D131
  1

  0
LINE
  5
B91
  8
DIMENSIONS
  6
BYBLOCK
 62
     0
 10
445.1109226017614
 20
313.2408522494085
 30
0.0
 11
434.4673931857451
 21
313.2408522494085
 31
0.0
  0
LINE
  5
B92
  8
DIMENSIONS
  6
BYBLOCK
 62
     0
 10
445.1109226017614
 20
327.5789880982616
 30
0.0
 11
434.4673931857451
 21
327.5789880982616
 31
0.0
  0
LINE
  5
B93
  8
DIMENSIONS
  6
BYBLOCK
 62
     0
 10
434.6473931857451
 20
327.5789880982616
 30
0.0
 11
434.6473931857451
 21
377.9839880982616
 31
0.0
  0
LINE
  5
B94
  8
DIMENSIONS
  6
BYBLOCK
 62
     0
 10
434.6473931857451
 20
318.2408522494085
 30
0.0
 11
434.6473931857451
 21
322.5789880982616
 31
0.0
  0
SOLID
  5
B95
  8
DIMENSIONS
 62
     0
 10
433.8140598524118
 20
318.2408522494085
 30
0.0
 11
435.4807265190784
 21
318.2408522494085
 31
0.0
 12
434.6473931857451
 22
313.2408522494085
 32
0.0
 13
434.6473931857451
 23
313.2408522494085
 33
0.0
  0
SOLID
  5
B96
  8
DIMENSIONS
 62
     0
 10
435.4807265190784
 20
322.5789880982616
 30
0.0
 11
433.8140598524118
 21
322.5789880982616
 31
0.0
 12
434.6473931857451
 22
327.5789880982616
 32
0.0
 13
434.6473931857451
 23
327.5789880982616
 33
0.0
  0
TEXT
  5
B97
  8
DIMENSIONS
  6
CONTINUOUS
 62
     5
 10
432.2523931857451
 20
332.8189880982616
 30
0.0
 40
5.0
  1
14.3381 [0.56]
 50
90.0
  0
POINT
  5
B98
  8
DEFPOINTS
 62
     0
 10
446.6109226017614
 20
313.2408522494085
 30
0.0
  0
POINT
  5
B99
  8
DEFPOINTS
 62
     0
 10
446.6109226017614
 20
327.5789880982616
 30
0.0
  0
POINT
  5
BCE
  8
DEFPOINTS
 62
     0
 10
434.6473931857451
 20
327.5789880982616
 30
0.0
  0
ENDBLK
  5
B90
  8
0
  0
BLOCK
  8
0
  2
*D132
 70
     1
 10
0.0
 20
0.0
 30
0.0
  3
*D132
  1

  0
LINE
  5
BA0
  8
DIMENSIONS
  6
BYBLOCK
 62
     0
 10
445.1109226017614
 20
313.2408522494085
 30
0.0
 11
433.8897521184223
 21
313.2408522494085
 31
0.0
  0
LINE
  5
BA1
  8
DIMENSIONS
  6
BYBLOCK
 62
     0
 10
445.1109226017614
 20
188.2408522494086
 30
0.0
 11
433.8897521184223
 21
188.2408522494086
 31
0.0
  0
LINE
  5
BA2
  8
DIMENSIONS
  6
BYBLOCK
 62
     0
 10
434.0697521184223
 20
308.2408522494085
 30
0.0
 11
434.0697521184223
 21
193.2408522494086
 31
0.0
  0
SOLID
  5
BA3
  8
DIMENSIONS
 62
     0
 10
434.9030854517557
 20
308.2408522494085
 30
0.0
 11
433.236418785089
 21
308.2408522494085
 31
0.0
 12
434.0697521184223
 22
313.2408522494085
 32
0.0
 13
434.0697521184223
 23
313.2408522494085
 33
0.0
  0
SOLID
  5
BA4
  8
DIMENSIONS
 62
     0
 10
433.236418785089
 20
193.2408522494086
 30
0.0
 11
434.9030854517557
 21
193.2408522494086
 31
0.0
 12
434.0697521184223
 22
188.2408522494086
 32
0.0
 13
434.0697521184223
 23
188.2408522494086
 33
0.0
  0
TEXT
  5
BA5
  8
DIMENSIONS
  6
CONTINUOUS
 62
     5
 10
431.6747521184224
 20
235.0683522494086
 30
0.0
 40
5.0
  1
125 [4.92]
 50
90.0
  0
POINT
  5
BA6
  8
DEFPOINTS
 62
     0
 10
446.6109226017614
 20
313.2408522494085
 30
0.0
  0
POINT
  5
BA7
  8
DEFPOINTS
 62
     0
 10
446.6109226017614
 20
188.2408522494086
 30
0.0
  0
POINT
  5
BA8
  8
DEFPOINTS
 62
     0
 10
434.0697521184223
 20
188.2408522494086
 30
0.0
  0
ENDBLK
  5
B9F
  8
0
  0
BLOCK
  8
0
  2
*D133
 70
     1
 10
0.0
 20
0.0
 30
0.0
  3
*D133
  1

  0
LINE
  5
BAF
  8
DIMENSIONS
  6
BYBLOCK
 62
     0
 10
445.1109226017614
 20
188.2408522494086
 30
0.0
 11
433.8897521184223
 21
188.2408522494086
 31
0.0
  0
LINE
  5
BB0
  8
DIMENSIONS
  6
BYBLOCK
 62
     0
 10
445.1109226017614
 20
-13.75914775059135
 30
0.0
 11
433.8897521184223
 21
-13.75914775059135
 31
0.0
  0
LINE
  5
BB1
  8
DIMENSIONS
  6
BYBLOCK
 62
     0
 10
434.0697521184223
 20
183.2408522494086
 30
0.0
 11
434.0697521184223
 21
-8.759147750591353
 31
0.0
  0
SOLID
  5
BB2
  8
DIMENSIONS
 62
     0
 10
434.9030854517557
 20
183.2408522494086
 30
0.0
 11
433.236418785089
 21
183.2408522494086
 31
0.0
 12
434.0697521184223
 22
188.2408522494086
 32
0.0
 13
434.0697521184223
 23
188.2408522494086
 33
0.0
  0
SOLID
  5
BB3
  8
DIMENSIONS
 62
     0
 10
433.236418785089
 20
-8.759147750591353
 30
0.0
 11
434.9030854517557
 21
-8.759147750591353
 31
0.0
 12
434.0697521184223
 22
-13.75914775059135
 32
0.0
 13
434.0697521184223
 23
-13.75914775059135
 33
0.0
  0
TEXT
  5
BB4
  8
DIMENSIONS
  6
CONTINUOUS
 62
     5
 10
431.6747521184223
 20
71.84585224940867
 30
0.0
 40
5.0
  1
202 [7.95]
 50
90.0
  0
POINT
  5
BB5
  8
DEFPOINTS
 62
     0
 10
446.6109226017614
 20
188.2408522494086
 30
0.0
  0
POINT
  5
BB6
  8
DEFPOINTS
 62
     0
 10
446.6109226017614
 20
-13.75914775059135
 30
0.0
  0
POINT
  5
BB7
  8
DEFPOINTS
 62
     0
 10
434.0697521184223
 20
-13.75914775059135
 30
0.0
  0
ENDBLK
  5
BAE
  8
0
  0
BLOCK
  8
0
  2
*D134
 70
     1
 10
0.0
 20
0.0
 30
0.0
  3
*D134
  1

  0
LINE
  5
BBE
  8
DIMENSIONS
  6
BYBLOCK
 62
     0
 10
628.1109309926345
 20
-0.7710911492718442
 30
0.0
 11
583.0017761899004
 21
-0.8344743436001022
 31
0.0
  0
TEXT
  5
BBF
  8
DIMENSIONS
  6
CONTINUOUS
 62
     5
 10
583.7182978424694
 20
1.641534889298613
 30
0.0
 40
5.0
  1
Ø7 [Ø0.28]
 50
0.0805066544245891
  0
SOLID
  5
BC0
  8
DIMENSIONS
 62
     0
 10
628.1121019140737
 20
-1.604423659970561
 30
0.0
 11
628.1097600711953
 21
0.062241361426873
 31
0.0
 12
633.1109260568268
 22
-0.7640656206362506
 32
0.0
 13
633.1109260568268
 23
-0.7640656206362506
 33
0.0
  0
LINE
  5
BC1
  8
DIMENSIONS
  6
BYBLOCK
 62
     0
 10
634.1109226017613
 20
-0.7591477505913351
 30
0.0
 11
639.1109226017613
 21
-0.7591477505913351
 31
0.0
  0
LINE
  5
BC2
  8
DIMENSIONS
  6
BYBLOCK
 62
     0
 10
636.6109226017613
 20
-3.259147750591335
 30
0.0
 11
636.6109226017613
 21
1.740852249408665
 31
0.0
  0
POINT
  5
BC3
  8
DEFPOINTS
 62
     0
 10
633.1109260568268
 20
-0.7640656206362506
 30
0.0
  0
POINT
  5
BC4
  8
DEFPOINTS
 62
     0
 10
640.110919146696
 20
-0.7542298805464196
 30
0.0
  0
ENDBLK
  5
BBD
  8
0
  0
BLOCK
  8
0
  2
*D135
 70
     1
 10
0.0
 20
0.0
 30
0.0
  3
*D135
  1

  0
LINE
  5
BD5
  8
DIMENSIONS
  6
BYBLOCK
 62
     0
 10
445.1109226017614
 20
313.2408522494085
 30
0.0
 11
433.9094483903211
 21
313.2408522494085
 31
0.0
  0
LINE
  5
BD6
  8
DIMENSIONS
  6
BYBLOCK
 62
     0
 10
445.1109226017614
 20
326.2408522494085
 30
0.0
 11
433.9094483903211
 21
326.2408522494085
 31
0.0
  0
LINE
  5
BD7
  8
DIMENSIONS
  6
BYBLOCK
 62
     0
 10
434.0894483903211
 20
326.2408522494085
 30
0.0
 11
434.0894483903211
 21
359.1858522494086
 31
0.0
  0
LINE
  5
BD8
  8
DIMENSIONS
  6
BYBLOCK
 62
     0
 10
434.0894483903211
 20
318.2408522494085
 30
0.0
 11
434.0894483903211
 21
321.2408522494085
 31
0.0
  0
SOLID
  5
BD9
  8
DIMENSIONS
 62
     0
 10
433.2561150569878
 20
318.2408522494085
 30
0.0
 11
434.9227817236544
 21
318.2408522494085
 31
0.0
 12
434.0894483903211
 22
313.2408522494085
 32
0.0
 13
434.0894483903211
 23
313.2408522494085
 33
0.0
  0
SOLID
  5
BDA
  8
DIMENSIONS
 62
     0
 10
434.9227817236544
 20
321.2408522494085
 30
0.0
 11
433.2561150569878
 21
321.2408522494085
 31
0.0
 12
434.0894483903211
 22
326.2408522494085
 32
0.0
 13
434.0894483903211
 23
326.2408522494085
 33
0.0
  0
TEXT
  5
BDB
  8
DIMENSIONS
  6
CONTINUOUS
 62
     5
 10
431.6944483903211
 20
331.4808522494085
 30
0.0
 40
5.0
  1
13 [0.51]
 50
90.0
  0
POINT
  5
BDC
  8
DEFPOINTS
 62
     0
 10
446.6109226017614
 20
313.2408522494085
 30
0.0
  0
POINT
  5
BDD
  8
DEFPOINTS
 62
     0
 10
446.6109226017614
 20
326.2408522494085
 30
0.0
  0
POINT
  5
BDE
  8
DEFPOINTS
 62
     0
 10
434.0894483903211
 20
326.2408522494085
 30
0.0
  0
ENDBLK
  5
BD4
  8
0
  0
BLOCK
  8
0
  2
*D137
 70
     1
 10
0.0
 20
0.0
 30
0.0
  3
*D137
  1

  0
LINE
  5
C23
  8
DIMENSIONS
  6
BYBLOCK
 62
     0
 10
130.3274911226833
 20
334.3022438951317
 30
0.0
 11
130.3274911226833
 21
351.0732042014709
 31
0.0
  0
LINE
  5
C24
  8
DIMENSIONS
  6
BYBLOCK
 62
     0
 10
631.3274911226831
 20
334.3022438951317
 30
0.0
 11
631.3274911226831
 21
351.0732042014709
 31
0.0
  0
LINE
  5
C25
  8
DIMENSIONS
  6
BYBLOCK
 62
     0
 10
135.3274911226833
 20
350.8932042014709
 30
0.0
 11
626.3274911226831
 21
350.8932042014709
 31
0.0
  0
SOLID
  5
C26
  8
DIMENSIONS
 62
     0
 10
135.3274911226833
 20
351.7265375348042
 30
0.0
 11
135.3274911226833
 21
350.0598708681376
 31
0.0
 12
130.3274911226833
 22
350.8932042014709
 32
0.0
 13
130.3274911226833
 23
350.8932042014709
 33
0.0
  0
SOLID
  5
C27
  8
DIMENSIONS
 62
     0
 10
626.3274911226831
 20
350.0598708681376
 30
0.0
 11
626.3274911226831
 21
351.7265375348042
 31
0.0
 12
631.3274911226831
 22
350.8932042014709
 32
0.0
 13
631.3274911226831
 23
350.8932042014709
 33
0.0
  0
TEXT
  5
C28
  8
DIMENSIONS
  6
CONTINUOUS
 62
     5
 10
363.4499911226832
 20
353.2882042014709
 30
0.0
 40
5.0
  1
501 [19.72]
  0
POINT
  5
C29
  8
DEFPOINTS
 62
     0
 10
130.3274911226833
 20
332.8022438951317
 30
0.0
  0
POINT
  5
C2A
  8
DEFPOINTS
 62
     0
 10
631.3274911226831
 20
332.8022438951317
 30
0.0
  0
POINT
  5
C2B
  8
DEFPOINTS
 62
     0
 10
631.3274911226831
 20
350.8932042014709
 30
0.0
  0
ENDBLK
  5
C22
  8
0
  0
BLOCK
  8
0
  2
*D138
 70
     1
 10
0.0
 20
0.0
 30
0.0
  3
*D138
  1

  0
LINE
  5
C32
  8
DIMENSIONS
  6
BYBLOCK
 62
     0
 10
128.8274911226833
 20
332.8022438951317
 30
0.0
 11
111.3730070358954
 21
332.8022438951317
 31
0.0
  0
LINE
  5
C33
  8
DIMENSIONS
  6
BYBLOCK
 62
     0
 10
128.8274911226833
 20
11.80224389513168
 30
0.0
 11
111.3730070358953
 21
11.80224389513168
 31
0.0
  0
LINE
  5
C34
  8
DIMENSIONS
  6
BYBLOCK
 62
     0
 10
111.5530070358954
 20
327.8022438951317
 30
0.0
 11
111.5530070358953
 21
16.80224389513168
 31
0.0
  0
SOLID
  5
C35
  8
DIMENSIONS
 62
     0
 10
112.3863403692287
 20
327.8022438951317
 30
0.0
 11
110.719673702562
 21
327.8022438951317
 31
0.0
 12
111.5530070358954
 22
332.8022438951317
 32
0.0
 13
111.5530070358954
 23
332.8022438951317
 33
0.0
  0
SOLID
  5
C36
  8
DIMENSIONS
 62
     0
 10
110.719673702562
 20
16.80224389513168
 30
0.0
 11
112.3863403692287
 21
16.80224389513168
 31
0.0
 12
111.5530070358953
 22
11.80224389513168
 32
0.0
 13
111.5530070358953
 23
11.80224389513168
 33
0.0
  0
TEXT
  5
C37
  8
DIMENSIONS
  6
CONTINUOUS
 62
     5
 10
109.1580070358954
 20
154.9222438951317
 30
0.0
 40
5.0
  1
321 [12.64]
 50
90.0
  0
POINT
  5
C38
  8
DEFPOINTS
 62
     0
 10
130.3274911226833
 20
332.8022438951317
 30
0.0
  0
POINT
  5
C39
  8
DEFPOINTS
 62
     0
 10
130.3274911226833
 20
11.80224389513168
 30
0.0
  0
POINT
  5
C3A
  8
DEFPOINTS
 62
     0
 10
111.5530070358953
 20
11.80224389513168
 30
0.0
  0
ENDBLK
  5
C31
  8
0
  0
ENDSEC
  0
SECTION
  2
ENTITIES
  0
TEXT
  5
698
  8
DIMENSIONS
  6
BYBLOCK
 10
151.5598969072619
 20
-31.00686072507229
 30
0.0
 40
5.0
  1
Note:
  0
TEXT
  5
699
  8
DIMENSIONS
  6
BYBLOCK
 10
151.6938229475474
 20
-41.53582857306534
 30
0.0
 40
5.0
  1
Primary dimensions in millimeters.
  0
TEXT
  5
69A
  8
DIMENSIONS
  6
BYBLOCK
 10
151.9152368839374
 20
-52.10785418184942
 30
0.0
 40
5.0
  1
Secondary dimensions in inches.
  0
LINE
  5
C18
  8
0
 10
130.3274911226833
 20
332.8022438951317
 30
0.0
 11
631.3274911226831
 21
332.8022438951317
 31
0.0
  0
LINE
  5
C19
  8
0
 10
631.3274911226831
 20
332.8022438951317
 30
0.0
 11
631.3274911226831
 21
11.80224389513168
 31
0.0
  0
LINE
  5
C1A
  8
0
 10
631.3274911226831
 20
11.80224389513168
 30
0.0
 11
130.3274911226833
 21
11.80224389513168
 31
0.0
  0
LINE
  5
C1B
  8
0
 10
130.3274911226833
 20
11.80224389513168
 30
0.0
 11
130.3274911226833
 21
332.8022438951317
 31
0.0
  0
DIMENSION
  5
C1D
  8
DIMENSIONS
  6
BYBLOCK
  2
*D137
 10
631.3274911226831
 20
350.8932042014709
 30
0.0
 11
380.8274911226832
 21
355.0957042014709
 31
0.0
 70
    32
  3
DUAL-DIM
 13
130.3274911226833
 23
332.8022438951317
 33
0.0
 14
631.3274911226831
 24
332.8022438951317
 34
0.0
1001
ACAD
1000
DSTYLE
1002
{
1070
   287
1070
     5
1070
   279
1070
     2
1002
}
  0
DIMENSION
  5
C2C
  8
DIMENSIONS
  6
BYBLOCK
  2
*D138
 10
111.5530070358953
 20
11.80224389513168
 30
0.0
 11
107.3505070358954
 21
172.3022438951317
 31
0.0
 70
    32
  3
DUAL-DIM
 13
130.3274911226833
 23
332.8022438951317
 33
0.0
 14
130.3274911226833
 24
11.80224389513168
 34
0.0
 50
90.0
1001
ACAD
1000
DSTYLE
1002
{
1070
   287
1070
     5
1070
   279
1070
     2
1002
}
  0
POLYLINE
  5
C3B
  8
0
  6
BYBLOCK
 66
     1
 10
0.0
 20
0.0
 30
0.0
 70
     1
  0
VERTEX
  5
C3D
  8
0
  6
BYBLOCK
 10
73.47210918800033
 20
-63.15691391840397
 30
0.0
  0
VERTEX
  5
C3E
  8
0
  6
BYBLOCK
 10
73.47210918800033
 20
385.4254701565883
 30
0.0
  0
VERTEX
  5
C3F
  8
0
  6
BYBLOCK
 10
670.98384477589
 20
385.4254701565883
 30
0.0
  0
VERTEX
  5
C40
  8
0
  6
BYBLOCK
 10
670.98384477589
 20
-63.15691391840397
 30
0.0
  0
SEQEND
  5
C41
  8
0
  6
BYBLOCK
  0
ENDSEC
  0
EOF
